<?xml version="1.0" encoding="UTF-8" standalone="no"?>
<!DOCTYPE svg PUBLIC "-//W3C//DTD SVG 1.1//EN" "http://www.w3.org/Graphics/SVG/1.1/DTD/svg11.dtd">
<svg xmlns="http://www.w3.org/2000/svg">
<metadata>Generated by Fontastic.me</metadata>
<defs>
<font id="icons" horiz-adv-x="512">
<font-face font-family="icons" units-per-em="512" ascent="480" descent="-32"/>
<missing-glyph horiz-adv-x="512"/>

<glyph glyph-name="analytics" unicode="a" d="M448 378c0 2-2 2-2 4l-128 128c0 0-2 2-4 2-3 0-3 0-5 0l-234 0c-7 0-11-4-11-11l0-490c0-7 4-11 11-11l362 0c7 0 11 4 11 11l0 362c0 2 0 2 0 5z m-128 98l92-92-92 0z m-235-455l0 470 214 0 0-118c0-6 4-10 10-10l118 0 0-342z m288 86l-224 0 0 49 77 77 58-39c4-2 10-2 13 2l81 86c4 4 4 10 0 15-5 4-11 4-15 0l-75-79-55 38c-7 0-13 0-18-2l-66-68 0 155c0 7-4 11-10 11-7 0-11-4-11-11l0-245c0-6 4-11 11-11l234 0c7 0 11 5 11 11 0 6-4 11-11 11z"/>
<glyph glyph-name="hourglass" unicode="b" d="M437 0l-362 0c-7 0-11 4-11 11 0 6 4 10 11 10l32 0 0 96c0 62 38 118 94 139-56 21-94 77-94 139l0 96-32 0c-7 0-11 4-11 10 0 7 4 11 11 11l362 0c7 0 11-4 11-11 0-6-4-10-11-10l-32 0 0-96c0-62-38-118-94-139 56-21 94-77 94-139l0-96 32 0c7 0 11-4 11-10 0-7-4-11-11-11z m-309 21l256 0 0 64-64 0c-2 0-6 2-9 2l-55 58-55-55c-3-3-7-5-9-5l-64 0z m196 86l60 0 0 10c0 71-58 128-128 128-70 0-128-57-128-128l0-10 60 0 62 62c4 4 10 4 15 0z m-153 192c23-20 51-32 85-32 34 0 62 12 85 32z m-20 21l207 0c17 21 26 47 26 75l0 96-256 0 0-96c0-28 9-54 23-75z"/>
<glyph glyph-name="laptop" unicode="c" d="M448 405l-384 0 0-234 384 0z m-21-213l-342 0 0 192 342 0z m74-43l-10 0 0 256c0 24-20 43-43 43l-384 0c-23 0-43-19-43-43l0-256-10 0c-7 0-11-4-11-10l0-43c0-17 15-32 32-32l448 0c17 0 32 15 32 32l0 43c0 6-4 10-11 10z m-458 256c0 13 8 22 21 22l384 0c13 0 21-9 21-22l0-256-160 0c-6 0-10-4-10-10l0-11-86 0 0 11c0 6-4 10-10 10l-160 0z m448-309c0-6-5-11-11-11l-448 0c-6 0-11 5-11 11l0 32 171 0 0-11c0-6 4-10 11-10l106 0c7 0 11 4 11 10l0 11 171 0z"/>
<glyph glyph-name="mobile" unicode="d" d="M373 512l-234 0c-30 0-54-23-54-53l0-406c0-30 24-53 54-53l234 0c30 0 54 23 54 53l0 406c0 30-24 53-54 53z m-266-107l298 0 0-298-298 0z m32 86l234 0c17 0 32-15 32-32l0-32-298 0 0 32c0 17 15 32 32 32z m234-470l-234 0c-17 0-32 15-32 32l0 32 298 0 0-32c0-17-15-32-32-32z m-96 32c0-11-9-21-21-21-12 0-21 10-21 21 0 12 9 22 21 22 12 0 21-10 21-22z m-74 395l106 0c7 0 11 4 11 11 0 6-4 10-11 10l-106 0c-7 0-11-4-11-10 0-7 4-11 11-11z"/>
<glyph glyph-name="tasks" unicode="e" d="M448 378c0 2-2 2-2 4l-128 128c0 0-2 2-4 2-3 0-3 0-5 0l-234 0c-7 0-11-4-11-11l0-490c0-7 4-11 11-11l362 0c7 0 11 4 11 11l0 362c0 2 0 2 0 5z m-128 98l92-92-92 0z m-235-455l0 470 214 0 0-118c0-6 4-10 10-10l118 0 0-342z m267 278l-85 0c-7 0-11-5-11-11 0-6 4-11 11-11l85 0c6 0 11 5 11 11 0 6-5 11-11 11z m0-86l-85 0c-7 0-11-4-11-10 0-7 4-11 11-11l85 0c6 0 11 4 11 11 0 6-5 10-11 10z m0-85l-85 0c-7 0-11-4-11-11 0-6 4-10 11-10l85 0c6 0 11 4 11 10 0 7-5 11-11 11z m-137 222l-44-47-24 26c-4 4-10 4-15 0-4-5-4-13-2-18l32-32c2-2 7-2 9-2 2 0 6 0 8 2l54 54c2 4 2 13 0 17-3 4-13 2-18 0z m0-96l-44-47-24 23c-4 5-10 5-15 0-4-4-4-10 0-15l32-32c2-2 5-2 9-2 4 0 6 0 8 2l54 54c4 4 4 10 0 15-5 4-15 4-20 2z m0-96l-44-47-24 23c-4 5-10 5-15 0-4-4-4-10 0-15l32-32c0-2 5-2 7-2 2 0 6 0 8 2l54 54c4 4 4 10 0 15-5 4-13 4-18 2z"/>
<glyph glyph-name="binoculars" unicode="f" d="M487 208l-63 149c0 2-2 2-2 4l-30 30-30 78c0 3-2 3-2 5-21 21-59 21-79 0-2-2-4-5-4-7l0-83c0-6 4-10 11-10 6 0 10 4 10 8l0 79c13 8 32 8 45 0l32-81c0-2 2-2 2-4l30-30 44-104c-17 9-36 15-57 15-40 0-74-19-96-49l0 115c20-6 32-17 32-26 0-6 5-10 11-10 6 0 11 4 11 10 0 30-41 54-96 54-55 0-96-22-96-54 0-6 5-10 11-10 6 0 11 4 11 10 0 9 12 20 32 26l0-119c-22 30-56 49-96 49-21 0-40-7-57-15l44 104 30 30c2 2 2 2 2 4l32 83c13 13 32 13 45 4l0-81c0-6 4-10 10-10 7 0 11 6 11 10l0 85c0 2-2 7-2 9-22 21-60 21-79 0-2-2-2-2-4-4l-30-83-32-30c0 0-2-2-2-4l-64-149c-14-19-23-42-23-68 0-64 53-117 117-117 64 0 117 53 117 117l0 191c6 0 12 2 21 2 8 0 15 0 21-2l0-189c0-63 53-117 117-117 64 0 117 54 117 117 2 24-7 47-22 68z m-369-165c-53 0-96 44-96 95 0 51 43 96 96 96 53 0 96-43 96-96 0-53-43-95-96-95z m276 0c-53 0-96 42-96 95 0 53 43 96 96 96 53 0 96-43 96-96 0-53-43-95-96-95z m-276 169c-40 0-74-34-74-74 0-6 4-10 10-10 7 0 11 6 11 10 0 30 23 53 53 53 6 0 11 4 11 11 0 6-5 10-11 10z m276 0c-40 0-74-34-74-74 0-6 4-10 10-10 7 0 11 4 11 10 0 30 23 53 53 53 6 0 11 4 11 11 0 6-5 10-11 10z"/>
<glyph glyph-name="collaborate" unicode="g" d="M128 277l107 0 0 22c0 17-13 32-28 38l-47 13 0 15c19 15 32 40 32 66 0 45-34 81-75 81-40 0-74-36-74-81 0-26 12-51 32-66l0-17-47-11c-15-6-28-21-28-38l0-22z m-11 214c24 0 45-17 52-43-5 0-9 0-13 0-5 0-13 4-19 13 0 2-5 4-7 4-4 0-6 0-8-2-17-15-41-17-54-11 7 22 26 39 49 39z m-53-62c19-4 43-2 62 10 6-6 17-10 28-12 2 0 4 0 8 0 2 0 4 0 9 0-2-30-26-54-54-54-30 0-53 26-53 56z m-43-130c0 6 7 15 13 17l62 17 0 21c6-2 15-4 21-4 7 0 15 2 22 4l0-21 62-17c6-2 12-11 12-17z m463 38l-47 13 0 15c20 15 32 40 32 66 0 45-34 81-74 81-41 0-75-36-75-81 0-28 13-51 32-66l0-17-47-13c-15-4-28-19-28-36l0-22 235 0 0 22c0 17-13 32-28 38z m-89 154c23 0 44-17 51-43-4 0-9-2-13 0-4 0-13 4-19 13-2 2-4 4-9 6-4 0-6 0-8-2-15-15-39-17-54-11 9 20 28 37 52 37z m-54-62c20-7 43-4 62 10 7-6 17-10 26-12 2 0 4 0 8 0 5 0 7 0 11 0-2-30-26-56-53-56-30 2-54 28-54 58z m64-130l-106 0c0 6 6 15 12 17l62 17 0 21c7-2 15-4 22-4 6 0 15 2 21 4l0-21 62-17c6-2 13-11 13-17z m-59-239l-47 13 0 17c19 15 32 38 32 66 0 45-34 81-75 81-41 0-75-36-75-81 0-28 13-51 32-66l0-17-47-13c-15-5-27-22-27-39l0-21 234 0 0 21c0 17-12 32-27 39z m-90 153c23 0 43-17 51-40-4-2-8-2-13-2-4 0-12 2-17 12-2 3-4 5-8 7-4 0-7 0-9-2-15-15-38-17-53-11 6 19 26 36 49 36z m-53-62c19-6 42-4 62 11 6-6 14-11 25-13 2 0 4 0 7 0 4 0 6 0 10 2-2-29-25-55-53-55-28 0-51 26-51 55z m64-130l-107 0c0 7 6 15 13 17l62 17 0 22c6-2 15-4 21-4 6 0 15 2 21 4l0-22 62-17c7-2 13-10 13-17z m-120 162c4 5 4 11 0 15l-53 54c-4 4-11 4-15 0-4-5-4-11 0-15l53-54c2-2 5-2 9-2 4 0 4 0 6 2z m271 71l-53-53c-4-5-4-11 0-15 2-3 4-3 8-3 5 0 7 0 9 3l53 53c4 4 4 11 0 15-4 4-13 2-17 0z"/>
<glyph glyph-name="ebook" unicode="h" d="M505 17l-62 83 0 94c0 39-30 73-75 111l0 164c0 24-19 43-43 43l-277 0c-23 0-43-19-43-43l0-384c0-23 20-42 43-42l307 0c11-17 24-32 28-39 2-2 4-4 8-4 3 0 5 0 7 2 4 4 4 11 2 15-19 24-41 58-41 68l0 26-51 72c-2 3-4 13 0 18 5 4 13 4 17 0l26-26c0 0 2-2 2-2l19-19c5-5 11-5 15 0 4 4 4 10 0 15l-19 17 0 89c30-28 53-55 53-81l0-100 66-88c3-2 5-4 9-4 2 0 4 0 6 2 5 2 7 9 3 13z m-201 132l-235 0 0 299 235 0 0-224c-4-2-9-4-13-9-6-6-8-14-8-25 0-9 4-17 6-19z m34 66c-4 5-8 7-13 9l0 245-277 0 0-341 271 0 17-26 0-17c0-6 2-15 6-21l-294 0c-13 0-21 11-21 21l0 384c0 13 8 22 21 22l277 0c13 0 22-9 22-22l0-262z m-205-108l84 0 0-22-84 0z m-21-11c0-6-5-11-11-11-6 0-10 5-10 11 0 6 4 11 10 11 6 0 11-5 11-11z m149 0c0-6-4-11-10-11-6 0-11 5-11 11 0 6 5 11 11 11 6 0 10-5 10-11z m-149 139l149 0 0-22-149 0z m0 42l149 0 0-21-149 0z m0 43l149 0 0-21-149 0z m0 43l149 0 0-22-149 0z m0 42l85 0 0-21-85 0z"/>
<glyph glyph-name="hand" unicode="i" d="M411 398c-9 0-16-2-23-7l0 30c0 25-20 45-46 45-9 0-15-2-22-6l0 6c0 26-21 46-46 46-25 0-45-20-45-46l0-6c-5 4-14 6-23 6-25 0-46-20-46-45l0-198-41 48c-15 16-38 13-52 0-14-14-16-34-4-48 2-5 50-102 88-164 23-36 64-59 105-59l75 0c68 0 125 57 125 125l0 228c0 25-20 45-45 45z m22-182l0-91c0-57-45-102-102-102l-75 0c-34 0-68 18-86 48-39 61-87 161-89 163-5 7-5 16 2 21 7 7 16 7 21 2l79-93 0 257c0 14 9 23 23 23 14 0 23-9 23-23l0-137 22 0 0 182c0 14 10 23 23 23 14 0 23-9 23-23l0-182 23 0 0 137c0 14 9 23 22 23 14 0 23-9 23-23l0-171 23 0 0 103c0 13 9 22 23 22 13 0 22-9 22-22z"/>
<glyph glyph-name="levels" unicode="j" d="M141 38l-128 0c-8 0-13-5-13-12 0-8 5-13 13-13l128 0c7 0 13 5 13 13 0 7-6 12-13 12z m0 52l-128 0c-8 0-13-6-13-13 0-8 5-13 13-13l128 0c7 0 13 5 13 13 0 7-6 13-13 13z m0 51l-128 0c-8 0-13-5-13-13 0-8 5-13 13-13l128 0c7 0 13 5 13 13 0 8-6 13-13 13z m0 51l-128 0c-8 0-13-5-13-13 0-7 5-13 13-13l128 0c7 0 13 6 13 13 0 8-6 13-13 13z m0 51l-128 0c-8 0-13-5-13-13 0-7 5-12 13-12l128 0c7 0 13 5 13 12 0 8-6 13-13 13z m179-205l-128 0c-8 0-13-5-13-12 0-8 5-13 13-13l128 0c8 0 13 5 13 13 0 7-5 12-13 12z m0 52l-128 0c-8 0-13-6-13-13 0-8 5-13 13-13l128 0c8 0 13 5 13 13 0 7-5 13-13 13z m0 51l-128 0c-8 0-13-5-13-13 0-8 5-13 13-13l128 0c8 0 13 5 13 13 0 8-5 13-13 13z m0 51l-128 0c-8 0-13-5-13-13 0-7 5-13 13-13l128 0c8 0 13 6 13 13 0 8-5 13-13 13z m0 51l-128 0c-8 0-13-5-13-13 0-7 5-12 13-12l128 0c8 0 13 5 13 12 0 8-5 13-13 13z m0 51l-128 0c-8 0-13-5-13-12 0-8 5-13 13-13l128 0c8 0 13 5 13 13 0 7-5 12-13 12z m0 52l-128 0c-8 0-13-6-13-13 0-8 5-13 13-13l128 0c8 0 13 5 13 13 0 7-5 13-13 13z m0 51l-128 0c-8 0-13-5-13-13 0-8 5-13 13-13l128 0c8 0 13 5 13 13 0 8-5 13-13 13z m0 51l-128 0c-8 0-13-5-13-13 0-7 5-13 13-13l128 0c8 0 13 6 13 13 0 8-5 13-13 13z m0 51l-128 0c-8 0-13-5-13-13 0-7 5-12 13-12l128 0c8 0 13 5 13 12 0 8-5 13-13 13z m179-461l-128 0c-7 0-13-5-13-12 0-8 6-13 13-13l128 0c8 0 13 5 13 13 0 7-5 12-13 12z m0 52l-128 0c-7 0-13-6-13-13 0-8 6-13 13-13l128 0c8 0 13 5 13 13 0 7-5 13-13 13z m-128 25l128 0c8 0 13 5 13 13 0 8-5 13-13 13l-128 0c-7 0-13-5-13-13 0-8 6-13 13-13z"/>
<glyph glyph-name="poison" unicode="k" d="M489 60l-169 211 0 92 21 0c7 0 11 4 11 10 0 7-4 11-11 11l-170 0c-7 0-11-4-11-11 0-6 4-10 11-10l21 0 0-92-169-211c-2-2-2-5-2-7 0-30 24-53 54-53l362 0c30 0 54 23 54 53 0 2 0 5-2 7z m-278 200c2 2 2 5 2 7l0 96 86 0 0-96c0-2 0-5 2-7l55-68-200 0z m226-239l-362 0c-17 0-30 13-32 28l96 122 232 0 96-122c0-15-13-28-30-28z m-170 384c30 0 53 24 53 54 0 30-23 53-53 53-30 0-54-23-54-53 0-30 24-54 54-54z m0 86c17 0 32-15 32-32 0-17-15-32-32-32-17 0-32 15-32 32 0 17 15 32 32 32z m138-64c0-12-9-22-21-22-12 0-21 10-21 22 0 11 9 21 21 21 12 0 21-10 21-21z m-277-22c17 0 32 15 32 32 0 17-15 32-32 32-17 0-32-15-32-32 0-17 15-32 32-32z m0 43c6 0 11-4 11-11 0-6-5-10-11-10-6 0-11 4-11 10 0 7 5 11 11 11z"/>
<glyph glyph-name="video" unicode="l" d="M0 62c0-21 19-41 41-41l428 0c24 0 41 20 41 41l0 279-510 0z m21 258l470 0 0-258c0-11-9-19-20-19l-430 0c-11 0-20 8-20 19z m160-235c2 0 5 0 5 2l170 86c5 2 7 6 7 8 0 2-2 9-7 9l-170 85c-5 2-7 2-11 0-2-2-4-4-4-8l0-171c0-4 2-6 4-9 2-2 4-2 6-2z m11 165l137-69-137-68z m288 241l-448 0c-17 0-32-15-32-32l0-96 512 0 0 96c0 17-15 32-32 32z m11-28l-79-79-56 0 86 85 38 0c4 0 9-2 11-6z m-305 6l55 0-85-85-56 0z m-116-85l-44 0 76 77-6 8 60 0z m201 85l55 0-85-85-55 0z m85 0l56 0-86-85-55 0z m-324 0l49 0-60-59 0 49c0 6 5 10 11 10z m410-85l49 49 0-49z"/>
<glyph glyph-name="design" unicode="m" d="M384 256l-11 0 0 32c0 6-4 11-10 11l-7 0 28 72c21 4 36 24 41 49 4 34-13 79-62 90-5 2-9 0-11-4-2-5-2-9 0-13 11-17 4-28-9-43-4-6-8-11-10-17-4-13-4-23 0-34 2-4 4-11 8-13l-49-87-4 0 0 202c0 7-4 11-11 11l-85 0c-6 0-11-4-11-11l0-202-4 0-51 89c0 0-2 2-2 2l-54 35c-4 2-8 2-12 0-3-3-5-7-5-11l11-64c0 0 0 0 0-2l26-49-5 0c-6 0-10-5-10-11l0-235c0-30 23-53 53-53l192 0c30 0 53 23 53 53l0 54 11 0c41 0 75 34 75 74 0 41-34 75-75 75z m-32 171c2 4 4 8 9 12 8 11 19 24 17 43 19-13 27-36 25-57-2-15-8-32-25-32-5 0-9 0-13 2-7 2-11 6-15 12-2 5 0 11 2 20z m6-54c3 0 3 0 5 0l-28-74-17 0z m-155 118l64 0 0-22-32 0c-7 0-11-4-11-10 0-7 4-11 11-11l32 0 0-21-11 0c-6 0-11-5-11-11 0-6 5-11 11-11l11 0 0-21-32 0c-7 0-11-4-11-11 0-6 4-10 11-10l32 0 0-22-11 0c-6 0-11-4-11-10 0-7 5-11 11-11l11 0 0-21-64 0z m-105-107l-15-13-4 24z m-11-34l26 19 41-70-41 0z m265-297c0-17-15-32-32-32l-192 0c-17 0-32 15-32 32l0 224 256 0z m32 75l-11 0 0 107 11 0c30 0 53-24 53-54 0-30-23-53-53-53z"/>
<glyph glyph-name="graph-up" unicode="n" d="M501 27l-10 0 0 309c0 6-5 11-11 11l-64 0c-6 0-11-5-11-11l0-309-42 0 0 224c0 6-5 10-11 10l-64 0c-6 0-11-4-11-10l0-224-42 0 0 138c0 7-5 11-11 11l-64 0c-6 0-11-4-11-11l0-138-42 0 0 53c0 6-5 11-11 11l-64 0c-6 0-11-5-11-11l0-53-10 0c-7 0-11-5-11-11 0-6 4-11 11-11l490 0c7 0 11 5 11 11 0 6-4 11-11 11z m-458 0l0 42 42 0 0-42z m128 0l0 128 42 0 0-128z m128 0l0 213 42 0 0-213z m128 0l0 298 42 0 0-298z m-363 192c2 0 4 0 6 2l365 243-8-62c0-6 4-11 8-13 0 0 0 0 2 0 5 0 11 5 11 9l11 85c0 0 0 0 0 2 0 0 0 2 0 2 0 0 0 3 0 3 0 0 0 0 0 2 0 0 0 0-2 2 0 0 0 0-3 2 0 0-2 0-2 0 0 0-2 0-2 0l-85 11c-7 0-11-5-13-9 0-6 4-11 9-13l57-6-360-241c-5-4-7-11-3-15 3-2 5-4 9-4z"/>
<glyph glyph-name="wrench" unicode="o" d="M495 430c-2 2-5 4-9 6-4 0-6 0-9-2l-69-69-43 0 0 45 67 70c2 2 4 6 2 8 0 5-2 7-6 9-18 9-41 15-67 15-41 0-80-15-108-43-46-46-56-113-33-169l-207-207c-7-11-13-24-13-39 0-15 6-28 15-39 11-11 24-15 39-15 15 0 28 6 39 15l207 208c20-9 41-13 63-13 41 0 78 15 106 43 45 47 56 119 26 177z m-43-160c-24-24-57-39-91-39-20 0-41 4-59 15-4 2-8 2-13-2l-211-212c-13-13-35-13-46 0-6 5-10 13-10 22 0 9 4 17 8 24l212 211c4 5 4 9 2 13-26 50-15 111 24 152 26 23 58 36 93 36 15 0 30-2 45-8l-58-61c-2-2-2-4-2-6l0-61c0-6 4-11 10-11l59 0c2 0 6 3 8 3l61 60c15-47 4-101-32-136z"/>
<glyph glyph-name="reports" unicode="p" d="M448 378c0 2-2 2-2 4l-128 128c0 0-2 2-4 2-3 0-3 0-5 0l-234 0c-7 0-11-4-11-11l0-490c0-7 4-11 11-11l362 0c7 0 11 4 11 11l0 362c0 2 0 2 0 5z m-128 98l92-92-92 0z m-235-455l0 470 214 0 0-118c0-6 4-10 10-10l118 0 0-342z m267 278l-64 0c-6 0-11-5-11-11l0-117-42 0 0 32c0 6-5 10-11 10l-53 0 0 128c0 7-5 11-11 11-6 0-11-4-11-11l0-245c0-6 5-11 11-11l192 0c6 0 11 5 11 11l0 192c0 6-5 11-11 11z m-53-22l42 0 0-170-42 0z m-22-128l0-42-42 0 0 42z m-106 43l42 0 0-85-42 0z"/>
<glyph glyph-name="film" unicode="q" d="M437 107l-373 0c-23 0-43 19-43 42 0 24 20 43 43 43l149 0c32-26 73-43 118-43 100 0 181 81 181 182 0 100-81 181-181 181-101 0-182-81-182-181 0-45 17-86 43-118l-128 0c-36 0-64-27-64-64 0-36 28-64 64-64l373 0c17 0 32-15 32-32 0-17-15-32-32-32l-213 0c-6 0-11-4-11-10 0-7 5-11 11-11l213 0c30 0 54 23 54 53 0 30-24 54-54 54z m-266 224c0 87 72 160 160 160 87 0 160-73 160-160 0-88-73-160-160-160-88 0-160 72-160 160z m160-43c23 0 42 19 42 43 0 23-19 42-42 42-24 0-43-19-43-42 0-24 19-43 43-43z m0 64c12 0 21-9 21-21 0-13-9-22-21-22-13 0-22 9-22 22 0 12 9 21 22 21z m-58 92l19-47c2-7 9-9 15-7 15 7 32 7 47 0 2 0 2-2 4-2 0 0 3 0 3 0 4 0 8 2 10 7l22 49c2 2 2 6 0 8-3 2-5 5-7 7-36 12-72 12-102 2-5-2-9-7-9-11-4-4-4-6-2-6z m92-2l-13-28c-9 2-15 2-23 2-9 0-15 0-22-2l-13 30c24 4 47 4 71-2z m-96-150c2 0 4 2 6 7 2 4 2 6 0 8-4 13-8 30 2 47 0 2 0 7 0 9 0 2-4 6-6 6l-53 21c-3 0-7 0-9 0-2-2-4-4-6-6-9-26-17-64 0-105 2-4 6-8 10-8 2 0 2 0 5 2z m-49 73l32-13c-5-15-7-30-2-45l-32-13c-7 28-3 52 2 71z m149-96c0 2-2 4-6 6-2 2-7 2-9 0-17-6-34-6-47 2-2 0-6 0-8 0-2 0-7-4-7-6l-21-53c0-3 0-7 0-9 0-2 4-4 6-6 20-7 39-11 56-11 17 0 34 2 49 9 4 2 8 6 8 10 0 2 0 2-2 4z m-72-49l12 32c13-5 30-7 45-2l13-32c-24-5-47-5-70 2z m91 143c-2-2-2-7 0-9 5-13 9-30-2-47-2-2-2-6-2-8 0-2 4-7 6-7l54-21c2 0 2 0 4 0 2 0 2 0 4 0 2 2 5 4 7 6 8 26 17 64 0 105-2 4-7 8-11 8-2 0-2 0-4-2l-51-19c-3 0-5-2-5-6z m22-9l32 13c8-26 4-51 0-70l-32 12c4 13 4 28 0 45z"/>
<glyph glyph-name="mobile-speak" unicode="r" d="M245 213c-6 0-10-4-10-10l0-96-214 0 0 213 96 0c7 0 11 4 11 11 0 6-4 10-11 10l-96 0 0 32c0 17 15 32 32 32l64 0c7 0 11 5 11 11 0 6-4 11-11 11l-64 0c-30 0-53-24-53-54l0-320c0-30 23-53 53-53l150 0c30 0 53 23 53 53l0 150c0 6-4 10-11 10z m-42-192l-150 0c-17 0-32 15-32 32l0 32 214 0 0-32c0-17-15-32-32-32z m-54 32c0-11-9-21-21-21-12 0-21 10-21 21 0 12 9 22 21 22 12 0 21-10 21-22z m-32 331l-21 0c-6 0-11-4-11-11 0-6 5-10 11-10l21 0c7 0 11 4 11 10 0 7-4 11-11 11z m352 128l-256 0c-23 0-42-19-42-43l0-128c0-23 19-42 42-42l64 0 0-54c0-4 2-8 7-10 2 0 2 0 4 0 2 0 6 2 9 2l61 62 111 0c24 0 43 19 43 42l0 128c0 24-19 43-43 43z m22-171c0-12-9-21-22-21l-117 0c-2 0-6-2-9-2l-44-47 0 38c0 7-5 11-11 11l-75 0c-12 0-21 9-21 21l0 128c0 13 9 22 21 22l256 0c13 0 22-9 22-22z m-128 75c0-6-5-11-11-11-6 0-11 5-11 11 0 6 5 11 11 11 6 0 11-5 11-11z m64 0c0-6-5-11-11-11-6 0-11 5-11 11 0 6 5 11 11 11 6 0 11-5 11-11z m-128 0c0-6-5-11-11-11-6 0-11 5-11 11 0 6 5 11 11 11 6 0 11-5 11-11z"/>
<glyph glyph-name="brush" unicode="s" d="M469 256c0 23-19 43-42 43l-107 0c-4 0-6 2-9 4-2 2-2 6 0 11 5 17 9 34 9 53l0 81c0 36-28 64-64 64-36 0-64-28-64-64l0-81c0-19 4-36 11-53 2-5 0-7-2-11-3-4-5-4-9-4l-107 0c-23 0-42-20-42-43l0-85 21 0 0-160c0-7 4-11 11-11l53 0c4 0 9 2 9 6l23 45 0-40c0-7 4-11 11-11l266 0c7 0 11 4 11 11l0 160 21 0z m-42-235l-22 0 0 96c0 7-4 11-10 11-7 0-11-4-11-11l0-96-21 0 0 75c0 6-5 11-11 11-6 0-11-5-11-11l0-75-21 0 0 43c0 6-4 11-11 11-6 0-10-5-10-11l0-43-118 0 0 75c0 4-4 9-8 11-4 2-11-2-13-7l-38-79-37 0 0 150 342 0z m21 171l-384 0 0 64c0 13 9 21 21 21l107 0c11 0 21 5 26 15 6 9 6 19 4 30-7 13-9 30-9 45l0 81c0 23 20 43 43 43 23 0 43-20 43-43l0-81c0-15-2-32-9-47-4-11-2-21 2-30 7-8 17-13 28-13l107 0c12 0 21-8 21-21z m-171 256c0-12-9-21-21-21-12 0-21 9-21 21 0 12 9 21 21 21 12 0 21-9 21-21z"/>
<glyph glyph-name="integration-app" unicode="t" d="M85 459c0-6-4-11-10-11-6 0-11 5-11 11 0 6 5 10 11 10 6 0 10-4 10-10z m43 0c0-6-5-11-11-11-6 0-10 5-10 11 0 6 4 10 10 10 6 0 11-4 11-10z m43 0c0-6-5-11-11-11-6 0-11 5-11 11 0 6 5 10 11 10 6 0 11-4 11-10z m32-288l-150 0c-17 0-32 15-32 32l0 202 406 0 0-117c0-6 4-11 10-11 7 0 11 5 11 11l0 171c0 30-23 53-53 53l-342 0c-30 0-53-23-53-53l0-256c0-30 23-54 53-54l150 0c6 0 10 5 10 11 0 6-4 11-10 11z m-150 320l342 0c17 0 32-15 32-32l0-32-406 0 0 32c0 17 15 32 32 32z m455-384l-17 8c0 4 0 9 0 13 0 4 0 9 0 13l17 10c2 3 4 5 4 7 0 2 0 6-2 8l-32 56c-2 2-4 4-7 4-2 0-6 0-8-2l-15-11c-6 5-13 9-21 13l0 19c0 7-5 11-11 11l-64 0c-6 0-11-4-11-11l0-19c-6-2-12-6-21-13l-17 11c-4 2-11 2-15-4l-32-56c-2-4-2-10 4-15l17-10c0-5 0-9 0-13 0-4 0-9 0-13l-17-6c-4-2-6-9-4-15l32-56c2-4 9-6 15-4l17 11c6-5 15-9 21-13l0-19c0-7 5-11 11-11l64 0c6 0 11 4 11 11l0 19c6 4 15 6 21 13l17-11c2-2 6-2 9-2 2 0 4 2 6 4l32 56c2 6 0 12-4 17z m-43-52l-13 9c-4 2-8 2-13-2-8-7-17-13-27-15-5 0-7-4-7-9l0-17-42 0 0 17c0 5-2 9-7 11-10 4-19 9-27 15-5 2-9 4-13 2l-15-8-22 36 15 8c5 3 7 7 5 11 0 4-2 11-2 15 0 4 0 11 2 15 0 4-2 8-5 11l-15 8 22 36 15-8c4-2 8-2 13 2 6 6 17 13 27 15 5 2 7 6 7 11l0 17 42 0 0-17c0-5 2-9 7-11 10-4 19-9 27-15 5-2 9-4 13-2l15 8 22-36-15-8c-5-3-7-7-5-11 0-6 2-11 2-15 0-4 0-11-2-15 0-4 2-8 5-11l15-8z m-81 126c-30 0-53-23-53-53 0-30 23-53 53-53 30 0 53 23 53 53 0 30-23 53-53 53z m0-85c-17 0-32 15-32 32 0 17 15 32 32 32 17 0 32-15 32-32 0-17-15-32-32-32z"/>
<glyph glyph-name="integration-calls" unicode="u" d="M355 165c-18 18-50 18-70 0l-9-10c-44 36-87 78-123 122l10 10c20 20 20 50 0 70l-42 44c-18 18-51 18-70 0l-25-24c-23-23-28-61-8-88 70-106 163-199 269-269 11-8 24-12 39-12 18 0 36 7 49 21l24 25c10 10 15 21 15 34 0 13-5 26-15 34z m33-101l-24-25c-18-18-48-21-67-6-105 68-196 161-264 265-15 22-12 49 6 67l23 25c7 6 15 9 23 9 8 0 16-3 23-9l45-44c13-13 13-35 0-48l-14-14c-4-4-4-8 0-12 39-49 86-94 135-135 3-3 8-2 11 0l15 15c13 13 34 13 47 0l44-44c7-7 10-15 10-23-3-7-6-15-13-21z m116 280c0 2-2 3-4 5l-19 11c0 5 2 10 2 15 0 5 0 10-2 15l19 11c2 2 4 3 4 5 0 2 0 5 0 6l-34 59c-2 2-4 3-5 3-2 0-5 0-7-1l-19-12c-7 7-15 12-23 17l0 18c1 4-2 8-7 8l-65 0c-5 0-8-4-8-8l0-20c-8-3-20-10-28-16l-21 11c-3 2-8 2-11-3l-35-59c-1-1-1-5 0-6 0-2 2-4 4-5l19-12c0-5-1-9-1-14 0-5 0-10 1-15l-19-11c-2-2-4-4-4-5 0-2 0-5 0-7l35-58c1-4 6-5 11-4l20 12c11-7 27-15 35-18l0-20c0-5 4-8 9-8l57 0c4 0 8 3 8 8l0 20c8 3 14 10 21 16 0 0 2 2 2 2l19-12c3 4 5 4 7 4 1 0 3 1 5 3l34 58c1 2 1 5 0 7z m-44-49l-18 10c-3 2-7 2-10-2-2-1-5-3-6-5-7-6-14-13-22-14-3-2-5-5-5-8l0-17-40 0 0 17c0 3-2 6-5 8-12 5-34 14-43 21-3 2-6 3-9 2l-18-10-26 44 18 10c6 0 8 3 6 6-2 7-2 11-2 16 0 5 0 12 2 17 0 3-2 6-3 8l-18 10 26 44 18-10c3-2 6-2 10 1 8 7 22 15 34 20 3 2 5 5 5 8l0 16 49 0 0-16c0-3 1-6 5-8 8-3 16-10 24-16l3-2c4-2 7-3 10-2l18 10 26-44-18-10c-3-1-5-4-3-8 2-6 2-11 2-16 0-5 0-11-2-16 0-4 2-7 3-8l18-10z m-87 132c-29 0-52-24-52-52 0-28 25-52 52-52 30 0 53 24 53 52 0 28-23 52-53 52z m0-90c-19 0-36 17-36 36 0 20 17 36 36 36 20 0 36-16 36-36 0-19-16-36-36-36z"/>
<glyph glyph-name="integration-email" unicode="v" d="M446 438c2-2 2-4 2-6l0-96c0-6 4-11 11-11 6 0 10 5 10 11l0 96c0 23-19 43-42 43l-384 0c-13 0-24-5-30-13-9-9-13-19-13-30l0-235c0-23 19-42 43-42l160 0c6 0 10 4 10 10 0 7-4 11-10 11l-160 0c-11 0-22 9-22 21l0 235c0 2 0 4 2 6l205-164c2-2 5-2 7-2 2 0 4 0 6 2z m-408 15c3 0 3 0 5 0l384 0c2 0 2 0 4 0l-196-158z m470-300l-19 10c0 4 0 9 0 13 0 4 0 9 0 13l19 10c2 3 4 5 4 7 0 2 0 6 0 8l-34 60c-2 2-4 4-7 4-2 0-6 0-8-2l-19-10c-9 8-17 12-26 17l0 21c0 6-4 11-11 11l-70 0c-6 0-11-5-11-11l0-21c-6-2-15-7-23-13l-19 11c-5 2-11 2-15-5l-34-59c-2-3-2-7 0-9 0-2 2-4 4-6l19-11c0-4 0-9 0-13 0-4 0-8 0-13l-19-10c-4-2-6-9-4-15l34-60c2-4 8-6 15-4l19 10c8-6 17-10 23-12l0-22c0-6 5-10 11-10l70 0c7 0 11 4 11 10l0 22c9 4 17 8 24 12l19-10c2-2 6-2 8-2 2 0 5 2 7 4l34 60c4 4 2 10-2 15z m-45-56l-17 9c-4 2-9 2-13-3-8-6-19-12-30-17-4-2-6-6-6-10l0-19-49 0 0 19c0 4-2 8-7 10-10 5-21 11-30 17-4 3-8 5-12 3l-17-9-24 43 17 8c4 2 7 7 4 11-2 6-2 11-2 17 0 6 0 11 2 17 0 4-2 9-4 11l-17 8 24 43 17-9c4-2 8-2 12 3 9 6 20 12 30 17 5 2 7 6 7 10l0 17 49 0 0-19c0-4 2-8 6-11 11-4 22-10 30-17 4-2 9-4 13-2l15 9 23-43-17-8c-4-3-6-7-4-11 2-6 2-11 2-17 0-7 0-11-2-17 0-4 2-9 4-11l17-8z m-90 137c-32 0-57-26-57-58 0-32 25-58 57-58 32 0 58 26 58 58 0 32-26 58-58 58z m0-94c-19 0-36 17-36 36 0 19 17 36 36 36 20 0 37-17 37-36 0-19-17-36-37-36z"/>
<glyph glyph-name="strongbox" unicode="w" d="M459 512l-406 0c-30 0-53-23-53-53l0-384c0-26 19-47 43-52l0-12c0-7 4-11 10-11 7 0 11 4 11 11l0 10 384 0 0-10c0-7 4-11 11-11 6 0 10 4 10 11l0 12c24 5 43 26 43 52l0 384c0 30-23 53-53 53z m32-437c0-17-15-32-32-32l-406 0c-17 0-32 15-32 32l0 384c0 17 15 32 32 32l406 0c17 0 32-15 32-32z m-96 373l-278 0c-30 0-53-23-53-53l0-11-11 0c-6 0-10-4-10-11l0-64c0-6 4-10 10-10l11 0 0-64-11 0c-6 0-10-5-10-11l0-64c0-6 4-11 10-11l11 0 0-10c0-30 23-54 53-54l278 0c30 0 53 24 53 54l0 256c0 30-23 53-53 53z m-331-85l21 0 0-43-21 0z m0-150l21 0 0-42-21 0z m363-74c0-17-15-32-32-32l-278 0c-17 0-32 15-32 32l0 10 11 0c6 0 11 5 11 11l0 64c0 6-5 11-11 11l-11 0 0 64 11 0c6 0 11 4 11 10l0 64c0 7-5 11-11 11l-11 0 0 11c0 17 15 32 32 32l278 0c17 0 32-15 32-32z m-96 202c-20 20-47 32-75 32-30 0-55-12-75-32-19-19-32-44-32-74 0-30 13-56 32-75 20-19 45-32 75-32 30 0 55 13 75 30 19 19 32 45 32 75 0 32-13 57-32 76z m-9-126l-15 15c7 9 9 17 11 26l21 0c0-15-6-30-17-41z m-149 41l21 0c2-11 7-19 11-26l-15-15c-11 11-17 26-17 41z m17 62l15-15c-7-9-9-17-11-26l-21 0c0 15 6 30 17 41z m66-94c-23 0-43 19-43 43 0 23 20 42 43 42 23 0 43-19 43-42 0-24-20-43-43-43z m36 94c-8 6-17 8-25 11l0 21c15-2 30-9 40-17z m-47 11c-10-3-19-7-25-11l-15 15c13 8 25 15 40 17z m-25-114c8-6 17-8 25-10l0-22c-15 3-30 9-40 18z m47-10c10 2 19 6 25 10l15-14c-13-9-25-15-40-18z m51 72c-2 11-7 20-11 26l15 15c9-13 15-26 17-41z"/>
<glyph glyph-name="compass" unicode="x" d="M256 512c-141 0-256-115-256-256 0-141 115-256 256-256 141 0 256 115 256 256 0 141-115 256-256 256z m0-491c-130 0-235 105-235 235 0 130 105 235 235 235 130 0 235-105 235-235 0-130-105-235-235-235z m124 374l-182-75c0 0 0 0-2 0 0 0-2 0-2-2 0 0-2-2-2-2 0 0 0 0 0-2l-75-182c-2-4 0-8 2-10 3-3 5-3 9-3 2 0 2 0 4 0l182 75c0 0 0 0 2 0 0 0 2 0 2 2 0 0 2 2 2 2 0 0 0 0 0 3l75 181c2 4 0 8-2 11-3 2-9 2-13 2z m-233-248l60 143 83-83z m158 75l-83 83 143 60z"/>
<glyph glyph-name="directions" unicode="y" d="M437 320c2 0 7 2 9 2l64 64c4 4 4 11 0 15l-64 64c-2 2-7 4-9 4l-181 0 0 32c0 7-4 11-11 11-6 0-10-4-10-11l0-32-160 0c-7 0-11-4-11-10l0-128c0-7 4-11 11-11l160 0 0-21-160 0c-2 0-7-2-9-2l-64-64c-4-5-4-11 0-15l64-64c2-3 7-5 9-5l160 0 0-138c0-7 4-11 10-11 7 0 11 4 11 11l0 138 181 0c7 0 11 5 11 11l0 128c0 6-4 11-11 11l-181 0 0 21z m-10-149l-348 0-53 53 53 53 348 0z m-342 277l348 0 53-53-53-54-348 0z"/>
<glyph glyph-name="fm-accounts" unicode="z" d="M501 21l-32 0 0 384 32 0c7 0 11 5 11 11 0 6-4 11-11 11l-53 0 0 32c0 6-4 10-11 10l-117 0 0 32c0 7-4 11-11 11l-106 0c-7 0-11-4-11-11l0-32-117 0c-7 0-11-4-11-10l0-32-53 0c-7 0-11-5-11-11 0-6 4-11 11-11l32 0 0-384-32 0c-7 0-11-4-11-10 0-7 4-11 11-11l490 0c7 0 11 4 11 11 0 6-4 10-11 10z m-288 470l86 0 0-22-86 0z m-128-43l342 0 0-21-342 0z m150-427l0 64 42 0 0-64z m64 0l0 75c0 6-5 11-11 11l-64 0c-6 0-11-5-11-11l0-75-149 0 0 384 384 0 0-384z m-118 64l-64 0c-6 0-10-4-10-10 0-7 4-11 10-11l64 0c7 0 11 4 11 11 0 6-4 10-11 10z m214 0l-64 0c-7 0-11-4-11-10 0-7 4-11 11-11l64 0c6 0 10 4 10 11 0 6-4 10-10 10z m-171 86l-107 0c-6 0-10-5-10-11 0-6 4-11 10-11l107 0c6 0 11 5 11 11 0 6-5 11-11 11z m171 0l-107 0c-6 0-11-5-11-11 0-6 5-11 11-11l107 0c6 0 10 5 10 11 0 6-4 11-10 11z m-171 64l-107 0c-6 0-10-5-10-11 0-6 4-11 10-11l107 0c6 0 11 5 11 11 0 6-5 11-11 11z m171 0l-107 0c-6 0-11-5-11-11 0-6 5-11 11-11l107 0c6 0 10 5 10 11 0 6-4 11-10 11z m-171 64l-107 0c-6 0-10-5-10-11 0-6 4-11 10-11l107 0c6 0 11 5 11 11 0 6-5 11-11 11z m171 0l-107 0c-6 0-11-5-11-11 0-6 5-11 11-11l107 0c6 0 10 5 10 11 0 6-4 11-10 11z m-171 64l-107 0c-6 0-10-5-10-11 0-6 4-11 10-11l107 0c6 0 11 5 11 11 0 6-5 11-11 11z m171 0l-107 0c-6 0-11-5-11-11 0-6 5-11 11-11l107 0c6 0 10 5 10 11 0 6-4 11-10 11z"/>
<glyph glyph-name="fm-activity" unicode="A" d="M459 459l-406 0c-30 0-53-24-53-54l0-298c0-30 23-54 53-54l406 0c30 0 53 24 53 54l0 298c0 30-23 54-53 54z m-438-128l470 0 0-128-96 0c-5 0-7-2-9-5l-32-47-55 131c-2 4-7 6-11 6-4 0-9-2-11-4l-74-111-32 87c-2 5-7 7-9 7-4 0-8-2-11-5l-40-59-90 0z m32 106l406 0c17 0 32-15 32-32l0-53-470 0 0 53c0 17 15 32 32 32z m406-362l-406 0c-17 0-32 15-32 32l0 74 96 0c5 0 7 2 9 5l32 47 34-88c2-4 6-6 9-6 4 0 8 2 10 4l75 111 55-132c2-5 5-7 9-7 4 0 6 2 8 4l41 60 92 0 0-74c0-15-15-30-32-30z m-352 320c0-12-10-22-22-22-11 0-21 10-21 22 0 11 10 21 21 21 12 0 22-10 22-21z m64 0c0-12-10-22-22-22-11 0-21 10-21 22 0 11 10 21 21 21 12 0 22-10 22-21z m64 0c0-12-10-22-22-22-11 0-21 10-21 22 0 11 10 21 21 21 12 0 22-10 22-21z"/>
<glyph glyph-name="fm-documents" unicode="B" d="M448 378c0 2-2 2-2 4l-128 128c0 0-2 2-4 2-3 0-3 0-5 0l-234 0c-7 0-11-4-11-11l0-490c0-7 4-11 11-11l362 0c7 0 11 4 11 11l0 362c0 2 0 2 0 5z m-128 98l92-92-92 0z m-235-455l0 470 214 0 0-118c0-6 4-10 10-10l118 0 0-342z m75 320l96 0c6 0 11 5 11 11 0 6-5 11-11 11l-96 0c-6 0-11-5-11-11 0-6 5-11 11-11z m192-42l-192 0c-6 0-11-5-11-11 0-6 5-11 11-11l192 0c6 0 11 5 11 11 0 6-5 11-11 11z m0-64l-192 0c-6 0-11-5-11-11 0-6 5-11 11-11l192 0c6 0 11 5 11 11 0 6-5 11-11 11z m0-64l-192 0c-6 0-11-5-11-11 0-6 5-11 11-11l192 0c6 0 11 5 11 11 0 6-5 11-11 11z m0-64l-192 0c-6 0-11-5-11-11 0-6 5-11 11-11l192 0c6 0 11 5 11 11 0 6-5 11-11 11z"/>
<glyph glyph-name="fm-opportunities" unicode="C" d="M500 384l-142 0c-7 51-48 93-102 93-54 0-98-42-102-93l-142 0c-7 0-12-5-12-12l0-325c0-7 5-12 12-12l488 0c7 0 12 5 12 12l0 325c0 7-5 12-12 12z m-244 70c42 0 74-30 79-70l-158 0c5 40 37 70 79 70z m233-93l0-93-186 0 0 11c0 7-5 12-12 12l-70 0c-7 0-12-5-12-12l0-11-186 0 0 93z m-256-93l46 0 0-70-46 0z m-210-210l0 186 186 0 0-58c0-7 5-11 12-11l70 0c7 0 12 4 12 11l0 58 186 0 0-186z"/>
<glyph glyph-name="lego" unicode="D" d="M256 357c-43 0-75-19-75-42 0-24 32-43 75-43 43 0 75 19 75 43 0 23-32 42-75 42z m0-64c-32 0-53 13-53 22 0 8 21 21 53 21 32 0 53-13 53-21 0-9-21-22-53-22z m256 32c0 2 0 5-2 5 0 0 0 0 0 2 0 0-2 2-2 2l-32 15c4 6 6 13 6 19 0 23-32 43-75 43-19 0-36-5-49-11l-32 13c5 6 7 10 7 17 0 23-32 43-75 43-43 0-77-18-77-41 0-6 2-13 7-17l-26-13c-13 7-28 9-45 9-42 0-74-20-74-43 0-6 2-11 4-15l-41-17c0 0-2-2-2-2 0 0 0 0 0-2-4-5-4-5-4-7l0-170c0-5 2-9 6-11l246-107c2 0 2 0 4 0 2 0 2 0 4 0l246 107c4 2 6 6 6 11z m-256-96l-218 96 26 13c15-8 32-13 53-13 43 0 75 20 75 43 0 9-4 15-9 21l26 11c11-6 28-11 47-11 19 0 36 5 49 11l32-15c-4-4-6-11-6-17 0-23 32-43 74-43 20 0 34 5 47 9l22-9z m203 139c0-4-5-9-11-11-2 0-2 0-4-2-7-4-22-8-39-8-32 0-53 12-53 21 0 9 21 21 53 21 32 0 54-12 54-21z m-203 85c32 0 53-12 53-21 0-9-21-21-53-21-32 0-53 12-53 21 0 9 21 21 53 21z m-139-64c32 0 54-12 54-21 0-9-22-21-54-21-32 0-53 12-53 21 0 9 21 21 53 21z m-96-81l224-98 0-147-224 98z m470-147l-224-98 0 147 224 98z"/>
<glyph glyph-name="health" unicode="E" d="M480 288c0 30-23 53-53 53-30 0-54-23-54-53 0-26 20-47 43-51l0-141c0-17-15-32-32-32-17 0-32 15-32 32l0 64c0 36-28 64-64 64-36 0-64-28-64-64l0-107c0-17-15-32-32-32-17 0-32 15-32 32l0 150c60 6 107 55 107 117l0 107c0 25-20 47-43 51l0 23c0 7-4 11-11 11-17 0-42-11-42-43 0-32 25-42 42-42 7 0 11 4 11 10l0 20c13-5 21-18 21-30l0-107c0-53-42-96-96-96-53 0-96 43-96 96l0 107c0 15 9 25 22 30l0-20c0-6 4-10 10-10 17 0 43 10 43 42 0 32-26 43-43 43-6 0-10-4-10-11l0-23c-24-4-43-26-43-51l0-107c0-62 47-111 107-117l0-150c0-30 23-53 53-53 30 0 53 23 53 53l0 107c0 23 20 43 43 43 23 0 43-20 43-43l0-64c0-30 23-53 53-53 30 0 53 23 53 53l0 141c24 4 43 25 43 51z m-277 162c-7 2-11 9-11 19 0 11 4 17 11 20z m-107 39c6-3 11-9 11-20 0-10-5-17-11-19z m331-233c-17 0-32 15-32 32 0 17 15 32 32 32 17 0 32-15 32-32 0-17-15-32-32-32z"/>
<glyph glyph-name="fm-route" unicode="F" d="M491 469c0 5-2 7-5 9-2 2-6 2-8 2l-115-32-105 32c-2 0-4 0-6 0l-103-32-115 32c-2 0-6 0-8-2-3-2-5-4-5-9l-21-394c0-5 2-11 9-11l128-32c2 0 4 0 6 0l115 32 115-32c0 0 2 0 2 0 0 0 3 0 3 0l128 32c4 2 8 6 8 11z m-118-416l-115 32c0 0-2 0-2 0 0 0-2 0-2 0l-115-32-118 30 22 374 104-28c2 0 4 0 7 0l102 30 105-32c2 0 4 0 6 0l102 30 22-374z m41 318c-4 4-11 4-15 0l-15-15-13 13c-4 4-10 4-15 0-4-4-4-11 0-15l13-13-13-12c-4-5-4-11 0-15 0-5 5-5 7-5 2 0 6 0 8 2l13 15 13-12c2-5 6-5 8-5 2 0 7 0 9 2 4 5 4 11 0 15l-13 13 13 13c2 6 2 15 0 19z m-316-181l-11-11c-4-4-4-10 0-15 3-4 7-4 9-4 2 0 6 0 9 2l10 11c4 4 4 10 0 15-4 4-13 4-17 2z m64 64l-11-11c-4-4-4-10 0-15 3-4 7-4 9-4 2 0 6 0 9 2l10 11c4 4 4 10 0 15-4 4-13 4-17 2z m233 45c-7 0-11-5-11-11l0-21c0-7 4-11 11-11 6 0 10 4 10 11l0 21c0 6-4 11-10 11z m-88-56c-4 4-10 4-15 0-4-4-4-10 0-15l11-10c2-3 4-3 8-3 5 0 7 0 9 3 4 4 4 10 0 15z m-51 45l-21 0c-7 0-11-4-11-11 0-6 4-10 11-10l21 0c6 0 11 4 11 10 0 7-5 11-11 11z m119-66l-10-11c-4-4-4-10 0-15 2-2 4-2 8-2 5 0 7 0 9 2l11 11c4 4 4 11 0 15-5 4-13 2-18 0z"/>
<glyph glyph-name="lock" unicode="H" d="M384 284l0 113c-13 66-66 115-128 115-62 0-115-49-128-117l0-111c-26-30-43-71-43-113 0-94 77-171 171-171 94 0 171 77 171 171 0 42-17 83-43 113z m-128 207c51 0 96-41 107-96l0-92c-30 23-66 38-107 38-41 0-77-15-107-38l0 90c11 57 56 98 107 98z m0-470c-83 0-149 66-149 150 0 83 66 149 149 149 83 0 149-66 149-149 0-84-66-150-149-150z m0 171c-13 0-21-9-21-21 0-9 4-15 10-17l0-58c0-6 5-11 11-11 6 0 11 5 11 11l0 58c6 2 10 8 10 17 0 12-8 21-21 21z"/>
<glyph glyph-name="fm-quotes" unicode="I" d="M341 235l0 224c0 36-87 53-170 53-84 0-171-17-171-53l0-320c0-37 87-54 171-54l0-32c0-36 87-53 170-53 84 0 171 17 171 53l0 128c0 37-87 54-171 54z m150-118c0-8-52-32-150-32-98 0-149 24-149 32l0 37c32-17 92-26 149-26 58 0 118 9 150 26z m-171 278c0-9-51-32-149-32-98 0-150 23-150 32l0 36c32-17 92-26 150-26 57 0 117 9 149 26z m-149-54c57 0 117 9 149 26l0-36c0-9-51-32-149-32-98 0-150 23-150 32l0 36c32-17 92-26 150-26z m0-64c57 0 117 9 149 26l0-36c0-9-51-32-149-32-98 0-150 23-150 32l0 36c32-17 92-26 150-26z m-150-38c32-17 92-26 150-26 10 0 21 0 32 0-20-6-32-19-32-32l0-10c-98 0-150 23-150 32z m470-58c0-8-52-32-150-32-98 0-149 24-149 32 0 9 51 32 149 32 98 0 150-23 150-32z m-182 54c5 2 7 4 11 4l0-4c-4 0-6 0-11 0z m-138 256c98 0 149-24 149-32 0-9-51-32-149-32-98 0-150 23-150 32 0 8 52 32 150 32z m-150-352l0 36c32-17 92-26 150-26l0-42c-98 0-150 23-150 32z m320-118c-98 0-149 24-149 32l0 37c32-17 92-26 149-26 58 0 118 9 150 26l0-37c0-8-52-32-150-32z"/>
<glyph glyph-name="fm-products" unicode="J" d="M512 395c0 2 0 4-2 4 0 0 0 0 0 2 0 0-2 2-2 2l-248 109c-2 0-6 0-8 0l-246-107c0 0-2-2-2-2 0 0 0 0 0-2-4-4-4-4-4-6l0-278c0-4 2-8 6-10l246-107c2 0 2 0 4 0 2 0 2 0 4 0l246 107c4 2 6 6 6 10z m-256 96l218-96-99-43-198 105z m0-192l-218 96 116 51 198-105z m-235 79l224-99 0-253-224 98z m470-254l-224-98 0 256 224 96z m-295 132l-117 53c-4 2-6 2-11 0-2-4-4-6-4-10l0-107c0-4 2-9 6-11l118-53c2 0 2 0 4 0 2 0 4 0 6 2 3 2 5 7 5 9l0 106c0 5-2 9-7 11z m-15-100l-96 42 0 84 96-43z"/>
<glyph glyph-name="light" unicode="K" d="M256 419c-84 0-151-68-151-151 0-66 42-124 104-145l0-18c0-7 5-12 12-12l70 0c7 0 12 5 12 12l0 18c62 21 104 77 104 145 0 83-67 151-151 151z m33-275c-5-2-10-7-10-11l0-17-46 0 0 17c0 4-5 9-10 11-55 14-95 65-95 124 0 69 58 128 128 128 70 0 128-59 128-128 0-59-40-110-95-124z m-21-121l-24 0c-7 0-11-4-11-11 0-7 4-12 11-12l24 0c7 0 11 5 11 12 0 7-4 11-11 11z m23 47l-70 0c-7 0-12-5-12-12 0-7 5-11 12-11l70 0c7 0 12 4 12 11 0 7-5 12-12 12z m-35 372c7 0 12 5 12 12l0 46c0 7-5 12-12 12-7 0-12-5-12-12l0-46c0-7 5-12 12-12z m233-163l-47 0c-7 0-11-4-11-11 0-7 4-12 11-12l47 0c7 0 11 5 11 12 0 7-4 11-11 11z m-419 0l-47 0c-7 0-11-4-11-11 0-7 4-12 11-12l47 0c7 0 11 5 11 12 0 7-4 11-11 11z m46 112c3-2 5-2 10-2 4 0 7 0 9 2 5 5 5 12 0 16l-51 49c-5 5-12 5-17 0-4-5-4-11 0-16z m273-2c2 0 7 0 9 2l49 49c4 5 4 11 0 16-5 5-12 5-16 0l-49-49c-5-4-5-11 0-16 0-2 2-2 7-2z"/>
<glyph glyph-name="rewards" unicode="L" d="M435 386c-6 19-23 34-45 39 3 21-6 40-23 53-17 13-41 15-60 4-10 17-30 30-51 30-21 0-41-11-51-30-19 9-43 7-60-4-17-13-26-34-23-53-20-5-39-20-45-39-7-19-2-40 13-57-15-15-20-37-13-58 6-19 23-34 45-38-3-22 6-41 23-54 17-13 41-15 60-4 10-17 30-30 51-30 21 0 41 11 51 30 19-9 43-6 60 4 17 13 26 32 23 54 22 4 39 19 45 38 7 19 2 40-13 58 13 14 20 36 13 57z m-21-107c-4-14-19-25-36-25-5 0-7-2-9-4-2-3-2-7-2-11 6-15 0-32-13-41-13-8-32-8-45 3-2 2-6 2-10 2-5-2-7-5-7-9-4-15-19-25-36-25-17 0-32 8-36 25 0 4-5 7-7 7 0 0-2 0-2 0-2 0-4 0-6-3-13-8-32-10-45 0-13 9-19 26-13 43 2 4 0 6-2 11-2 2-6 4-11 4-17 0-29 11-36 26-4 15 0 32 15 40 2 0 4 4 4 7 0 4-2 6-4 8-15 11-21 26-15 41 4 15 19 25 36 25 5 0 7 2 9 4 2 3 2 7 2 11-6 15 0 32 13 41 13 10 32 10 45 0 2-2 6-2 10-2 5 2 7 4 7 8 4 15 19 26 36 26 17 0 32-11 36-28 0-4 5-6 7-6 4-3 6 0 10 2 13 8 32 10 45 0 13-9 19-26 13-43-2-4 0-6 2-11 2-2 6-4 11-4 17 0 30-11 36-26 4-14 0-32-15-40-4 0-6-2-6-6 0-5 2-7 4-9 15-11 21-26 15-41z m-83-243l-66 66c-5 5-11 5-15 0l-69-66 0 113-21 0 0-138c0-5 2-9 6-11 5-2 9 0 11 2l77 77 77-77c2-2 4-2 8-2 2 0 2 0 4 0 5 2 7 6 7 11l0 138-21 0 0-113z m21 337l-58 0-29 58c-5 6-15 6-20 0l-27-58-58 0c-4 0-9-2-11-6-2-4 0-9 5-13l47-38-20-69c-2-4 0-8 5-10 4-2 8-2 12 0l58 36 58-36c2-2 4-2 6-2 2 0 4 0 6 2 5 2 5 6 5 10l-20 69 47 38c5 2 5 9 5 13 0 4-7 6-11 6z m-60-44c-4-3-4-7-4-11l13-47-41 26c-2 2-4 2-6 2-2 0-4 0-7-2l-40-26 17 47c0 4 0 8-4 11l-30 23 34 0c4 0 9 2 9 6l23 45 23-45c0-4 5-6 9-6l34 0z"/>
<glyph glyph-name="microsoft" unicode="M" d="M227 471l0-202 282 0 0 243z m263-185l-244 0 0 168 244 37z m-487-19l205 0 0 200-205-30z m19 155l167 24 0-160-167 0z m-19-347l205-30 0 202-205 0z m19 153l167 0 0-162-167 24z m205-187l282-41 0 247-282 0z m19 187l244 0 0-207-244 37z"/>
<glyph glyph-name="blackberry" unicode="N" d="M111 436l-67 0-20-88 71 0c54 0 70 25 70 49 0 18-10 39-54 39z m-16-69l-47 0 11 50 51 0c22 0 34-6 34-20 2-19-16-30-49-30z m198 69l-68 0-19-88 70 0c56 0 71 25 71 49 0 18-11 39-54 39z m-17-69l-46 0 10 50 51 0c23 0 35-6 35-20 0-19-17-30-50-30z m-189-64l-67 0-20-89 71 0c55 0 70 25 70 50 0 18-10 39-54 39z m-16-70l-47 0 11 50 51 0c22 0 34-6 34-19 2-20-16-31-49-31z m196 70l-67 0-20-89 71 0c55 0 70 25 70 50 0 18-10 39-54 39z m-16-70l-47 0 11 50 51 0c22 0 34-6 34-19 2-20-15-31-49-31z m207 124l-68 0-19-89 70 0c56 0 71 26 71 50 0 18-11 39-54 39z m-17-69l-46 0 10 49 51 0c23 0 35-6 35-19 1-20-17-30-50-30z m-10-70l-68 0-18-88 71 0c55 0 70 25 70 49-1 18-12 39-55 39z m-17-69l-46 0 10 50 51 0c23 0 35-6 35-20 1-19-15-30-50-30z m-172 15l-68 0-19-88 70 0c56 0 71 25 71 49 0 18-11 39-54 39z m-17-69l-45 0 11 50 51 0c34 0 34-15 34-20 0-19-16-30-51-30z"/>
<glyph glyph-name="android" unicode="O" d="M74 344c-17 0-31-12-31-29l0-130c0-11 6-19 12-26 4-4 11-6 17-6 13 0 23 8 30 19 2 4 4 6 4 13l0 130c0 17-15 29-32 29z m15-159c0-3 0-5-2-7-2-6-6-8-13-8-4 0-6 2-8 2-4 2-7 6-7 13l0 130c0 8 7 15 15 15 9 0 15-7 15-15z m235 277l21 40c0 0 0 2 0 2 0 2 0 4-2 4 0 0 0 0-2 0 0 0-2 0-2 0 0 0 0 0-2-2l-21-40c-6 2-15 6-21 9-13 4-25 6-40 6-6 0-13 0-19-2-13-2-27-7-40-13l-21 40c-2 2-4 2-6 2 0 0 0 0-2 0 0 0 0 0-2 0 0 0-3-2-3-4 0 0 0-2 0-2l21-40c-16-11-35-27-48-46-4-7-8-15-10-23-5-13-9-28-9-42l280 0c0 48-30 90-72 111z m-189-95c2 7 2 13 6 19 3 7 7 13 11 19 8 19 25 32 44 42l4 2 2 2c11 5 24 9 38 11 7 0 11 2 17 2 11 0 23-2 36-4 8-2 12-4 19-6l8-5c34-16 55-46 61-80z m57 57c-6 0-11-4-11-10 0-7 7-13 13-13 6 0 13 6 13 13-2 6-9 10-15 10z m128 0c-6 0-13-6-13-12 0-7 7-13 13-13 6 0 13 6 13 13 0 8-7 12-13 12z m-204-86l0-202c0-6 2-10 4-15 7-10 17-18 30-18l23 0 0-70c0-2 0-4 0-6 2-13 13-21 25-25 2 0 4 0 7 0 2 0 4 0 6 0 15 2 25 14 25 31l0 70 42 0 0-70c0-17 15-31 32-31 16 0 31 14 31 31l0 70 23 0c7 0 15 2 19 6 9 6 15 17 15 27l0 202z m255-214c-3-3-5-3-9-3l-40 0 0-86c0-4-2-6-4-10-2-2-6-4-11-4-4 0-6 2-10 4-2 2-2 6-2 10l0 86-76 0 0-86c0-6-4-12-10-14 0 0-2 0-2 0 0 0-2 0-2 0-7 2-11 6-11 10 0 0 0 2 0 2l0 86-40 0c-6 0-13 5-15 9-2 2-2 4-2 6l0 185 244 0 0-185c-2-2-4-6-10-10z m98 191c0 17-14 31-31 31-17 0-32-14-32-31l0-130c0-17 15-32 32-32 17 0 31 15 31 32z m-31-145c-9 0-15 6-15 15l0 130c0 4 2 6 4 10 2 2 7 5 11 5 8 0 15-7 15-15l0-130c0-9-7-15-15-15z"/>
<glyph glyph-name="apple" unicode="P" d="M461 339c-26 32-64 51-98 51-47 0-66-21-98-21-35 0-58 21-99 21-38 0-81-23-106-64-37-57-32-164 30-258 21-32 51-70 87-70 32 0 43 21 88 21 44 0 53-21 85-21 38 0 68 40 89 75 15 23 22 36 35 61-86 35-99 158-13 205z m-34-254c-20-30-47-66-75-66-11 0-19 4-28 9-13 6-30 13-57 13-28 0-45-9-60-13-11-5-17-9-30-9-28 0-53 34-72 62-60 90-60 190-30 237 23 34 57 55 91 55 20 0 32-4 49-10 15-7 32-11 52-11 17 0 32 6 47 11 15 6 29 10 51 10 23 0 49-10 70-30-36-25-53-66-51-108 2-45 28-86 66-107-6-17-11-26-23-43z m-175 303c30 0 59 17 77 41 17 21 55 83 25 83 0 0 0 0-2 0-28-2-60-19-79-43-17-21-32-51-26-81 3 0 3 0 5 0z m36 71c13 17 36 30 55 34-4-13-17-36-29-51-13-15-30-26-47-30 2 17 12 34 21 47z"/>
<glyph glyph-name="thumb-up" unicode="Q" d="M508 284c0 24-19 42-42 42l-153 0c8 26 25 74 15 104-11 46-38 50-47 50-19 0-36-17-36-38 0-73-69-156-115-166l0 19c0 6-4 10-11 10l-105 0c-6 0-10-4-10-10l0-252c0-7 4-11 10-11l105 0c7 0 11 4 11 11l0 29c21-4 38-6 50-11 28-6 47-10 87-10l136 0c28 0 42 10 42 31 0 9-2 17-6 24 17 6 27 21 27 40 0 8-2 16-6 23 17 6 27 21 27 40 0 8-2 17-8 23 19 10 29 36 29 52z m-399-231l-84 0 0 231 84 0z m357 200l-21 0c-6 0-10-4-10-11 0-6 4-10 10-10 13 0 21-9 21-21 0-13-8-21-21-21l-21 0c-6 0-10-4-10-11 0-6 4-10 10-10 13 0 21-9 21-21 0-13-8-21-21-21l-21 0c-6 0-10-5-10-11 0-6 4-10 10-10 13 0 21-9 21-21 0-5 0-11-21-11l-136 0c-36 0-55 4-83 8-14 3-31 7-54 11l0 160c57 10 137 105 137 189 0 21 29 32 42-19 8-27-13-84-21-103-3-4-3-6 0-10 2-2 4-5 8-5l168 0c13 0 21-8 21-21 2-12-8-31-19-31z m-378-168c0-6-5-11-11-11-6 0-10 5-10 11 0 5 4 10 10 10 6 0 11-5 11-10z"/>
<glyph glyph-name="missil" unicode="G" d="M512 499c0 4 0 6-2 9-2 2-7 4-11 4-12-2-99-18-126-42-9-9-73-76-138-139-34 0-81 0-103-7-16-7-38-27-49-36l-79-78c-4-4-4-11-2-15 2-5 7-7 9-7 0 0 0 0 2 0l99 13c0-2 0-6 2-9l78-78c3-2 7-4 9-4l-11-99c0-4 2-9 7-11 2 0 2 0 4 0 2 0 7 2 9 2l78 78c12 12 29 34 34 52 4 16 9 51 9 101l139 140c24 27 40 117 42 126z m-414-228c12 11 32 24 43 29 11 4 36 6 74 6-25-24-50-49-67-67-5-4-9-9-14-13l-92-11z m41-72c4 4 9 9 15 16l63-63-16-16z m163-58c-5-14-18-34-29-43l-58-56 11 90 80 80c0-47-2-64-4-71z m-69 29l-63 63c69 69 210 210 221 221 14 13 61 27 96 33-6-35-20-82-33-96z m-88-40c-4-5-4-12 0-16 16-16-4-36-9-40-11-11-64-29-102-40 11 40 26 91 40 102 4 5 24 23 40 9 4-4 11-4 16 0 4 5 4 12 0 16-18 18-47 16-72-9-22-22-47-121-51-132 0-4 0-7 2-11 2-2 4-2 9-2 0 0 2 0 2 0 11 2 107 27 132 51 25 25 27 52 9 72-4 4-11 4-16 0z"/>
<glyph glyph-name="contact-card" unicode="R" d="M501 384l-149 0c-6 0-11-4-11-11 0-6 5-10 11-10l139 0 0-64-470 0 0 64 139 0c6 0 11 4 11 10 0 7-5 11-11 11l-149 0c-7 0-11-4-11-11l0-341c0-6 4-11 11-11l490 0c7 0 11 5 11 11l0 341c0 7-4 11-11 11z m-480-341l0 234 470 0 0-234z m246 149l85 0c6 0 11 4 11 11 0 6-5 10-11 10l-85 0c-7 0-11-4-11-10 0-7 4-11 11-11z m128-21l-128 0c-7 0-11-5-11-11 0-6 4-11 11-11l128 0c6 0 10 5 10 11 0 6-4 11-10 11z m-22-43l-106 0c-7 0-11-4-11-11 0-6 4-10 11-10l106 0c7 0 11 4 11 10 0 7-4 11-11 11z m-170 192l106 0c7 0 11 4 11 11l0 96c0 36-28 64-64 64-36 0-64-28-64-64l0-96c0-7 4-11 11-11z m10 107c0 23 20 42 43 42 23 0 43-19 43-42l0-86-86 0z m-34-265c9 7 13 17 13 30 0 23-19 43-43 43-23 0-42-20-42-43 0-13 4-23 12-30-19-13-34-38-34-66 0-6 5-11 11-11l107 0c6 0 10 5 10 11 0 2 0 2 0 2 0 28-15 51-34 64z m-51 30c0 13 9 21 21 21 13 0 22-8 22-21 0-13-9-21-22-21-12 0-21 8-21 21z m-21-85c4 23 21 42 42 42 22 0 39-19 43-42z"/>
<glyph glyph-name="fm-calendar" unicode="S" d="M501 469l-74 0 0 32c0 7-5 11-11 11l-64 0c-6 0-11-4-11-11l0-32-170 0 0 32c0 7-5 11-11 11l-64 0c-6 0-11-4-11-11l0-32-74 0c-7 0-11-4-11-10l0-448c0-7 4-11 11-11l490 0c7 0 11 4 11 11l0 448c0 6-4 10-11 10z m-138 22l42 0 0-64-42 0z m-256 0l42 0 0-64-42 0z m-22-43l0-32c0-6 5-11 11-11l64 0c6 0 11 5 11 11l0 32 170 0 0-32c0-6 5-11 11-11l64 0c6 0 11 5 11 11l0 32 64 0 0-85-470 0 0 85z m-64-427l0 320 470 0 0-320z m438 235c6 0 10 4 10 11 0 6-4 10-10 10l-75 0 0 32c0 7-4 11-11 11-6 0-10-4-10-11l0-32-96 0 0 32c0 7-5 11-11 11-6 0-11-4-11-11l0-32-96 0 0 32c0 7-4 11-10 11-7 0-11-4-11-11l0-32-75 0c-6 0-10-4-10-10 0-7 4-11 10-11l75 0 0-64-75 0c-6 0-10-4-10-11 0-6 4-10 10-10l75 0 0-64-75 0c-6 0-10-5-10-11 0-6 4-11 10-11l75 0 0-32c0-6 4-10 11-10 6 0 10 4 10 10l0 32 96 0 0-32c0-6 5-10 11-10 6 0 11 4 11 10l0 32 96 0 0-32c0-6 4-10 10-10 7 0 11 4 11 10l0 32 75 0c6 0 10 5 10 11 0 6-4 11-10 11l-75 0 0 64 75 0c6 0 10 4 10 10 0 7-4 11-10 11l-75 0 0 64z m-310 0l96 0 0-64-96 0z m0-149l0 64 96 0 0-64z m214 0l-96 0 0 64 96 0z m0 85l-96 0 0 64 96 0z"/>
<glyph glyph-name="rss-feed" unicode="W" d="M72 139c-37 0-67-30-67-67 0-37 30-66 67-66 37 0 67 29 67 66 0 37-30 67-67 67z m-67 197l0-96c63 0 122-24 166-69 44-44 69-103 69-166l96 0c0 183-148 331-331 331z m0 171l0-96c224 0 405-182 405-406l97 0c0 277-225 502-502 502z"/>
<glyph glyph-name="warning" unicode="X" d="M245 332l0-172c0-6 4-11 11-11 7 0 11 5 11 11l0 172c0 6-4 11-11 11-7 0-11-7-11-11z m33-245c0-12-10-22-22-22-12 0-22 10-22 22 0 12 10 22 22 22 12 0 22-10 22-22z m232-67l-245 485c-5 7-16 7-20 0l-245-489c-2-5-2-7 0-12 2-4 7-4 11-4l490 0c7 0 11 4 11 11 0 5 0 7-2 9z m-481 2l227 454 227-454z"/>
<glyph glyph-name="benefits" unicode="Y" d="M501 491l-245 0 0 10c0 7-4 11-11 11l-170 0c-7 0-11-4-11-11l0-10-53 0c-7 0-11-5-11-11l0-469c0-7 4-11 11-11l490 0c7 0 11 4 11 11l0 469c0 6-4 11-11 11z m-416 0l150 0 0-241-66 68c-3 2-7 2-9 2-2 0-6 0-9-2l-66-68z m406-470l-470 0 0 448 43 0 0-245c0-4 2-9 6-11 5-2 9 0 11 2l77 77 77-77c2-2 4-2 8-2 2 0 2 0 4 0 5 2 7 7 7 11l0 245 235 0 0-448z m-182 320l128 0c7 0 11 5 11 11 0 6-4 11-11 11l-128 0c-6 0-10-5-10-11 0-6 4-11 10-11z m0-64l128 0c7 0 11 5 11 11 0 6-4 11-11 11l-128 0c-6 0-10-5-10-11 0-6 4-11 10-11z m128-42l-128 0c-6 0-10-5-10-11 0-6 4-11 10-11l128 0c7 0 11 5 11 11 0 6-4 11-11 11z m0-64l-362 0c-7 0-11-5-11-11 0-6 4-11 11-11l362 0c7 0 11 5 11 11 0 6-4 11-11 11z m-85-64l-277 0c-7 0-11-5-11-11 0-6 4-11 11-11l277 0c6 0 11 5 11 11 0 6-5 11-11 11z"/>
<glyph glyph-name="revenue" unicode="Z" d="M245 395c-6 0-10-7-10-13 0-4 6-9 10-9 37 2 71-8 101-30 2-2 4-2 6-2 4 0 6 2 9 5 4 4 2 10-3 15-32 23-72 36-113 34z m267-86c0 7-4 11-11 11-6 0-10-4-10-11 0-15-9-25-22-30-8 94-100 169-213 169-15 0-32-2-47-4-17 21-43 36-70 36-15 0-30-4-43-11-4-2-6-6-6-10 0-5 2-7 4-9 15-8 25-23 30-40-43-28-71-69-81-111l-32 0c-7 0-11-5-11-11l0-85c0-7 4-11 11-11l51 0c19-36 49-64 87-81l0-68c0-7 5-11 11-11 6 0 11 4 11 11l0 57c25-10 55-15 85-15 30 0 60 7 85 15l0-57c0-7 5-11 11-11 6 0 11 4 11 11l0 68c59 30 102 85 106 147 24 4 43 26 43 51z m-256-202c-79 0-149 40-179 100-2 4-7 6-11 6l-45 0 0 64 34 0c5 0 11 5 11 9 7 43 34 83 79 109 2 4 4 8 4 12-4 20-12 37-25 50 25 6 57-7 70-30 2-5 7-7 11-5 17 5 34 7 49 7 107 0 192-73 192-160 0-88-83-162-190-162z m-107 192c0-12-9-22-21-22-12 0-21 10-21 22 0 11 9 21 21 21 12 0 21-10 21-21z"/>
<glyph glyph-name="training" unicode="0" d="M501 490c-105 0-212-23-245-63-33 40-140 63-245 63-7 0-11-5-11-11l0-368c0-6 4-11 11-11 131 0 234-35 234-67 0-6 4-11 11-11 7 0 11 5 11 11 0 32 103 67 234 67 7 0 11 5 11 11l0 368c0 6-4 11-11 11z m-123-34c20 5 43 7 67 9l0-149-33 33-34-33z m-356-334l0 345c127-2 223-35 223-66l0-330c-40 31-131 49-223 51z m468 0c-92-2-183-20-223-51l0 330c0 18 36 38 89 51l0-189 56 55 55-55 0 204c7 0 16 0 23 0z m-285 239c-38 13-89 24-147 29-7 0-13-5-13-12 0-6 4-11 11-11 55-4 104-13 140-26 2 0 2 0 4 0 5 0 9 2 11 6 3 5-2 11-6 14z m0-67c-38 13-89 24-147 29-7 0-13-5-13-11 0-7 4-11 11-11 55-5 104-14 140-27 2 0 2 0 4 0 5 0 9 2 11 6 3 5-2 12-6 14z m0-67c-38 13-89 25-147 29-7 0-13-4-13-11 0-7 4-11 11-11 55-5 107-14 142-27 2 0 2 0 5 0 4 0 8 2 11 7 0 4-5 11-9 13z m0-67c-38 14-89 25-147 29-7 0-13-4-13-11 0-7 4-11 11-11 55-4 107-13 142-27 2 0 2 0 5 0 4 0 8 2 11 7 0 4-5 11-9 13z m251 96c-58-4-111-13-147-29-6-2-8-9-6-13 2-5 6-7 11-7 2 0 2 0 4 0 36 13 87 22 143 27 6 0 11 6 11 11-5 7-11 11-16 11z m0-67c-58-4-111-13-147-29-6-2-8-9-6-13 2-5 6-7 11-7 2 0 2 0 4 0 36 14 87 23 143 27 6 0 11 7 11 11-5 7-11 11-16 11z"/>
<glyph glyph-name="marketing" unicode="1" d="M491 190l0 247c0 7-5 11-11 11l-160 0 0 11c0 6-4 10-11 10l-42 0 0 32c0 7-5 11-11 11-6 0-11-4-11-11l0-32-42 0c-7 0-11-4-11-10l0-11-160 0c-6 0-11-4-11-11l0-247c-12-4-21-17-21-30 0-17 15-32 32-32l100 0-55-113c-2-4 0-11 4-15 0 0 2 0 4 0 5 0 9 2 9 6l62 122 79 0 0-117c0-7 4-11 10-11 7 0 11 4 11 11l0 117 100 0 62-122c2-4 7-6 9-6 2 0 4 0 4 2 4 2 6 9 4 15l-55 111 100 0c17 0 32 15 32 32 0 15-9 26-21 30z m-278 258l86 0 0-21-86 0z m-170-21l149 0 0-11c0-6 4-11 11-11l106 0c7 0 11 5 11 11l0 11 149 0 0-235-426 0z m437-278l-448 0c-6 0-11 5-11 11 0 6 5 11 11 11l448 0c6 0 11-5 11-11 0-6-5-11-11-11z"/>
<glyph glyph-name="mappin-filled" unicode="2" d="M256 512c-94 0-171-77-171-171 0-89 156-326 162-337 3-2 5-4 9-4 4 0 6 2 9 4 6 11 162 248 162 337 0 94-77 171-171 171z m0-245c-41 0-75 34-75 74 0 41 34 75 75 75 41 0 75-34 75-75 0-40-34-74-75-74z"/>
<glyph glyph-name="chat" unicode="3" d="M501 480l-490 0c-7 0-11-4-11-11l0-341c0-6 4-11 11-11l138 0 0-74c0-5 2-9 7-11 2 0 2 0 4 0 2 0 6 2 9 2l83 83 251 0c7 0 11 5 11 11l0 341c-2 7-6 11-13 11z m-10-341l-246 0c-2 0-6-2-8-2l-66-69 0 60c0 6-5 11-11 11l-139 0 0 320 470 0z m-374 213l192 0c7 0 11 4 11 11 0 6-4 10-11 10l-192 0c-6 0-10-4-10-10 0-7 4-11 10-11z m0-64l278 0c6 0 10 4 10 11 0 6-4 10-10 10l-278 0c-6 0-10-4-10-10 0-7 4-11 10-11z m0-64l278 0c6 0 10 4 10 11 0 6-4 10-10 10l-278 0c-6 0-10-4-10-10 0-7 4-11 10-11z"/>
<glyph glyph-name="live-demo" unicode="4" d="M512 245c0 26-19 47-43 52l0 12c0 30-23 54-53 54-6 83-75 149-160 149-85 0-154-66-160-149-30 0-53-24-53-54l0-12c-24-5-43-26-43-52 0-25 19-47 43-51l0-13c0-30 23-53 53-53l43 0c6 0 10 4 10 11l0 213c0 6-4 11-10 11l-22 0c7 72 66 128 139 128 73 0 132-56 139-128l-22 0c-6 0-10-5-10-11l0-213c0-7 4-11 10-11l43 0 0-11c0-36-28-64-64-64l-34 0c-4 20-21 32-41 32-23 0-42-19-42-42 0-24 19-43 42-43 20 0 37 13 41 32l34 0c47 0 85 38 85 85l0 15c20 9 32 28 32 49l0 13c24 4 43 26 43 51z m-491 0c0 15 9 26 22 30l0-60c-13 5-22 15-22 30z m107-96l-32 0c-17 0-32 15-32 32l0 128c0 17 15 32 32 32l32 0z m149-128c-12 0-21 9-21 22 0 12 9 21 21 21 13 0 22-9 22-21 0-13-9-22-22-22z m171 160c0-17-15-32-32-32l-32 0 0 192 32 0c17 0 32-15 32-32z m21 34l0 60c13-4 22-17 22-30 0-12-9-25-22-30z"/>
<glyph glyph-name="phone-call" unicode="5" d="M494 145l-55 55c-25 25-65 25-90 0l-11-11c-53 45-106 98-151 152l11 11c25 24 25 64 0 89l-53 53c-25 25-65 25-89 0l-29-29c-29-29-34-75-11-111 89-134 204-249 338-338 16-9 31-16 49-16 24 0 47 9 62 27l29 29c25 24 25 64 0 89z m-15-74l-29-29c-23-22-58-24-83-9-131 87-245 201-331 332-20 27-16 62 6 85l29 29c9 6 18 11 29 11 11 0 20-5 29-11l54-56c15-16 15-42 0-58l-18-16c-5-4-5-11 0-15 49-60 109-118 169-169 4-5 11-2 15 0l18 18c16 15 43 15 58 0l56-56c13-13 13-40-2-56z"/>
<glyph glyph-name="video-play-linear" unicode="7" d="M256 512c-141 0-256-115-256-256 0-141 115-256 256-256 141 0 256 115 256 256 0 141-115 256-256 256z m0-491c-130 0-235 105-235 235 0 130 105 235 235 235 130 0 235-105 235-235 0-130-105-235-235-235z m122 244l-192 96c-3 2-7 2-11 0-2-3-4-5-4-9l0-192c0-4 2-6 4-9 2-2 4-2 6-2 2 0 5 0 5 2l192 96c4 3 6 7 6 9 0 2-2 9-6 9z m-186-88l0 158 158-79z"/>
<glyph glyph-name="chair" unicode="8" d="M480 320l-75 0 0 181c0 7-4 11-10 11-7 0-11-4-11-11l0-10-256 0 0 10c0 7-4 11-11 11-6 0-10-4-10-11l0-181-75 0c-6 0-11-4-11-11 0-6 5-10 11-10l32 0 0-96c0-2 0-5 2-5 0-2 2-2 2-2 0 0 0 0 2 0 0-4 3-4 5-4l30 0 132-81-145-90c-5-2-7-10-5-15 3-4 5-6 9-6 2 0 4 0 6 2l154 96 154-96c2-2 4-2 6-2 4 0 6 2 9 4 2 5 2 11-5 15l-145 90 132 81 30 0c2 0 5 0 5 2 0 0 0 0 2 0 2 0 2 2 2 2 0 2 2 2 2 4l0 101 32 0c6 0 11 4 11 10 0 7-5 11-11 11z m-352 43l256 0 0-86-256 0z m256 106l0-85-256 0 0 85z m-277-170l0-28-22-32 0 60z m149-177l-111 70 224 0z m-162 91l28 43 266 0 28-43z m333 26l-22 32 0 28 22 0z"/>
<glyph glyph-name="ticket" unicode="9" d="M501 309c7 0 11 5 11 11l0 96c0 6-4 11-11 11l-490 0c-7 0-11-5-11-11l0-96c0-6 4-11 11-11 30 0 53-23 53-53 0-30-23-53-53-53-7 0-11-5-11-11l0-96c0-6 4-11 11-11l490 0c7 0 11 5 11 11l0 96c0 6-4 11-11 11-30 0-53 23-53 53 0 30 23 53 53 53z m-10-128l0-74-86 0 0 21-21 0 0-21-363 0 0 74c37 7 64 37 64 75 0 38-27 68-64 75l0 74 470 0 0-74c-37-5-64-37-64-75 0-38 27-68 64-75z m-107 203l21 0 0-21-21 0z m0-43l21 0 0-21-21 0z m0-42l21 0 0-22-21 0z m0-43l21 0 0-21-21 0z m0-43l21 0 0-21-21 0z m0-42l21 0 0-22-21 0z m-53 192l-192 0c-7 0-11-5-11-11l0-192c0-6 4-11 11-11l192 0c6 0 10 5 10 11l0 192c0 6-4 11-10 11z m-11-192l-171 0 0 170 171 0z m-117 106l64 0c6 0 10 5 10 11 0 6-4 11-10 11l-64 0c-7 0-11-5-11-11 0-6 4-11 11-11z m0-64l64 0c6 0 10 5 10 11 0 6-4 11-10 11l-64 0c-7 0-11-5-11-11 0-6 4-11 11-11z"/>
<glyph glyph-name="time" unicode="!" d="M256 512c-141 0-256-115-256-256 0-141 115-256 256-256 141 0 256 115 256 256 0 141-115 256-256 256z m0-491c-130 0-235 105-235 235 0 130 105 235 235 235 130 0 235-105 235-235 0-130-105-235-235-235z m0 239l0 113c0 7-4 11-11 11-6 0-10-4-10-11l0-117c0-2 2-6 4-9l128-117c2-2 4-2 6-2 2 0 7 2 9 4 4 5 4 11 0 15z"/>
<glyph glyph-name="video-play" unicode="T" d="M256 512c-141 0-256-115-256-256 0-141 115-256 256-256 141 0 256 115 256 256 0 141-115 256-256 256z m122-265l-192-96c0-2-3-2-5-2-2 0-4 0-6 2-2 3-4 5-4 9l0 192c0 4 2 6 4 9 4 2 8 2 11 0l192-96c4-3 6-7 6-9 0-4-2-9-6-9z"/>
<glyph glyph-name="checkin-ok" unicode="U" d="M356 339l-151-143-47 47c-4 4-11 4-15 0-4-4-4-10 0-15l53-53c0-4 5-4 7-4 2 0 4 0 6 2l160 149c4 4 4 11 0 15-2 4-8 6-13 2z m-100 173c-141 0-256-115-256-256 0-141 115-256 256-256 141 0 256 115 256 256 0 141-115 256-256 256z m0-491c-130 0-235 105-235 235 0 130 105 235 235 235 130 0 235-105 235-235 0-130-105-235-235-235z"/>
<glyph glyph-name="youtube" unicode="V" d="M256 507c138 0 251-113 251-251 0-138-113-251-251-251-138 0-251 113-251 251 0 138 113 251 251 251m0 5c-142 0-256-114-256-256 0-142 114-256 256-256 142 0 256 114 256 256 0 142-114 256-256 256z m-2-228c6 0 12 3 16 6 5 3 6 8 6 15l0 38c0 6-3 11-6 14-4 4-9 6-15 6-7 0-12-2-16-6-5-3-7-7-7-14l0-38c0-7 2-11 5-15 5-5 10-6 17-6z m-7 60c0 1 1 4 2 5 2 1 3 1 5 1 2 0 3 0 4-1 1-1 2-3 2-5l0-40c0-2-1-3-2-4-1-2-3-3-4-3-2 0-3 0-5 3-1 1-1 2-1 4l0 40z m51-60c4 0 6 1 9 3 3 1 6 4 9 6l0-9 15 0 0 75-15 0 0-56c-1-1-3-3-4-5-3-1-4-1-5-1-1 0-2 0-3 1-1 2-1 3-1 5l0 58-15 0 0-63c0-4 1-7 2-9 2-4 4-5 8-5z m-18-72c-1 0-2 0-3-1-1 0-2-1-4-2l0-43c2-2 3-3 4-3 1 0 2-1 3-1 1 0 3 0 3 1 1 1 1 3 1 5l0 36c0 2 0 4-1 5 0 3-1 3-3 3z m-85 73l16 0 0 43 20 60-17 0-11-40-1 0-11 40-17 0 20-61 0-42z m131-73c-2 0-4-1-5-2-1-1-1-3-1-6l0-7 12 0 0 7c0 3 0 5-1 6-1 2-3 2-5 2z m14 54l-168 0c-26 0-48-23-48-50l0-41c0-27 22-50 48-50l167 0c26 0 48 23 48 50l0 41c1 27-21 50-47 50z m-132-32l-15 0 0-80-15 0 0 80-16 0 0 14 46 0z m44-80l-13 0 0 7c-3-3-6-5-8-6-2-1-6-2-8-2-3 0-5 1-6 3-1 2-2 5-2 10l0 57 13 0 0-53c0-2 0-3 1-3 1-1 1-1 3-1 1 0 2 0 3 1 1 1 4 2 5 3l0 52 13 0 0-68z m48 14c0-6-2-9-4-11-2-3-4-4-8-4-3 0-6 0-7 1-2 1-4 2-5 4l0-5-15 0 0 93 14 0 0-28c2 2 3 3 5 4 2 1 4 2 7 2 4 0 7-1 9-4 2-3 4-8 4-13z m45 18l-25 0 0-13c0-3 0-6 1-7 1-2 3-3 5-3 2 0 3 1 4 3 1 1 1 4 1 7l0 3 14 0 0-3c0-7-2-12-5-16-3-3-9-6-15-6-6 0-11 3-15 6-3 3-5 9-5 15l0 32c0 6 2 11 5 15 4 3 9 5 15 5 6 0 11-2 14-5 3-3 4-9 4-15l0-18z"/>
<glyph glyph-name="rss" unicode="6" d="M256 512c-142 0-256-114-256-256 0-142 114-256 256-256 142 0 256 114 256 256 0 142-114 256-256 256z m0-507c-138 0-251 113-251 251 0 138 113 251 251 251 138 0 251-113 251-251 0-138-113-251-251-251z m-47 182c0 18-14 33-33 33-18 0-32-15-32-33 0-18 14-32 32-32 19 0 33 14 33 32z m-62 130l0-47c33 0 58-10 80-31 21-22 31-47 31-80l48 0c0 86-72 158-159 158z m0 84l0-47c109 0 196-87 196-196l48 0c-1 131-113 243-244 243z"/>
<glyph glyph-name="gplus" unicode="&quot;" d="M256 512c-142 0-256-114-256-256 0-142 114-256 256-256 142 0 256 114 256 256 0 142-114 256-256 256z m0-507c-138 0-251 113-251 251 0 138 113 251 251 251 138 0 251-113 251-251 0-138-113-251-251-251z m133 273l-46 0 0 42c0 4 1 1-2 1l-12 0c-3 0-8 3-8-1l0-42-39 0c-3 0-4-1-4-5l0-12c0-3 1-5 4-5l39 0 0-41c0-4 5-3 8-3l12 0c3 0 2-1 2 3l0 41 46 0c3 0 9 2 9 5l0 12c0 4-6 5-9 5z m-141-35c-8 6-16 15-17 18 0 6 0 8 12 17 15 12 23 25 23 41 0 14-5 24-12 35l5 0c1 0 2 1 4 2l16 12c2 1 3 2 2 5-1 2-3 2-5 2l-73 0c-8 0-17 0-24-2-28-9-46-31-46-55 0-33 26-58 60-58-1-2-1-7-1-9 0-6 1-6 4-17 0 0-1 0-1 0-33 0-62-13-74-37-3-6-4-11-4-17 0-7 1-11 4-17 6-12 22-21 42-27 11-2 22-4 34-4 11 0 21 1 31 4 29 9 48 30 48 55 1 24-7 38-28 52z m-77 77c-1 12 1 24 7 31 4 4 8 7 15 7l1 0c16 0 31-18 35-40 1-12-1-25-8-31-4-5-9-8-15-8-16-1-32 19-35 41z m27-164c-24 0-42 15-42 35 0 17 22 33 47 33l1 0c5 0 11-2 15-3 2-1 3-3 5-4 12-8 20-13 22-22 0-2 1-4 1-7-1-21-17-32-49-32z"/>
<glyph glyph-name="facebook" unicode="#" d="M256 512c-142 0-256-114-256-256 0-142 114-256 256-256 142 0 256 114 256 256 0 142-114 256-256 256z m0-507c-138 0-251 113-251 251 0 138 113 251 251 251 138 0 251-113 251-251 0-138-113-251-251-251z m22 329c0 11 2 9 7 9 6 0 36 0 36 0l0 49-42 0c-50 0-56-35-56-58l0-36-32 0 0-43 32 0c0-62 0-142 0-142l55 0c0 0 0 81 0 142l41 0 6 43-47 0z"/>
<glyph glyph-name="twitter" unicode="$" d="M256 512c-142 0-256-114-256-256 0-142 114-256 256-256 142 0 256 114 256 256 0 142-114 256-256 256z m0-507c-138 0-251 113-251 251 0 138 113 251 251 251 138 0 251-113 251-251 0-138-113-251-251-251z m123 358c-10-7-22-11-34-14-9 10-24 17-39 17-29 0-53-25-53-57 0-4 0-8 1-13-45 2-84 25-110 59-5-9-8-17-8-28 0-20 10-37 24-47-9 0-13 3-24 7 0 0 0 0 0-2 0-27 19-50 43-55-5-1-9-2-15-2-3 0-6 0-9 1 6-23 26-38 50-39-19-16-42-24-67-24-4 0-8 0-13 1 24-17 51-25 82-25 98 0 151 86 151 160 0 2 0 4 0 7 11 8 20 18 27 30-10-5-20-8-31-9 12 9 21 20 25 33z"/>
<glyph glyph-name="linkedin" unicode="%" d="M256 507c138 0 251-113 251-251 0-138-113-251-251-251-138 0-251 113-251 251 0 138 113 251 251 251m0 5c-142 0-256-114-256-256 0-142 114-256 256-256 142 0 256 114 256 256 0 142-114 256-256 256z m-117-200l55 0 0-174-55 0z m55 45c0-15-12-27-27-27-15 0-28 12-28 27 0 15 13 28 28 28 15 0 27-13 27-28z m200-126c0 46-9 81-63 81-26 0-42-15-50-28l-1 0 0 23-50 0 0-169 53 0 0 84c0 22 5 44 32 44 27 0 27-25 27-45l0-82 52 0z"/>
<glyph glyph-name="help" unicode="&amp;" d="M278 122c0-12-10-22-22-22-12 0-22 10-22 22 0 13 10 23 22 23 12 0 22-10 22-23z m-22 390c-140 0-256-116-256-256 0-140 116-256 256-256 140 0 256 116 256 256 0 140-116 256-256 256z m0-490c-129 0-234 105-234 234 0 129 105 234 234 234 129 0 234-105 234-234 0-129-105-234-234-234z m0 368c-42 0-78-36-78-78 0-7 5-11 11-11 7 0 11 4 11 11 0 31 25 55 56 55 31 0 56-24 56-55 0-32-25-56-56-56-7 0-11-4-11-11l0-67c0-7 4-11 11-11 7 0 11 4 11 11l0 56c38 4 67 38 67 78 0 42-36 78-78 78z"/>
<glyph glyph-name="pingpong" unicode="'" d="M476 396c-12 11-26 19-42 24-2 0-4 1-7 1-2 1-5 1-7 2-2 0-5 1-7 1-13 0-26 0-39-4-9-2-21-5-36-13-13-7-21-15-28-20-4-4-8-8-12-12-24-27-37-60-37-94 0-4 0-8 0-11 0-2 1-6 1-8 0-11 4-20 5-27 3-7 4-13 4-19 0-1 0-2-1-4 0-4-3-9-8-16 0 0-1 0-1 0l-5-7-6 7c0 0-1 0-1 0-6 6-8 12-9 16 0 2 0 3-1 4 0 6 2 12 4 19 3 8 5 17 6 27 0 2 1 6 1 8 0 4 0 7 0 11-1 34-14 67-38 94-4 4-8 8-12 12-6 5-14 13-28 20-14 7-26 11-36 13-11 4-24 4-37 3-2 0-5-1-7-1-2 0-5-1-7-2-3 0-5 0-7-1-16-4-30-12-42-23-24-21-37-52-36-85 1-34 14-67 38-94 6-7 13-13 20-19 3-2 5-4 8-6 3-1 5-4 8-5 1 0 2-1 2-1 0 0 1 0 1 0 1-1 2-2 4-2 0 0 1 0 1 0 1-1 3-2 4-3 0 0 0 0 1 0 16-7 34-11 51-12 3 0 5 0 8 0 4 0 8 0 12 0 6 1 12 2 17 3 4 0 8 1 12 1 3 0 5 0 7 0 2 0 3-1 4-1 5-1 10-4 15-10 0 0 1-1 1-1l8-10-24-23c-4-5-2-18 10-29 9-8 16-10 21-11 4 0 8 1 9 4l18 20 18-21c1-3 5-3 9-3 5 0 12 2 21 10 12 11 14 24 10 29l-23 25 9 10c0 0 1 1 1 1 5 5 10 9 14 10 2 0 3 1 4 1 3 0 5 0 7 0 4 0 8-1 12-2 5 0 12-2 18-2 4 0 7-1 11 0 3 0 5 0 8 0 18 1 35 5 51 12 0 0 0 0 1 0 2 1 3 2 5 2 0 0 1 0 1 0 1 1 2 2 4 3 0 0 1 0 1 0 0 0 1 1 1 1 3 1 6 3 9 5 2 2 5 3 7 6 7 5 15 12 21 19 24 26 38 60 38 94-1 32-14 63-38 84z m-331-218c-3 0-5 0-7 0-16 1-32 4-48 11-1 1-2 2-4 2 0 0 0 0 0 0-2 1-3 1-4 2 0 0-1 0-1 0-1 0-1 1-2 1-2 2-5 3-8 5-2 1-5 3-7 5-7 5-14 11-19 17-23 27-35 58-36 89-1 31 11 59 33 79 11 10 24 17 38 22 2 1 4 1 6 1 3 1 5 1 7 2 2 0 5 1 7 1 12 1 24 1 36-3 9-2 20-5 33-12 13-6 20-12 25-18 4-3 8-7 12-11 22-25 34-55 35-87 0-3 0-7 0-10 0-2-1-5-1-7z m94 74c-1-5-2-10-4-14-1-5-3-10-4-14 0 0 0-1 0-1 0-3-1-4 0-7l-2 3-2 2-1 2-5 5-1 0c-1 1-2 2-3 3l4 3 9 8 9 9z m-51-68c0 0-1 0-1 0-1 0-1 0-1 0-4 0-8-1-13-3-5-1-9-1-15-2l1 1 10 8 9 8 4 4c0-2 0-3 2-4l1-2 4-5 1-1 2-3 2-2c-2 1-4 1-6 1z m2 17c0 1 0 1 0 0 0 1 0 1 0 1l23 20c0 0 1 0 1 0l36-39-22-24z m117-80c1-2-1-9-9-16-7-6-12-8-15-8-1 0-2 0-2 0l-19 21 24 26z m-75-24c0 0-2 0-2 0-3 0-8 2-16 8-8 7-8 15-8 16l93 101c0 1 1 0 1 0l22-20c0 0 0 0 0-1 0 0 0 0 0-1z m41 155l1-1 9-9 9-8 4-3c-2-1-2-2-3-3l-1 0-5-5-1-2-2-2-2-3c0 3 0 4 0 7 0 0 0 1 0 1-1 4-3 8-4 14-3 4-4 8-5 14z m66-71c-5 1-9 2-13 3 0 0 0 0-1 0 0 0-1 0-1 0-2 0-4 0-6 0l2 2 2 2 1 2 4 5 1 1c1 1 2 3 2 4l4-3 9-8 10-9 1 0c-5 0-10 0-15 1z m129 42c-6-7-12-13-19-18-3-1-5-3-7-5-3-1-6-3-8-4-1 0-1-1-2-1 0 0-1 0-1 0-1-1-2-2-4-3 0 0-1 0-1 0-1 0-2-1-4-1-15-7-31-11-47-11-2 0-5 0-7 0l-96 86c0 2-1 5-1 7 0 3 0 7 0 11 1 31 13 62 35 86 4 4 8 7 12 11 5 6 13 12 25 19 13 7 25 10 33 12 12 3 24 4 36 2 2 0 5-1 7-1 3 0 5-1 7-1 2-1 4-1 6-2 14-4 27-11 38-22 22-20 34-48 33-79-1-30-13-61-35-86z"/>
<glyph glyph-name="fm-opportunity-win" unicode="(" d="M508 136c0 14-13 26-27 26l-78 0c4 15 9 39 9 55 0 25-16 37-30 37-14 0-24-10-24-23 0-47-39-79-75-79l-31 0c-6 0-11-5-11-11l0-100c0-6 5-11 11-11 51 0 67-7 81-14 10-5 21-9 42-9l73 0c14 0 26 12 26 27 0 3 0 7-2 10 9 5 14 14 14 23 0 4 0 7-1 11 8 5 14 14 14 23 0 3 0 7-2 10 5 7 11 16 11 25z m-27-5l-10 0c-6 0-11-6-11-11 0-5 5-11 11-11 3 0 7-3 7-7 0-3-4-7-7-7l-11 0c-5 0-11-5-11-10 0-6 6-11 11-11 3 0 7-3 7-7 0-3-4-7-7-7l-11 0c-5 0-10-5-10-11 0-5 5-10 10-10 4 0 7-4 7-7 0-4-3-7-7-7l-74 0c-16 0-25 3-33 7-14 7-32 14-80 14l0 86 23 0c44 0 94 41 94 101 0 2 3 2 3 2 6 0 9-4 9-16 0-21-11-62-11-62 0-3 0-7 2-9 2-1 6-3 9-3l90 0c4 0 7-4 7-7 0-6-3-7-7-7z m-289 116l58 0c5 0 10 5 10 11l0 49 156 0 0-12c0-5 5-11 10-11 6 0 11 6 11 11l0 120c0 5-5 10-11 10l-118 0c-5 45-42 78-88 78-46 0-81-33-87-78l-118 0c-5 0-11-5-11-10l0-274c0-5 6-10 11-10l164 0c5 0 11 5 11 10 0 6-6 11-11 11l-155 0 0 155 157 0 0-49c0-6 3-11 11-11z m47 21l-39 0 0 59 39 0z m-19 216c33 0 62-25 67-59l-134 0c5 32 33 59 67 59z m-196-157l0 77 392 0 0-77-156 0 0 10c0 6-5 11-10 11l-58 0c-6 0-11-5-11-11l0-10z"/>
<glyph glyph-name="mappin" unicode=")" d="M256 512c-94 0-171-77-171-171 0-89 156-326 162-337 3-2 5-4 9-4 4 0 6 2 9 4 6 11 162 248 162 337 0 94-77 171-171 171z m0-482c-34 53-149 239-149 311 0 84 66 150 149 150 83 0 149-66 149-150 0-72-115-258-149-311z m0 386c-41 0-75-34-75-75 0-40 34-74 75-74 41 0 75 34 75 74 0 41-34 75-75 75z m0-128c-30 0-53 23-53 53 0 30 23 54 53 54 30 0 53-24 53-54 0-30-23-53-53-53z"/>
<glyph glyph-name="mail" unicode="*" d="M465 431l-418 0c-26 0-47-21-47-47l0-256c0-26 21-47 47-47l418 0c26 0 47 21 47 47l0 256c0 26-21 47-47 47z m0-24c3 0 3 0 5 0l-214-172-214 172c2 0 2 0 5 0z m24-279c0-14-10-23-24-23l-418 0c-14 0-24 9-24 23l0 256c0 2 0 5 3 7l223-179c2-3 5-3 7-3 2 0 5 0 7 3l223 179c3-2 3-5 3-7z"/>
<glyph glyph-name="phone-calls-2" unicode="+" d="M367 166c-19 20-56 20-75 0l-8-8c-45 36-88 79-124 124l9 8c21 21 21 56 0 75l-47 47c-20 19-56 19-75 0l-26-26c-25-25-30-64-8-94 72-111 170-207 279-279 13-9 26-13 41-13 19 0 38 9 53 21l26 26c21 21 21 55 0 75z m30-104l-26-26c-17-17-47-21-66-6-109 72-203 166-275 275-15 21-11 49 6 66l26 26c6 6 15 8 23 8 9 0 15-2 22-8l44-45c13-13 13-32 0-45l-14-15c-5-4-5-10 0-15 40-51 89-98 140-140 5-5 11-3 15 0l15 14c13 13 34 13 45 0l45-44c13-13 13-32 0-45z m-141 450c-6 0-11-4-11-11 0-6 5-10 11-10 130 0 235-105 235-235 0-6 4-11 10-11 7 0 11 5 11 11 0 141-115 256-256 256z m0-107c83 0 149-66 149-149 0-6 5-11 11-11 6 0 11 5 11 11 0 94-77 171-171 171-6 0-11-5-11-11 0-6 5-11 11-11z m0-85c36 0 64-28 64-64 0-6 4-11 11-11 6 0 10 5 10 11 0 47-38 85-85 85-6 0-11-4-11-10 0-7 5-11 11-11z"/>
<glyph glyph-name="next" unicode="-" d="M380 266l-242 242c-5 5-14 5-20 0-6-6-6-15 0-20l232-232-232-232c-6-5-6-14 0-20 3-3 6-4 10-4 4 0 7 1 10 4l242 242c5 5 5 14 0 20"/>
<glyph glyph-name="prev" unicode="," d="M148 256l232 232c5 5 5 14 0 20-6 5-15 5-20 0l-242-242c-6-6-6-15 0-20l242-242c3-3 6-4 10-4 3 0 7 1 10 4 5 6 5 15 0 20l-232 232"/>
<glyph glyph-name="knowledge" unicode="." d="M501 456l-34 0 0 34c0 6-5 11-11 11l-133 0c-26 3-52-9-67-31-15 22-41 34-67 31l-133 0c-6 0-11-5-11-11l0-34-34 0c-6 0-11-5-11-11l0-356c0-6 5-11 11-11l134 0c20 0 66-5 66-56 0-6 5-11 12-11l66 0c7 0 12 5 12 11 0 51 46 56 66 56l134 0c6 0 11 5 11 11l0 356c0 6-5 11-11 11z m-234-33c0 38 17 56 56 56l122 0 0-334-122 0c-21 2-41-5-56-19z m-200 56l122 0c39 0 56-18 56-56l0-297c-15 14-35 21-56 19l-122 0z m423-379l-121 0c-51 0-84-26-89-67l-46 0c-6 41-40 67-89 67l-123 0 0 334 23 0 0-300c0-7 5-12 11-12l133 0c39 0 56-17 56-55 0-6 5-11 11-11 7 0 12 5 12 11 0 38 16 55 55 55l133 0c6 0 11 5 11 12l0 300 23 0z"/>
<glyph glyph-name="getstarted" unicode="/" d="M426 368c-1 2-3 4-6 4l-320 139c-1 0-3 0-4 0l-2 0c-1 0-2 0-3-1-1-1-2-2-2-2l0-2c-1-1-2-3-2-4l0-491c0-6 5-11 11-11 6 0 11 5 11 11l0 206 313 136c5 3 7 10 4 15z m-319-128l0 245 282-123z"/>
<glyph glyph-name="faqs" unicode=":" d="M256 491c-140 0-253-94-253-209 1-56 27-108 70-144l-51-101c-2-6 0-12 5-15 2 0 3-1 5-1 1 0 3 0 4 0l136 64c27-8 56-12 84-12 140 0 254 93 254 208 0 115-114 210-254 210z m0-396l0 0c-28 0-55 4-82 12-2 1-5 1-7 0l-112-52 41 82c2 4 1 9-3 12-42 32-68 81-69 133 0 104 104 188 232 188 128 0 232-85 232-188 0-102-104-187-232-187z m32 90c0-12-10-21-21-21-12 0-22 9-22 21 0 11 10 21 22 21 11 0 21-10 21-21z m-21 210c-42 0-75-34-74-75 0-6 4-11 10-11 6 0 11 5 11 11 0 29 23 53 53 54 28 0 52-23 52-52 0-29-24-52-52-52-6 0-11-5-11-11l0-26c0-6 5-11 11-11 5 0 10 5 10 11l0 16c40 6 68 42 63 82-5 37-36 65-73 64z"/>
<glyph glyph-name="docs" unicode=";" d="M461 376c-1 2-2 3-3 4l-128 128c-2 3-6 4-9 4l-205 0c-7 0-13-6-13-13l0-38-38 0c-7 0-13-6-13-13l0-435c0-7 6-13 13-13l333 0c7 0 13 6 13 13l0 38 38 0c7 0 13 6 13 13l0 307c0 2-1 4-1 5z m-128 92l84-84-84 0z m51-442l-307 0 0 409 25 0 0-371c0-7 6-13 13-13l269 0z m51 51l-307 0 0 409 179 0 0-115c0-7 6-13 13-13l115 0z"/>
<glyph glyph-name="offline-cloud" unicode="&lt;" d="M475 350c-21 20-49 32-78 33-28 51-82 84-141 84-80 0-147-59-158-138-23 2-45-5-63-20-22-17-34-42-34-70 0-77 68-88 89-90 6 0 11 4 12 10 0 6-4 11-11 12-20 2-68 12-68 68 0 21 10 40 26 53 16 13 36 18 57 14l12-3 1 13c4 73 65 129 137 129 53 0 101-31 124-78l3-7 7 0c26 1 51-8 70-26 18-18 29-42 29-68 0-83-83-95-86-95-6-1-10-7-10-13 1-5 6-9 11-9 1 0 1 0 2 0 1 0 105 15 105 117 0 32-13 62-36 84z m-230-62c-67 0-122-54-122-122 0-67 55-121 122-121 67 0 122 54 122 121 0 68-55 122-122 122z m0-221c-55 0-100 44-100 99 0 55 45 100 100 100 55 0 100-45 100-100 0-55-45-99-100-99z m47 146c-4 5-11 5-16 0l-31-31-31 31c-5 5-12 5-16 0-4-4-4-11 0-15l31-32-31-31c-4-4-4-11 0-16 2-2 5-3 8-3 3 0 5 1 8 3l31 32 31-32c2-2 5-3 8-3 3 0 6 1 8 3 4 5 4 12 0 16l-31 31 31 32c4 4 4 11 0 15z"/>
</font>
</defs>
</svg>
