<?xml version="1.0" encoding="UTF-8" standalone="no"?>
<!DOCTYPE svg PUBLIC "-//W3C//DTD SVG 1.1//EN" "http://www.w3.org/Graphics/SVG/1.1/DTD/svg11.dtd">
<svg xmlns="http://www.w3.org/2000/svg">
<metadata/>
<defs>
<font id="quanregular" horiz-adv-x="378">
<font-face units-per-em="2048" ascent="1536" descent="-512"/>
<missing-glyph horiz-adv-x="500"/>
<glyph horiz-adv-x="2048"/>
<glyph horiz-adv-x="2048"/>
<glyph unicode="" horiz-adv-x="2048"/>
<glyph unicode=" "/>
<glyph unicode="!" d="M123 6v160q43 6 65 6q25 0 68 -6v-160q-43 -6 -66 -6q-25 0 -67 6zM123 1018q43 6 65 6q23 0 66 -6q-10 -389 -12 -744q-43 -6 -54 -6q-10 0 -53 6q-2 354 -12 744z"/>
<glyph unicode="&quot;" horiz-adv-x="563" d="M123 1092q43 6 65 6q25 0 68 -6l-23 -289l-43 -6l-47 6zM307 1092q43 6 66 6q24 0 67 -6l-22 -289l-43 -6l-47 6z"/>
<glyph unicode="#" horiz-adv-x="1245" d="M123 334q0 20 6 63h156l80 265h-152q-6 43 -6 55q0 20 6 63h186l72 238q18 6 66 6q45 0 65 -12l-72 -232h308l71 238q18 6 66 6q45 0 65 -12l-71 -232h147q6 -43 6 -61q0 -14 -6 -57h-182l-82 -265h180q6 -43 6 -61q0 -14 -6 -57h-215l-82 -267q-20 -12 -65 -12 q-47 0 -66 6l82 273h-307l-82 -267q-20 -12 -66 -12q-47 0 -65 6l82 273h-119q-6 43 -6 55zM414 397h309l80 265h-307z"/>
<glyph unicode="$" horiz-adv-x="1015" d="M123 82q4 66 51 106q125 -68 272 -79v360q-317 94 -317 283q0 260 317 282v109q43 6 66 6q25 0 68 -6v-109q174 -4 276 -41q-2 -51 -31 -110q-80 29 -245 32v-346q150 -47 215 -94q98 -70 98 -182q0 -172 -96 -244q-74 -53 -217 -59v-109q-43 -6 -66 -6q-25 0 -68 6v109 q-250 18 -323 92zM262 752q0 -87 184 -144v307q-184 -25 -184 -163zM580 109q180 16 180 184q0 84 -180 137v-321z"/>
<glyph unicode="%" horiz-adv-x="1189" d="M123 696v176q0 72 59 115q53 37 131 37t131 -37q59 -43 60 -115v-176q0 -152 -191 -151q-190 -1 -190 151zM225 696q0 -59 88 -59t88 59v176q0 61 -88 62q-88 -1 -88 -62v-176zM311 6l439 1012q18 6 65 6q45 0 66 -12l-439 -1000q-20 -12 -65 -12q-47 0 -66 6zM686 152 v176q0 72 59 114q53 37 132 37q78 0 131 -37q59 -43 59 -114v-176q0 -152 -190 -152q-191 0 -191 152zM788 152q0 -59 89 -60q88 0 88 60v176q0 61 -88 61q-89 0 -89 -61v-176z"/>
<glyph unicode="&amp;" horiz-adv-x="1079" d="M123 272q0 158 242 252q-70 117 -70 226q0 141 45 204q57 80 203 80q145 0 202 -80q45 -63 46 -204q0 -164 -250 -275q51 -63 235 -235q47 84 47 221q43 6 66 6q25 0 67 -6q0 -192 -82 -311l78 -74q-16 -27 -37 -43q-10 -8 -51 -33l-71 70q-111 -80 -283 -80 q-197 0 -268 35q-119 59 -119 247zM256 272q0 -113 59 -143q41 -20 193 -20q118 0 192 47q-190 174 -268 272q-176 -78 -176 -156zM428 750q0 -91 49 -183q180 70 180 183q0 98 -14 124q-20 41 -100 41q-78 0 -101 -41q-14 -29 -14 -124z"/>
<glyph unicode="'" d="M123 1092q43 6 65 6q25 0 68 -6l-23 -289l-43 -6l-47 6z"/>
<glyph unicode="(" horiz-adv-x="442" d="M123 518q0 336 63 619q43 6 66 6q24 0 67 -6q-63 -289 -63 -619q0 -358 63 -631q-43 -6 -65 -6q-25 0 -68 6q-63 279 -63 631z"/>
<glyph unicode=")" horiz-adv-x="442" d="M123 -113q63 272 63 631q0 330 -63 619q43 6 67 6q23 0 66 -6q63 -283 63 -619q0 -352 -63 -631q-43 -6 -68 -6q-23 0 -65 6z"/>
<glyph unicode="*" horiz-adv-x="765" d="M123 846l10 61q8 29 23 60l198 -90l-32 215q43 6 61 6q20 0 63 -6l-34 -215l198 90q14 -31 23 -60l10 -61l-215 -25l158 -151q-23 -23 -47 -43q-8 -6 -54 -31l-102 188l-102 -188q-45 25 -54 31q-25 20 -47 43l158 151z"/>
<glyph unicode="+" horiz-adv-x="997" d="M123 397q0 20 6 64h303v309q43 6 66 6q25 0 67 -6v-309h303q6 -43 6 -62q0 -14 -6 -57h-303v-309q-43 -6 -65 -6q-25 0 -68 6v309h-303q-6 43 -6 55z"/>
<glyph unicode="," horiz-adv-x="296" d="M61 -66l41 232q43 6 66 6q25 0 68 -6l-91 -232q-18 -6 -47 -6q-18 0 -37 6z"/>
<glyph unicode="-" horiz-adv-x="792" d="M123 397q0 20 6 64h535q6 -43 6 -62q0 -14 -6 -57h-535q-6 43 -6 55z"/>
<glyph unicode="." d="M123 6v160q43 6 65 6q25 0 68 -6v-160q-43 -6 -66 -6q-25 0 -67 6z"/>
<glyph unicode="/" horiz-adv-x="720" d="M123 6l344 1131q18 6 65 6q45 0 66 -13l-344 -1118q-20 -12 -66 -12q-47 0 -65 6z"/>
<glyph unicode="0" horiz-adv-x="1003" d="M123 371v282q0 211 47 277q74 104 332 104t332 -104q47 -66 47 -277v-282q0 -209 -47 -277q-74 -104 -332 -104t-332 104q-47 68 -47 277zM256 375q0 -164 31 -207q43 -59 215 -59t215 59q31 43 31 207v274q0 166 -31 207q-43 59 -215 59t-215 -59q-31 -41 -31 -207v-274 z"/>
<glyph unicode="1" horiz-adv-x="610" d="M20 801l334 217q43 6 66 6q25 0 67 -6v-1012q-43 -6 -65 -6q-25 0 -68 6v852q-240 -160 -243 -156q-29 8 -54 33q-20 16 -37 66z"/>
<glyph unicode="2" horiz-adv-x="823" d="M92 745q0 133 45 193q72 96 285 96q215 0 287 -96q45 -59 45 -193q0 -152 -217 -344q-256 -229 -283 -282h494q6 -43 6 -62q0 -14 -6 -57h-637q-6 43 -7 55q0 25 9 64q33 131 278 338q229 193 230 286q0 92 -25 123q-39 49 -172 49t-174 -49q-25 -31 -25 -123 q-43 -6 -65 -6q-29 0 -68 8z"/>
<glyph unicode="3" horiz-adv-x="858" d="M72 745q0 133 45 193q72 96 284 96q215 0 287 -96q45 -59 45 -193q0 -172 -84 -233q86 -59 86 -229q0 -135 -45 -195q-72 -98 -287 -98q-213 0 -284 96q-45 57 -45 193q39 8 67 8q23 0 66 -6q0 -92 24 -123q41 -49 175 -49q133 0 172 49q25 31 24 123q0 92 -29 122 q-47 49 -200 50q-8 38 -8 61q0 14 6 57q152 0 198 50q31 33 31 122q0 92 -25 123q-39 49 -172 49t-174 -49q-25 -31 -24 -123q-43 -6 -66 -6q-29 0 -67 8z"/>
<glyph unicode="4" horiz-adv-x="811" d="M20 377q0 20 7 63l442 578q41 6 88 6q50 0 68 -6v-578h118q6 -43 7 -61q0 -14 -7 -57h-118v-316q-33 -6 -68 -6q-43 0 -65 6v316h-465q-6 43 -7 55zM182 440h310v404z"/>
<glyph unicode="5" horiz-adv-x="874" d="M123 270q43 6 65 6q25 0 68 -6q0 -90 25 -116q39 -45 174 -45q131 0 172 61q25 37 24 135q0 102 -24 144q-41 70 -172 69q-199 0 -199 -67q-29 -6 -68 -7q-66 0 -65 5v512q0 20 6 63h616q6 -43 7 -61q0 -14 -7 -58h-489v-291q74 23 197 23q212 0 286 -117q45 -70 45 -213 q0 -141 -45 -207q-74 -111 -286 -110q-213 0 -285 92q-45 55 -45 188z"/>
<glyph unicode="6" horiz-adv-x="825" d="M102 307v422q0 305 351 305q170 0 274 -33q0 -59 -31 -112q-82 27 -245 26q-215 0 -215 -174v-155q80 35 196 35q213 0 287 -109q45 -66 45 -205q0 -141 -45 -207q-74 -111 -287 -110q-211 0 -285 110q-45 66 -45 207zM236 299q-1 -94 26 -131q41 -59 172 -59t172 61 q25 37 25 135t-25 135q-41 61 -172 62q-133 0 -174 -62q-25 -39 -24 -141z"/>
<glyph unicode="7" horiz-adv-x="720" d="M20 961q0 20 7 63h637q6 -43 6 -61q0 -14 -6 -58l-275 -899q-43 -6 -65 -6q-25 0 -68 6l264 899h-493q-6 43 -7 56z"/>
<glyph unicode="8" horiz-adv-x="868" d="M102 745q0 133 45 193q72 96 285 96q215 0 287 -96q45 -59 45 -193q0 -172 -84 -233q86 -59 86 -229q0 -136 -45 -195q-72 -98 -287 -98q-213 0 -284 98q-45 59 -46 195q0 168 82 227q-84 61 -84 235zM236 743q-1 -91 24 -122q41 -49 174 -50q133 0 172 50q25 31 25 122 q0 92 -25 123q-39 49 -172 49t-174 -49q-25 -31 -24 -123zM238 281q-1 -92 24 -123q41 -49 174 -49t172 49q25 31 25 123t-25 122q-39 49 -172 50q-133 0 -174 -50q-25 -31 -24 -122z"/>
<glyph unicode="9" horiz-adv-x="825" d="M61 717q0 141 45 209q74 109 287 108q211 0 285 -108q45 -68 45 -209v-422q0 -305 -350 -305q-170 0 -275 33q0 61 31 112q82 -27 246 -26q215 0 215 174v155q-74 -35 -197 -35q-213 0 -287 109q-45 66 -45 205zM195 719q0 -98 24 -135q41 -61 172 -62q133 0 174 62 q25 37 25 135t-25 135q-41 61 -174 61q-131 0 -172 -61q-25 -37 -24 -135z"/>
<glyph unicode=":" d="M123 6v160q43 6 65 6q25 0 68 -6v-160q-43 -6 -66 -6q-25 0 -67 6zM123 565v160q43 6 65 6q25 0 68 -6v-160q-43 -6 -66 -6z"/>
<glyph unicode=";" horiz-adv-x="419" d="M123 -66l41 232q43 6 65 6q25 0 68 -6l-90 -232q-18 -6 -47 -6q-18 0 -37 6zM160 565v160q43 6 65 6q25 0 68 -6v-160q-43 -6 -66 -6z"/>
<glyph unicode="&lt;" horiz-adv-x="890" d="M123 377q0 67 16 112l617 254q12 -20 12 -65q0 -47 -6 -66l-524 -223h-21v-22h21l524 -224q6 -18 6 -65q0 -43 -12 -66l-617 254q-16 45 -16 111z"/>
<glyph unicode="=" horiz-adv-x="792" d="M123 238q0 20 6 63h535q6 -43 6 -61q0 -14 -6 -58h-535q-6 43 -6 56zM123 537q0 20 6 63h535q6 -43 6 -61q0 -14 -6 -58h-535q-6 43 -6 56z"/>
<glyph unicode="&gt;" horiz-adv-x="890" d="M123 78q0 47 6 65l524 224h21v22h-21l-524 223q-6 18 -6 66q0 45 12 65l617 -254q16 -45 16 -112q0 -66 -16 -111l-617 -254q-12 23 -12 66z"/>
<glyph unicode="?" horiz-adv-x="782" d="M123 985q88 49 237 49q152 0 222 -49q78 -53 77 -176q0 -129 -131 -221q-133 -94 -133 -164v-160q-43 -6 -65 -6q-25 0 -68 6v160q0 131 133 221q131 90 131 164q0 59 -30 82q-35 25 -140 24q-127 0 -192 -43q-35 49 -41 113zM264 6v160q43 6 66 6q24 0 67 -6v-160 q-43 -6 -65 -6q-25 0 -68 6z"/>
<glyph unicode="@" horiz-adv-x="1310" d="M123 289v442q0 145 135 230q119 74 283 73h229q164 0 283 -73q135 -84 135 -230v-395q0 -141 -197 -141q-162 0 -162 73h-18q-57 -61 -162 -61q-180 0 -235 80q-37 51 -37 192v80q0 145 33 195q51 78 223 77q123 0 162 -61h16v57l55 4l54 -4v-491q0 -57 71 -57 q63 0 64 57v395q0 74 -70 125q-80 59 -215 59h-229q-135 0 -215 -59q-70 -51 -70 -125v-442q0 -180 285 -180h229q186 0 244 51q18 -18 30 -47q12 -33 17 -52q-82 -71 -291 -71h-229q-418 0 -418 299zM487 481q0 -82 21 -116q35 -59 141 -60q106 0 142 60q20 35 20 116v107 q0 145 -180 145q-94 0 -125 -59q-18 -33 -19 -115v-78z"/>
<glyph unicode="A" horiz-adv-x="892" d="M20 12l318 996q45 16 108 16t109 -16l317 -996q-20 -12 -73 -12q-47 0 -66 6l-104 326h-365l-104 -326q-18 -6 -66 -6q-51 0 -74 12zM301 451h291l-146 458z"/>
<glyph unicode="B" horiz-adv-x="968" d="M123 0v1024h424q174 0 233 -37q96 -57 97 -252q-1 -153 -60 -223q59 -66 60 -221q0 -195 -97 -254q-59 -37 -233 -37h-424zM256 119h289q213 0 213 172q0 102 -72 139q-45 20 -141 21h-289v-332zM256 569h289q213 0 213 166q0 170 -213 170h-289v-336z"/>
<glyph unicode="C" horiz-adv-x="950" d="M102 369v286q0 379 437 379q215 0 340 -41q0 -59 -31 -112q-110 34 -302 34h-11q-123 0 -207 -61q-92 -68 -92 -184v-316q0 -117 92 -184q84 -61 207 -61q201 0 313 34q31 -53 31 -112q-125 -41 -340 -41q-436 0 -437 379z"/>
<glyph unicode="D" horiz-adv-x="1007" d="M123 0v1024h346q436 0 436 -379v-266q0 -379 -436 -379h-346zM256 119h217q123 0 207 61q92 68 92 185v294q0 117 -92 185q-84 61 -207 61h-217v-786z"/>
<glyph unicode="E" horiz-adv-x="917" d="M123 0v1024h680q6 -43 6 -61q0 -14 -6 -58h-547v-334h479q6 -43 6 -61q0 -14 -6 -57h-479v-334h547q6 -43 6 -58q0 -18 -6 -61h-680z"/>
<glyph unicode="F" horiz-adv-x="870" d="M123 6v1018h680q6 -43 6 -61q0 -14 -6 -58h-547v-330h481q6 -43 6 -57q0 -18 -6 -61h-481v-451q-43 -6 -66 -6q-25 0 -67 6z"/>
<glyph unicode="G" horiz-adv-x="980" d="M102 369v286q0 379 437 379q215 0 340 -41q0 -59 -31 -112q-110 34 -302 34h-11q-123 0 -207 -61q-92 -68 -92 -184v-316q0 -117 92 -184q84 -61 207 -61q109 0 210 14v295h-176q-6 43 -6 57q0 18 6 62h242q25 0 68 -7v-499q-125 -41 -340 -41q-436 0 -437 379z"/>
<glyph unicode="H" horiz-adv-x="1042" d="M123 6v1012q43 6 65 6q25 0 68 -6v-443h530v443q43 6 66 6q25 0 68 -6v-1012q-43 -6 -66 -6q-25 0 -68 6v451h-530v-451q-43 -6 -66 -6q-25 0 -67 6z"/>
<glyph unicode="I" d="M123 6v1012q43 6 65 6q25 0 68 -6v-1012q-43 -6 -66 -6q-25 0 -67 6z"/>
<glyph unicode="J" horiz-adv-x="753" d="M20 203v76q43 6 66 6q25 0 68 -6v-62q0 -70 41 -92q33 -16 131 -16q100 0 131 16q41 20 41 90v803q43 6 65 6q25 0 68 -6v-815q0 -102 -49 -150q-68 -63 -242 -63h-29q-174 0 -239 63q-51 47 -52 150z"/>
<glyph unicode="K" horiz-adv-x="1015" d="M123 6v1012q43 6 65 6q25 0 68 -6v-451l618 457q31 -31 44 -49q16 -18 34 -57l-356 -273l389 -633q-20 -12 -74 -12q-55 0 -73 6l-353 563l-229 -170v-393q-43 -6 -66 -6q-25 0 -67 6z"/>
<glyph unicode="L" horiz-adv-x="821" d="M123 0v1018q43 6 65 6q25 0 68 -6v-899h518q6 -43 6 -58q0 -18 -6 -61h-651z"/>
<glyph unicode="M" horiz-adv-x="1273" d="M123 8v1000q45 16 123 16q80 0 125 -16l268 -824l264 824q45 16 125 16q78 0 123 -16v-1000q-14 -8 -64 -8q-51 0 -69 6v899l-305 -899q-18 -6 -74 -6q-55 0 -76 6l-307 899v-899q-18 -6 -70 -6q-49 0 -63 8z"/>
<glyph unicode="N" horiz-adv-x="1093" d="M123 8v1000q45 16 121 16q66 0 110 -16l484 -891v901q18 6 69 6q49 0 64 -8v-1000q-45 -16 -142 -16q-63 0 -84 6l-489 899v-899q-18 -6 -70 -6q-49 0 -63 8z"/>
<glyph unicode="O" horiz-adv-x="1015" d="M102 371v282q0 211 52 277q80 104 354 104t354 -104q51 -66 51 -277v-282q0 -209 -51 -277q-80 -104 -354 -104t-354 104q-51 68 -52 277zM236 375q0 -158 43 -207q51 -59 229 -59t229 59q43 49 43 207v274q0 158 -43 207q-51 59 -229 59t-229 -59q-43 -49 -43 -207v-274 z"/>
<glyph unicode="P" horiz-adv-x="892" d="M123 6v1018h389q172 0 233 -45q96 -68 97 -285q0 -217 -97 -284q-61 -45 -233 -45h-256v-359q-43 -6 -66 -6q-25 0 -67 6zM256 483h254q94 0 141 33q72 47 72 178q0 211 -213 211h-254v-422z"/>
<glyph unicode="Q" horiz-adv-x="1015" d="M102 371v282q0 211 52 277q80 104 354 104t354 -104q51 -66 51 -277v-282q0 -201 -43 -267q-70 -104 -305 -112v-86q8 10 29 10h199q10 -23 10 -55q0 -29 -6 -54h-244q-57 0 -117 46v139q-225 10 -293 114q-41 66 -41 265zM236 375q0 -158 43 -207q51 -59 229 -59t229 59 q43 49 43 207v274q0 158 -43 207q-51 59 -229 59t-229 -59q-43 -49 -43 -207v-274z"/>
<glyph unicode="R" horiz-adv-x="962" d="M123 6v1018h418q172 0 233 -45q96 -68 96 -285q0 -236 -116 -299l116 -383q-20 -12 -65 -12q-47 0 -66 6l-116 361q-27 -2 -82 -2h-285v-359q-43 -6 -66 -6q-25 0 -67 6zM256 483h283q94 0 141 33q72 47 72 178q0 211 -213 211h-283v-422z"/>
<glyph unicode="S" horiz-adv-x="933" d="M82 84q4 66 51 106q152 -81 342 -81q244 0 244 186q0 66 -98 108q-27 12 -218 70q-315 94 -315 281q0 280 390 280h3q219 0 334 -43q-2 -51 -31 -110q-88 34 -287 34h-12q-264 0 -264 -161q0 -68 98 -113q35 -14 218 -70q147 -45 217 -94q98 -70 98 -182 q0 -190 -121 -260q-80 -45 -256 -45q-299 0 -393 94z"/>
<glyph unicode="T" horiz-adv-x="858" d="M31 961q0 20 6 63h784q6 -43 6 -61q0 -15 -6 -58h-323v-899q-43 -6 -66 -6q-25 0 -67 6v899h-328q-6 43 -6 56z"/>
<glyph unicode="U" horiz-adv-x="1052" d="M123 371v647q43 6 65 6q25 0 68 -6v-643q0 -158 43 -207q51 -59 229 -59q174 0 228 59q41 49 41 207v643q43 6 65 6q25 0 68 -6v-647q0 -209 -49 -277q-80 -104 -353 -104q-274 0 -354 104q-51 68 -51 277z"/>
<glyph unicode="V" horiz-adv-x="899" d="M20 1012q23 12 66 12q51 0 70 -6l293 -909l294 909q18 6 70 6q45 0 66 -12l-316 -996q-45 -16 -114 -16q-70 0 -115 16z"/>
<glyph unicode="W" horiz-adv-x="1353" d="M72 1012q23 12 65 12q47 0 66 -6l157 -903l252 723q20 6 66 6q45 0 63 -6l252 -723l158 903q18 6 66 6q45 0 65 -12l-174 -996q-45 -16 -127 -16q-57 0 -102 16l-203 582l-201 -582q-45 -16 -102 -16q-82 0 -127 16z"/>
<glyph unicode="X" horiz-adv-x="1021" d="M31 8l395 496l-395 500q27 20 75 20q63 0 80 -6l324 -408l326 408q16 6 79 6q49 0 76 -20l-395 -500l395 -496q-27 -8 -92 -8q-53 0 -82 6l-307 389l-305 -389q-29 -6 -82 -6q-66 0 -92 8z"/>
<glyph unicode="Y" horiz-adv-x="972" d="M41 1004q39 20 76 20q63 0 80 -6l290 -449l289 449q16 6 80 6q37 0 76 -20l-379 -562v-436q-43 -6 -66 -6q-25 0 -67 6v436z"/>
<glyph unicode="Z" horiz-adv-x="903" d="M41 59q0 16 6 60l643 786h-643q-6 43 -6 60q0 16 6 59h809q6 -43 6 -57q0 -18 -6 -62l-633 -786h598q6 -43 6 -58q0 -18 -6 -61h-774q-6 43 -6 59z"/>
<glyph unicode="[" horiz-adv-x="493" d="M123 -113v1250q43 6 65 6h177q6 -43 6 -62q0 -14 -6 -57h-109v-1024h109q6 -43 6 -61q0 -14 -6 -58h-175q-25 0 -67 6z"/>
<glyph unicode="\" horiz-adv-x="718" d="M123 1130q23 12 65 13q47 0 66 -6l342 -1131q-18 -6 -66 -6q-43 0 -65 12z"/>
<glyph unicode="]" horiz-adv-x="493" d="M123 -61q0 18 6 61h109v1024h-109q-6 43 -6 57q0 18 6 62h176q23 0 66 -6v-1250q-43 -6 -68 -6h-174q-6 43 -6 58z"/>
<glyph unicode="^" horiz-adv-x="784" d="M123 518l143 490q45 16 127 16q80 0 125 -16l144 -490q-20 -12 -66 -12q-47 0 -66 6l-127 397v21h-22v-21l-127 -397q-18 -6 -66 -6q-43 0 -65 12z"/>
<glyph unicode="_" horiz-adv-x="999" d="M123 -174q0 20 6 63h741q6 -43 7 -61q0 -14 -7 -57h-741q-6 43 -6 55z"/>
<glyph unicode="`" horiz-adv-x="425" d="M123 1092q43 6 65 6q25 0 68 -6l47 -289q-4 -6 -18 -6q-55 0 -60 6z"/>
<glyph unicode="a" horiz-adv-x="819" d="M172 449q86 55 221 55q94 0 182 -39h19v67q0 178 -232 179q-98 0 -194 -31q-31 53 -31 113q114 36 235 36h7q348 0 348 -299v-524q-43 -6 -68 -6q-23 0 -65 6v96q-81 -112 -233 -112h-3q-154 0 -219 57q-67 58 -67 199q0 135 100 203zM205 254q0 -145 157 -150 q128 0 232 125v158q-18 2 -121 2q-129 0 -188 -22q-80 -31 -80 -113z"/>
<glyph unicode="b" horiz-adv-x="874" d="M123 6v1086q43 6 65 6q25 0 68 -6v-336h18q48 73 193 73h4q209 0 272 -96q39 -59 39 -233v-181q0 -172 -45 -233q-68 -96 -284 -96q-127 0 -197 73v-57q-43 -6 -66 -6q-25 0 -67 6zM256 322q0 -98 25 -142q42 -71 168 -71h4q129 0 172 71q24 41 24 134v8v176 q0 100 -22 141q-37 72 -152 72q-219 0 -219 -179v-210z"/>
<glyph unicode="c" horiz-adv-x="786" d="M92 295v229q0 305 350 305q170 0 275 -32q0 -59 -31 -113q-82 27 -246 27q-215 0 -215 -174v-254q0 -174 215 -174q164 0 246 26q31 -51 31 -112q-104 -33 -275 -33q-350 0 -350 305z"/>
<glyph unicode="d" horiz-adv-x="874" d="M92 319v181q0 174 39 233q63 96 272 96h4q145 0 193 -73h18v336q43 6 68 6q23 0 66 -6v-1086q-43 -6 -68 -6q-23 0 -66 6v57q-69 -73 -193 -73h-3q-217 0 -285 96q-45 61 -45 233zM225 322q0 -98 25 -142q42 -71 168 -71h4q129 0 172 71q24 41 24 134v8v210 q0 178 -219 179q-115 0 -151 -72q-23 -41 -23 -141v-176z"/>
<glyph unicode="e" horiz-adv-x="843" d="M92 295v170q0 205 64 280q72 84 270 84q201 0 270 -81q55 -66 56 -242v-152h-527v-71q0 -174 224 -174q172 0 253 26q31 -51 31 -112q-104 -33 -282 -33q-359 0 -359 305zM225 473h393v72q0 84 -32 121q-43 45 -160 45q-108 0 -145 -35q-51 -47 -56 -203z"/>
<glyph unicode="f" horiz-adv-x="555" d="M31 758q0 23 6 61h139v21q0 168 45 229q43 57 162 57q100 0 172 -22q0 -57 -29 -107q-66 10 -127 11q-63 0 -77 -35q-12 -25 -13 -133v-21h230q6 -39 6 -61q0 -35 -10 -58h-226v-694q-43 -6 -65 -6q-25 0 -68 6v694h-135q-10 23 -10 58z"/>
<glyph unicode="g" horiz-adv-x="874" d="M92 319v181q0 174 39 233q63 96 272 96q147 0 197 -73h18v57q43 6 66 6q25 0 68 -6v-885q0 -305 -351 -305q-170 0 -274 33q0 61 31 113q82 -27 245 -27q215 0 215 174v147q-69 -73 -193 -73h-3q-217 0 -285 96q-45 61 -45 233zM225 322q0 -98 25 -142q42 -71 168 -71h4 q129 0 172 71q24 41 24 134v8v210q0 178 -219 179q-115 0 -151 -72q-23 -41 -23 -141v-176z"/>
<glyph unicode="h" horiz-adv-x="917" d="M123 6v1086q43 6 65 6q25 0 68 -6v-336h20q56 73 235 73h5q279 0 279 -311v-512q-43 -6 -68 -6q-23 0 -65 6v475q0 113 -23 156q-41 74 -164 74q-219 0 -219 -156v-549q-43 -6 -68 -6q-23 0 -65 6z"/>
<glyph unicode="i" d="M123 6v807q43 6 65 6q25 0 68 -6v-807q-43 -6 -66 -6q-25 0 -67 6zM123 944v160q43 6 65 6q25 0 68 -6v-160q-43 -6 -66 -6q-25 0 -67 6z"/>
<glyph unicode="j" horiz-adv-x="397" d="M-166 -350q0 61 31 112q74 -20 151 -20q76 0 101 35q24 32 24 125v8v903q43 6 66 6q25 0 67 -6v-903q0 -164 -61 -229q-55 -57 -180 -58q-115 0 -199 27zM141 944v160q43 6 66 6q24 0 67 -6v-160q-43 -6 -65 -6q-25 0 -68 6z"/>
<glyph unicode="k" horiz-adv-x="892" d="M123 6v1086q43 6 65 6q25 0 68 -6v-633l471 354q31 -31 43 -49q16 -18 35 -57l-211 -160l268 -522q-29 -25 -69 -25q-53 0 -72 6l-236 459l-229 -170v-289q-43 -6 -66 -6q-25 0 -67 6z"/>
<glyph unicode="l" d="M123 6v1086q43 6 65 6q25 0 68 -6v-1086q-43 -6 -66 -6q-25 0 -67 6z"/>
<glyph unicode="m" horiz-adv-x="1220" d="M123 6v807q43 6 61 6q16 0 60 -6l12 -57h20q56 73 163 73h3q152 0 209 -73q56 73 219 73h4q254 0 254 -311v-512q-43 -6 -67 -6q-23 0 -66 6v475q0 229 -131 230q-102 0 -174 -56q16 -49 17 -137v-512q-43 -6 -68 -6q-23 0 -66 6v475q0 229 -141 230q-102 0 -141 -41 q-35 -37 -35 -131v-533q-43 -6 -68 -6q-22 0 -65 6z"/>
<glyph unicode="n" horiz-adv-x="886" d="M123 6v807q43 6 61 6q16 0 60 -6l12 -57h20q56 73 225 73h5q279 0 278 -311v-512q-43 -6 -67 -6q-23 0 -66 6v475q0 113 -22 156q-41 74 -164 74q-115 0 -164 -41q-45 -39 -45 -131v-533q-43 -6 -68 -6q-22 0 -65 6z"/>
<glyph unicode="o" horiz-adv-x="843" d="M92 319v181q0 172 45 233q68 96 285 96t285 -96q45 -61 45 -233v-181q0 -172 -45 -233q-68 -96 -285 -96t-285 96q-45 61 -45 233zM225 322q0 -98 25 -142q42 -71 168 -71h4q129 0 172 71q24 41 24 134v8v176q0 100 -24 141q-43 72 -172 72t-172 -72q-25 -41 -25 -141 v-176z"/>
<glyph unicode="p" horiz-adv-x="874" d="M123 -371v1184q43 6 67 6q23 0 66 -6v-57h18q48 73 193 73h4q209 0 272 -96q39 -59 39 -233v-181q0 -172 -45 -233q-68 -96 -284 -96q-127 0 -197 73v-434q-43 -6 -68 -6q-23 0 -65 6zM256 322q0 -98 25 -142q42 -71 168 -71h4q129 0 172 71q24 41 24 134v8v176 q0 100 -22 141q-37 72 -152 72q-219 0 -219 -179v-210z"/>
<glyph unicode="q" horiz-adv-x="874" d="M92 319v181q0 174 39 233q63 96 272 96q147 0 197 -73h18v57q43 6 66 6q25 0 68 -6v-1184q-43 -6 -66 -6q-25 0 -68 6v434q-69 -73 -193 -73h-3q-217 0 -285 96q-45 61 -45 233zM225 322q0 -98 25 -142q42 -71 168 -71h4q129 0 172 71q24 41 24 134v8v210q0 178 -219 179 q-115 0 -151 -72q-23 -41 -23 -141v-176z"/>
<glyph unicode="r" horiz-adv-x="561" d="M123 6v807q43 6 61 6q16 0 60 -6l12 -57h20q56 73 225 73h5h35q10 -23 10 -57q0 -20 -6 -61h-80q-115 0 -164 -41q-45 -39 -45 -131v-533q-43 -6 -68 -6q-23 0 -65 6z"/>
<glyph unicode="s" horiz-adv-x="768" d="M72 604q0 225 315 225q176 0 268 -34q-6 -57 -30 -111q-70 27 -234 27q-106 0 -147 -25q-39 -25 -39 -82q0 -53 76 -88q20 -10 165 -53q240 -72 240 -227q0 -135 -68 -191q-70 -55 -235 -55q-184 0 -297 43q4 70 37 119q98 -43 260 -43q102 0 139 30q31 27 31 97 q0 51 -76 86q-20 10 -164 55q-242 78 -241 227z"/>
<glyph unicode="t" horiz-adv-x="581" d="M31 758q0 23 6 61h160v238q43 6 65 6q25 0 68 -6v-238h198q6 -39 7 -61q0 -35 -11 -58h-194v-452q0 -74 16 -98q23 -29 96 -31h88q6 -39 7 -62q0 -20 -7 -57h-86q-143 0 -194 51q-53 51 -53 197v452h-156q-10 23 -10 58z"/>
<glyph unicode="u" horiz-adv-x="876" d="M92 301v512q43 6 68 6q23 0 65 -6v-475q0 -113 23 -156q40 -73 161 -73h3q115 0 163 41q45 39 46 131v532q43 6 67 6q23 0 66 -6v-807q-43 -6 -62 -6q-16 0 -59 6l-12 57h-21q-56 -73 -224 -73h-5q-279 0 -279 311z"/>
<glyph unicode="v" horiz-adv-x="808" d="M20 807q23 12 66 12q55 0 74 -6l246 -709l243 709q18 6 74 6q45 0 65 -12l-276 -791q-45 -16 -106 -16q-62 0 -107 16z"/>
<glyph unicode="w" horiz-adv-x="1093" d="M41 813q35 6 68 6q35 0 65 -6l125 -690l152 612q35 10 98 10t98 -10l152 -612l121 690q31 6 65 6q35 0 68 -6l-156 -797q-45 -16 -94 -16q-66 0 -98 14l-146 545h-20l-146 -545q-33 -14 -98 -14q-49 0 -94 16z"/>
<glyph unicode="x" horiz-adv-x="880" d="M41 8l313 393l-313 398q39 20 76 20q63 0 80 -6l243 -305l244 305q16 6 80 6q37 0 76 -20l-314 -398l314 -393q-27 -8 -92 -8q-53 0 -82 6l-226 287l-225 -287q-29 -6 -82 -6q-66 0 -92 8z"/>
<glyph unicode="y" horiz-adv-x="813" d="M41 807q23 12 65 12q47 0 66 -6l223 -698v-21h23v21l223 698q18 6 66 6q45 0 65 -12l-366 -1178q-18 -6 -66 -6q-43 0 -66 12l97 314q6 23 24 31v20h-8q-63 0 -106 16z"/>
<glyph unicode="z" horiz-adv-x="794" d="M82 59q0 16 6 60l453 581h-453q-6 43 -6 60q0 16 6 59h619q6 -43 6 -57q0 -18 -6 -62l-443 -581h443q6 -43 6 -58q0 -18 -6 -61h-619q-6 43 -6 59z"/>
<glyph unicode="{" horiz-adv-x="651" d="M123 508q0 18 6 61q74 0 94 25q27 31 27 141v314q0 94 96 94h176q6 -43 6 -60q0 -16 -6 -59h-94q-59 0 -59 -35v-254q0 -154 -60 -223q59 -66 60 -221v-256q0 -35 59 -35h94q6 -43 6 -59t-6 -60h-176q-96 0 -96 94v316q0 111 -27 139q-18 20 -94 21q-6 43 -6 57z"/>
<glyph unicode="|" d="M123 -113v1250q43 6 65 6q25 0 68 -6v-1250q-43 -6 -66 -6q-25 0 -67 6z"/>
<glyph unicode="}" horiz-adv-x="651" d="M123 -59q0 16 6 59h94q59 0 60 35v256q0 156 59 221q-59 70 -59 223v254q0 35 -60 35h-94q-6 43 -6 59t6 60h176q96 0 96 -94v-314q0 -111 27 -141q20 -25 94 -25q6 -43 6 -61q0 -14 -6 -57q-76 0 -94 -21q-27 -29 -27 -139v-316q0 -94 -96 -94h-176q-6 43 -6 60z"/>
<glyph unicode="~" horiz-adv-x="989" d="M123 514q98 84 186 84q68 0 187 -59q119 -61 184 -62q59 0 123 51q29 -27 39 -41q6 -6 24 -45q-98 -84 -188 -84q-59 0 -178 62q-117 59 -191 59q-59 0 -123 -51q-29 27 -39 41q-20 25 -24 45z"/>
<glyph unicode=" "/>
<glyph unicode="¢" horiz-adv-x="870" d="M123 295v229q0 260 246 297v137q43 6 65 7q25 0 68 -7v-129q158 -4 246 -32q0 -59 -31 -113q-82 27 -246 27q-215 0 -215 -174v-254q0 -174 215 -174q164 0 246 26q31 -51 31 -112q-88 -29 -246 -33v-133q-43 -6 -66 -7q-25 0 -67 7v141q-246 37 -246 297z"/>
<glyph unicode="£" horiz-adv-x="1038" d="M123 465q0 20 6 63h129v232q0 274 266 274q139 0 219 -37q0 -51 -30 -104q-70 23 -189 22q-133 0 -133 -153v-234h273q6 -43 6 -61q0 -14 -6 -57h-273v-291h518q6 -43 6 -58q0 -18 -6 -61h-651v410h-129q-6 43 -6 55z"/>
<glyph unicode="¥" horiz-adv-x="1136" d="M123 1004q39 20 76 20q63 0 80 -6l290 -449l289 449q16 6 80 6q37 0 76 -20l-367 -543h189q6 -43 6 -62q0 -14 -6 -57h-201v-78h201q6 -43 6 -61q0 -14 -6 -58h-201v-139q-43 -6 -66 -6q-25 0 -67 6v139h-201q-6 43 -6 56q0 20 6 63h201v78h-201q-6 43 -6 55q0 20 6 64 h188z"/>
<glyph unicode="¨" horiz-adv-x="729" d="M123 956v136q43 6 65 6q25 0 68 -6v-136q-43 -6 -66 -6q-25 0 -67 6zM473 956v136q43 6 66 6q24 0 67 -6v-136q-43 -6 -65 -6q-25 0 -68 6z"/>
<glyph unicode="©" horiz-adv-x="1290" d="M123 512q0 217 153 369q152 154 369 153q217 1 369 -153q154 -152 153 -369q0 -217 -153 -369q-152 -154 -369 -153q-217 0 -369 153q-154 152 -153 369zM221 512q0 -168 129 -295q127 -129 295 -129t295 129q129 127 129 295t-129 295q-127 129 -295 129t-295 -129 q-129 -127 -129 -295zM375 418q0 -233 270 -234q131 0 213 27q0 47 -24 84q-63 -18 -191 -19q-166 0 -166 136v192q0 135 166 135q127 0 191 -18q25 37 24 84q-82 27 -213 26q-270 0 -270 -233v-180z"/>
<glyph unicode="«" horiz-adv-x="952" d="M123 434q0 68 16 113l183 309q37 12 71 12q41 0 80 -12l-235 -410h-21v-24h21l235 -410q-39 -12 -80 -12q-35 0 -71 12l-183 310q-16 45 -16 112zM479 434q0 68 17 113l182 309q37 12 72 12q41 0 79 -12l-235 -410h-21v-24h21l235 -410q-39 -12 -79 -12q-35 0 -72 12 l-182 310q-16 45 -17 112z"/>
<glyph unicode="­" horiz-adv-x="792" d="M123 397q0 20 6 64h535q6 -43 6 -62q0 -14 -6 -57h-535q-6 43 -6 55z"/>
<glyph unicode="®" horiz-adv-x="1290" d="M123 512q0 217 153 369q152 154 369 153q217 1 369 -153q154 -152 153 -369q0 -217 -153 -369q-152 -154 -369 -153q-217 0 -369 153q-154 152 -153 369zM221 512q0 -168 129 -295q127 -129 295 -129t295 129q129 127 129 295t-129 295q-127 129 -295 129t-295 -129 q-129 -127 -129 -295zM430 215v616h264q109 0 148 -28q59 -43 59 -178q0 -150 -72 -191l72 -217q-16 -8 -41 -8q-47 0 -59 6l-74 201h-195v-201q-27 -6 -53 -6q-20 0 -49 6zM532 506h132q63 0 90 14q45 27 45 105q0 76 -45 100q-27 14 -90 14h-132v-233z"/>
<glyph unicode="´" horiz-adv-x="454" d="M123 813l49 279q49 6 78 6q31 0 82 -6l-109 -279q-23 -6 -55 -6q-25 0 -45 6z"/>
<glyph unicode="¸" horiz-adv-x="440" d="M123 -393l94 278q23 6 55 6q25 0 45 -6l-49 -278q-49 -6 -63 -6q-29 0 -82 6z"/>
<glyph unicode="»" horiz-adv-x="952" d="M123 12l235 410h21v24h-21l-235 410q41 12 80 12q35 0 71 -12l183 -309q16 -45 16 -113t-16 -112l-183 -310q-37 -12 -71 -12q-39 0 -80 12zM479 12l236 410h20v24h-20l-236 410q41 12 80 12q35 0 72 -12l182 -309q16 -45 16 -113t-16 -112l-182 -310q-37 -12 -72 -12 q-39 0 -80 12z"/>
<glyph unicode="Á" horiz-adv-x="892" d="M20 12l318 996q45 16 108 16t109 -16l317 -996q-20 -12 -73 -12q-47 0 -66 6l-104 326h-365l-104 -326q-18 -6 -66 -6q-51 0 -74 12zM301 451h291l-146 458zM401 1133l50 278q49 6 77 6q31 0 82 -6l-108 -278q-23 -6 -56 -7q-25 0 -45 7z"/>
<glyph unicode="É" horiz-adv-x="917" d="M123 0v1024h680q6 -43 6 -61q0 -14 -6 -58h-547v-334h479q6 -43 6 -61q0 -14 -6 -57h-479v-334h547q6 -43 6 -58q0 -18 -6 -61h-680zM426 1133l49 278q49 6 78 6q31 0 82 -6l-109 -278q-23 -6 -55 -7q-25 0 -45 7z"/>
<glyph unicode="Í" d="M123 6v1012q43 6 65 6q25 0 68 -6v-1012q-43 -6 -66 -6q-25 0 -67 6zM143 1133l50 278q49 6 77 6q31 0 82 -6l-108 -278q-23 -6 -56 -7q-25 0 -45 7z"/>
<glyph unicode="Ó" horiz-adv-x="1015" d="M102 371q0 -209 52 -277q80 -104 354 -104t354 104q51 68 51 277v282q0 211 -51 277q-80 104 -354 104t-354 -104q-51 -66 -52 -277v-282zM236 375v274q0 158 43 207q51 59 229 59t229 -59q43 -49 43 -207v-274q0 -158 -43 -207q-51 -59 -229 -59t-229 59q-43 49 -43 207 zM463 1133l49 278q49 6 78 6q31 0 82 -6l-109 -278q-23 -6 -55 -7q-25 0 -45 7z"/>
<glyph unicode="Ú" horiz-adv-x="1052" d="M123 371q0 -209 51 -277q80 -104 354 -104q272 0 353 104q49 68 49 277v647q-43 6 -68 6q-23 0 -65 -6v-643q0 -158 -41 -207q-53 -59 -228 -59q-178 0 -229 59q-43 49 -43 207v643q-43 6 -68 6q-23 0 -65 -6v-647zM483 1133l49 278q49 6 78 6q31 0 82 -6l-108 -278 q-23 -6 -56 -7q-25 0 -45 7z"/>
<glyph unicode="Ý" horiz-adv-x="972" d="M41 1004l379 -562v-436q43 -6 67 -6q23 0 66 6v436l379 562q-39 20 -76 20q-63 0 -80 -6l-289 -449l-290 449q-16 6 -80 6q-37 0 -76 -20zM442 1133l50 278q49 6 77 6q31 0 82 -6l-108 -278q-23 -6 -56 -7q-25 0 -45 7z"/>
<glyph unicode="á" horiz-adv-x="819" d="M72 250q0 131 100 199q86 55 221 55q94 0 182 -39h19v67q0 178 -232 179q-98 0 -194 -31q-31 53 -31 113q117 37 242 36q348 0 348 -299v-524q-43 -6 -68 -6q-23 0 -65 6v96q-82 -113 -236 -112q-154 0 -219 57q-68 59 -67 203zM205 254q0 -145 157 -150q128 0 232 125 v158q-18 2 -121 2q-129 0 -188 -22q-80 -31 -80 -113zM371 938l49 279q49 6 78 6q31 0 82 -6l-109 -279q-23 -6 -55 -6q-25 0 -45 6z"/>
<glyph unicode="é" horiz-adv-x="854" d="M102 295v170q0 205 64 280q72 84 270 84q201 0 271 -81q55 -66 55 -242v-152h-526v-71q0 -174 223 -174q172 0 254 26q31 -51 30 -112q-104 -33 -282 -33q-359 0 -359 305zM236 473h393v72q0 84 -33 121q-43 45 -160 45q-108 0 -145 -35q-51 -47 -55 -203zM387 938 l49 279q49 6 78 6q31 0 82 -6l-109 -279q-23 -6 -55 -6q-25 0 -45 6z"/>
<glyph unicode="í" d="M123 6v807q43 6 65 6q25 0 68 -6v-807q-43 -6 -66 -6q-25 0 -67 6zM141 938l49 279q49 6 78 6q31 0 82 -6l-108 -279q-23 -6 -56 -6q-25 0 -45 6z"/>
<glyph unicode="ó" horiz-adv-x="864" d="M102 319v181q0 172 45 233q68 96 285 96t285 -96q45 -61 45 -233v-181q0 -172 -45 -233q-68 -96 -285 -96t-285 96q-45 61 -45 233zM236 322q0 -98 24 -142q43 -72 172 -71q129 0 172 71q25 43 25 142v176q0 100 -25 141q-43 72 -172 72t-172 -72q-25 -41 -24 -141v-176z M389 938l49 279q49 6 78 6q31 0 82 -6l-109 -279q-23 -6 -55 -6q-25 0 -45 6z"/>
<glyph unicode="ú" horiz-adv-x="886" d="M102 301v512q43 6 68 6q23 0 66 -6v-475q0 -113 22 -156q41 -74 164 -73q115 0 164 41q45 39 45 131v532q43 6 67 6q23 0 66 -6v-807q-43 -6 -62 -6q-16 0 -59 6l-12 57h-21q-57 -74 -229 -73q-279 0 -279 311zM389 938l49 279q49 6 78 6q31 0 82 -6l-109 -279 q-23 -6 -55 -6q-25 0 -45 6z"/>
<glyph unicode="ý" horiz-adv-x="813" d="M41 807q23 12 65 12q47 0 66 -6l223 -698v-21h23v21l223 698q18 6 66 6q45 0 65 -12l-366 -1178q-18 -6 -66 -6q-43 0 -66 12l97 314q6 23 24 31v20h-8q-63 0 -106 16zM362 938l50 279q49 6 77 6q31 0 82 -6l-108 -279q-23 -6 -55 -6q-25 0 -46 6z"/>
<glyph unicode="Č" horiz-adv-x="950" d="M102 369v286q0 379 437 379q215 0 340 -41q0 -59 -31 -112q-113 35 -313 34q-123 0 -207 -61q-92 -68 -92 -184v-316q0 -117 92 -184q84 -61 207 -61q201 0 313 34q31 -53 31 -112q-125 -41 -340 -41q-436 0 -437 379zM305 1409q23 12 66 12q47 0 65 -6l66 -178l65 178 q18 6 66 6q45 0 65 -12l-106 -266q-35 -16 -90 -17q-55 0 -90 17z"/>
<glyph unicode="č" horiz-adv-x="786" d="M92 295v229q0 305 350 305q170 0 275 -32q0 -59 -31 -113q-82 27 -246 27q-215 0 -215 -174v-254q0 -174 215 -174q164 0 246 26q31 -51 31 -112q-104 -33 -275 -33q-350 0 -350 305zM213 1214q23 12 66 13q47 0 65 -6l66 -179l65 179q18 6 66 6q45 0 65 -13l-106 -266 q-35 -16 -90 -16t-91 16z"/>
<glyph unicode="Ď" horiz-adv-x="1007" d="M123 0v1024h346q436 0 436 -379v-266q0 -379 -436 -379h-346zM256 119h217q123 0 207 61q92 68 92 185v294q0 117 -92 185q-84 61 -207 61h-217v-786zM285 1409q23 12 65 12q47 0 66 -6l65 -178l66 178q18 6 65 6q45 0 66 -12l-107 -266q-35 -16 -90 -17q-55 0 -90 17z "/>
<glyph unicode="ď" horiz-adv-x="993" d="M92 319v181q0 174 39 233q63 96 272 96q148 1 197 -73h18v336q43 6 68 6q23 0 66 -6v-1086q-43 -6 -68 -6q-23 0 -66 6v57q-70 -74 -196 -73q-217 0 -285 96q-45 61 -45 233zM225 322q0 -98 25 -142q43 -72 172 -71q129 0 172 71q25 43 24 142v210q0 178 -219 179 q-115 0 -151 -72q-23 -41 -23 -141v-176zM840 1092q43 6 65 6q25 0 68 -6l-23 -289l-43 -6l-47 6z"/>
<glyph unicode="Ě" horiz-adv-x="917" d="M123 0v1024h680q6 -43 6 -61q0 -14 -6 -58h-547v-334h479q6 -43 6 -61q0 -14 -6 -57h-479v-334h547q6 -43 6 -58q0 -18 -6 -61h-680zM285 1409q23 12 65 12q47 0 66 -6l65 -178l66 178q18 6 65 6q45 0 66 -12l-107 -266q-35 -16 -90 -17q-55 0 -90 17z"/>
<glyph unicode="ě" horiz-adv-x="843" d="M92 295v170q0 205 64 280q72 84 270 84q201 0 270 -81q55 -66 56 -242v-152h-527v-71q0 -174 224 -174q172 0 253 26q31 -51 31 -112q-104 -33 -282 -33q-359 0 -359 305zM225 473h393v72q0 84 -32 121q-43 45 -160 45q-108 0 -145 -35q-51 -47 -56 -203zM233 1214 q23 12 66 13q47 0 66 -6l65 -179l66 179q18 6 65 6q45 0 66 -13l-107 -266q-35 -16 -90 -16t-90 16z"/>
<glyph unicode="Ň" horiz-adv-x="1093" d="M123 8v1000q45 16 121 16q66 0 110 -16l484 -891v901q18 6 69 6q49 0 64 -8v-1000q-45 -16 -142 -16q-63 0 -84 6l-489 899v-899q-18 -6 -70 -6q-49 0 -63 8zM367 1409q23 12 65 12q47 0 66 -6l65 -178l66 178q18 6 65 6q45 0 66 -12l-107 -266q-35 -16 -90 -17 q-55 0 -90 17z"/>
<glyph unicode="ň" horiz-adv-x="886" d="M123 6v807q43 6 61 6q16 0 60 -6l12 -57h20q57 74 230 73q279 0 278 -311v-512q-43 -6 -67 -6q-23 0 -66 6v475q0 113 -22 156q-41 74 -164 74q-115 0 -164 -41q-45 -39 -45 -131v-533q-43 -6 -68 -6q-22 0 -65 6zM254 1214q23 12 65 13q47 0 66 -6l66 -179l65 179 q18 6 66 6q45 0 65 -13l-106 -266q-35 -16 -90 -16t-91 16z"/>
<glyph unicode="Ř" horiz-adv-x="962" d="M123 6v1018h418q172 0 233 -45q96 -68 96 -285q0 -236 -116 -299l116 -383q-20 -12 -65 -12q-47 0 -66 6l-116 361q-27 -2 -82 -2h-285v-359q-43 -6 -66 -6q-25 0 -67 6zM256 483h283q94 0 141 33q72 47 72 178q0 211 -213 211h-283v-422zM285 1409q23 12 65 12 q47 0 66 -6l65 -178l66 178q18 6 65 6q45 0 66 -12l-107 -266q-35 -16 -90 -17q-55 0 -90 17z"/>
<glyph unicode="ř" horiz-adv-x="561" d="M123 6v807q43 6 61 6q16 0 60 -6l12 -57h20q57 74 230 73h35q10 -23 10 -57q0 -20 -6 -61h-80q-115 0 -164 -41q-45 -39 -45 -131v-533q-43 -6 -68 -6q-23 0 -65 6zM131 1214q23 12 66 13q47 0 65 -6l66 -179l65 179q18 6 66 6q45 0 65 -13l-106 -266q-35 -16 -90 -16 t-90 16z"/>
<glyph unicode="Š" horiz-adv-x="933" d="M82 84q4 66 51 106q152 -81 342 -81q244 0 244 186q0 66 -98 108q-27 12 -218 70q-315 94 -315 281q0 281 393 280q219 0 334 -43q-2 -51 -31 -110q-90 35 -299 34q-264 0 -264 -161q0 -68 98 -113q35 -14 218 -70q147 -45 217 -94q98 -70 98 -182q0 -190 -121 -260 q-80 -45 -256 -45q-299 0 -393 94zM285 1409q23 12 65 12q47 0 66 -6l65 -178l66 178q18 6 65 6q45 0 66 -12l-107 -266q-35 -16 -90 -17q-55 0 -90 17z"/>
<glyph unicode="š" horiz-adv-x="778" d="M82 604q0 225 315 225q176 0 269 -34q-6 -57 -31 -111q-70 27 -234 27q-106 0 -147 -25q-39 -25 -39 -82q0 -53 76 -88q20 -10 166 -53q240 -72 239 -227q0 -135 -67 -191q-70 -55 -236 -55q-184 0 -297 43q4 70 37 119q98 -43 260 -43q102 0 139 30q31 27 31 97 q0 51 -76 86q-20 10 -163 55q-242 78 -242 227zM193 1214q23 12 65 13q47 0 66 -6l65 -179l66 179q18 6 65 6q45 0 66 -13l-107 -266q-35 -16 -90 -16t-90 16z"/>
<glyph unicode="Ť" horiz-adv-x="858" d="M31 961q0 20 6 63h784q6 -43 6 -61q0 -15 -6 -58h-323v-899q-43 -6 -66 -6q-25 0 -67 6v899h-328q-6 43 -6 56zM215 1409q23 12 66 12q47 0 65 -6l66 -178l65 178q18 6 66 6q45 0 65 -12l-106 -266q-35 -16 -90 -17q-55 0 -90 17z"/>
<glyph unicode="ť" horiz-adv-x="747" d="M31 758q0 23 6 61h160v238q43 6 65 6q25 0 68 -6v-238h198q6 -39 7 -61q0 -35 -11 -58h-194v-452q0 -74 16 -98q23 -29 96 -31h88q6 -39 7 -62q0 -20 -7 -57h-86q-143 0 -194 51q-53 51 -53 197v452h-156q-10 23 -10 58zM594 1092q43 6 65 6q25 0 68 -6l-22 -289l-43 -6 l-48 6z"/>
<glyph unicode="Ů" horiz-adv-x="1052" d="M123 371v647q43 6 65 6q25 0 68 -6v-643q0 -158 43 -207q51 -59 229 -59q174 0 228 59q41 49 41 207v643q43 6 65 6q25 0 68 -6v-647q0 -209 -49 -277q-80 -104 -353 -104q-274 0 -354 104q-51 68 -51 277zM319 1333q0 86 62 148q59 61 145 61q87 0 148 -61t61 -148 q0 -86 -61 -145q-61 -61 -148 -62q-86 0 -145 62q-61 59 -62 145zM430 1333q0 -39 29 -67q29 -29 67 -29q41 0 68 29q29 29 29 67q0 41 -29 68q-27 29 -68 29q-39 0 -67 -29q-29 -27 -29 -68z"/>
<glyph unicode="ů" horiz-adv-x="876" d="M92 301v512q43 6 68 6q23 0 65 -6v-475q0 -113 23 -156q41 -74 164 -73q115 0 163 41q45 39 46 131v532q43 6 67 6q23 0 66 -6v-807q-43 -6 -62 -6q-16 0 -59 6l-12 57h-21q-57 -74 -229 -73q-279 0 -279 311zM201 1137q0 86 61 147q59 61 146 62q86 -1 147 -62t61 -147 t-61 -146q-61 -61 -147 -61t-146 61q-61 59 -61 146zM311 1137q0 -39 29 -68t68 -29q40 0 67 29q29 29 29 68q0 41 -29 67q-27 29 -67 29q-39 0 -68 -29q-29 -27 -29 -67z"/>
<glyph unicode="Ž" horiz-adv-x="903" d="M41 59q0 16 6 60l643 786h-643q-6 43 -6 60q0 16 6 59h809q6 -43 6 -57q0 -18 -6 -62l-633 -786h598q6 -43 6 -58q0 -18 -6 -61h-774q-6 43 -6 59zM264 1409q23 12 66 12q47 0 65 -6l66 -178l65 178q18 6 66 6q45 0 65 -12l-106 -266q-35 -16 -90 -17q-55 0 -90 17z"/>
<glyph unicode="ž" horiz-adv-x="794" d="M82 59q0 16 6 60l453 581h-453q-6 43 -6 60q0 16 6 59h619q6 -43 6 -57q0 -18 -6 -62l-443 -581h443q6 -43 6 -58q0 -18 -6 -61h-619q-6 43 -6 59zM221 1214q23 12 66 13q47 0 65 -6l66 -179l65 179q18 6 66 6q45 0 65 -13l-106 -266q-35 -16 -90 -16t-90 16z"/>
<glyph unicode="ˆ" horiz-adv-x="638" d="M123 815l106 266q35 16 90 17q55 0 91 -17l106 -266q-20 -12 -65 -12q-47 0 -66 6l-66 178l-65 -178q-18 -6 -66 -6q-43 0 -65 12z"/>
<glyph unicode="˚" horiz-adv-x="583" d="M123 926q0 72 49 123q49 49 119 49q72 0 121 -49q49 -51 49 -123q0 -68 -49 -119q-51 -53 -121 -53t-119 53q-49 49 -49 119zM217 926q0 -31 23 -52q23 -23 51 -22q76 0 76 74q0 70 -76 69q-29 0 -51 -22q-23 -23 -23 -47z"/>
<glyph unicode="˜" horiz-adv-x="802" d="M123 1014q98 84 186 84q43 0 103 -27q57 -29 82 -29q59 0 122 52q29 -27 39 -41q6 -6 25 -45q-98 -84 -188 -84q-47 0 -107 28q-57 27 -76 27q-59 0 -123 -51q-29 27 -39 41q-20 25 -24 45z"/>
<glyph unicode=" " horiz-adv-x="771"/>
<glyph unicode=" " horiz-adv-x="1542"/>
<glyph unicode=" " horiz-adv-x="771"/>
<glyph unicode=" " horiz-adv-x="1542"/>
<glyph unicode=" " horiz-adv-x="514"/>
<glyph unicode=" " horiz-adv-x="385"/>
<glyph unicode=" " horiz-adv-x="257"/>
<glyph unicode=" " horiz-adv-x="257"/>
<glyph unicode=" " horiz-adv-x="192"/>
<glyph unicode=" " horiz-adv-x="308"/>
<glyph unicode=" " horiz-adv-x="85"/>
<glyph unicode="‐" horiz-adv-x="792" d="M123 397q0 20 6 64h535q6 -43 6 -62q0 -14 -6 -57h-535q-6 43 -6 55z"/>
<glyph unicode="‑" horiz-adv-x="792" d="M123 397q0 20 6 64h535q6 -43 6 -62q0 -14 -6 -57h-535q-6 43 -6 55z"/>
<glyph unicode="‒" horiz-adv-x="792" d="M123 397q0 20 6 64h535q6 -43 6 -62q0 -14 -6 -57h-535q-6 43 -6 55z"/>
<glyph unicode="–" horiz-adv-x="1067" d="M123 397q0 20 6 64h809q6 -43 6 -62q0 -14 -6 -57h-809q-6 43 -6 55z"/>
<glyph unicode="—" horiz-adv-x="1265" d="M123 397q0 20 6 64h1008q6 -43 6 -62q0 -14 -6 -57h-1008q-6 43 -6 55z"/>
<glyph unicode="‘" horiz-adv-x="419" d="M123 860l90 232q18 6 47 6q18 0 37 -6l-41 -232q-43 -6 -66 -6q-24 0 -67 6z"/>
<glyph unicode="’" horiz-adv-x="419" d="M123 860l41 232q43 6 65 6q25 0 68 -6l-90 -232q-18 -6 -47 -6q-18 0 -37 6z"/>
<glyph unicode="‚" horiz-adv-x="419" d="M123 -123l41 232q43 6 65 6q25 0 68 -6l-90 -232q-18 -6 -47 -6q-18 0 -37 6z"/>
<glyph unicode="“" horiz-adv-x="616" d="M123 860l90 232q18 6 47 6q18 0 37 -6l-41 -232q-43 -6 -66 -6q-24 0 -67 6zM319 860l91 232q18 6 47 6q18 0 37 -6l-41 -232q-43 -6 -66 -6q-25 0 -68 6z"/>
<glyph unicode="”" horiz-adv-x="616" d="M123 860l41 232q43 6 65 6q25 0 68 -6l-90 -232q-18 -6 -47 -6q-18 0 -37 6zM319 860l41 232q43 6 66 6q25 0 68 -6l-91 -232q-18 -6 -47 -6q-18 0 -37 6z"/>
<glyph unicode="„" horiz-adv-x="616" d="M123 -123l41 232q43 6 65 6q25 0 68 -6l-90 -232q-18 -6 -47 -6q-18 0 -37 6zM319 -123l41 232q43 6 66 6q25 0 68 -6l-91 -232q-18 -6 -47 -6q-18 0 -37 6z"/>
<glyph unicode="…" horiz-adv-x="911" d="M123 6v160q43 6 65 6q25 0 68 -6v-160q-43 -6 -66 -6q-25 0 -67 6zM389 6v160q43 6 66 6q24 0 67 -6v-160q-43 -6 -65 -6q-25 0 -68 6zM655 6v160q43 6 66 6q24 0 67 -6v-160q-43 -6 -65 -6q-25 0 -68 6z"/>
<glyph unicode=" " horiz-adv-x="308"/>
<glyph unicode="‹" horiz-adv-x="890" d="M123 377q0 67 16 112l617 254q12 -20 12 -65q0 -47 -6 -66l-524 -223h-21v-22h21l524 -224q6 -18 6 -65q0 -43 -12 -66l-617 254q-16 45 -16 111z"/>
<glyph unicode="›" horiz-adv-x="890" d="M123 78q0 47 6 65l524 224h21v22h-21l-524 223q-6 18 -6 66q0 45 12 65l617 -254q16 -45 16 -112q0 -66 -16 -111l-617 -254q-12 23 -12 66z"/>
<glyph unicode=" " horiz-adv-x="385"/>
<glyph unicode="€" horiz-adv-x="1177" d="M123 348q0 20 6 64h150v180h-150q-6 43 -6 55q0 20 6 64h152q31 324 434 323q215 0 340 -41q0 -59 -31 -112q-113 35 -313 34q-111 0 -191 -51q-88 -55 -104 -153h248q6 -43 6 -62q0 -14 -6 -57h-252v-180h252q6 -43 6 -62q0 -14 -6 -57h-244q23 -88 106 -137 q80 -47 185 -47q201 0 313 34q31 -53 31 -112q-125 -41 -340 -41q-391 0 -430 303h-156q-6 43 -6 55z"/>
<glyph unicode="™" horiz-adv-x="1404" d="M123 985l4 39h455l4 -37q0 -20 -4 -57h-174v-531q-33 -4 -52 -4q-16 0 -53 4v531h-176q-4 37 -4 55zM631 401v613q27 10 102 10q68 0 94 -10l129 -508l129 508q27 10 95 10q74 0 102 -10v-613q-8 -6 -49 -6t-53 4v568h-17v-13l-149 -555q-12 -4 -56 -4q-45 0 -57 4 l-151 555v13h-17v-568q-12 -4 -53 -4t-49 6z"/>
<glyph unicode="" horiz-adv-x="819" d="M0 0v819h819v-819h-819z"/>
</font>
</defs>
</svg>
