<?xml version="1.0" encoding="UTF-8" standalone="no"?>
<!DOCTYPE svg PUBLIC "-//W3C//DTD SVG 1.1//EN" "http://www.w3.org/Graphics/SVG/1.1/DTD/svg11.dtd">
<svg xmlns="http://www.w3.org/2000/svg">
<metadata/>
<defs>
<font id="quan_extralightregular" horiz-adv-x="294">
<font-face units-per-em="2048" ascent="1536" descent="-512"/>
<missing-glyph horiz-adv-x="378"/>
<glyph horiz-adv-x="2048"/>
<glyph horiz-adv-x="2048"/>
<glyph unicode="" horiz-adv-x="2048"/>
<glyph unicode=" " horiz-adv-x="378"/>
<glyph unicode="	" horiz-adv-x="378"/>
<glyph unicode=" " horiz-adv-x="378"/>
<glyph unicode="!" horiz-adv-x="307" d="M123 1020q10 4 31 4q18 0 30 -4l-6 -854q-12 -4 -24 -4q-14 0 -25 4zM127 4v82q10 4 27 4q16 0 28 -4v-82q-12 -4 -28 -4t-27 4z"/>
<glyph unicode="&quot;" horiz-adv-x="432" d="M123 1094q20 4 33 4q12 0 30 -4l-14 -230q-6 -6 -16 -6q-12 0 -19 6zM246 1094q20 4 33 4q12 0 30 -4l-14 -230q-6 -6 -16 -6q-12 0 -19 6z"/>
<glyph unicode="#" horiz-adv-x="1288" d="M123 315q0 10 6 27h188l115 367h-170q-8 16 -8 22q0 12 6 29h191l84 260q12 4 22 4t29 -6l-84 -258h436l84 260q12 4 27 4q6 0 24 -6l-84 -258h174q2 -4 2 -25q0 -8 -6 -26h-184l-121 -367h176l4 -23l-4 -28h-190l-47 -144q-33 -96 -48 -143q-12 -4 -24 -4q-14 0 -25 4 l90 287h-434l-92 -287q-12 -4 -24 -4q-14 0 -27 4l90 287h-170q-6 12 -6 24zM367 342h438l119 367h-437z"/>
<glyph unicode="$" horiz-adv-x="1007" d="M123 72q8 25 24 51q152 -78 332 -82v463q-162 53 -233 100q-106 70 -107 172q0 244 340 258v111q10 4 25 4q12 0 24 -4v-111q207 0 312 -24q0 -31 -11 -54q-119 27 -301 27v-442q174 -55 244 -97q113 -68 113 -168q0 -180 -115 -243q-76 -43 -242 -43v-111q-12 -4 -24 -4 q-14 0 -25 4v111q-231 14 -356 82zM188 776q0 -127 291 -219v424q-166 -6 -233 -61q-57 -47 -58 -144zM528 41q145 0 211 37q96 53 97 198q0 74 -95 127q-57 35 -213 84v-446z"/>
<glyph unicode="%" horiz-adv-x="1136" d="M123 705v182q0 66 55 102q47 35 121 35q72 0 121 -35q53 -37 53 -102v-182q0 -133 -174 -134q-176 1 -176 134zM172 698q0 -80 127 -80q125 0 125 80v195q0 84 -125 84q-127 0 -127 -84v-195zM317 4l443 1014q12 6 24 6q14 0 27 -8l-440 -1010q-12 -6 -29 -6q-12 0 -25 4 zM664 135v182q0 66 55 103q47 35 121 35q72 0 121 -35q53 -37 53 -103v-182q0 -133 -174 -133q-176 0 -176 133zM713 129q0 -80 127 -80q125 0 125 80v195q0 84 -125 84q-127 0 -127 -84v-195z"/>
<glyph unicode="&amp;" horiz-adv-x="1064" d="M123 250q0 143 272 254q-80 143 -80 268q0 147 33 197q45 66 191 65q145 0 190 -65q37 -51 37 -197q0 -164 -301 -289q133 -164 336 -336q92 125 92 267q12 6 22 6q14 0 27 -4q-12 -182 -102 -301l86 -82q-6 -20 -35 -35l-86 76q-111 -84 -307 -84q-190 0 -260 33 q-115 53 -115 227zM172 250q0 -139 100 -180q59 -27 230 -27q149 0 266 68q-262 244 -348 350q-133 -57 -176 -88q-72 -51 -72 -123zM365 772q-1 -117 75 -248q143 68 195 107q82 61 82 141q0 125 -25 162q-35 49 -153 49q-117 0 -150 -49q-25 -37 -24 -162z"/>
<glyph unicode="'" horiz-adv-x="309" d="M123 1094q20 4 33 4q12 0 30 -4l-14 -230q-6 -6 -16 -6q-12 0 -19 6z"/>
<glyph unicode="(" horiz-adv-x="358" d="M123 516q0 291 63 623q8 4 27 4q15 0 23 -8q-63 -305 -64 -619q0 -328 64 -627q-8 -8 -21 -8q-8 0 -29 4q-63 322 -63 631z"/>
<glyph unicode=")" horiz-adv-x="358" d="M123 -111q63 299 63 627q0 313 -63 619q8 8 22 8q19 0 27 -4q63 -332 64 -623q0 -309 -64 -631q-20 -4 -29 -4q-12 0 -20 8z"/>
<glyph unicode="*" horiz-adv-x="696" d="M123 920q0 35 29 38l174 -59l-9 188q20 10 31 11q10 0 31 -11l-8 -188l174 59q29 -4 28 -38q0 -8 -6 -23q-33 -6 -88 -23q-68 -16 -88 -22l129 -170q0 -33 -47 -51l-125 194l-125 -194q-47 18 -47 51l129 170q-20 6 -88 22q-55 16 -88 23q-6 14 -6 23z"/>
<glyph unicode="+" horiz-adv-x="960" d="M123 393q0 14 4 27h326v334q10 4 24 4q12 0 25 -4v-334h332q4 -12 4 -27q0 -12 -4 -24h-332v-338q-12 -4 -25 -4q-14 0 -24 4v338h-326q-4 12 -4 24z"/>
<glyph unicode="," horiz-adv-x="227" d="M61 -82l41 191q16 8 33 8q21 0 31 -6l-62 -197l-20 -2q-6 0 -23 6z"/>
<glyph unicode="-" horiz-adv-x="759" d="M123 393q0 14 4 27h506q4 -12 4 -27q0 -12 -4 -24h-506q-4 12 -4 24z"/>
<glyph unicode="." horiz-adv-x="301" d="M123 4v82q10 4 27 4q16 0 28 -4v-82q-12 -4 -28 -4t-27 4z"/>
<glyph unicode="/" horiz-adv-x="636" d="M123 10l340 1125q16 8 22 8q12 0 29 -8l-340 -1129q-12 -6 -24 -6q-10 0 -27 10z"/>
<glyph unicode="0" horiz-adv-x="985" d="M123 365v301q0 213 47 276q70 92 322 92q254 0 323 -92q47 -63 47 -276v-301q0 -213 -47 -277q-72 -98 -323 -98q-252 0 -322 98q-47 63 -47 277zM172 369q0 -199 45 -254q57 -74 275 -74q217 0 276 74q45 55 45 254v290q0 199 -45 254q-57 70 -276 70q-217 0 -275 -70 q-45 -55 -45 -254v-290z"/>
<glyph unicode="1" horiz-adv-x="550" d="M20 809l334 207q14 8 41 8q14 0 33 -2v-1018q-12 -4 -27 -4q-10 0 -22 4v969l-330 -203l-20 14q-4 8 -9 25z"/>
<glyph unicode="2" horiz-adv-x="792" d="M92 0q0 154 291 395q291 242 291 369q0 117 -37 160q-55 59 -231 59q-154 0 -216 -51q-45 -39 -49 -129q-12 -4 -24 -4t-25 4q4 104 55 155q74 76 256 76q213 0 281 -86q39 -49 39 -180q0 -152 -256 -367q-283 -240 -320 -348h572q4 -12 4 -26t-4 -27h-627z"/>
<glyph unicode="3" horiz-adv-x="827" d="M72 219q8 4 24 4q18 0 25 -4q4 -86 55 -127q63 -51 215 -51q174 0 227 61q37 39 37 158q0 104 -37 152q-51 63 -198 75h-58q-4 12 -4 25q0 12 4 25h58q156 0 205 65q31 41 30 162q0 117 -37 160q-55 59 -231 59q-154 0 -215 -51q-47 -39 -51 -129q-8 -6 -25 -6 q-14 0 -24 6q0 111 55 164q74 68 258 67q209 0 274 -78q45 -51 46 -188v-20q0 -197 -115 -244q115 -45 115 -242q0 -143 -43 -194q-66 -78 -275 -78q-307 0 -315 229z"/>
<glyph unicode="4" horiz-adv-x="864" d="M20 336v26q0 12 17 44l495 612q16 6 43 6q20 0 29 -8v-629h133q4 -12 4 -27q0 -12 -4 -24h-133v-332q-12 -4 -22 -4q-14 0 -27 4v332h-535zM84 387h471v584z"/>
<glyph unicode="5" horiz-adv-x="845" d="M123 207q14 8 22 8q23 0 27 -6q4 -84 53 -121q61 -45 215 -45q172 0 230 76q37 47 37 168q0 131 -37 188q-59 88 -230 88h-10q-195 0 -246 -82q-10 -4 -26 -4q-10 0 -35 10v537h594q4 -12 4 -27q0 -14 -4 -26h-545v-414q90 59 264 59q205 0 277 -106q43 -68 43 -221 q0 -145 -43 -205q-70 -94 -277 -94q-180 0 -254 65q-53 49 -59 152z"/>
<glyph unicode="6" horiz-adv-x="794" d="M102 264v484q0 287 336 286q137 0 250 -24q0 -20 -12 -45q-90 18 -240 18q-285 0 -284 -231v-240q94 74 262 74q207 0 276 -92q43 -57 43 -205t-43 -207q-70 -92 -276 -92q-201 0 -269 92q-43 55 -43 182zM152 281q-1 -119 36 -166q57 -74 230 -74q172 0 229 76 q37 49 37 170q0 123 -37 172q-57 74 -229 73q-176 0 -232 -73q-35 -49 -34 -178z"/>
<glyph unicode="7" horiz-adv-x="696" d="M20 997q0 14 5 27h618l2 -43q0 -10 -6 -35q10 39 -289 -942q-12 -4 -24 -4q-18 0 -31 4l299 969h-569q-4 12 -5 24z"/>
<glyph unicode="8" horiz-adv-x="839" d="M102 262q0 201 123 250q-123 49 -123 256q0 131 45 184q68 82 273 82t272 -82q45 -53 45 -184q0 -207 -123 -256q123 -49 123 -250q0 -152 -65 -209q-68 -63 -252 -63t-252 63q-66 57 -66 209zM152 260q0 -113 43 -158q59 -61 225 -61t225 61q43 45 43 158q0 121 -37 164 q-55 63 -231 63t-232 -63q-37 -43 -36 -164zM152 764q0 -121 36 -162q55 -63 232 -63q176 0 231 63q37 41 37 162q0 119 -37 160q-53 59 -231 59t-232 -59q-37 -41 -36 -160z"/>
<glyph unicode="9" horiz-adv-x="796" d="M61 729q0 150 45 211q68 94 277 94q199 0 268 -94q43 -57 43 -186v-478q0 -287 -338 -286q-135 0 -250 24q0 20 13 45q92 -18 239 -18q287 0 287 231v238q-92 -72 -262 -72q-209 0 -277 88q-45 57 -45 203zM113 737q0 -125 37 -172q55 -74 227 -73q176 0 231 73 q37 49 37 178q0 119 -39 166q-57 74 -229 74t-227 -76q-37 -49 -37 -170z"/>
<glyph unicode=":" horiz-adv-x="301" d="M123 4v82q10 4 27 4q16 0 28 -4v-82q-12 -4 -28 -4t-27 4zM123 604v82q10 4 27 4q16 0 28 -4v-82q-12 -4 -28 -4t-27 4z"/>
<glyph unicode=";" horiz-adv-x="350" d="M123 -82l41 191q16 8 33 8q20 0 30 -6l-61 -197l-21 -2q-6 0 -22 6zM166 604v82q10 4 27 4q16 0 28 -4v-82q-12 -4 -28 -4t-27 4z"/>
<glyph unicode="&lt;" horiz-adv-x="864" d="M123 344q0 18 2 37l610 289q6 -14 6 -29q0 -14 -6 -27l-555 -262h-12v-16h12l555 -264q6 -14 6 -27q0 -16 -6 -29l-610 289q-2 18 -2 39z"/>
<glyph unicode="=" horiz-adv-x="786" d="M123 233q0 14 4 27h532q4 -12 5 -27q0 -12 -5 -24h-532q-4 12 -4 24zM123 526q0 14 4 27h532q4 -12 5 -27q0 -12 -5 -24h-532q-4 12 -4 24z"/>
<glyph unicode="&gt;" horiz-adv-x="864" d="M123 45q0 12 6 27l555 264h12v16h-12l-555 262q-6 12 -6 27q0 14 6 29l610 -289q2 -18 2 -37q0 -20 -2 -39l-610 -289q-6 12 -6 29z"/>
<glyph unicode="?" horiz-adv-x="745" d="M123 1001q88 33 213 33q156 0 217 -39q70 -43 70 -161q0 -115 -150 -230t-149 -201v-223q-12 -4 -25 -4q-12 0 -25 6v224q0 102 150 221t149 207q0 86 -47 116q-49 33 -194 33q-106 0 -191 -35q-18 18 -18 53zM272 4v82q10 4 27 4q16 0 29 -4v-82q-12 -4 -29 -4 q-16 0 -27 4z"/>
<glyph unicode="@" horiz-adv-x="1318" d="M123 174v576q0 137 123 215q113 70 289 69h247q162 0 279 -69q135 -80 135 -215v-500q0 -80 -39 -111t-137 -30q-141 0 -158 96q-63 -82 -233 -82q-168 0 -230 90q-45 63 -45 195v84q0 133 41 190q55 82 217 82q184 0 232 -86h8v82q14 8 25 8q14 0 26 -4v-500 q0 -72 39 -94q23 -14 78 -14q63 0 88 14q39 23 39 94v486q0 94 -92 161q-104 74 -273 74h-247q-168 0 -271 -74q-92 -68 -92 -161v-576q0 -227 363 -227h247q164 0 258 33q14 -10 15 -48q-80 -37 -273 -36h-247q-412 0 -412 278zM408 410q0 -106 28 -156q49 -80 193 -80 q147 0 194 80q29 47 29 156v114q0 188 -242 189q-131 0 -176 -74q-27 -43 -26 -147v-82z"/>
<glyph unicode="A" horiz-adv-x="884" d="M20 6l392 1010q16 8 30 8t31 -8l391 -1010q-10 -6 -26 -6q-12 0 -25 4l-135 352h-471l-135 -352q-12 -4 -25 -4q-16 0 -27 6zM229 408h426l-213 555z"/>
<glyph unicode="B" horiz-adv-x="966" d="M123 0v1024h418q172 0 233 -33q100 -57 100 -237q0 -178 -137 -244q137 -63 137 -238q0 -182 -100 -237q-63 -35 -233 -35h-418zM172 51h367q152 0 206 31q80 47 80 190q0 139 -98 187q-55 26 -179 26h-9h-367v-434zM172 537h367q127 0 188 28q98 49 98 193 q0 140 -77 184q-55 31 -209 31h-367v-436z"/>
<glyph unicode="C" horiz-adv-x="931" d="M102 356v301q0 377 430 377q170 0 326 -30l-2 -21q-6 -20 -10 -27q-127 27 -318 27q-377 0 -376 -299v-342q0 -301 376 -301q199 0 324 29q8 -23 8 -50q-142 -30 -317 -30h-11q-430 0 -430 366z"/>
<glyph unicode="D" horiz-adv-x="993" d="M123 0v1024h336q432 0 432 -371v-284q0 -369 -432 -369h-336zM172 51h291q379 0 379 303v316q0 160 -119 237q-100 66 -260 66h-291v-922z"/>
<glyph unicode="E" horiz-adv-x="892" d="M123 0v1024h657q4 -12 4 -27q0 -12 -4 -24h-608v-436h535q4 -12 4 -27q0 -12 -4 -25h-535v-434h608q4 -12 4 -24q0 -14 -4 -27h-657z"/>
<glyph unicode="F" horiz-adv-x="845" d="M123 4v1020h657q4 -12 4 -27q0 -12 -4 -24h-608v-436h535q4 -12 4 -27q0 -12 -4 -25h-535v-479q-12 -6 -25 -6q-12 0 -24 4z"/>
<glyph unicode="G" horiz-adv-x="962" d="M102 356v301q0 377 430 377q170 0 326 -30l-2 -19q-6 -18 -10 -27q-119 25 -318 25q-377 0 -376 -299v-342q0 -301 376 -301q172 0 283 18v396h-207q-4 12 -4 26t4 25h227q8 0 29 -8v-478q-142 -30 -317 -30h-11q-430 0 -430 366z"/>
<glyph unicode="H" horiz-adv-x="976" d="M123 4v1016q12 4 27 4q10 0 22 -4v-477h633v477q12 4 22 4q14 0 27 -4v-1016q-12 -4 -27 -4q-10 0 -22 4v488h-633v-488q-12 -4 -22 -4q-14 0 -27 4z"/>
<glyph unicode="I" d="M123 4v1016q10 4 24 4q12 0 25 -4v-1016q-12 -4 -25 -4q-14 0 -24 4z"/>
<glyph unicode="J" horiz-adv-x="722" d="M20 180v39q10 4 25 4q12 0 25 -4v-26q0 -102 59 -132q39 -20 180 -20t183 20q59 27 59 129v830q10 4 24 4q12 0 25 -4v-838q0 -113 -53 -151q-59 -41 -232 -41h-8q-174 0 -233 43q-53 39 -54 147z"/>
<glyph unicode="K" horiz-adv-x="964" d="M123 4v1016q10 4 24 4q12 0 25 -4v-510q104 76 342 258q219 166 342 256q29 -14 29 -41l-381 -285l430 -692q-18 -6 -33 -6q-18 0 -24 2l-414 666q-49 -35 -146 -109q-94 -74 -145 -108v-447q-12 -4 -25 -4q-14 0 -24 4z"/>
<glyph unicode="L" horiz-adv-x="804" d="M123 0v1020q10 4 24 4q12 0 25 -4v-969h588q4 -12 4 -26q0 -12 -4 -25h-637z"/>
<glyph unicode="M" horiz-adv-x="1191" d="M123 4v1008q6 12 22 12q20 0 35 -10l416 -957l416 957q14 10 35 10q16 0 22 -12v-1008q-12 -4 -25 -4q-12 0 -24 4v901l-391 -901q-16 -4 -33 -4t-33 4l-391 901v-901q-12 -4 -25 -4q-12 0 -24 4z"/>
<glyph unicode="N" horiz-adv-x="1021" d="M123 4v1014q4 6 18 6q27 0 39 -4l670 -952v952q12 4 24 4t25 -4v-1016q-8 -4 -25 -4q-27 0 -38 4l-664 942v-942q-10 -4 -25 -4q-12 0 -24 4z"/>
<glyph unicode="O" horiz-adv-x="1001" d="M102 367v274q0 209 60 287q82 106 344 106q256 0 338 -106q55 -76 55 -287v-274q0 -205 -55 -277q-80 -100 -338 -100q-262 0 -346 100q-57 72 -58 277zM152 362q0 -190 59 -251q70 -70 295 -70q217 0 285 70q59 61 59 251v297q0 193 -59 254q-68 70 -285 70 q-225 0 -295 -70q-59 -61 -59 -254v-297z"/>
<glyph unicode="P" horiz-adv-x="886" d="M123 4v1020h395q164 0 223 -43q94 -63 95 -270q0 -207 -95 -279q-63 -49 -223 -49h-346v-379q-10 -4 -25 -4q-12 0 -24 4zM172 434h328q143 0 198 37q88 57 88 240q0 170 -88 227q-55 35 -198 35h-328v-539z"/>
<glyph unicode="Q" horiz-adv-x="1001" d="M102 367v274q0 209 60 287q82 106 344 106q256 0 338 -106q55 -76 55 -287v-274q0 -201 -51 -271q-76 -100 -316 -106v-107h185q4 -12 4 -22q0 -12 -4 -23h-199q-16 0 -35 15v137q-248 4 -325 104q-55 72 -56 273zM152 362q0 -190 59 -251q70 -70 295 -70q217 0 285 70 q59 61 59 251v297q0 193 -59 254q-68 70 -285 70q-225 0 -295 -70q-59 -61 -59 -254v-297z"/>
<glyph unicode="R" horiz-adv-x="927" d="M123 4v1020h395q164 0 223 -43q94 -63 95 -270q0 -236 -129 -301l127 -406q-12 -4 -27 -4q-12 0 -25 4l-123 389q-41 -10 -141 -10h-346v-379q-12 -4 -25 -4q-12 0 -24 4zM172 434h328q143 0 198 37q88 57 88 240q0 170 -88 227q-55 35 -198 35h-328v-539z"/>
<glyph unicode="S" horiz-adv-x="925" d="M82 72q8 25 24 51q160 -82 369 -82q154 0 219 35q100 51 101 200q0 80 -109 136q-55 29 -240 90q-168 53 -239 100q-109 72 -109 174q0 258 383 258q211 0 318 -24q0 -31 -11 -54q-119 27 -301 27q-197 0 -274 -57q-66 -47 -66 -150q0 -86 109 -147q61 -33 240 -90 q170 -55 239 -97q109 -68 109 -166q0 -180 -115 -243q-78 -43 -246 -43q-254 0 -401 82z"/>
<glyph unicode="T" horiz-adv-x="780" d="M31 997q0 14 4 27h710q4 -12 5 -27q0 -12 -5 -24h-346v-969q-12 -4 -24 -4t-25 4v969h-315q-4 12 -4 24z"/>
<glyph unicode="U" horiz-adv-x="1073" d="M123 356v664q10 4 24 4q12 0 25 -4v-660q0 -188 66 -249q72 -70 299 -70t299 70q65 60 65 243v6v660q10 4 25 4q12 0 24 -4v-664q0 -197 -57 -266q-86 -100 -356 -100t-357 100q-57 70 -57 266z"/>
<glyph unicode="V" horiz-adv-x="917" d="M20 1014q27 10 21 10q16 0 29 -6l389 -957l389 957q12 6 29 6q-4 0 20 -10l-405 -1008q-18 -6 -33 -6t-33 6z"/>
<glyph unicode="W" horiz-adv-x="1323" d="M72 1016q16 8 28 8q8 0 21 -4l166 -928l176 367q115 236 174 364q12 6 25 6q12 0 24 -6q59 -129 174 -364l176 -367l166 928q12 4 21 4q12 0 28 -8l-182 -1012q-12 -4 -22 -4t-23 4l-362 754l-363 -754q-12 -4 -23 -4q-10 0 -22 4z"/>
<glyph unicode="X" horiz-adv-x="925" d="M31 1014q20 10 30 10q14 0 27 -6l375 -467l375 467q12 6 26 6q10 0 31 -10l-401 -502l399 -500q-10 -12 -27 -12q-16 0 -28 6l-375 467l-375 -467q-12 -6 -29 -6q-16 0 -26 12l399 500z"/>
<glyph unicode="Y" horiz-adv-x="897" d="M41 1018q12 6 29 6q20 0 26 -2l353 -526l352 526q6 2 26 2q16 0 29 -6l-383 -576v-438q-12 -4 -24 -4q-14 0 -25 4v438z"/>
<glyph unicode="Z" horiz-adv-x="888" d="M41 0v20q0 16 6 37l744 916h-746q-4 12 -4 26q0 12 4 25h799q4 -16 4 -35q0 -14 -6 -33l-733 -905h735q4 -12 4 -24q0 -14 -4 -27h-803z"/>
<glyph unicode="[" horiz-adv-x="415" d="M123 -115v1254q12 4 27 4h139q4 -12 4 -25q0 -14 -4 -26h-117v-1160h117q4 -10 4 -24t-4 -27h-139q-14 0 -27 4z"/>
<glyph unicode="\" horiz-adv-x="636" d="M123 1135q16 8 29 8q6 0 22 -8l340 -1125q-16 -10 -27 -10q-12 0 -24 6z"/>
<glyph unicode="]" horiz-adv-x="415" d="M123 -92q0 14 4 24h117v1160h-117q-4 12 -4 26q0 12 4 25h139q14 0 27 -4v-1254q-12 -4 -27 -4h-139q-4 12 -4 27z"/>
<glyph unicode="^" horiz-adv-x="657" d="M123 559l164 459q23 12 43 12q23 0 41 -12l164 -459q-8 -8 -25 -8q-8 0 -29 4l-147 406v8h-8v-8l-148 -406q-20 -4 -31 -4q-16 0 -24 8z"/>
<glyph unicode="_" horiz-adv-x="999" d="M123 -135q0 12 4 24h745q4 -12 5 -24q0 -14 -5 -27h-745q-4 12 -4 27z"/>
<glyph unicode="`" horiz-adv-x="354" d="M123 1096q6 2 27 2l38 -4l43 -234q0 -2 -12 -2q-14 0 -18 2q-14 39 -39 119z"/>
<glyph unicode="a" horiz-adv-x="800" d="M72 233q0 228 319 228q158 0 254 -29h14v111q0 137 -75 188q-68 47 -236 47q-100 0 -192 -20q-12 18 -13 45q102 26 216 26h8q342 0 342 -288v-537q-10 -4 -25 -4q-14 0 -25 4v146q-137 -160 -311 -160q-276 0 -276 243zM121 238q0 -197 225 -197q150 0 313 172v180 q-158 23 -264 23q-274 0 -274 -178z"/>
<glyph unicode="b" horiz-adv-x="856" d="M123 4v1090q10 4 24 4t25 -4v-344h8q105 79 283 79h4q201 0 260 -94q37 -57 37 -225v-203q0 -164 -45 -223q-68 -94 -281 -94q-188 0 -266 98v-84q-10 -4 -25 -4q-14 0 -24 4zM172 238q0 -197 266 -197q180 0 238 78q39 53 39 196v193q0 147 -35 197q-50 73 -209 73h-4 q-150 0 -231 -51q-63 -39 -64 -88v-401z"/>
<glyph unicode="c" horiz-adv-x="765" d="M92 291v233q0 305 348 305q139 0 254 -26q0 -35 -10 -47q-88 22 -233 22h-13q-297 0 -297 -241v-252q0 -244 297 -244q154 0 250 20q8 -6 8 -30v-21q-113 -20 -256 -20q-348 0 -348 301z"/>
<glyph unicode="d" horiz-adv-x="856" d="M92 307v203q0 168 37 225q59 94 260 94q180 0 287 -79h8v344q10 4 25 4q14 0 24 -4v-1090q-10 -4 -24 -4t-25 4v84q-78 -98 -266 -98q-213 0 -281 94q-45 59 -45 223zM141 315q0 -143 39 -196q57 -78 238 -78q266 0 266 197v401q0 49 -63 88q-82 51 -232 51 q-162 0 -213 -73q-35 -49 -35 -197v-193z"/>
<glyph unicode="e" horiz-adv-x="823" d="M92 281v168q0 207 64 288q70 92 258 92q197 0 264 -86q53 -66 53 -239v-119h-590v-106q0 -238 299 -238q168 0 258 20q12 -14 13 -49q-100 -22 -255 -22h-14q-350 0 -350 291zM141 438h541v123q0 111 -47 158q-59 59 -221 59t-219 -76q-51 -70 -54 -264z"/>
<glyph unicode="f" horiz-adv-x="471" d="M31 795q0 12 4 24h141v25q0 158 37 219q37 63 133 63q47 0 125 -10q0 -25 -10 -47q-47 10 -96 10q-90 0 -117 -49q-23 -43 -23 -192v-19h232q4 -12 4 -24q0 -19 -4 -31h-232v-758q-12 -6 -24 -6q-14 0 -25 4v760h-141q-4 12 -4 31z"/>
<glyph unicode="g" horiz-adv-x="856" d="M92 307v203q0 168 37 225q59 94 260 94q178 0 295 -79v65q10 4 25 4q14 0 24 -4v-928q0 -264 -313 -264q-145 0 -248 23q0 31 12 51q80 -23 217 -23q152 0 215 45q68 47 68 166v203q-78 -98 -266 -98q-213 0 -281 94q-45 59 -45 223zM141 315q0 -143 39 -196 q57 -78 238 -78q266 0 266 197v401q0 49 -63 88q-82 51 -232 51q-162 0 -213 -73q-35 -49 -35 -197v-193z"/>
<glyph unicode="h" horiz-adv-x="888" d="M123 4v1090q12 4 22 4q14 0 27 -4v-351q86 86 291 86q303 0 303 -292v-533q-12 -4 -25 -4q-12 0 -24 4v485q0 139 -37 199q-57 90 -225 90q-141 0 -219 -51q-63 -41 -64 -90v-633q-12 -4 -27 -4q-10 0 -22 4z"/>
<glyph unicode="i" d="M123 4v811q10 4 24 4q12 0 25 -4v-811q-12 -4 -25 -4q-14 0 -24 4zM123 905v72q8 4 24 4q14 0 25 -4v-72q-10 -4 -25 -4q-16 0 -24 4z"/>
<glyph unicode="j" d="M-180 -360q0 33 16 51q59 -16 150 -17q86 0 114 52q23 43 23 170v919q10 4 24 4q12 0 25 -4v-932q0 -160 -41 -213q-39 -47 -147 -47q-94 0 -164 17zM123 905v72q8 4 24 4q14 0 25 -4v-72q-10 -4 -25 -4q-16 0 -24 4z"/>
<glyph unicode="k" horiz-adv-x="849" d="M123 6v1088q10 4 24 4q12 0 25 -4v-727l596 452q16 -10 33 -37l-277 -209l295 -567q-18 -6 -28 -6q-14 0 -27 6l-279 539l-313 -238v-303q-12 -4 -25 -4q-12 0 -24 6z"/>
<glyph unicode="l" d="M123 4v1090q10 4 24 4q12 0 25 -4v-1090q-12 -4 -25 -4q-14 0 -24 4z"/>
<glyph unicode="m" horiz-adv-x="1175" d="M123 4v811q12 4 27 4q14 0 26 -4v-65q69 79 206 79h3q141 0 219 -96q102 96 232 96q248 0 247 -301v-524q-10 -4 -24 -4t-25 4v498q0 139 -37 200q-47 76 -163 76q-121 0 -211 -90q16 -86 16 -166v-518q-12 -4 -25 -4q-12 0 -24 4v531q0 109 -29 161q-47 82 -172 82 q-121 0 -180 -55q-37 -33 -37 -61v-658q-12 -4 -25 -4q-12 0 -24 4z"/>
<glyph unicode="n" horiz-adv-x="868" d="M123 4v811q12 4 24 4q14 0 27 -4l4 -63q83 77 280 77h5q303 0 303 -292v-533q-12 -4 -25 -4q-12 0 -24 4v485q0 139 -37 199q-57 90 -225 90q-141 0 -219 -51q-63 -41 -64 -90v-633q-12 -4 -27 -4q-10 0 -22 4z"/>
<glyph unicode="o" horiz-adv-x="827" d="M92 309v195q0 168 41 227q66 98 281 98q214 0 280 -98q41 -59 41 -227v-195q0 -166 -41 -225q-66 -94 -280 -94q-215 0 -281 94q-41 59 -41 225zM141 326q0 -164 39 -213q51 -72 234 -72q182 0 235 72q37 49 37 213v163q0 166 -37 218q-52 71 -230 71h-5q-182 0 -234 -69 q-39 -51 -39 -220v-163z"/>
<glyph unicode="p" horiz-adv-x="856" d="M123 -373v1188q10 4 24 4t25 -4v-84h8q68 98 258 98q213 0 281 -94q45 -59 45 -223v-203q0 -168 -37 -225q-59 -94 -260 -94q-188 0 -295 80v-443q-10 -4 -25 -4q-14 0 -24 4zM172 180q0 -49 64 -88q82 -51 231 -51q162 0 213 74q35 49 35 196v193q0 143 -39 196 q-57 78 -238 78q-266 0 -266 -196v-402z"/>
<glyph unicode="q" horiz-adv-x="856" d="M92 309v203q0 164 45 223q68 94 281 94q190 0 258 -98h8v84q10 4 25 4q14 0 24 -4v-1188q-10 -4 -24 -4t-25 4v443q-106 -80 -295 -80q-201 0 -260 94q-37 57 -37 225zM141 311q0 -147 35 -196q51 -74 213 -74q150 0 232 51q63 39 63 88v402q0 196 -263 196h-3 q-180 0 -238 -78q-39 -53 -39 -196v-193z"/>
<glyph unicode="r" horiz-adv-x="491" d="M123 4v811q12 4 24 4t25 -4l6 -74h8q96 88 293 88l2 -24q0 -18 -4 -27q-145 0 -233 -55q-72 -45 -72 -96v-623q-12 -4 -25 -4q-12 0 -24 4z"/>
<glyph unicode="s" horiz-adv-x="747" d="M72 623q0 206 300 206h3q145 0 250 -26q0 -27 -7 -43q-104 18 -243 18t-197 -37q-57 -37 -57 -118q0 -59 86 -105q39 -23 186 -76q272 -100 273 -227q0 -125 -64 -174q-66 -51 -231 -51q-152 0 -283 33q0 33 14 53q123 -35 269 -35q147 0 196 35t49 139q0 68 -86 117 q-45 27 -186 76q-133 47 -186 81q-86 55 -86 134z"/>
<glyph unicode="t" horiz-adv-x="497" d="M31 795q0 12 4 24h162v240q10 4 24 4q12 0 25 -4v-240h200q4 -12 5 -24q0 -16 -5 -29h-200v-549q0 -98 26 -133q27 -33 103 -33h69q8 -8 9 -24q0 -18 -9 -27h-38q-129 0 -168 39q-41 41 -41 174v553h-162q-4 12 -4 29z"/>
<glyph unicode="u" horiz-adv-x="858" d="M92 283v532q12 4 25 4q12 0 24 -4v-485q0 -139 37 -199q57 -90 225 -90q141 0 220 51q63 41 63 90v633q12 4 27 4q10 0 22 -4v-811q-12 -4 -24 -4q-14 0 -27 4l-4 64q-84 -78 -285 -78q-303 0 -303 293z"/>
<glyph unicode="v" horiz-adv-x="749" d="M20 809q12 10 25 10q16 0 29 -6l301 -760l301 760q12 6 29 6q12 0 24 -10l-319 -803q-20 -6 -35 -6t-35 6z"/>
<glyph unicode="w" horiz-adv-x="1044" d="M41 809q18 10 29 10q10 0 22 -4l150 -733l239 649q25 4 41 4t41 -4l240 -649l149 733q12 4 23 4q10 0 29 -10q-164 -799 -166 -799q-16 -10 -31 -10q-16 0 -31 10l-246 664h-16l-246 -664q-14 -10 -30 -10q-14 0 -31 10q-2 0 -166 799z"/>
<glyph unicode="x" horiz-adv-x="790" d="M41 809q20 10 35 10q14 0 26 -6l293 -367l293 367q12 6 27 6q14 0 35 -10l-322 -403l313 -394q-25 -12 -32 -12q-14 0 -27 6l-287 359l-286 -359q-12 -6 -27 -6q-8 0 -33 12l313 394z"/>
<glyph unicode="y" horiz-adv-x="806" d="M41 811q10 8 22 8q16 0 29 -6l303 -772h17l299 772q12 6 24 6q16 0 31 -6l-463 -1186q-12 -4 -24 -4q-16 0 -31 4q29 82 127 326q6 23 24 37v8h-14q-16 0 -31 6z"/>
<glyph unicode="z" horiz-adv-x="774" d="M82 23q0 23 6 28l547 717h-549q-4 12 -4 27q0 12 4 24h606v-18q0 -20 -6 -47l-534 -703h536q4 -10 4 -20q0 -18 -4 -31h-600q-6 12 -6 23z"/>
<glyph unicode="{" horiz-adv-x="604" d="M123 506q0 12 4 24q80 4 104 39q31 43 31 174v289q0 111 88 111h127q4 -12 4 -25q0 -14 -4 -26h-84q-57 0 -69 -13q-12 -14 -13 -69v-281q0 -168 -73 -223q74 -55 73 -223v-269q0 -55 13 -67q12 -14 69 -15h84q4 -12 4 -26q0 -12 -4 -25h-127q-88 0 -88 111v276 q0 131 -31 174q-25 35 -104 39q-4 12 -4 25z"/>
<glyph unicode="|" d="M123 -115v1254q10 4 24 4q12 0 25 -4v-1254q-12 -4 -25 -4q-14 0 -24 4z"/>
<glyph unicode="}" horiz-adv-x="604" d="M123 -94q0 14 4 26h84q57 0 70 15q12 12 12 67v269q0 168 74 223q-74 55 -74 223v281q0 55 -12 69q-12 12 -70 13h-84q-4 12 -4 26q0 12 4 25h127q88 0 88 -111v-289q0 -131 31 -174q25 -35 104 -39q4 -12 4 -24t-4 -25q-80 -4 -104 -39q-31 -43 -31 -174v-276 q0 -111 -88 -111h-127q-4 12 -4 25z"/>
<glyph unicode="~" horiz-adv-x="960" d="M123 520q59 45 158 45q72 0 198 -65q127 -66 203 -66q66 0 131 39q23 -10 25 -43q-72 -47 -156 -47q-74 0 -203 66t-198 65q-80 0 -129 -39q-18 16 -29 45z"/>
<glyph unicode="¢" horiz-adv-x="849" d="M123 291v233q0 270 276 301v136q10 4 25 4q12 0 25 -4v-132h22q139 0 254 -26q0 -35 -10 -47q-92 23 -246 22q-297 0 -297 -241v-252q0 -244 297 -244q154 0 250 20q8 -5 8 -30v-21q-113 -20 -256 -20h-22v-135q-12 -4 -25 -5q-14 0 -25 5v139q-276 29 -276 297z"/>
<glyph unicode="£" horiz-adv-x="993" d="M123 483q0 14 4 27h102v272q0 252 211 252q88 0 156 -16q2 -4 2 -12q0 -18 -18 -37q-55 16 -140 16q-86 0 -123 -47q-39 -47 -38 -158v-270h288q4 -12 4 -27q0 -12 -4 -24h-288v-408h587q4 -12 4 -26q0 -12 -4 -25h-637v459h-102q-4 12 -4 24z"/>
<glyph unicode="¥" horiz-adv-x="1060" d="M123 1018q12 6 29 6q20 0 26 -2l352 -526l353 526q6 2 26 2q16 0 29 -6l-383 -576h227q4 -12 4 -26q0 -12 -4 -25h-227v-115h227q4 -12 4 -26q0 -12 -4 -25h-227v-221q-12 -4 -25 -4q-14 0 -24 4v221h-230q-4 12 -4 25q0 14 4 26h230v115h-230q-4 12 -4 25q0 14 4 26h230 z"/>
<glyph unicode="¨" horiz-adv-x="501" d="M123 1012v82q10 4 27 4q16 0 28 -4v-82q-12 -4 -28 -4t-27 4zM324 1012v82q10 4 26 4t29 -4v-82q-12 -4 -29 -4q-16 0 -26 4z"/>
<glyph unicode="©" horiz-adv-x="1290" d="M123 512q0 219 151 371q154 152 373 151q217 1 369 -151t151 -371q0 -219 -151 -371q-150 -152 -369 -151q-219 0 -373 151q-152 152 -151 371zM176 512q0 -193 139 -332q137 -137 332 -137q193 0 330 137t137 332t-137 332q-135 137 -330 137t-332 -137 q-139 -137 -139 -332zM377 418q0 -233 270 -234q131 0 207 25q-2 35 -14 45q-63 -18 -195 -18q-219 0 -219 163v205q0 176 219 176q131 0 195 -18q16 14 20 43q-82 27 -213 26q-270 0 -270 -233v-180z"/>
<glyph unicode="«" horiz-adv-x="843" d="M123 416q0 20 4 33l199 380q8 2 24 2q18 0 25 -16l-207 -393h-10v-12h10l207 -394q-6 -16 -25 -16q-16 0 -24 2l-199 381q-4 12 -4 33zM469 416q0 20 4 33l199 380q8 2 24 2q18 0 25 -16l-207 -393h-10v-12h10l207 -394q-6 -16 -25 -16q-16 0 -24 2l-199 381q-4 12 -4 33 z"/>
<glyph unicode="­" horiz-adv-x="759" d="M123 393q0 14 4 27h506q4 -12 4 -27q0 -12 -4 -24h-506q-4 12 -4 24z"/>
<glyph unicode="®" horiz-adv-x="1286" d="M123 510q0 217 151 369q154 152 371 151q217 1 367 -151q152 -152 151 -369q0 -217 -151 -369q-150 -152 -367 -151q-219 0 -371 151q-152 152 -151 369zM184 510q0 -188 135 -324q137 -135 326 -135t324 135t135 324q0 190 -135 326q-135 133 -324 133q-190 0 -326 -133 q-135 -135 -135 -326zM393 166v706h324q207 0 207 -192q0 -145 -97 -201l74 -315q-12 -4 -29 -4q-12 0 -24 4l-72 307h-332v-305q-12 -4 -26 -4t-25 4zM444 522h338q88 0 88 158q0 90 -59 121q-35 18 -113 18h-254v-297z"/>
<glyph unicode="´" horiz-adv-x="362" d="M123 854l47 233q12 10 31 11q25 0 39 -15l-70 -231q-10 -4 -23 -4q-12 0 -24 6z"/>
<glyph unicode="¸" horiz-adv-x="362" d="M123 -344l70 231q10 4 22 4t25 -6l-47 -233q-12 -10 -31 -10q-25 0 -39 14z"/>
<glyph unicode="»" horiz-adv-x="843" d="M123 16l207 394h10v12h-10l-207 393q6 16 24 16q16 0 25 -2l199 -380q4 -12 4 -33q0 -20 -4 -33l-199 -381q-8 -2 -25 -2q-18 0 -24 16zM469 16l207 394h10v12h-10l-207 393q6 16 25 16q16 0 24 -2l199 -380q4 -12 4 -33q0 -20 -4 -33l-199 -381q-8 -2 -24 -2 q-18 0 -25 16z"/>
<glyph unicode="Á" horiz-adv-x="884" d="M20 6l392 1010q16 8 30 8t31 -8l391 -1010q-10 -6 -26 -6q-12 0 -25 4l-135 352h-471l-135 -352q-12 -4 -25 -4q-16 0 -27 6zM229 408h426l-213 555zM428 1135l47 233q12 10 31 10q25 0 39 -14l-70 -231q-10 -4 -22 -5q-12 0 -25 7z"/>
<glyph unicode="É" horiz-adv-x="892" d="M123 0v1024h657q4 -12 4 -27q0 -12 -4 -24h-608v-436h535q4 -12 4 -27q0 -12 -4 -25h-535v-434h608q4 -12 4 -24q0 -14 -4 -27h-657zM422 1135l47 233q12 10 31 10q25 0 39 -14l-70 -231q-10 -4 -23 -5q-12 0 -24 7z"/>
<glyph unicode="Í" d="M123 4v1016q10 4 24 4q12 0 25 -4v-1016q-12 -4 -25 -4q-14 0 -24 4zM125 1135l47 233q12 10 31 10q25 0 39 -14l-70 -231q-10 -4 -22 -5q-12 0 -25 7z"/>
<glyph unicode="Ó" horiz-adv-x="1001" d="M102 367q0 -205 58 -277q84 -100 346 -100q258 0 338 100q55 72 55 277v274q0 211 -55 287q-82 106 -338 106q-262 0 -344 -106q-59 -78 -60 -287v-274zM152 362v297q0 193 59 254q70 70 295 70q217 0 285 -70q59 -61 59 -254v-297q0 -190 -59 -251q-68 -70 -285 -70 q-225 0 -295 70q-59 61 -59 251zM481 1135l47 233q12 10 31 10q25 0 39 -14l-70 -231q-10 -4 -22 -5q-12 0 -25 7z"/>
<glyph unicode="Ú" horiz-adv-x="1073" d="M123 356v664q10 4 24 4q12 0 25 -4v-660q0 -188 66 -249q72 -70 299 -70t299 70q66 61 65 249v660q10 4 25 4q12 0 24 -4v-664q0 -197 -57 -266q-86 -100 -356 -100t-357 100q-57 70 -57 266zM512 1135l47 233q12 10 31 10q25 0 39 -14l-70 -231q-10 -4 -22 -5 q-12 0 -25 7z"/>
<glyph unicode="Ý" horiz-adv-x="897" d="M41 1018q12 6 29 6q20 0 26 -2l353 -526l352 526q6 2 26 2q16 0 29 -6l-383 -576v-438q-12 -4 -24 -4q-14 0 -25 4v438zM424 1135l47 233q12 10 31 10q25 0 39 -14l-70 -231q-10 -4 -22 -5q-12 0 -25 7z"/>
<glyph unicode="á" horiz-adv-x="800" d="M72 233q0 228 319 228q158 0 254 -29h14v111q0 137 -75 188q-68 47 -236 47q-100 0 -192 -20q-12 18 -13 45q106 27 224 26q342 0 342 -288v-537q-10 -4 -25 -4q-14 0 -25 4v146q-137 -160 -311 -160q-276 0 -276 243zM121 238q0 -197 225 -197q150 0 313 172v180 q-158 23 -264 23q-274 0 -274 -178zM383 938l47 233q12 10 31 11q25 0 39 -15l-70 -231q-10 -4 -22 -4t-25 6z"/>
<glyph unicode="é" horiz-adv-x="833" d="M102 281v168q0 207 64 288q70 92 258 92q197 0 264 -86q53 -66 53 -239v-119h-589v-106q0 -238 299 -238q168 0 258 20q12 -14 12 -49q-104 -23 -268 -22q-351 0 -351 291zM152 438h540v123q0 111 -47 158q-59 59 -221 59t-219 -76q-51 -70 -53 -264zM406 938l47 233 q12 10 30 11q25 0 39 -15l-69 -231q-10 -4 -23 -4q-12 0 -24 6z"/>
<glyph unicode="í" d="M123 4v811q10 4 24 4q12 0 25 -4v-811q-12 -4 -25 -4q-14 0 -24 4zM123 938l47 233q12 10 31 11q25 0 39 -15l-70 -231q-10 -4 -23 -4q-12 0 -24 6z"/>
<glyph unicode="ó" horiz-adv-x="847" d="M102 309v195q0 168 41 227q66 98 281 98t281 -98q41 -59 40 -227v-195q0 -166 -40 -225q-66 -94 -281 -94t-281 94q-41 59 -41 225zM152 326q0 -164 38 -213q51 -72 234 -72q182 0 235 72q37 49 37 213v163q0 166 -37 218q-53 72 -235 71q-182 0 -234 -69 q-39 -51 -38 -220v-163zM397 938l47 233q12 10 31 11q25 0 39 -15l-70 -231q-10 -4 -22 -4t-25 6z"/>
<glyph unicode="ú" horiz-adv-x="868" d="M102 283v532q12 4 25 4q12 0 25 -4v-485q0 -139 36 -199q57 -90 226 -90q141 0 219 51q63 41 63 90v633q12 4 27 4q10 0 22 -4v-811q-12 -4 -24 -4q-14 0 -27 4l-4 64q-84 -78 -284 -78q-303 0 -304 293zM393 938l47 233q12 10 31 11q25 0 39 -15l-70 -231q-10 -4 -22 -4 t-25 6z"/>
<glyph unicode="ý" horiz-adv-x="806" d="M41 811q10 8 22 8q16 0 29 -6l303 -772h17l299 772q12 6 24 6q16 0 31 -6l-463 -1186q-12 -4 -24 -4q-16 0 -31 4q29 82 127 326q6 23 24 37v8h-14q-16 0 -31 6zM381 938l47 233q12 10 31 11q25 0 39 -15l-70 -231q-10 -4 -22 -4t-25 6z"/>
<glyph unicode="Č" horiz-adv-x="931" d="M102 356v301q0 377 430 377q170 0 326 -30l-2 -21q-6 -20 -10 -27q-127 27 -318 27q-377 0 -376 -299v-342q0 -301 376 -301q199 0 324 29q8 -23 8 -50q-147 -31 -328 -30q-430 0 -430 366zM352 1399q8 8 25 8q10 0 31 -4l84 -205l83 205q20 4 31 4q16 0 25 -8l-109 -262 q-12 -10 -30 -11q-18 0 -31 11z"/>
<glyph unicode="č" horiz-adv-x="765" d="M92 291v233q0 305 348 305q139 0 254 -26q0 -35 -10 -47q-92 23 -246 22q-297 0 -297 -241v-252q0 -244 297 -244q154 0 250 20q8 -6 8 -30v-21q-113 -20 -256 -20q-348 0 -348 301zM287 1204q8 8 24 8q10 0 31 -4l84 -204l84 204q20 4 31 4q16 0 24 -8l-108 -262 q-12 -10 -31 -10q-18 0 -31 10z"/>
<glyph unicode="Ď" horiz-adv-x="993" d="M123 0v1024h336q432 0 432 -371v-284q0 -369 -432 -369h-336zM172 51h291q379 0 379 303v316q0 160 -119 237q-100 66 -260 66h-291v-922zM352 1399q8 8 25 8q10 0 31 -4l84 -205l83 205q20 4 31 4q16 0 25 -8l-109 -262q-12 -10 -30 -11q-18 0 -31 11z"/>
<glyph unicode="ď" horiz-adv-x="944" d="M92 307v203q0 168 37 225q59 94 260 94q180 0 287 -79h8v344q10 4 25 4q14 0 24 -4v-1090q-10 -4 -24 -4t-25 4v84q-78 -98 -266 -98q-213 0 -281 94q-45 59 -45 223zM141 315q0 -143 39 -196q57 -78 238 -78q266 0 266 197v401q0 49 -63 88q-82 51 -232 51 q-162 0 -213 -73q-35 -49 -35 -197v-193zM860 1094q20 4 33 4t31 -4l-15 -230q-6 -6 -16 -6q-12 0 -19 6z"/>
<glyph unicode="Ě" horiz-adv-x="892" d="M123 0v1024h657q4 -12 4 -27q0 -12 -4 -24h-608v-436h535q4 -12 4 -27q0 -12 -4 -25h-535v-434h608q4 -12 4 -24q0 -14 -4 -27h-657zM332 1399q8 8 24 8q10 0 31 -4l84 -205l84 205q20 4 31 4q16 0 24 -8l-108 -262q-12 -10 -31 -11q-18 0 -31 11z"/>
<glyph unicode="ě" horiz-adv-x="823" d="M92 281v168q0 207 64 288q70 92 258 92q197 0 264 -86q53 -66 53 -239v-119h-590v-106q0 -238 299 -238q168 0 258 20q12 -14 13 -49q-104 -23 -269 -22q-350 0 -350 291zM141 438h541v123q0 111 -47 158q-59 59 -221 59t-219 -76q-51 -70 -54 -264zM287 1204q8 8 24 8 q10 0 31 -4l84 -204l84 204q20 4 31 4q16 0 24 -8l-108 -262q-12 -10 -31 -10q-18 0 -31 10z"/>
<glyph unicode="Ň" horiz-adv-x="1021" d="M123 4v1014q4 6 18 6q27 0 39 -4l670 -952v952q12 4 24 4t25 -4v-1016q-8 -4 -25 -4q-27 0 -38 4l-664 942v-942q-10 -4 -25 -4q-12 0 -24 4zM373 1399q8 8 24 8q10 0 31 -4l84 -205l84 205q20 4 31 4q16 0 24 -8l-108 -262q-12 -10 -31 -11q-18 0 -31 11z"/>
<glyph unicode="ň" horiz-adv-x="868" d="M123 4v811q12 4 24 4q14 0 27 -4l4 -63q84 78 285 77q303 0 303 -292v-533q-12 -4 -25 -4q-12 0 -24 4v485q0 139 -37 199q-57 90 -225 90q-141 0 -219 -51q-63 -41 -64 -90v-633q-12 -4 -27 -4q-10 0 -22 4zM307 1204q8 8 25 8q10 0 30 -4l84 -204l84 204q20 4 31 4 q16 0 25 -8l-109 -262q-12 -10 -31 -10q-18 0 -30 10z"/>
<glyph unicode="Ř" horiz-adv-x="927" d="M123 4v1020h395q164 0 223 -43q94 -63 95 -270q0 -236 -129 -301l127 -406q-12 -4 -27 -4q-12 0 -25 4l-123 389q-41 -10 -141 -10h-346v-379q-12 -4 -25 -4q-12 0 -24 4zM172 434h328q143 0 198 37q88 57 88 240q0 170 -88 227q-55 35 -198 35h-328v-539zM311 1399 q8 8 25 8q10 0 31 -4l84 -205l84 205q20 4 30 4q16 0 25 -8l-109 -262q-12 -10 -30 -11q-18 0 -31 11z"/>
<glyph unicode="ř" horiz-adv-x="491" d="M123 4v811q12 4 24 4t25 -4l6 -74h8q96 88 293 88l2 -24q0 -18 -4 -27q-145 0 -233 -55q-72 -45 -72 -96v-623q-12 -4 -25 -4q-12 0 -24 4zM143 1204q8 8 25 8q10 0 31 -4l84 -204l84 204q20 4 30 4q16 0 25 -8l-109 -262q-12 -10 -30 -10t-31 10z"/>
<glyph unicode="Š" horiz-adv-x="925" d="M82 72q8 25 24 51q160 -82 369 -82q154 0 219 35q100 51 101 200q0 80 -109 136q-55 29 -240 90q-168 53 -239 100q-109 72 -109 174q0 258 383 258q211 0 318 -24q0 -31 -11 -54q-119 27 -301 27q-197 0 -274 -57q-66 -47 -66 -150q0 -86 109 -147q61 -33 240 -90 q170 -55 239 -97q109 -68 109 -166q0 -180 -115 -243q-78 -43 -246 -43q-254 0 -401 82zM332 1399q8 8 24 8q10 0 31 -4l84 -205l84 205q20 4 31 4q16 0 24 -8l-108 -262q-12 -10 -31 -11q-18 0 -31 11z"/>
<glyph unicode="š" horiz-adv-x="757" d="M82 623q0 207 303 206q145 0 250 -26q0 -27 -6 -43q-104 18 -244 18q-139 0 -197 -37q-57 -37 -57 -118q0 -59 86 -105q39 -23 186 -76q272 -100 273 -227q0 -125 -64 -174q-66 -51 -231 -51q-152 0 -283 33q0 33 15 53q123 -35 268 -35q147 0 197 35q49 35 49 139 q0 68 -86 117q-45 27 -187 76q-133 47 -186 81q-86 55 -86 134zM246 1204q8 8 24 8q10 0 31 -4l84 -204l84 204q20 4 31 4q16 0 24 -8l-108 -262q-12 -10 -31 -10q-18 0 -31 10z"/>
<glyph unicode="Ť" horiz-adv-x="780" d="M31 997q0 14 4 27h710q4 -12 5 -27q0 -12 -5 -24h-346v-969q-12 -4 -24 -4t-25 4v969h-315q-4 12 -4 24zM236 1399q8 8 24 8q10 0 31 -4l84 -205l84 205q20 4 30 4q16 0 25 -8l-108 -262q-12 -10 -31 -11q-18 0 -31 11z"/>
<glyph unicode="ť" horiz-adv-x="585" d="M31 795q0 12 4 24h162v240q10 4 24 4q12 0 25 -4v-240h200q4 -12 5 -24q0 -16 -5 -29h-200v-549q0 -98 26 -133q27 -33 103 -33h69q8 -8 9 -24q0 -18 -9 -27h-38q-129 0 -168 39q-41 41 -41 174v553h-162q-4 12 -4 29zM512 1094q20 4 33 4q12 0 30 -4l-14 -230 q-6 -6 -16 -6q-12 0 -19 6z"/>
<glyph unicode="Ů" horiz-adv-x="1073" d="M123 356v664q10 4 24 4q12 0 25 -4v-660q0 -188 66 -249q72 -70 299 -70t299 70q66 61 65 249v660q10 4 25 4q12 0 24 -4v-664q0 -197 -57 -266q-86 -100 -356 -100t-357 100q-57 70 -57 266zM369 1305q0 76 53 127q53 53 127 53t127 -53q51 -51 51 -127t-51 -127 q-53 -51 -127 -52q-74 0 -127 52q-53 51 -53 127zM414 1305q0 -55 41 -93q39 -39 94 -38q51 -1 90 38q41 37 41 93q0 53 -41 94q-39 39 -90 39q-55 0 -94 -39q-41 -41 -41 -94z"/>
<glyph unicode="ů" horiz-adv-x="858" d="M92 283v532q12 4 25 4q12 0 24 -4v-485q0 -139 37 -199q57 -90 225 -90q141 0 220 51q63 41 63 90v633q12 4 27 4q10 0 22 -4v-811q-12 -4 -24 -4q-14 0 -27 4l-4 64q-84 -78 -285 -78q-303 0 -303 293zM231 1110q0 76 54 127q53 53 127 53t127 -53q51 -51 51 -127 t-51 -127q-53 -51 -127 -51t-127 51t-54 127zM276 1110q0 -55 41 -92q39 -39 95 -39q51 0 90 39q41 37 41 92q0 53 -41 94q-39 39 -90 39q-55 0 -95 -39q-41 -41 -41 -94z"/>
<glyph unicode="Ž" horiz-adv-x="888" d="M41 0v20q0 16 6 37l744 916h-746q-4 12 -4 26q0 12 4 25h799q4 -16 4 -35q0 -14 -6 -33l-733 -905h735q4 -12 4 -24q0 -14 -4 -27h-803zM313 1399q8 8 25 8q10 0 31 -4l84 -205l84 205q20 4 30 4q16 0 25 -8l-109 -262q-12 -10 -30 -11q-18 0 -31 11z"/>
<glyph unicode="ž" horiz-adv-x="774" d="M82 23q0 23 6 28l547 717h-549q-4 12 -4 27q0 12 4 24h606v-18q0 -20 -6 -47l-534 -703h536q4 -10 4 -20q0 -18 -4 -31h-600q-6 12 -6 23zM242 1204q8 8 24 8q10 0 31 -4l84 -204l84 204q20 4 31 4q16 0 24 -8l-108 -262q-12 -10 -31 -10q-18 0 -31 10z"/>
<glyph unicode="ˆ" horiz-adv-x="524" d="M123 825l108 262q12 10 31 11q18 0 31 -11l108 -262q-8 -8 -24 -8q-10 0 -31 4l-84 205l-84 -205q-20 -4 -31 -4q-16 0 -24 8z"/>
<glyph unicode="˚" horiz-adv-x="548" d="M123 946q0 63 45 109q43 43 108 43q64 0 107 -43q43 -45 43 -109q0 -63 -43 -106q-43 -45 -107 -45q-63 0 -108 45q-45 43 -45 106zM170 946q0 -43 31 -74t75 -30q43 -1 74 30q33 31 33 74t-33 76q-33 31 -74 31q-45 0 -75 -31q-31 -33 -31 -76z"/>
<glyph unicode="˜" horiz-adv-x="765" d="M123 1055q61 43 158 43q47 0 114 -33q66 -33 94 -33q72 0 132 37q22 -10 22 -43q-66 -45 -154 -45q-37 0 -102 33q-66 33 -106 33q-82 0 -129 -39q-29 10 -29 47z"/>
<glyph unicode=" " horiz-adv-x="742"/>
<glyph unicode=" " horiz-adv-x="1485"/>
<glyph unicode=" " horiz-adv-x="742"/>
<glyph unicode=" " horiz-adv-x="1485"/>
<glyph unicode=" " horiz-adv-x="495"/>
<glyph unicode=" " horiz-adv-x="371"/>
<glyph unicode=" " horiz-adv-x="247"/>
<glyph unicode=" " horiz-adv-x="247"/>
<glyph unicode=" " horiz-adv-x="185"/>
<glyph unicode=" " horiz-adv-x="297"/>
<glyph unicode=" " horiz-adv-x="82"/>
<glyph unicode="‐" horiz-adv-x="759" d="M123 393q0 14 4 27h506q4 -12 4 -27q0 -12 -4 -24h-506q-4 12 -4 24z"/>
<glyph unicode="‑" horiz-adv-x="759" d="M123 393q0 14 4 27h506q4 -12 4 -27q0 -12 -4 -24h-506q-4 12 -4 24z"/>
<glyph unicode="‒" horiz-adv-x="759" d="M123 393q0 14 4 27h506q4 -12 4 -27q0 -12 -4 -24h-506q-4 12 -4 24z"/>
<glyph unicode="–" horiz-adv-x="1044" d="M123 393q0 14 4 27h791q4 -12 4 -27q0 -12 -4 -24h-791q-4 12 -4 24z"/>
<glyph unicode="—" horiz-adv-x="1265" d="M123 393q0 14 4 27h1012q4 -12 4 -27q0 -12 -4 -24h-1012q-4 12 -4 24z"/>
<glyph unicode="‘" horiz-adv-x="356" d="M123 864l67 228q12 6 25 6q8 0 18 -8l-45 -236q-10 -4 -28 -4q-25 0 -37 14z"/>
<glyph unicode="’" horiz-adv-x="356" d="M123 858l45 236q10 4 29 4q25 0 36 -15l-67 -227q-12 -6 -25 -6q-8 0 -18 8z"/>
<glyph unicode="‚" horiz-adv-x="356" d="M123 -125l45 236q10 4 29 4q25 0 36 -15l-67 -227q-12 -6 -25 -6q-8 0 -18 8z"/>
<glyph unicode="“" horiz-adv-x="505" d="M123 864l67 228q12 6 25 6q8 0 18 -8l-45 -236q-10 -4 -28 -4q-25 0 -37 14zM272 864l68 228q12 6 25 6q8 0 18 -8l-45 -236q-10 -4 -29 -4q-25 0 -37 14z"/>
<glyph unicode="”" horiz-adv-x="505" d="M123 858l45 236q10 4 29 4q25 0 36 -15l-67 -227q-12 -6 -25 -6q-8 0 -18 8zM272 858l45 236q10 4 29 4q25 0 37 -15l-68 -227q-12 -6 -24 -6q-8 0 -19 8z"/>
<glyph unicode="„" horiz-adv-x="505" d="M123 -125l45 236q10 4 29 4q25 0 36 -15l-67 -227q-12 -6 -25 -6q-8 0 -18 8zM272 -125l45 236q10 4 29 4q25 0 37 -15l-68 -227q-12 -6 -24 -6q-8 0 -19 8z"/>
<glyph unicode="…" horiz-adv-x="661" d="M123 4v82q10 4 27 4q16 0 28 -4v-82q-12 -4 -28 -4t-27 4zM303 4v82q10 4 27 4q16 0 28 -4v-82q-12 -4 -28 -4t-27 4zM483 4v82q10 4 27 4q16 0 29 -4v-82q-12 -4 -29 -4q-16 0 -27 4z"/>
<glyph unicode=" " horiz-adv-x="297"/>
<glyph unicode="‹" horiz-adv-x="864" d="M123 344q0 18 2 37l610 289q6 -14 6 -29q0 -14 -6 -27l-555 -262h-12v-16h12l555 -264q6 -14 6 -27q0 -16 -6 -29l-610 289q-2 18 -2 39z"/>
<glyph unicode="›" horiz-adv-x="864" d="M123 45q0 12 6 27l555 264h12v16h-12l-555 262q-6 12 -6 27q0 14 6 29l610 -289q2 -18 2 -37q0 -20 -2 -39l-610 -289q-6 12 -6 29z"/>
<glyph unicode=" " horiz-adv-x="371"/>
<glyph unicode="€" horiz-adv-x="1157" d="M123 362q0 14 4 27h149v262h-149q-4 12 -4 25q0 14 4 26h152q25 332 428 332q170 0 325 -30l-2 -21q-6 -20 -10 -27q-127 27 -318 27q-365 0 -376 -281h358q4 -12 4 -26q0 -12 -4 -25h-358v-262h358q4 -12 4 -27q0 -12 -4 -24h-358q2 -297 376 -297q199 0 324 29 q8 -23 8 -50q-147 -31 -327 -30q-420 0 -431 348h-149q-4 12 -4 24z"/>
<glyph unicode="™" horiz-adv-x="1337" d="M123 999q0 12 6 25h426q6 -12 6 -25q0 -12 -6 -24h-199v-592q-12 -6 -24 -6t-25 6v592h-178q-6 12 -6 24zM604 383v631q27 10 33 10q25 0 31 -6l241 -578l244 578q4 6 29 6q8 0 32 -10v-631q-12 -6 -24 -6t-25 6v543l-231 -545q-12 -4 -25 -4q-12 0 -24 4l-232 545v-543 q-12 -6 -24 -6t-25 6z"/>
<glyph unicode="" horiz-adv-x="819" d="M0 0v819h819v-819h-819z"/>
</font>
</defs>
</svg>
