<?xml version="1.0" encoding="UTF-8" standalone="no"?>
<!DOCTYPE svg PUBLIC "-//W3C//DTD SVG 1.1//EN" "http://www.w3.org/Graphics/SVG/1.1/DTD/svg11.dtd">
<svg xmlns="http://www.w3.org/2000/svg">
<metadata/>
<defs>
<font id="quan_bookregular" horiz-adv-x="344">
<font-face units-per-em="2048" ascent="1536" descent="-512"/>
<missing-glyph horiz-adv-x="378"/>
<glyph horiz-adv-x="2048"/>
<glyph horiz-adv-x="2048"/>
<glyph unicode="" horiz-adv-x="2048"/>
<glyph unicode=" " horiz-adv-x="378"/>
<glyph unicode="	" horiz-adv-x="378"/>
<glyph unicode=" " horiz-adv-x="378"/>
<glyph unicode="!" horiz-adv-x="354" d="M123 1020q41 4 53 4l55 -4l-12 -793q-18 -6 -43 -6t-47 6zM129 6v129q20 6 47 6q26 0 49 -6v-129q-23 -6 -47 -6q-29 0 -49 6z"/>
<glyph unicode="&quot;" horiz-adv-x="497" d="M123 1094l47 4l49 -4q-2 -43 -12 -131l-12 -134q-8 -4 -27 -4q-14 0 -25 4l-10 134q-8 88 -10 131zM279 1094l47 4l49 -4q-2 -43 -13 -131l-12 -134q-8 -4 -26 -4q-14 0 -25 4l-10 134q-8 88 -10 131z"/>
<glyph unicode="#" horiz-adv-x="1243" d="M123 309l4 62h160l96 317h-172q-2 8 -2 21l4 61h193l77 252q14 2 47 2q20 0 41 -4l-75 -250h366l76 252q16 2 49 2q20 0 41 -4l-76 -250h164l4 -43q0 -20 -2 -39h-190l-99 -317h199l4 -43q0 -20 -2 -37h-223l-88 -285q-18 -6 -49 -6q-27 0 -41 4l88 287h-367l-88 -285 q-18 -6 -49 -6q-27 0 -41 4l88 287h-135q-2 8 -2 18zM373 371h370l95 317h-367z"/>
<glyph unicode="$" horiz-adv-x="1007" d="M123 72q0 57 35 88q127 -70 297 -78v407q-156 47 -224 95q-102 70 -102 180q0 250 326 270v111q20 4 47 4q29 0 51 -4v-111q193 -4 291 -37q-4 -49 -21 -90q-94 29 -270 33v-385q160 -47 227 -92q104 -70 105 -176q-1 -174 -105 -244q-74 -49 -227 -53v-111 q-23 -4 -49 -4q-29 0 -49 4v111q-250 14 -332 82zM227 764q1 -106 228 -178v354q-227 -20 -228 -176zM553 82q233 8 233 205q0 102 -233 174v-379z"/>
<glyph unicode="%" horiz-adv-x="1183" d="M123 696v176q0 72 59 115q53 37 131 37t131 -37q59 -43 60 -115v-176q0 -152 -191 -151q-190 -1 -190 151zM215 696q0 -72 98 -71q100 0 101 71v176q0 74 -101 74q-98 0 -98 -74v-176zM322 6l438 1012q18 6 49 6q29 0 49 -12l-438 -1000q-20 -12 -49 -12q-31 0 -49 6z M680 150v176q0 72 59 114q53 37 131 37t131 -37q59 -43 60 -114v-176q0 -152 -191 -152q-190 0 -190 152zM772 150q0 -72 98 -72q100 0 101 72v176q0 74 -101 73q-98 1 -98 -73v-176z"/>
<glyph unicode="&amp;" horiz-adv-x="1075" d="M123 262q0 154 248 252q-68 113 -68 246q0 135 43 196q55 78 195 78q139 0 194 -78q45 -61 45 -196q0 -180 -270 -285q135 -162 281 -280q61 109 63 245l47 4l51 -4q-6 -184 -92 -307l82 -80q-4 -12 -31 -33q-29 -23 -43 -22l-75 74q-111 -82 -285 -82q-195 0 -266 35 q-119 55 -119 237zM221 262q0 -125 68 -158q45 -23 217 -22q121 0 219 49q-287 287 -305 309q-199 -88 -199 -178zM401 760q1 -100 62 -213q219 86 219 213q0 111 -18 139q-25 41 -123 41q-96 0 -121 -41q-18 -29 -19 -139z"/>
<glyph unicode="'" horiz-adv-x="342" d="M123 1094l47 4l49 -4q-2 -43 -12 -131l-12 -134q-8 -4 -27 -4q-14 0 -25 4l-10 134q-8 88 -10 131z"/>
<glyph unicode="(" horiz-adv-x="407" d="M123 518q0 342 63 621l50 4q31 0 49 -2q-63 -295 -64 -623q0 -352 64 -635q-18 -2 -47 -2l-52 4q-63 274 -63 633z"/>
<glyph unicode=")" horiz-adv-x="407" d="M123 -117q63 283 63 635q0 328 -63 623q18 2 49 2l49 -4q63 -279 64 -621q0 -358 -64 -633l-51 -4q-29 0 -47 2z"/>
<glyph unicode="*" horiz-adv-x="765" d="M123 860l10 47q4 16 23 45l198 -75l-18 215q29 6 47 6q20 0 49 -6l-20 -215l198 75q18 -33 23 -45l10 -47l-215 -39l143 -151q-12 -31 -28 -45q-20 -16 -43 -29l-117 188l-117 -188q-23 12 -43 29q-16 14 -28 45l143 151z"/>
<glyph unicode="+" horiz-adv-x="989" d="M123 399q0 25 6 39h317v324l48 4l49 -4v-324h317q6 -14 6 -39q0 -27 -4 -43h-319v-323l-47 -4l-50 4v323h-319q-4 16 -4 43z"/>
<glyph unicode="," horiz-adv-x="260" d="M61 -72l39 207l50 4q33 0 49 -2l-84 -207q-10 -2 -37 -2h-17z"/>
<glyph unicode="-" horiz-adv-x="776" d="M123 399q0 25 6 39h518q6 -14 6 -39q0 -27 -4 -43h-522q-4 16 -4 43z"/>
<glyph unicode="." horiz-adv-x="342" d="M123 6v129q20 6 47 6q26 0 49 -6v-129q-23 -6 -47 -6q-29 0 -49 6z"/>
<glyph unicode="/" horiz-adv-x="688" d="M123 4l346 1137q14 2 49 2q27 0 47 -4l-346 -1133q-18 -6 -55 -6q-27 0 -41 4z"/>
<glyph unicode="0" horiz-adv-x="995" d="M123 365v294q0 205 47 273q74 102 328 102q253 0 327 -102q47 -68 47 -273v-294q0 -205 -47 -273q-74 -102 -327 -102q-254 0 -328 102q-47 68 -47 273zM221 369q0 -180 35 -226q47 -61 242 -61q194 0 241 61q35 45 35 226v286q0 182 -35 226q-47 61 -241 61 q-195 0 -242 -61q-35 -43 -35 -226v-286z"/>
<glyph unicode="1" horiz-adv-x="583" d="M20 805l342 213q29 6 48 6l51 -4v-1016q-20 -4 -49 -4q-27 0 -50 4v899q-260 -172 -264 -172q-31 8 -53 31q-17 12 -25 43z"/>
<glyph unicode="2" horiz-adv-x="811" d="M92 772q2 119 51 176q74 86 271 86q211 0 282 -92q45 -59 45 -186q0 -156 -215 -346q-260 -231 -303 -318h512q4 0 4 -49q0 -29 -4 -43h-629q-2 16 -2 37q0 27 11 61q27 104 286 338q242 219 242 318q0 104 -29 137q-45 51 -198 51q-150 0 -195 -45q-31 -31 -31 -125 q-20 -4 -49 -4q-33 0 -49 4z"/>
<glyph unicode="3" horiz-adv-x="847" d="M72 772q2 119 51 176q74 86 272 86q209 0 283 -92q45 -59 45 -186q0 -168 -105 -244q106 -74 107 -240q0 -131 -45 -188q-74 -94 -283 -94q-201 0 -274 86q-47 55 -49 176q23 4 51 4q25 0 47 -4q0 -92 35 -125q45 -45 192 -45q154 0 199 51q29 33 29 137q0 105 -31 142 q-49 57 -213 59q-4 20 -4 43q0 20 2 39q164 2 211 57q33 35 33 144q0 104 -29 137q-45 51 -199 51q-150 0 -194 -45q-33 -31 -33 -125q-23 -4 -47 -4q-35 0 -51 4z"/>
<glyph unicode="4" horiz-adv-x="868" d="M20 371q0 18 7 57l452 592q25 4 82 4q33 0 53 -4v-604h127l4 -43q0 -33 -2 -49h-129v-322q-23 -2 -53 -2q-35 0 -45 2v322h-493q-2 16 -3 47zM129 416h387v502z"/>
<glyph unicode="5" horiz-adv-x="864" d="M123 242q23 4 49 4q29 0 49 -4q0 -88 35 -119q45 -41 195 -41q152 0 196 65q29 39 29 150q0 117 -29 164q-47 80 -196 80h-11q-203 0 -217 -76q-23 -2 -51 -2q-41 0 -49 6v510l4 45h606q4 -14 4 -43q0 -31 -2 -49h-514v-344q72 45 225 45q209 0 283 -121q45 -72 45 -213 q0 -137 -45 -203q-74 -106 -283 -106q-199 0 -272 80q-49 55 -51 172z"/>
<glyph unicode="6" horiz-adv-x="815" d="M102 299v438q0 297 347 297q158 0 264 -28q-4 -49 -21 -86q-86 23 -246 22q-246 0 -245 -190v-195q113 47 225 47q209 0 283 -106q45 -66 45 -199q0 -137 -45 -203q-74 -106 -283 -106q-207 0 -279 106q-45 66 -45 203zM201 291q-1 -107 30 -148q47 -61 199 -61t197 65 q29 39 28 150q0 111 -28 149q-45 66 -197 66q-154 0 -201 -66q-29 -41 -28 -155z"/>
<glyph unicode="7" horiz-adv-x="704" d="M20 979q0 25 5 45h624l4 -43q0 -23 -4 -47l-284 -930q-37 -4 -52 -4q-31 0 -47 2l277 930h-520q-2 18 -3 47z"/>
<glyph unicode="8" horiz-adv-x="858" d="M102 756q0 127 45 186q72 92 279 92q211 0 283 -92q45 -59 45 -186q0 -168 -105 -244q106 -74 107 -240q0 -131 -45 -188q-72 -94 -281 -94t-280 94q-45 57 -46 188q0 166 103 238q-104 74 -105 246zM201 754q-1 -107 28 -142q45 -53 201 -53q154 0 197 53q29 35 28 142 q0 104 -28 137q-43 51 -197 51q-156 0 -201 -51q-29 -33 -28 -137zM203 270q-1 -104 28 -137q45 -51 201 -51q154 0 197 51q29 33 28 137q0 106 -28 142q-43 53 -197 53q-156 0 -201 -53q-29 -35 -28 -142z"/>
<glyph unicode="9" horiz-adv-x="815" d="M61 725q0 137 45 203q74 106 283 106q207 0 279 -106q45 -66 45 -203v-438q0 -297 -346 -297q-158 0 -265 28q4 49 21 86q86 -23 246 -22q246 0 245 190v195q-113 -47 -225 -47q-209 0 -283 106q-45 66 -45 199zM160 727q0 -111 28 -149q45 -66 197 -66q154 0 201 66 q29 41 28 155q1 107 -30 148q-47 61 -199 61t-197 -65q-29 -39 -28 -150z"/>
<glyph unicode=":" horiz-adv-x="342" d="M123 6v129q20 6 47 6q26 0 49 -6v-129q-23 -6 -47 -6q-29 0 -49 6zM123 588v129q20 6 47 6q26 0 49 -6v-129q-23 -6 -47 -6q-29 0 -49 6z"/>
<glyph unicode=";" horiz-adv-x="382" d="M123 -72l39 207l49 4q33 0 49 -2l-84 -207q-10 -2 -37 -2h-16zM164 588v129q20 6 47 6q26 0 49 -6v-129q-23 -6 -47 -6q-29 0 -49 6z"/>
<glyph unicode="&lt;" horiz-adv-x="876" d="M123 365q0 54 10 79l615 258q6 -14 6 -45q0 -35 -2 -51l-533 -227h-16v-25h16l533 -229q2 -14 2 -51q0 -27 -6 -45l-615 260q-10 27 -10 76z"/>
<glyph unicode="=" horiz-adv-x="776" d="M123 233q0 25 6 39h518q6 -14 6 -39q0 -27 -4 -43h-522q-4 16 -4 43zM123 543q0 25 6 39h518q6 -14 6 -39q0 -27 -4 -43h-522q-4 16 -4 43z"/>
<glyph unicode="&gt;" horiz-adv-x="876" d="M123 74q0 37 2 51l532 229h17v25h-17l-532 227q-2 16 -2 51q0 31 6 45l614 -258q10 -25 11 -79q-1 -49 -11 -76l-614 -260q-6 18 -6 45z"/>
<glyph unicode="?" horiz-adv-x="761" d="M123 991q86 43 223 43q293 0 293 -213q0 -117 -137 -219q-137 -100 -137 -182v-191q-20 -6 -50 -6q-31 0 -49 6v193q0 119 137 217q137 96 138 182q0 72 -35 94q-39 25 -164 25q-123 0 -195 -37q-14 27 -24 88zM266 6v129q20 6 47 6q29 0 52 -6v-129q-23 -6 -50 -6 q-29 0 -49 6z"/>
<glyph unicode="@" horiz-adv-x="1316" d="M123 219v520q0 141 135 224q119 72 281 71h239q162 0 281 -71q135 -82 135 -224v-454q0 -86 -41 -121t-145 -35q-164 0 -164 107h-13q-29 -94 -200 -95q-172 0 -238 92q-45 63 -45 201v84q0 137 41 197q59 86 225 86q158 0 197 -84h10v82q12 2 58 2q18 0 34 -2v-514 q0 -80 95 -80q45 0 61 10q27 16 27 70v454q0 84 -78 140q-88 63 -240 63h-239q-152 0 -240 -63q-78 -55 -78 -140v-520q0 -197 318 -196h239q190 0 252 45q0 -2 8 -17q8 -12 11 -18q10 -20 10 -49q-68 -53 -281 -54h-239q-416 0 -416 289zM442 436q0 -94 25 -135 q39 -70 164 -70t166 70q25 41 24 135v113q0 160 -209 160q-113 0 -149 -62q-20 -37 -21 -129v-82z"/>
<glyph unicode="A" horiz-adv-x="892" d="M20 4l336 1010q37 10 90 10q55 0 91 -10l335 -1010q-16 -4 -49 -4q-39 0 -53 2l-113 334h-421l-113 -334q-14 -2 -53 -2q-33 0 -50 4zM266 428h361l-181 541z"/>
<glyph unicode="B" horiz-adv-x="964" d="M123 0v1024h407q176 0 240 -35q102 -57 102 -246q0 -163 -86 -235q86 -68 86 -225q0 -188 -102 -246q-63 -37 -240 -37h-407zM221 92h307q111 0 164 27q82 43 82 164t-82 159q-49 23 -164 23h-307v-373zM221 557h307q113 0 164 27q82 41 82 159q0 121 -82 162 q-51 27 -164 27h-307v-375z"/>
<glyph unicode="C" horiz-adv-x="940" d="M102 362v300q0 372 431 372h2q193 0 333 -37q-4 -55 -22 -86q-115 31 -316 31q-330 0 -329 -266v-328q0 -266 329 -266q195 0 318 33q20 -37 20 -88q-141 -37 -333 -37q-432 0 -433 372z"/>
<glyph unicode="D" horiz-adv-x="1007" d="M123 0v1034h344q438 0 438 -377v-280q0 -377 -438 -377h-344zM221 92h250q141 0 234 66q102 72 102 204v310q0 133 -102 207q-92 63 -234 63h-250v-850z"/>
<glyph unicode="E" horiz-adv-x="907" d="M123 0v1024h670q6 -20 6 -45q0 -14 -4 -47h-574v-375h500q6 -20 6 -45q0 -14 -4 -47h-502v-373h572q6 -20 6 -45q0 -14 -4 -47h-672z"/>
<glyph unicode="F" horiz-adv-x="860" d="M123 4v1020h670q6 -20 6 -45q0 -14 -4 -47h-574v-375h500q6 -20 6 -45q0 -14 -4 -47h-502v-461q-20 -4 -49 -4t-49 4z"/>
<glyph unicode="G" horiz-adv-x="974" d="M102 362v300q0 372 431 372h2q197 0 333 -37q-4 -53 -20 -86q-117 31 -318 31q-330 0 -329 -266v-328q0 -266 329 -266q125 0 244 18v336h-188q-4 16 -4 45q0 31 4 47h233q12 0 53 -4v-497q-137 -37 -337 -37q-432 0 -433 372z"/>
<glyph unicode="H" horiz-adv-x="1001" d="M123 4v1016q20 4 49 4t49 -4v-457h559v457q20 4 49 4t50 -4v-1016q-20 -4 -50 -4q-29 0 -49 4v467h-559v-467q-20 -4 -49 -4t-49 4z"/>
<glyph unicode="I" d="M123 4v1016q20 4 49 4t49 -4v-1016q-20 -4 -49 -4t-49 4z"/>
<glyph unicode="J" horiz-adv-x="741" d="M20 190v60q20 4 48 4q31 0 51 -4v-45q0 -84 49 -107q33 -16 151 -16q121 0 154 14q47 23 47 107v817q20 4 49 4t49 -4v-830q0 -96 -51 -141q-66 -59 -233 -59h-29q-170 0 -235 59q-49 45 -50 141z"/>
<glyph unicode="K" horiz-adv-x="1001" d="M123 4v1016q20 4 49 4t49 -4v-494l674 498q37 -37 57 -76l-385 -293l404 -651q-25 -4 -45 -4q-49 0 -66 2l-375 600l-264 -196v-402q-20 -4 -49 -4t-49 4z"/>
<glyph unicode="L" horiz-adv-x="808" d="M123 0v1020q20 4 49 4t49 -4v-928h545q2 -16 2 -45q0 -31 -2 -47h-643z"/>
<glyph unicode="M" horiz-adv-x="1249" d="M123 4v1008q35 10 86 10q53 0 86 -10l330 -899l329 899q33 10 86 10q51 0 86 -10v-1008q-20 -4 -49 -4t-49 4v924l-340 -924q-18 -4 -63 -4q-46 0 -64 4l-340 924v-924q-20 -4 -49 -4t-49 4z"/>
<glyph unicode="N" horiz-adv-x="1089" d="M123 2v1014q31 8 86 8q63 0 98 -10l561 -959v967q14 2 52 2q35 0 47 -2v-1012q-39 -10 -111 -10q-51 0 -72 6l-563 963v-967q-16 -2 -53 -2q-35 0 -45 2z"/>
<glyph unicode="O" horiz-adv-x="1011" d="M102 383v262q0 209 52 279q79 110 347 110h5q272 0 352 -110q51 -70 51 -279v-262q0 -211 -51 -281q-81 -112 -347 -112h-4.5h-5.5q-266 0 -347 112q-51 70 -52 281zM201 381q0 -176 49 -231q57 -68 256 -68t258 68q47 55 47 231v262q0 176 -47 231q-59 68 -258 68 t-256 -68q-49 -55 -49 -231v-262z"/>
<glyph unicode="P" horiz-adv-x="899" d="M123 4v1020h385q170 0 237 -43q102 -68 103 -279q0 -213 -103 -284q-70 -49 -237 -49h-287v-365q-20 -4 -49 -4t-49 4zM221 461h285q113 0 162 31q82 51 82 210q0 147 -82 199q-51 31 -162 31h-285v-471z"/>
<glyph unicode="Q" horiz-adv-x="1011" d="M102 383v262q0 209 52 279q79 110 347 110h5h5q268 0 347 -110q51 -70 51 -279v-262q0 -203 -47 -272q-72 -113 -317 -121v-101q8 10 28 11h230q10 -23 10 -45q0 -23 -6 -48h-244q-76 0 -117 31v154q-231 10 -301 123q-43 70 -43 268zM201 381q0 -176 49 -231 q57 -68 256 -68t258 68q47 55 47 231v262q0 176 -47 231q-59 68 -258 68t-256 -68q-49 -55 -49 -231v-262z"/>
<glyph unicode="R" horiz-adv-x="968" d="M123 4v1020h414q172 0 237 -43q102 -68 103 -279q0 -221 -142 -301l125 -397q-20 -4 -47 -4q-37 0 -51 2l-119 375q-27 -8 -106 -8h-316v-365q-20 -4 -49 -4t-49 4zM221 461h314q106 0 161 37q82 55 82 204q0 147 -82 199q-49 31 -161 31h-314v-471z"/>
<glyph unicode="S" horiz-adv-x="925" d="M82 74q0 57 35 88q152 -80 354 -80q119 0 180 29q94 47 94 176q0 76 -102 125q-45 23 -225 77q-158 45 -228 95q-102 70 -102 180q0 270 389 270q213 0 326 -37q-4 -49 -21 -90q-104 33 -301 33q-295 0 -295 -176q0 -80 103 -131q49 -25 227 -78q156 -49 225 -94 q102 -68 103 -174q0 -186 -121 -252q-80 -45 -252 -45q-289 0 -389 84z"/>
<glyph unicode="T" horiz-adv-x="798" d="M31 983q0 27 4 41h729q4 -14 4 -41q0 -35 -2 -51h-317v-928q-20 -4 -50 -4q-29 0 -49 4v928h-317q-2 16 -2 51z"/>
<glyph unicode="U" horiz-adv-x="1069" d="M123 365v655q20 4 49 4t49 -4v-651q0 -172 53 -226q61 -61 263 -61q199 0 260 61q51 53 51 226v651q20 4 49 4t49 -4v-655q0 -203 -55 -273q-84 -102 -354 -102q-274 0 -357 102q-57 70 -57 273z"/>
<glyph unicode="V" horiz-adv-x="892" d="M20 1020q16 4 50 4q39 0 53 -2l323 -967l324 967q14 2 53 2q33 0 49 -4l-335 -1010q-35 -10 -91 -10q-53 0 -90 10z"/>
<glyph unicode="W" horiz-adv-x="1339" d="M72 1016q10 8 49 8q37 0 49 -4l166 -938l280 749q18 6 54 7q35 0 53 -7l281 -749l165 938q12 4 50 4q39 0 49 -8l-176 -1006q-33 -10 -76 -10q-53 0 -94 14l-252 674l-252 -674q-41 -14 -94 -14q-43 0 -76 10z"/>
<glyph unicode="X" horiz-adv-x="993" d="M31 1016q16 8 45 8q53 0 71 -2l351 -442l352 442q18 2 68 2q29 0 45 -8l-404 -512l397 -502q-23 -2 -55 -2q-45 0 -74 4l-329 420l-332 -420q-29 -4 -74 -4q-31 0 -55 2l399 502z"/>
<glyph unicode="Y" horiz-adv-x="946" d="M41 1014q31 10 45 10q55 0 74 -4l313 -485l311 485q18 4 74 4q12 0 47 -10l-385 -568v-442q-20 -4 -49 -4t-49 4v442z"/>
<glyph unicode="Z" horiz-adv-x="897" d="M41 979q0 31 4 45h809q2 -16 2 -37q0 -31 -4 -55l-672 -838h639q4 -14 4 -45q0 -16 -4 -49h-774q-2 16 -2 41q0 29 4 53l684 838h-686q-4 33 -4 47z"/>
<glyph unicode="[" horiz-adv-x="462" d="M123 -115v1254l47 4h166q4 -14 4 -49q0 -27 -2 -43h-117v-1078h115q4 -14 4 -49q0 -27 -2 -43h-166z"/>
<glyph unicode="\" horiz-adv-x="688" d="M123 1139q20 4 47 4q35 0 49 -2l346 -1137q-14 -4 -41 -4q-37 0 -55 6z"/>
<glyph unicode="]" horiz-adv-x="462" d="M123 -76q0 35 4 49h115v1078h-117q-2 16 -2 43q0 35 4 49h166l47 -4v-1254l-49 -4h-166q-2 16 -2 43z"/>
<glyph unicode="^" horiz-adv-x="706" d="M123 530l143 484q33 10 88 10q51 0 86 -10l72 -242q49 -160 72 -242q-20 -4 -43 -4q-35 0 -49 2l-130 404v12h-18v-12l-129 -404q-16 -2 -49 -2q-23 0 -43 4z"/>
<glyph unicode="_" horiz-adv-x="999" d="M123 -150q0 25 6 39h741q6 -14 7 -39q0 -27 -5 -43h-745q-4 16 -4 43z"/>
<glyph unicode="`" horiz-adv-x="395" d="M123 1096q16 2 43 2q16 0 61 -4l23 -133q16 -90 22 -134q-6 -4 -28 -4l-31 2z"/>
<glyph unicode="a" horiz-adv-x="815" d="M174 432q84 53 219 53q127 0 217 -39h15v91q0 200 -264 200h-3q-109 0 -192 -24q-18 33 -23 84q108 32 227 32h7q346 0 346 -294v-531q-23 -4 -49 -4q-29 0 -49 4v105q-96 -119 -271 -119q-150 0 -215 55q-67 56 -67 193q0 131 102 194zM170 246q0 -162 182 -164 q156 0 273 135v172q-41 4 -150 4q-158 0 -213 -18q-92 -31 -92 -129z"/>
<glyph unicode="b" horiz-adv-x="868" d="M123 4v1090q20 4 49 4q27 0 49 -4v-342h17q50 77 228 77h5q205 0 266 -94q39 -59 39 -231v-191q0 -168 -43 -229q-70 -94 -284 -94q-160 0 -228 86v-72q-23 -4 -49 -4q-29 0 -49 4zM221 315q0 -111 29 -155q49 -78 199 -78q152 0 200 78q29 45 29 155v187q0 113 -25 157 q-45 78 -178 78q-254 0 -254 -200v-222z"/>
<glyph unicode="c" horiz-adv-x="778" d="M92 289v241q0 299 350 299q160 0 267 -30q-4 -49 -21 -82q-90 20 -248 20q-250 0 -250 -194v-269q0 -192 247 -192h3q156 0 248 27q16 -45 21 -93q-96 -26 -255 -26h-12q-350 0 -350 299z"/>
<glyph unicode="d" horiz-adv-x="868" d="M92 313v191q0 172 39 231q61 94 266 94h5q179 0 229 -77h16v342q23 4 49 4q29 0 49 -4v-1090q-20 -4 -49 -4q-27 0 -49 4v72q-68 -86 -227 -86q-215 0 -283 94q-45 61 -45 229zM190 315q0 -111 29 -155q49 -78 201 -78q150 0 198 78q29 45 29 155v222q0 200 -251 200h-3 q-133 0 -178 -78q-25 -45 -25 -157v-187z"/>
<glyph unicode="e" horiz-adv-x="839" d="M92 289v178q0 203 68 281q71 81 259 81h5q199 0 266 -79q57 -68 58 -240v-148h-558v-88q0 -192 256 -192h3q164 0 256 27q16 -45 20 -91q-102 -28 -263 -28h-11q-359 0 -359 299zM190 455h459v98q0 96 -39 135q-47 49 -186 49q-146 0 -191 -61q-43 -55 -43 -221z"/>
<glyph unicode="f" horiz-adv-x="526" d="M31 774l4 45h141v35q0 160 45 221q41 55 148 55q88 0 157 -18q-4 -53 -18 -82q-55 8 -121 8q-76 0 -94 -34q-18 -31 -19 -150v-35h232l4 -45q0 -18 -4 -47h-232v-723q-23 -4 -49 -4q-29 0 -49 4v723h-141q-4 29 -4 47z"/>
<glyph unicode="g" horiz-adv-x="868" d="M92 313v191q0 172 39 231q61 94 266 94q182 0 234 -77h16v63q23 4 49 4q29 0 49 -4v-895q0 -297 -344 -297q-168 0 -264 29q4 47 21 84q84 -20 245 -21q244 0 244 193v168q-66 -86 -227 -86q-215 0 -283 94q-45 61 -45 229zM190 315q0 -111 29 -155q49 -78 201 -78 q150 0 198 78q29 45 29 155v222q0 200 -251 200h-3q-133 0 -178 -78q-25 -45 -25 -157v-187z"/>
<glyph unicode="h" horiz-adv-x="901" d="M123 4v1090q20 4 49 4q27 0 49 -4v-342h23q58 77 240 77h5q289 0 289 -307v-518q-23 -4 -49 -4q-29 0 -49 4v479q0 129 -27 176q-45 78 -190 78q-135 0 -191 -47q-51 -47 -51 -153v-533q-23 -4 -49 -4q-29 0 -49 4z"/>
<glyph unicode="i" d="M123 4q20 -4 47 -4q29 0 51 4v811q-23 4 -51 4q-27 0 -47 -4v-811zM123 942v129q20 4 47 4q28 0 51 -4v-129q-23 -4 -49 -4q-29 0 -49 4z"/>
<glyph unicode="j" d="M-197 -352q84 -25 187 -25q119 0 172 58q59 63 59 221v913q-23 4 -51 4q-27 0 -47 -4v-913q0 -115 -29 -152q-29 -35 -123 -35q-92 0 -145 15q-18 -31 -23 -82zM123 942v129q20 4 47 4q28 0 51 -4v-129q-23 -4 -49 -4q-29 0 -49 4z"/>
<glyph unicode="k" horiz-adv-x="890" d="M123 4v1090l49 4l49 -4v-670l524 395q16 -12 31 -33q8 -8 27 -47l-225 -170l282 -557q-18 -12 -45 -12q-45 0 -59 2l-258 506l-277 -203v-301l-47 -4z"/>
<glyph unicode="l" d="M123 4v1090q20 4 47 4q28 0 51 -4v-1090q-23 -4 -49 -4q-29 0 -49 4z"/>
<glyph unicode="m" horiz-adv-x="1232" d="M123 4v813q16 2 41 2q12 0 49 -4l14 -61h19q60 75 193 75h3q137 0 213 -92q72 92 240 92q246 0 246 -305v-520q-23 -4 -49 -4q-29 0 -50 4v469q0 264 -157 264q-115 0 -207 -71q20 -57 20 -152v-510q-23 -4 -49 -4q-29 0 -49 4v469q0 264 -172 264q-119 0 -166 -49 q-41 -43 -41 -151v-533q-23 -4 -49 -4q-29 0 -49 4z"/>
<glyph unicode="n" horiz-adv-x="880" d="M123 4v811q18 4 43 4l47 -4l12 -63h19q58 77 240 77h5q289 0 289 -307v-518q-23 -4 -49 -4q-29 0 -49 4v479q0 129 -27 176q-45 78 -190 78q-135 0 -191 -47q-51 -47 -51 -153v-533q-23 -4 -49 -4q-29 0 -49 4z"/>
<glyph unicode="o" horiz-adv-x="839" d="M92 315v189q0 168 45 231q68 94 283 94q212 0 282 -94q45 -63 46 -231v-189q0 -168 -46 -229q-70 -96 -282 -96q-215 0 -283 96q-45 61 -45 229zM190 317q0 -143 29 -180q41 -55 201 -55t201 55q28 36 28 171v9v185q0 143 -28 182q-41 53 -201 53t-201 -53 q-29 -37 -29 -182v-185z"/>
<glyph unicode="p" horiz-adv-x="868" d="M123 -373v1188q20 4 49 4q27 0 49 -4v-63h17q50 77 228 77h5q205 0 266 -94q39 -59 39 -231v-191q0 -168 -43 -229q-70 -94 -284 -94q-162 0 -228 86v-449q-23 -4 -49 -4q-29 0 -49 4zM221 315q0 -111 29 -155q49 -78 199 -78q152 0 200 78q29 45 29 155v187 q0 113 -25 157q-45 78 -178 78q-254 0 -254 -200v-222z"/>
<glyph unicode="q" horiz-adv-x="868" d="M92 313v191q0 172 39 231q61 94 266 94h5q179 0 229 -77h16v63q23 4 49 4q29 0 49 -4v-1188q-20 -4 -49 -4q-27 0 -49 4v449q-66 -86 -227 -86q-215 0 -283 94q-45 61 -45 229zM190 315q0 -111 29 -155q49 -78 201 -78q150 0 198 78q29 45 29 155v222q0 200 -251 200h-3 q-133 0 -178 -78q-25 -45 -25 -157v-187z"/>
<glyph unicode="r" horiz-adv-x="536" d="M123 4v811q14 4 45 4q25 0 45 -6l12 -59h13q50 65 260 65h6h18q4 -25 4 -41l-4 -51h-61q-135 0 -189 -43q-51 -41 -51 -145v-535q-23 -4 -49 -4q-29 0 -49 4z"/>
<glyph unicode="s" horiz-adv-x="759" d="M72 614q0 215 311 215q166 0 260 -30q-10 -63 -18 -86q-83 24 -226 24h-12q-125 0 -172 -26q-45 -27 -45 -97q0 -53 80 -94q27 -12 174 -63q254 -86 254 -232q0 -129 -68 -182t-231 -53q-174 0 -291 39q2 51 25 92q100 -39 266 -39q121 0 164 33q37 29 37 110 q0 59 -80 101q-33 18 -174 63q-254 86 -254 225z"/>
<glyph unicode="t" horiz-adv-x="546" d="M31 776l4 43h162v240q23 4 47 4q31 0 51 -4v-240h201l4 -43q0 -20 -4 -49h-201v-489q0 -88 20 -113q25 -31 117 -33h66l4 -47q0 -12 -4 -45h-64q-135 0 -186 49q-51 51 -51 189v489h-162q-4 29 -4 49z"/>
<glyph unicode="u" horiz-adv-x="870" d="M92 297v518q23 4 49 4q29 0 49 -4v-479q0 -127 27 -176q45 -78 191 -78q135 0 190 49q51 45 51 152v532q23 4 49 4q29 0 50 -4v-811q-18 -4 -43 -4l-48 4l-12 64h-18q-59 -78 -246 -78q-289 0 -289 307z"/>
<glyph unicode="v" horiz-adv-x="798" d="M20 815q12 4 43 4q41 0 60 -2l276 -762l277 762q18 2 59 2q31 0 43 -4l-284 -805q-33 -10 -95 -10q-61 0 -94 10z"/>
<glyph unicode="w" horiz-adv-x="1101" d="M41 817q16 2 47 2q16 0 53 -4l156 -760l168 674q29 12 86 12t86 -12l168 -674l156 760q37 4 53 4q31 0 47 -2l-164 -807q-33 -10 -78 -10q-80 0 -104 8l-164 647l-164 -647q-25 -8 -104 -8q-45 0 -78 10z"/>
<glyph unicode="x" horiz-adv-x="851" d="M41 811q16 8 45 8q53 0 72 -4l268 -338l268 338q18 4 72 4q29 0 45 -8l-324 -410l318 -397q-25 -4 -57 -4q-43 0 -74 6l-248 316l-248 -316q-31 -6 -74 -6q-33 0 -57 4l318 397z"/>
<glyph unicode="y" horiz-adv-x="806" d="M41 815q20 4 47 4q35 0 49 -2l258 -719v-16h19v16l256 719q14 2 49 2q27 0 47 -4l-412 -1190q-14 -2 -39 -2q-29 0 -47 6l97 295q14 45 47 66v10q-55 0 -90 10z"/>
<glyph unicode="z" horiz-adv-x="784" d="M82 41q0 10 6 53l496 633h-500q-2 18 -2 45q0 29 2 47h616q2 -18 2 -39q0 -31 -4 -53q-25 -27 -487 -635h489q2 -18 2 -43q0 -33 -2 -49h-616q-2 16 -2 41z"/>
<glyph unicode="{" horiz-adv-x="626" d="M123 508q0 25 4 43q78 2 102 33q27 39 27 161v302q0 96 80 96h166q2 -16 2 -45q0 -31 -2 -47h-82q-35 0 -47 -7q-18 -12 -19 -51v-248q0 -154 -67 -233q68 -74 67 -217v-264q0 -39 19 -49q12 -8 47 -9h82q2 -16 2 -47q0 -29 -2 -45h-166q-80 0 -80 96v304q0 125 -27 159 q-23 27 -102 29q-4 18 -4 39z"/>
<glyph unicode="|" d="M123 -115v1254q20 4 49 4q27 0 49 -4v-1254q-23 -4 -49 -4q-29 0 -49 4z"/>
<glyph unicode="}" horiz-adv-x="626" d="M123 -74q0 31 2 47h82q37 0 47 9q18 10 18 49v264q0 143 68 217q-68 80 -68 233v248q0 39 -18 51q-10 6 -47 7h-82q-2 16 -2 47q0 29 2 45h166q80 0 80 -96v-302q0 -123 28 -161q23 -31 101 -33q4 -18 4 -43q0 -20 -4 -39q-80 -2 -101 -29q-29 -35 -28 -159v-304 q0 -96 -80 -96h-166q-2 16 -2 45z"/>
<glyph unicode="~" horiz-adv-x="980" d="M123 522q66 57 174 58q72 0 201 -62q129 -63 186 -63q70 0 127 47l27 -27q6 -6 20 -39q-76 -63 -176 -63q-70 0 -199 63q-127 61 -186 62q-72 0 -127 -45l-27 26q-14 20 -20 43z"/>
<glyph unicode="¢" horiz-adv-x="862" d="M123 289v241q0 260 258 293v138q20 4 47 4q29 0 51 -4v-132q158 0 260 -30q-4 -49 -20 -82q-90 20 -248 20q-250 0 -250 -194v-269q0 -193 250 -192q156 0 248 27q16 -46 20 -93q-98 -27 -260 -26v-135q-23 -4 -49 -5q-29 0 -49 5v141q-258 33 -258 293z"/>
<glyph unicode="£" horiz-adv-x="1026" d="M123 483q0 25 6 39h129v234q0 158 59 223q53 55 172 55q102 0 187 -24q-4 -51 -23 -82q-53 14 -145 14q-94 0 -123 -35q-29 -37 -29 -151v-234h291q6 -14 6 -39q0 -27 -4 -43h-293v-348h545q2 -16 2 -45q0 -31 -2 -47h-643v440h-131q-4 16 -4 43z"/>
<glyph unicode="¥" horiz-adv-x="1110" d="M123 1014q31 10 45 10q55 0 74 -4l313 -485l311 485q18 4 74 4q12 0 47 -10l-383 -565h209q6 -14 6 -39q0 -27 -4 -43h-213v-125h211q6 -14 6 -39q0 -27 -4 -43h-213v-156q-20 -4 -49 -4t-49 4v156h-211q-4 16 -4 43q0 25 6 39h209v125h-211q-4 16 -4 43q0 25 6 39h207z "/>
<glyph unicode="¨" horiz-adv-x="618" d="M123 989v103q20 6 47 6q26 0 49 -6v-103q-23 -6 -47 -6q-29 0 -49 6zM399 989v103q20 6 47 6t50 -6v-103q-23 -6 -47 -6q-29 0 -50 6z"/>
<glyph unicode="©" horiz-adv-x="1269" d="M123 512q0 217 147 369q150 154 365 153q214 1 364 -153q147 -152 148 -369q0 -217 -148 -369q-150 -154 -364 -153q-215 0 -365 153q-147 152 -147 369zM211 512q0 -168 129 -301t295 -133t295 133t129 301t-129 301t-295 133t-295 -133t-129 -301zM365 418 q0 -233 270 -234q131 0 213 27q0 37 -25 74q-63 -18 -190 -19q-176 0 -176 146v192q0 145 176 146q127 0 190 -19q25 37 25 74q-82 27 -213 26q-270 0 -270 -233v-180z"/>
<glyph unicode="«" horiz-adv-x="919" d="M123 434q0 70 14 113l191 315q29 6 59 6q29 0 47 -4l-117 -207q-76 -137 -118 -208h-19v-29h19q43 -72 118 -207q86 -156 117 -209q-18 -4 -47 -4q-31 0 -59 6l-191 316q-14 43 -14 112zM485 434q0 70 15 113l190 315q29 6 60 6q29 0 47 -4l-117 -207q-76 -137 -119 -208 h-18v-29h18q43 -72 119 -207q86 -156 117 -209q-18 -4 -47 -4q-31 0 -60 6l-190 316q-14 43 -15 112z"/>
<glyph unicode="­" horiz-adv-x="776" d="M123 399q0 25 6 39h518q6 -14 6 -39q0 -27 -4 -43h-522q-4 16 -4 43z"/>
<glyph unicode="®" horiz-adv-x="1290" d="M123 512q0 217 153 369q152 154 369 153q217 1 369 -153q154 -152 153 -369q0 -217 -153 -369q-152 -154 -369 -153q-217 0 -369 153q-154 152 -153 369zM211 512q0 -168 133 -301t301 -133t301 133t133 301t-133 301t-301 133t-301 -133t-133 -301zM430 215v616h264 q109 0 148 -28q59 -43 59 -178q0 -150 -72 -191l72 -217q-16 -8 -41 -8q-37 0 -49 6l-68 201h-221v-201q-27 -6 -47 -6q-16 0 -45 6zM522 496h142q66 0 94 16q51 29 51 113q0 125 -145 125h-142v-254z"/>
<glyph unicode="´" horiz-adv-x="409" d="M123 827q6 43 22 134l23 133q45 4 61 4q42 0 58 -2l-90 -271l-45 -2q-23 0 -29 4z"/>
<glyph unicode="¸" horiz-adv-x="409" d="M123 -381l90 270l45 2q23 0 29 -4q-6 -43 -23 -133l-22 -133q-45 -4 -62 -4q-41 0 -57 2z"/>
<glyph unicode="»" horiz-adv-x="919" d="M123 4q31 53 117 209q76 135 118 207h19v29h-19q-43 72 -118 208l-117 207q18 4 47 4q33 0 59 -6l191 -315q14 -43 14 -113t-14 -112l-191 -316q-27 -6 -59 -6q-29 0 -47 4zM485 4q31 53 117 209q76 135 119 207h18v29h-18q-43 72 -119 208l-117 207q18 4 47 4 q33 0 60 -6l190 -315q14 -43 15 -113q0 -70 -15 -112l-190 -316q-27 -6 -60 -6q-29 0 -47 4z"/>
<glyph unicode="Á" horiz-adv-x="892" d="M20 4l336 1010q37 10 90 10q55 0 91 -10l335 -1010q-16 -4 -49 -4q-39 0 -53 2l-113 334h-421l-113 -334q-14 -2 -53 -2q-33 0 -50 4zM266 428h361l-181 541zM416 1130q6 43 22 134l23 133q45 4 61 4q42 0 58 -2l-91 -271l-45 -2q-23 0 -28 4z"/>
<glyph unicode="É" horiz-adv-x="907" d="M123 0v1024h670q6 -20 6 -45q0 -14 -4 -47h-574v-375h500q6 -20 6 -45q0 -14 -4 -47h-502v-373h572q6 -20 6 -45q0 -14 -4 -47h-672zM440 1130q6 43 23 134l22 133q45 4 62 4q41 0 57 -2l-90 -271l-45 -2q-23 0 -29 4z"/>
<glyph unicode="Í" d="M123 4v1016q20 4 47 4q28 0 51 -4v-1016q-23 -4 -49 -4q-29 0 -49 4zM135 1130q6 43 23 134l22 133q45 4 62 4q41 0 57 -2l-90 -271l-45 -2q-23 0 -29 4z"/>
<glyph unicode="Ó" horiz-adv-x="1011" d="M102 383v262q0 209 52 279q80 111 352 110q272 0 352 -110q51 -70 51 -279v-262q0 -211 -51 -281q-82 -113 -352 -112q-270 -1 -352 112q-51 70 -52 281zM201 381q0 -176 49 -231q57 -68 256 -68t258 68q47 55 47 231v262q0 176 -47 231q-59 68 -258 68t-256 -68 q-49 -55 -49 -231v-262zM471 1130q6 43 23 134l22 133q45 4 62 4q41 0 57 -2l-90 -271l-45 -2q-23 0 -29 4z"/>
<glyph unicode="Ú" horiz-adv-x="1069" d="M123 365v655q20 4 49 4t49 -4v-651q0 -172 53 -226q61 -61 263 -61q199 0 260 61q51 53 51 226v651q20 4 49 4t49 -4v-655q0 -203 -55 -273q-84 -102 -354 -102q-274 0 -357 102q-57 70 -57 273zM506 1130q6 43 22 134l23 133q45 4 61 4q42 0 58 -2l-90 -271l-45 -2 q-23 0 -29 4z"/>
<glyph unicode="Ý" horiz-adv-x="946" d="M41 1014q31 10 45 10q55 0 74 -4l313 -485l311 485q18 4 74 4q12 0 47 -10l-385 -568v-442q-20 -4 -49 -4t-49 4v442zM442 1130q6 43 23 134l22 133q45 4 62 4q41 0 57 -2l-90 -271l-45 -2q-23 0 -29 4z"/>
<glyph unicode="á" horiz-adv-x="815" d="M72 242q0 127 102 190q84 53 219 53q127 0 217 -39h15v91q0 201 -267 200q-109 0 -192 -24q-18 33 -23 84q111 33 234 32q346 0 346 -294v-531q-23 -4 -49 -4q-29 0 -49 4v105q-96 -119 -271 -119q-150 0 -215 55q-68 57 -67 197zM170 246q0 -162 182 -164q156 0 273 135 v172q-41 4 -150 4q-158 0 -213 -18q-92 -31 -92 -129zM412 936l43 258q45 4 61 4q41 0 57 -2l-88 -262l-45 -2q-23 0 -28 4z"/>
<glyph unicode="é" horiz-adv-x="849" d="M102 289v178q0 203 68 281q72 82 264 81q199 0 266 -79q57 -68 58 -240v-148h-557v-88q0 -193 258 -192q164 0 256 27q16 -45 20 -91q-106 -29 -274 -28q-359 0 -359 299zM201 455h458v98q0 96 -38 135q-47 49 -187 49q-145 0 -190 -61q-43 -55 -43 -221zM412 936l43 258 q45 4 61 4q41 0 57 -2l-88 -262l-45 -2q-23 0 -28 4z"/>
<glyph unicode="í" d="M123 4v811q20 4 47 4q29 0 51 -4v-811q-23 -4 -51 -4q-27 0 -47 4zM139 936q6 43 23 133l22 133q45 4 62 4q41 0 57 -2l-90 -270l-45 -2q-23 0 -29 4z"/>
<glyph unicode="ó" horiz-adv-x="860" d="M102 315v189q0 168 45 231q68 94 283 94q213 0 283 -94q45 -63 45 -231v-189q0 -168 -45 -229q-70 -96 -283 -96q-215 0 -283 96q-45 61 -45 229zM201 317q0 -143 28 -180q41 -55 201 -55t201 55q29 37 28 180v185q0 143 -28 182q-41 53 -201 53t-201 -53 q-29 -37 -28 -182v-185zM403 936l43 258q45 4 62 4q41 0 57 -2l-88 -262l-45 -2q-23 0 -29 4z"/>
<glyph unicode="ú" horiz-adv-x="880" d="M102 297v518q23 4 50 4q29 0 49 -4v-479q0 -127 26 -176q45 -78 191 -78q135 0 190 49q51 45 51 152v532q23 4 50 4q29 0 49 -4v-811q-18 -4 -43 -4l-47 4l-13 64h-18q-59 -78 -246 -78q-289 0 -289 307zM399 936l43 258q45 4 62 4q41 0 57 -2l-88 -262l-45 -2 q-23 0 -29 4z"/>
<glyph unicode="ý" horiz-adv-x="806" d="M41 815q20 4 47 4q35 0 49 -2l258 -719v-16h19v16l256 719q14 2 49 2q27 0 47 -4l-412 -1190q-14 -2 -39 -2q-29 0 -47 6l97 295q14 45 47 66v10q-55 0 -90 10zM385 936l43 258q45 4 61 4q42 0 58 -2l-88 -262l-45 -2q-23 0 -29 4z"/>
<glyph unicode="Č" horiz-adv-x="940" d="M102 362v300q0 373 433 372q193 0 333 -37q-4 -55 -22 -86q-115 31 -316 31q-330 0 -329 -266v-328q0 -266 329 -266q195 0 318 33q20 -37 20 -88q-141 -37 -333 -37q-432 0 -433 372zM344 1405q20 4 39 4q37 0 51 -2q12 -37 43 -115l41 -110q6 18 43 110q29 78 41 115 q14 2 51 2q18 0 39 -4l-106 -268q-29 -10 -68 -11q-38 1 -67 11z"/>
<glyph unicode="č" horiz-adv-x="778" d="M92 289v241q0 299 350 299q160 0 267 -30q-4 -49 -21 -82q-90 20 -248 20q-250 0 -250 -194v-269q0 -193 250 -192q156 0 248 27q16 -45 21 -93q-100 -27 -267 -26q-350 0 -350 299zM236 1210q20 4 38 4q37 0 52 -2q12 -37 43 -114l41 -111q6 18 43 111q29 78 41 114 q14 2 51 2q18 0 39 -4l-107 -268q-29 -10 -67 -10q-39 0 -68 10z"/>
<glyph unicode="Ď" horiz-adv-x="1007" d="M123 0v1034h344q438 0 438 -377v-280q0 -377 -438 -377h-344zM221 92h250q141 0 234 66q102 72 102 204v310q0 133 -102 207q-92 63 -234 63h-250v-850zM303 1405q20 4 39 4q37 0 51 -2q12 -37 43 -115l41 -110q6 18 43 110q29 78 41 115q14 2 51 2q18 0 39 -4l-106 -268 q-29 -10 -68 -11q-38 1 -67 11z"/>
<glyph unicode="ď" horiz-adv-x="989" d="M92 313v191q0 172 39 231q61 94 266 94q183 1 234 -77h16v342q23 4 49 4q29 0 49 -4v-1090q-20 -4 -49 -4q-27 0 -49 4v72q-68 -86 -227 -86q-215 0 -283 94q-45 61 -45 229zM190 315q0 -111 29 -155q49 -78 201 -78q150 0 198 78q29 45 29 155v222q0 201 -254 200 q-133 0 -178 -78q-25 -45 -25 -157v-187zM872 1094l48 4l49 -4q-2 -43 -13 -131l-12 -134q-8 -4 -26 -4q-14 0 -25 4l-10 134q-8 88 -11 131z"/>
<glyph unicode="Ě" horiz-adv-x="907" d="M123 0v1024h670q6 -20 6 -45q0 -14 -4 -47h-574v-375h500q6 -20 6 -45q0 -14 -4 -47h-502v-373h572q6 -20 6 -45q0 -14 -4 -47h-672zM283 1405q20 4 39 4q37 0 51 -2q12 -37 43 -115l41 -110q6 18 43 110q29 78 41 115q14 2 51 2q18 0 39 -4l-107 -268q-29 -10 -67 -11 q-39 1 -68 11z"/>
<glyph unicode="ě" horiz-adv-x="839" d="M92 289v178q0 203 68 281q72 82 264 81q199 0 266 -79q57 -68 58 -240v-148h-558v-88q0 -193 259 -192q164 0 256 27q16 -45 20 -91q-106 -29 -274 -28q-359 0 -359 299zM190 455h459v98q0 96 -39 135q-47 49 -186 49q-146 0 -191 -61q-43 -55 -43 -221zM236 1210 q20 4 38 4q37 0 52 -2q12 -37 43 -114l41 -111q6 18 43 111q29 78 41 114q14 2 51 2q18 0 39 -4l-107 -268q-29 -10 -67 -10q-39 0 -68 10z"/>
<glyph unicode="Ň" horiz-adv-x="1089" d="M123 2v1014q31 8 86 8q63 0 98 -10l561 -959v967q14 2 52 2q35 0 47 -2v-1012q-39 -10 -111 -10q-51 0 -72 6l-563 963v-967q-16 -2 -53 -2q-35 0 -45 2zM385 1405q20 4 39 4q37 0 51 -2q12 -37 43 -115l41 -110q6 18 43 110q29 78 41 115q14 2 51 2q18 0 39 -4 l-106 -268q-29 -10 -68 -11q-38 1 -67 11z"/>
<glyph unicode="ň" horiz-adv-x="880" d="M123 4v811q18 4 43 4l47 -4l12 -63h19q59 78 245 77q289 0 289 -307v-518q-23 -4 -49 -4q-29 0 -49 4v479q0 129 -27 176q-45 78 -190 78q-135 0 -191 -47q-51 -47 -51 -153v-533q-23 -4 -49 -4q-29 0 -49 4zM276 1210q20 4 39 4q37 0 52 -2q12 -37 43 -114l41 -111 q6 18 43 111q29 78 41 114q14 2 51 2q18 0 39 -4l-107 -268q-29 -10 -67 -10q-39 0 -68 10z"/>
<glyph unicode="Ř" horiz-adv-x="968" d="M123 4v1020h414q172 0 237 -43q102 -68 103 -279q0 -221 -142 -301l125 -397q-20 -4 -47 -4q-37 0 -51 2l-119 375q-27 -8 -106 -8h-316v-365q-20 -4 -49 -4t-49 4zM221 461h314q106 0 161 37q82 55 82 204q0 147 -82 199q-49 31 -161 31h-314v-471zM303 1405q20 4 39 4 q37 0 51 -2q12 -37 43 -115l41 -110q6 18 43 110q29 78 41 115q14 2 51 2q18 0 39 -4l-106 -268q-29 -10 -68 -11q-38 1 -67 11z"/>
<glyph unicode="ř" horiz-adv-x="536" d="M123 4v811q14 4 45 4q25 0 45 -6l12 -59h13q51 66 266 65h18q4 -25 4 -41l-4 -51h-61q-135 0 -189 -43q-51 -41 -51 -145v-535q-23 -4 -49 -4q-29 0 -49 4zM133 1210q20 4 39 4q37 0 51 -2q12 -37 43 -114l41 -111q6 18 43 111q29 78 41 114q14 2 51 2q18 0 39 -4 l-106 -268q-29 -10 -68 -10q-38 0 -67 10z"/>
<glyph unicode="Š" horiz-adv-x="925" d="M82 74q0 57 35 88q152 -80 354 -80q119 0 180 29q94 47 94 176q0 76 -102 125q-45 23 -225 77q-158 45 -228 95q-102 70 -102 180q0 270 389 270q213 0 326 -37q-4 -49 -21 -90q-104 33 -301 33q-295 0 -295 -176q0 -80 103 -131q49 -25 227 -78q156 -49 225 -94 q102 -68 103 -174q0 -186 -121 -252q-80 -45 -252 -45q-289 0 -389 84zM283 1405q20 4 39 4q37 0 51 -2q12 -37 43 -115l41 -110q6 18 43 110q29 78 41 115q14 2 51 2q18 0 39 -4l-107 -268q-29 -10 -67 -11q-39 1 -68 11z"/>
<glyph unicode="š" horiz-adv-x="770" d="M82 614q0 215 311 215q166 0 260 -30q-10 -63 -18 -86q-86 25 -238 24q-125 0 -172 -26q-45 -27 -45 -97q0 -53 80 -94q27 -12 174 -63q254 -86 254 -232q0 -129 -67 -182q-68 -53 -232 -53q-174 0 -291 39q2 51 25 92q100 -39 266 -39q121 0 164 33q37 29 37 110 q0 59 -80 101q-33 18 -174 63q-254 86 -254 225zM195 1210q20 4 38 4q37 0 52 -2q12 -37 43 -114l41 -111q6 18 43 111q29 78 41 114q14 2 51 2q18 0 39 -4l-107 -268q-29 -10 -67 -10q-39 0 -68 10z"/>
<glyph unicode="Ť" horiz-adv-x="798" d="M31 983q0 27 4 41h729q4 -14 4 -41q0 -35 -2 -51h-317v-928q-20 -4 -50 -4q-29 0 -49 4v928h-317q-2 16 -2 51zM221 1405q20 4 39 4q37 0 51 -2q12 -37 43 -115l41 -110q6 18 43 110q29 78 41 115q14 2 51 2q18 0 39 -4l-106 -268q-29 -10 -68 -11q-38 1 -67 11z"/>
<glyph unicode="ť" horiz-adv-x="712" d="M31 776l4 43h162v240q23 4 47 4q31 0 51 -4v-240h201l4 -43q0 -20 -4 -49h-201v-489q0 -88 20 -113q25 -31 117 -33h66l4 -47q0 -12 -4 -45h-64q-135 0 -186 49q-51 51 -51 189v489h-162q-4 29 -4 49zM606 1094l47 4l49 -4q-2 -43 -12 -131l-12 -134q-8 -4 -27 -4 q-14 0 -24 4l-11 134q-8 88 -10 131z"/>
<glyph unicode="Ů" horiz-adv-x="1069" d="M123 365v655q20 4 49 4t49 -4v-651q0 -172 53 -226q61 -61 263 -61q199 0 260 61q51 53 51 226v651q20 4 49 4t49 -4v-655q0 -203 -55 -273q-84 -102 -354 -102q-274 0 -357 102q-57 70 -57 273zM360 1311q0 76 54 129q53 55 131 55q76 0 129 -55q55 -53 55 -129 q0 -78 -55 -131q-53 -53 -129 -54q-78 0 -131 54q-53 53 -54 131zM434 1311q0 -45 33 -78t78 -33t78 33t32 78q0 45 -32 78q-33 33 -78 32q-45 0 -78 -32q-33 -33 -33 -78z"/>
<glyph unicode="ů" horiz-adv-x="870" d="M92 297v518q23 4 49 4q29 0 49 -4v-479q0 -127 27 -176q45 -78 191 -78q135 0 190 49q51 45 51 152v532q23 4 49 4q29 0 50 -4v-811q-18 -4 -43 -4l-48 4l-12 64h-18q-59 -78 -246 -78q-289 0 -289 307zM225 1116q0 76 54 129q53 55 131 55q76 0 129 -55q55 -53 55 -129 q0 -78 -55 -131q-53 -53 -129 -53q-78 0 -131 53t-54 131zM299 1116q0 -45 33 -78t78 -32q44 -1 77 32t33 78t-33 78t-77 33q-45 0 -78 -33t-33 -78z"/>
<glyph unicode="Ž" horiz-adv-x="897" d="M41 979q0 31 4 45h809q2 -16 2 -37q0 -31 -4 -55l-672 -838h639q4 -14 4 -45q0 -16 -4 -49h-774q-2 16 -2 41q0 29 4 53l684 838h-686q-4 33 -4 47zM262 1405q20 4 39 4q37 0 51 -2q12 -37 43 -115l41 -110q6 18 43 110q29 78 41 115q14 2 51 2q18 0 39 -4l-106 -268 q-29 -10 -68 -11q-38 1 -67 11z"/>
<glyph unicode="ž" horiz-adv-x="784" d="M82 41q0 10 6 53l496 633h-500q-2 18 -2 45q0 29 2 47h616q2 -18 2 -39q0 -31 -4 -53q-25 -27 -487 -635h489q2 -18 2 -43q0 -33 -2 -49h-616q-2 16 -2 41zM217 1210q20 4 39 4q37 0 51 -2q12 -37 43 -114l41 -111q6 18 43 111q29 78 41 114q14 2 51 2q18 0 39 -4 l-106 -268q-29 -10 -68 -10q-38 0 -67 10z"/>
<glyph unicode="ˆ" horiz-adv-x="593" d="M123 819l106 268q29 10 68 11q39 -1 68 -11l106 -268q-20 -4 -39 -4q-37 0 -51 2q-12 37 -41 115q-37 92 -43 110l-41 -110q-31 -78 -43 -115q-14 -2 -51 -2q-18 0 -39 4z"/>
<glyph unicode="˚" horiz-adv-x="571" d="M123 934q0 68 47 117q47 47 115 47q67 0 116 -47q47 -49 48 -117q0 -68 -48 -115q-49 -47 -116 -47q-68 0 -115 47t-47 115zM209 930q0 -76 76 -76q77 0 77 76q0 78 -77 78q-76 0 -76 -78z"/>
<glyph unicode="˜" horiz-adv-x="768" d="M123 1024q80 74 166 74q33 0 94 -27q59 -29 96 -29q72 0 125 45q23 -14 27 -24q14 -18 14 -41q-76 -61 -170 -61q-41 0 -96 28q-57 27 -90 27q-61 0 -125 -51q-20 12 -29 28q-6 6 -12 31z"/>
<glyph unicode=" " horiz-adv-x="747"/>
<glyph unicode=" " horiz-adv-x="1495"/>
<glyph unicode=" " horiz-adv-x="747"/>
<glyph unicode=" " horiz-adv-x="1495"/>
<glyph unicode=" " horiz-adv-x="498"/>
<glyph unicode=" " horiz-adv-x="373"/>
<glyph unicode=" " horiz-adv-x="249"/>
<glyph unicode=" " horiz-adv-x="249"/>
<glyph unicode=" " horiz-adv-x="186"/>
<glyph unicode=" " horiz-adv-x="299"/>
<glyph unicode=" " horiz-adv-x="83"/>
<glyph unicode="‐" horiz-adv-x="776" d="M123 399q0 25 6 39h518q6 -14 6 -39q0 -27 -4 -43h-522q-4 16 -4 43z"/>
<glyph unicode="‑" horiz-adv-x="776" d="M123 399q0 25 6 39h518q6 -14 6 -39q0 -27 -4 -43h-522q-4 16 -4 43z"/>
<glyph unicode="‒" horiz-adv-x="776" d="M123 399q0 25 6 39h518q6 -14 6 -39q0 -27 -4 -43h-522q-4 16 -4 43z"/>
<glyph unicode="–" horiz-adv-x="1067" d="M123 399q0 25 6 39h809q6 -14 6 -39q0 -27 -4 -43h-813q-4 16 -4 43z"/>
<glyph unicode="—" horiz-adv-x="1267" d="M123 399q0 25 6 39h1010q6 -14 6 -39q0 -27 -4 -43h-1014q-4 16 -4 43z"/>
<glyph unicode="‘" horiz-adv-x="380" d="M123 889q14 41 41 104l41 103q12 2 33 2q12 0 20 -2l-39 -205l-53 -4q-27 0 -43 2z"/>
<glyph unicode="’" horiz-adv-x="380" d="M123 889l39 205l53 4q27 0 43 -2q-14 -41 -41 -105l-41 -102q-12 -2 -33 -2q-12 0 -20 2z"/>
<glyph unicode="‚" horiz-adv-x="380" d="M123 -94l39 205l53 4q27 0 43 -2q-14 -41 -41 -105l-41 -102q-12 -2 -33 -2q-12 0 -20 2z"/>
<glyph unicode="“" horiz-adv-x="542" d="M123 889q14 41 41 104l41 103q12 2 33 2q12 0 20 -2l-39 -205l-53 -4q-27 0 -43 2zM285 889q14 41 41 104l41 103q12 2 32 2q12 0 21 -2l-39 -205l-53 -4q-27 0 -43 2z"/>
<glyph unicode="”" horiz-adv-x="542" d="M123 889l39 205l53 4q27 0 43 -2q-14 -41 -41 -105l-41 -102q-12 -2 -33 -2q-12 0 -20 2zM285 889l39 205l53 4q27 0 43 -2q-14 -41 -41 -105l-41 -102q-12 -2 -33 -2q-12 0 -20 2z"/>
<glyph unicode="„" horiz-adv-x="542" d="M123 -94l39 205l53 4q27 0 43 -2q-14 -41 -41 -105l-41 -102q-12 -2 -33 -2q-12 0 -20 2zM285 -94l39 205l53 4q27 0 43 -2q-14 -41 -41 -105l-41 -102q-12 -2 -33 -2q-12 0 -20 2z"/>
<glyph unicode="…" horiz-adv-x="768" d="M123 6v129q20 6 47 6q26 0 49 -6v-129q-23 -6 -47 -6q-29 0 -49 6zM336 6v129q20 6 47 6q26 0 49 -6v-129q-23 -6 -47 -6q-29 0 -49 6zM549 6v129q20 6 47 6q26 0 49 -6v-129q-23 -6 -47 -6q-29 0 -49 6z"/>
<glyph unicode=" " horiz-adv-x="299"/>
<glyph unicode="‹" horiz-adv-x="876" d="M123 365q0 54 10 79l615 258q6 -14 6 -45q0 -35 -2 -51l-533 -227h-16v-25h16l533 -229q2 -14 2 -51q0 -27 -6 -45l-615 260q-10 27 -10 76z"/>
<glyph unicode="›" horiz-adv-x="876" d="M123 74q0 37 2 51l532 229h17v25h-17l-532 227q-2 16 -2 51q0 31 6 45l614 -258q10 -25 11 -79q-1 -49 -11 -76l-614 -260q-6 18 -6 45z"/>
<glyph unicode=" " horiz-adv-x="373"/>
<glyph unicode="€" horiz-adv-x="1161" d="M123 350q0 25 6 39h143v238h-145q-4 16 -4 43q0 25 6 39h145q25 326 431 325q193 0 333 -37q-4 -55 -22 -86q-115 31 -316 31q-309 0 -329 -233h276q6 -14 6 -39q0 -27 -4 -43h-278v-238h276q6 -14 6 -39q0 -27 -4 -43h-276q23 -225 327 -225q195 0 318 33q20 -37 20 -88 q-141 -37 -333 -37q-399 0 -431 317h-147q-4 16 -4 43z"/>
<glyph unicode="™" horiz-adv-x="1320" d="M123 985l4 39h424l4 -37q0 8 -4 -29h-174v-559l-37 -4l-37 4v559h-176q-4 37 -4 27zM633 401v613q27 10 82 10q31 0 57 -10l143 -559l144 559q27 10 57 10q53 0 82 -10v-613q-8 -6 -35 -6t-39 4v568h-16v-13l-135 -555q-12 -4 -55 -4q-45 0 -58 4l-137 555v13h-16v-568 q-12 -4 -39 -4t-35 6z"/>
<glyph unicode="" horiz-adv-x="819" d="M0 0v819h819v-819h-819z"/>
</font>
</defs>
</svg>
