<?xml version="1.0" encoding="UTF-8" standalone="no"?>
<!DOCTYPE svg PUBLIC "-//W3C//DTD SVG 1.1//EN" "http://www.w3.org/Graphics/SVG/1.1/DTD/svg11.dtd">
<svg xmlns="http://www.w3.org/2000/svg">
<metadata/>
<defs>
<font id="quan_boldregular" horiz-adv-x="430">
<font-face units-per-em="2048" ascent="1536" descent="-512"/>
<missing-glyph horiz-adv-x="378"/>
<glyph horiz-adv-x="2048"/>
<glyph horiz-adv-x="2048"/>
<glyph unicode="" horiz-adv-x="2048"/>
<glyph unicode=" " horiz-adv-x="378"/>
<glyph unicode="	" horiz-adv-x="378"/>
<glyph unicode=" " horiz-adv-x="378"/>
<glyph unicode="!" horiz-adv-x="434" d="M123 1014q45 10 94 10q51 0 94 -10l-12 -703q-45 -6 -82 -6l-80 6zM125 8v205q43 8 92 8q47 0 92 -8v-205q-45 -8 -92 -8q-49 0 -92 8z"/>
<glyph unicode="&quot;" horiz-adv-x="684" d="M123 1087q43 10 94 11q51 -1 96 -11l-24 -325q-35 -8 -70 -8q-51 0 -74 8zM371 1087q43 10 94 11q51 -1 96 -11l-24 -325q-35 -8 -70 -8q-51 0 -74 8z"/>
<glyph unicode="#" horiz-adv-x="1247" d="M123 344q0 41 10 82h154l53 205h-131q-6 27 -6 74q0 41 10 81h178l66 228q41 10 88 10q53 0 96 -23l-63 -215h225l65 228q41 10 88 10q55 0 99 -23l-64 -215h125q8 -41 8 -79q0 -51 -4 -76h-180l-59 -205h155q8 -41 8 -80q0 -51 -4 -76h-209l-75 -254q-31 -16 -86 -16 q-47 0 -99 12l72 258h-225l-74 -254q-31 -16 -88 -16q-45 0 -96 12l71 258h-102q-6 27 -6 74zM469 426h227l56 205h-224z"/>
<glyph unicode="$" horiz-adv-x="1032" d="M123 86q2 84 72 145q92 -53 229 -77v297q-291 98 -291 286q0 252 291 289v113q43 8 92 8q47 0 92 -8v-109q176 -12 273 -49q-6 -94 -47 -162q-74 29 -226 39v-276q301 -98 301 -277q0 -295 -301 -315v-109q-45 -8 -92 -8q-49 0 -92 8v111q-225 20 -301 94zM317 737 q1 -55 107 -96v213q-106 -14 -107 -117zM608 147q117 23 117 158q0 49 -117 90v-248z"/>
<glyph unicode="%" horiz-adv-x="1331" d="M123 686v164q0 84 65 131q59 43 146 43q86 0 143 -43q66 -47 66 -131v-164q0 -174 -209 -174q-211 0 -211 174zM281 690q0 -31 53 -31q51 0 51 31v156q0 33 -51 33q-53 0 -53 -33v-156zM356 18l432 994q33 12 84 12q74 0 107 -18l-434 -992q-27 -14 -84 -14 q-47 0 -105 18zM788 174v164q0 84 66 131q59 43 145 43t144 -43q66 -47 65 -131v-164q0 -174 -209 -174q-211 0 -211 174zM946 178q0 -31 53 -31q51 0 52 31v156q0 33 -52 33q-53 0 -53 -33v-156z"/>
<glyph unicode="&amp;" horiz-adv-x="1085" d="M123 287q0 166 211 252q-49 92 -49 196q0 147 47 215q59 84 213 84t215 -84q47 -68 47 -215q0 -168 -215 -270q43 -45 170 -166q31 57 31 190q53 10 77 11q57 0 93 -8q0 -214 -68 -316l68 -63q-33 -51 -54 -68q-27 -23 -73 -45l-56 51q-104 -61 -266 -61q-199 0 -272 37 q-119 61 -119 260zM307 287q0 -86 58 -117q47 -25 167 -25q72 0 115 29q-141 129 -215 221q-125 -55 -125 -108zM469 735q0 -72 31 -133q123 53 123 133q0 74 -11 94q-14 33 -67 33q-51 0 -66 -33q-10 -20 -10 -94z"/>
<glyph unicode="'" horiz-adv-x="436" d="M123 1087q43 10 94 11q51 -1 96 -11l-24 -325q-35 -8 -70 -8q-51 0 -74 8z"/>
<glyph unicode="(" horiz-adv-x="493" d="M123 518q0 336 63 619q43 6 88 6q44 0 97 -8q-63 -281 -64 -617q0 -369 64 -631q-66 -10 -95 -10q-33 0 -90 8q-63 283 -63 633z"/>
<glyph unicode=")" horiz-adv-x="493" d="M123 -113q63 262 63 631q0 336 -63 617q53 8 96 8q45 0 88 -6q63 -283 64 -619q0 -350 -64 -633q-57 -8 -90 -8q-27 0 -94 10z"/>
<glyph unicode="*" horiz-adv-x="798" d="M123 803q2 47 12 94q8 35 35 86l164 -74l-29 181q59 8 94 8t95 -8l-31 -181l166 74q27 -51 35 -86q10 -47 12 -94l-162 -19l119 -120q-39 -47 -66 -66q-49 -33 -84 -43l-84 150l-84 -150q-35 10 -84 43q-27 18 -65 66l119 120z"/>
<glyph unicode="+" horiz-adv-x="1011" d="M123 406q0 37 10 81h281v297q43 8 90 9q49 0 94 -9v-297h281l10 -79l-6 -76h-285v-295q-45 -10 -92 -10q-49 0 -92 10v295h-285q-6 31 -6 74z"/>
<glyph unicode="," horiz-adv-x="354" d="M61 -94l37 264q57 10 88 10q44 0 107 -12l-92 -264q-41 -14 -70 -15q-23 0 -70 17z"/>
<glyph unicode="-" horiz-adv-x="821" d="M123 406q0 37 10 81h555q10 -45 10 -81q0 -43 -6 -74h-563q-6 31 -6 74z"/>
<glyph unicode="." d="M123 8v205q43 8 92 8q47 0 92 -8v-205q-45 -8 -92 -8q-49 0 -92 8z"/>
<glyph unicode="/" horiz-adv-x="770" d="M123 12l340 1123q41 8 86 8q61 0 98 -23l-338 -1104q-31 -16 -86 -16q-49 0 -100 12z"/>
<glyph unicode="0" horiz-adv-x="1019" d="M123 379v266q0 215 49 283q76 106 338 106t338 -106q49 -68 49 -283v-266q0 -215 -49 -283q-76 -106 -338 -106t-338 106q-49 68 -49 283zM307 365q0 -135 27 -170q35 -49 176 -50q141 1 176 50q27 35 27 170v278q0 135 -27 170q-35 49 -176 49t-176 -49 q-27 -35 -27 -170v-278z"/>
<glyph unicode="1" horiz-adv-x="647" d="M20 797l347 221q41 6 65 6q47 0 92 -10v-1004q-45 -10 -90 -10q-49 0 -94 10v770q-168 -100 -211 -123q-25 8 -57 41q-37 33 -52 99z"/>
<glyph unicode="2" horiz-adv-x="845" d="M92 707q0 152 45 217q76 111 297 110q221 0 295 -102q45 -61 45 -201q0 -139 -174 -309q-254 -246 -268 -266h434q10 -37 10 -72q0 -59 -6 -84h-659q-6 29 -7 82q0 31 9 65q23 90 256 297q221 197 221 285q0 72 -19 94q-33 39 -137 39t-137 -45q-20 -31 -21 -115 q-72 -10 -90 -10q-47 0 -94 15z"/>
<glyph unicode="3" horiz-adv-x="878" d="M72 322q47 10 94 10q45 0 90 -6q0 -88 23 -123q35 -57 139 -58q102 0 135 48q18 27 18 102q0 72 -26 98q-45 41 -189 41q-8 35 -8 80q0 23 10 76q139 0 185 43q29 27 28 96q0 70 -20 94q-31 39 -135 39t-137 -45q-23 -31 -23 -115q-45 -10 -88 -10q-31 0 -96 15 q0 152 45 217q76 111 297 110q221 0 297 -102q45 -61 45 -201q0 -156 -84 -219q84 -68 84 -215q0 -143 -45 -205q-74 -102 -295 -102t-297 110q-47 68 -47 222z"/>
<glyph unicode="4" horiz-adv-x="827" d="M20 385q0 25 9 74l426 557q47 8 100 8q47 0 92 -16v-549h109q10 -37 10 -72l-6 -84h-113v-293q-51 -10 -92 -10q-43 0 -92 14v289h-436q-6 25 -7 82zM236 459h227v291z"/>
<glyph unicode="5" horiz-adv-x="894" d="M123 311q45 10 92 11q49 0 92 -11q0 -86 23 -116q33 -49 137 -50q102 0 135 58q18 33 19 114q0 82 -19 115q-35 55 -137 55q-158 0 -158 -57q-45 -12 -98 -12q-66 0 -86 8v508q0 14 10 90h633q10 -41 10 -88q0 -57 -6 -84h-463v-231q49 23 158 22q219 0 295 -113 q45 -68 45 -211q0 -150 -45 -217q-76 -113 -295 -112q-221 0 -297 104q-45 66 -45 217z"/>
<glyph unicode="6" horiz-adv-x="843" d="M102 319v398q0 317 359 317q166 0 289 -39q0 -88 -45 -164q-100 31 -246 31q-172 0 -172 -135v-131q55 31 155 31q221 0 295 -105q45 -63 45 -203q0 -149 -45 -217q-76 -113 -295 -112q-219 0 -295 112q-45 68 -45 217zM287 311q0 -75 20 -110q35 -55 135 -56 q102 0 138 58q18 33 18 114q0 78 -18 107q-33 47 -138 47q-104 0 -135 -49q-20 -29 -20 -111z"/>
<glyph unicode="7" horiz-adv-x="743" d="M20 934q0 31 9 90h653q10 -76 10 -88q0 -31 -6 -57l-264 -871q-49 -8 -86 -8q-18 0 -103 12l248 840h-456q-4 45 -5 82z"/>
<glyph unicode="8" horiz-adv-x="890" d="M102 731q0 139 45 201q76 102 297 102t295 -102q45 -61 45 -201q0 -158 -79 -219q84 -70 83 -215q0 -144 -45 -205q-76 -102 -299 -102q-219 0 -294 102q-45 61 -46 205q0 147 82 213q-84 63 -84 221zM287 729q0 -71 20 -98q33 -43 137 -43t138 43q18 27 18 98 q0 72 -18 94q-33 39 -138 39q-104 0 -137 -39q-20 -25 -20 -94zM289 295q0 -73 20 -102q33 -47 137 -48q104 0 138 48q20 29 20 102q0 70 -20 96q-33 41 -138 41q-104 0 -137 -41q-20 -27 -20 -96z"/>
<glyph unicode="9" horiz-adv-x="843" d="M61 705q0 149 45 217q76 113 295 112q219 0 295 -112q45 -68 45 -217v-398q0 -317 -358 -317q-166 0 -289 39q0 80 41 147q100 -31 250 -31q172 0 172 136v147q-55 -31 -156 -31q-221 0 -295 105q-45 63 -45 203zM246 707q0 -78 20 -107q31 -47 135 -47t138 49 q18 29 18 111q0 73 -20 102q-35 47 -136 47q-104 0 -135 -49q-20 -29 -20 -106z"/>
<glyph unicode=":" d="M123 8v205q43 8 92 8q47 0 92 -8v-205q-45 -8 -92 -8q-49 0 -92 8zM123 537v204q43 8 92 9q47 0 92 -9v-204q-45 -8 -92 -9q-49 0 -92 9z"/>
<glyph unicode=";" horiz-adv-x="477" d="M123 -94l37 264q57 10 88 10q43 0 106 -12l-92 -264q-41 -14 -69 -15q-23 0 -70 17zM162 537v204q43 8 92 9q47 0 92 -9v-204q-45 -8 -92 -9q-49 0 -92 9z"/>
<glyph unicode="&lt;" horiz-adv-x="913" d="M123 385q0 66 22 129l617 254q29 -51 29 -100t-11 -84l-475 -187h-20v-22h20l475 -187q10 -35 11 -84q0 -47 -29 -100l-617 254q-23 63 -22 127z"/>
<glyph unicode="=" horiz-adv-x="821" d="M123 254q0 37 10 82h555q10 -45 10 -82q0 -43 -6 -74h-563q-6 31 -6 74zM123 537q0 37 10 81h555q10 -45 10 -81q0 -43 -6 -74h-563q-6 31 -6 74z"/>
<glyph unicode="&gt;" horiz-adv-x="913" d="M123 104q0 49 10 84l475 187h21v22h-21l-475 187q-10 35 -10 84t29 100l616 -254q23 -63 23 -129q0 -63 -23 -127l-616 -254q-29 53 -29 100z"/>
<glyph unicode="?" horiz-adv-x="811" d="M123 975q111 59 256 59q158 0 229 -53q80 -57 80 -190q0 -119 -123 -220q-125 -100 -125 -141v-133q-43 -6 -90 -6q-49 0 -94 6v133q0 133 125 213q123 80 123 148q0 39 -23 55q-29 16 -106 16q-113 0 -189 -51q-55 78 -63 164zM258 8q43 -8 92 -8q47 0 92 8v205 q-45 8 -92 8q-49 0 -92 -8v-205z"/>
<glyph unicode="@" horiz-adv-x="1368" d="M123 178v559q0 297 448 297h226q209 0 329 -96q119 -94 119 -250v-393q0 -82 -76 -123q-55 -31 -120 -31q-195 0 -195 74h-18q-20 -74 -158 -74q-311 0 -311 295v78q0 131 53 193q70 82 242 81q115 0 159 -67h15v55q23 6 75 6q51 0 74 -6v-450q0 -39 12 -50q8 -6 35 -6 q29 0 35 6q8 10 8 50v362q0 74 -67 131q-80 68 -211 68h-226q-279 0 -278 -150v-559q0 -88 84 -121q61 -25 194 -24h291q115 0 178 22q41 -37 62 -123q-68 -47 -240 -47h-291q-231 0 -333 62q-115 68 -115 231zM520 446q0 -82 21 -114q33 -59 137 -60q104 0 137 60 q20 33 21 114v89q0 125 -177 124q-92 0 -120 -49q-18 -29 -19 -104v-60z"/>
<glyph unicode="A" horiz-adv-x="913" d="M20 27l312 974q63 23 127 23q61 0 123 -23l311 -974q-49 -27 -105 -27q-49 0 -86 12l-96 301h-301q-25 -72 -94 -301q-35 -12 -86 -12q-57 0 -105 27zM360 485h193l-94 306z"/>
<glyph unicode="B" horiz-adv-x="995" d="M123 0v1024h428q184 0 248 -37q104 -63 104 -266q0 -148 -82 -209q82 -55 82 -207q0 -203 -104 -266q-66 -39 -248 -39h-428zM307 156h242q170 0 170 137q0 139 -170 139h-242v-276zM307 588h242q170 0 170 133q0 131 -170 131h-242v-264z"/>
<glyph unicode="C" horiz-adv-x="962" d="M102 377v268q0 193 119 293q115 96 320 96q203 0 350 -49q0 -86 -43 -162q-123 39 -311 39q-102 0 -175 -51q-76 -57 -75 -152v-294q0 -111 75 -168q66 -51 173 -52q193 0 323 39q33 -43 33 -153q-123 -41 -350 -41q-438 0 -439 387z"/>
<glyph unicode="D" horiz-adv-x="1019" d="M123 0v1024h356q438 0 439 -387v-250q0 -387 -439 -387h-356zM307 156h174q115 0 183 59q70 59 69 160v274q0 203 -252 203h-174v-696z"/>
<glyph unicode="E" horiz-adv-x="935" d="M123 0v1024h694q10 -45 10 -88q0 -59 -6 -84h-514v-262h447q10 -35 10 -68q0 -49 -10 -88h-447v-278h510q10 -35 10 -68q0 -49 -10 -88h-694z"/>
<glyph unicode="F" horiz-adv-x="888" d="M123 10v1014h692q12 -45 12 -88q0 -59 -6 -84h-514v-281h447q10 -35 10 -67q0 -49 -10 -88h-447v-406q-43 -8 -94 -8q-45 0 -90 8z"/>
<glyph unicode="G" horiz-adv-x="995" d="M102 377v268q0 184 121 287q117 102 320 102t350 -49q0 -86 -43 -162q-123 39 -311 39q-104 0 -174 -51q-78 -57 -78 -152v-313q0 -94 78 -149q70 -51 174 -52q102 0 168 9v239h-162q-10 43 -10 74q0 43 10 88h254q20 0 92 -10v-512q-129 -43 -348 -43q-440 0 -441 387z "/>
<glyph unicode="H" horiz-adv-x="1021" d="M123 8v1008q45 8 90 8q51 0 94 -8v-422h408v422q45 8 90 8q51 0 94 -8v-1008q-43 -8 -94 -8q-45 0 -90 8v430h-408v-430q-43 -8 -94 -8q-45 0 -90 8z"/>
<glyph unicode="I" d="M123 8v1008q43 8 92 8q47 0 92 -8v-1008q-45 -8 -92 -8q-49 0 -92 8z"/>
<glyph unicode="J" horiz-adv-x="774" d="M20 221v98q45 10 91 11q51 0 94 -11v-100q0 -47 33 -61q25 -12 98 -13q76 0 100 11q31 14 31 61v797q43 8 92 8q47 0 92 -8v-793q0 -111 -51 -162q-69 -69 -247 -69h-5h-26q-180 0 -250 67q-51 51 -52 164z"/>
<glyph unicode="K" horiz-adv-x="1038" d="M123 8v1008q43 8 92 8q47 0 92 -8v-389l541 397q47 -16 76 -59q23 -29 37 -74l-328 -248l375 -620q-41 -23 -115 -23q-55 0 -90 12l-324 520l-172 -129v-395q-45 -8 -92 -8q-49 0 -92 8z"/>
<glyph unicode="L" horiz-adv-x="849" d="M123 0v1014q43 8 92 8q47 0 92 -8v-858h492q10 -45 10 -80q0 -31 -10 -76h-676z"/>
<glyph unicode="M" horiz-adv-x="1273" d="M123 23v976q70 25 143 25q78 0 142 -23l229 -700l227 700q63 23 142 23q74 0 145 -25v-976q-39 -23 -88 -23q-55 0 -96 14v691q-207 -604 -236 -693q-37 -12 -94 -12q-53 0 -92 12l-238 699v-697q-43 -14 -96 -14q-51 0 -88 23z"/>
<glyph unicode="N" horiz-adv-x="1103" d="M123 23v976q68 25 143 25q63 0 123 -20l408 -748v756q39 12 94 12t90 -20v-979q-68 -25 -162 -25q-61 0 -100 12l-412 760v-758q-41 -14 -96 -14q-51 0 -88 23z"/>
<glyph unicode="O" horiz-adv-x="1032" d="M102 379v266q0 213 54 283q80 106 358 106q281 0 363 -106q53 -70 53 -283v-266q0 -213 -53 -283q-82 -106 -363 -106q-278 0 -358 106q-53 70 -54 283zM287 383q0 -133 35 -172q43 -49 192 -49q152 0 195 49q36 38 36 165v7v258q0 133 -36 174q-45 51 -195 51 q-147 0 -192 -51q-35 -41 -35 -174v-258z"/>
<glyph unicode="P" horiz-adv-x="921" d="M123 10v1014h395q180 0 248 -45q104 -72 104 -297q0 -223 -104 -295q-68 -45 -248 -45h-211v-332q-43 -10 -92 -10q-47 0 -92 10zM307 498h209q170 0 170 184q0 170 -170 170h-209v-354z"/>
<glyph unicode="Q" horiz-adv-x="1030" d="M102 377v268q0 215 52 283q82 106 360 106q281 0 363 -106q51 -68 51 -283v-268q0 -193 -45 -264q-68 -104 -285 -121v-55h205q18 -47 18 -82q0 -31 -10 -78h-254q-98 0 -139 41v174q-203 20 -268 127q-47 74 -48 258zM287 381q0 -133 35 -172q43 -49 192 -49 q150 0 193 49q36 38 36 165v7v260q0 131 -36 174q-43 49 -193 49q-147 0 -192 -49q-35 -41 -35 -174v-260z"/>
<glyph unicode="R" horiz-adv-x="989" d="M123 10v1014h422q182 0 248 -45q104 -72 104 -297q0 -221 -115 -295l111 -364q-39 -23 -100 -23q-51 0 -86 12l-105 330h-295v-332q-43 -10 -92 -10q-47 0 -92 10zM307 498h236q170 0 170 184q0 170 -170 170h-236v-354z"/>
<glyph unicode="S" horiz-adv-x="950" d="M82 88q2 84 72 145q153 -88 335 -88q92 0 134 25q61 35 61 137q0 45 -92 80q-31 12 -94 31l-109 33q-297 96 -297 288q0 295 402 295q213 0 346 -51q-6 -94 -47 -162q-106 41 -295 41q-125 0 -168 -18q-53 -25 -54 -105q0 -53 93 -90l204 -67q295 -96 295 -275 q0 -199 -120 -268q-82 -49 -261 -49q-305 0 -405 98z"/>
<glyph unicode="T" horiz-adv-x="858" d="M31 936q0 43 8 88h780q8 -45 8 -88q0 -59 -6 -84h-299v-842q-45 -10 -90 -10q-49 0 -94 10v842h-301q-6 25 -6 84z"/>
<glyph unicode="U" horiz-adv-x="1085" d="M123 379v637q43 8 92 8q47 0 92 -8v-651q0 -129 41 -170q45 -49 195 -50q150 0 194 50q41 41 41 170v651q43 8 92 8q47 0 93 -8v-637q0 -211 -56 -283q-86 -106 -364 -106q-279 0 -363 106q-57 72 -57 283z"/>
<glyph unicode="V" horiz-adv-x="952" d="M20 1001q35 23 99 23q49 0 90 -8l266 -862l268 862q41 8 91 8q63 0 98 -23l-307 -978q-66 -23 -148 -23q-85 0 -151 23z"/>
<glyph unicode="W" horiz-adv-x="1351" d="M72 997q47 27 94 27q49 0 90 -12l133 -758l100 295q61 180 103 293q39 12 84 12q49 0 84 -12l203 -588l133 758q41 12 88 12t96 -27l-170 -972q-66 -25 -147 -25q-61 0 -119 23l-170 483l-164 -483q-59 -23 -121 -23q-84 0 -147 25z"/>
<glyph unicode="X" horiz-adv-x="1052" d="M31 999q55 25 119 25q68 0 92 -10l284 -365l285 365q25 10 92 10q63 0 119 -25l-387 -493l381 -483q-45 -23 -129 -23q-55 0 -94 8l-267 348l-266 -348q-39 -8 -94 -8q-84 0 -129 23l381 483z"/>
<glyph unicode="Y" horiz-adv-x="1024" d="M41 997q49 27 125 27q66 0 94 -12l252 -389l252 389q29 12 94 12q76 0 125 -27l-379 -559v-428q-45 -10 -92 -10q-49 0 -92 10v428z"/>
<glyph unicode="Z" horiz-adv-x="915" d="M41 86q0 18 8 70l569 696h-567q-10 43 -10 86q0 41 10 86h813q10 -45 10 -84q0 -49 -20 -88l2 2q0 2 -561 -698h536q10 -43 11 -68q-1 -43 -11 -88h-780q-10 76 -10 86z"/>
<glyph unicode="[" horiz-adv-x="538" d="M123 -102v1235q76 10 92 10h197q4 -53 4 -84q0 -27 -6 -72h-103v-944h103q6 -45 6 -72q0 -31 -4 -84h-197q-16 0 -92 11z"/>
<glyph unicode="\" horiz-adv-x="770" d="M123 1120q37 23 98 23q45 0 86 -8l340 -1123q-51 -12 -100 -12q-55 0 -86 16z"/>
<glyph unicode="]" horiz-adv-x="538" d="M123 -29q0 27 6 72h102v944h-102q-6 45 -6 72q0 31 4 84h197q16 0 92 -10v-1235q-76 -10 -92 -11h-197q-4 53 -4 84z"/>
<glyph unicode="^" horiz-adv-x="829" d="M123 502l145 499q63 23 148 23q82 0 145 -23l146 -499q-47 -27 -97 -27q-41 0 -82 14l-102 420v21h-23v-21l-102 -420q-41 -14 -82 -14q-49 0 -96 27z"/>
<glyph unicode="_" horiz-adv-x="1001" d="M123 -135q0 37 10 82h735q10 -45 11 -82q0 -43 -7 -74h-743q-6 31 -6 74z"/>
<glyph unicode="`" horiz-adv-x="487" d="M123 1085q53 12 102 13q45 -1 90 -11l50 -303q-14 -16 -50 -16q-72 0 -84 8z"/>
<glyph unicode="a" horiz-adv-x="831" d="M170 455q74 45 184 45q106 0 183 -31h18v53q0 135 -184 135q-84 0 -195 -34q-43 72 -43 163q129 43 254 43q352 0 352 -309v-510q-45 -10 -92 -10q-49 0 -92 10v88q-37 -108 -183 -108h-3q-160 0 -228 59q-69 62 -69 209q0 135 98 197zM256 246q0 -63 27 -84 q20 -16 84 -17q104 0 188 97v92h-82q-111 0 -151 -10q-66 -18 -66 -78z"/>
<glyph unicode="b" horiz-adv-x="888" d="M123 10v1077q43 10 92 11q49 0 92 -11v-344h19q55 86 182 86q195 0 252 -98q37 -59 37 -237v-166q0 -176 -39 -240q-59 -98 -250 -98q-156 0 -201 90v-70q-43 -10 -90 -10q-51 0 -94 10zM307 313q0 -78 19 -110q35 -57 135 -58q100 0 133 58q18 33 18 110v179 q0 78 -16 110q-29 55 -117 55q-172 0 -172 -135v-209z"/>
<glyph unicode="c" horiz-adv-x="800" d="M92 303v213q0 313 354 313q166 0 285 -38q0 -92 -43 -164q-97 30 -235 30h-9q-168 0 -168 -131v-250q0 -131 168 -131q150 0 250 31q37 -66 37 -147q-119 -39 -285 -39q-354 0 -354 313z"/>
<glyph unicode="d" horiz-adv-x="888" d="M92 328v166q0 178 37 237q57 98 252 98q127 0 182 -86h19v344q43 10 92 11q49 0 92 -11v-1077q-43 -10 -94 -10q-47 0 -90 10v70q-45 -90 -201 -90q-190 0 -250 98q-39 63 -39 240zM276 313q0 -78 19 -110q33 -57 133 -58q100 0 135 58q18 33 19 110v209q0 135 -172 135 q-88 0 -117 -55q-16 -33 -17 -110v-179z"/>
<glyph unicode="e" horiz-adv-x="854" d="M92 303v158q0 207 66 284q70 84 272 84q203 0 275 -81q57 -70 57 -250v-168h-488v-37q0 -147 175 -148q158 0 260 31q35 -68 34 -147q-123 -39 -292 -39q-359 0 -359 313zM276 483h302v52q0 63 -25 90q-32 32 -118 32h-5.5h-5.5q-85 0 -113 -30q-35 -35 -35 -144z"/>
<glyph unicode="f" horiz-adv-x="595" d="M31 731q0 47 8 88h137q2 176 49 242q46 65 168 65h4q100 0 193 -28q0 -78 -39 -140q-88 12 -135 13q-37 0 -47 -41q-8 -29 -9 -111h230q6 -41 6 -88q0 -31 -16 -67h-220v-654q-45 -8 -92 -8q-49 0 -92 8v654h-131q-14 35 -14 67z"/>
<glyph unicode="g" horiz-adv-x="888" d="M92 328v166q0 178 37 237q57 98 252 98q127 0 182 -86h19v66q43 10 92 10t92 -10v-868q0 -317 -360 -318q-164 0 -289 39q0 78 39 148q94 -31 252 -31q174 0 174 133v168q-45 -90 -201 -90q-190 0 -250 98q-39 63 -39 240zM276 313q0 -78 19 -110q33 -57 133 -58 q100 0 135 58q18 33 19 110v209q0 135 -172 135q-88 0 -117 -55q-16 -33 -17 -110v-179z"/>
<glyph unicode="h" horiz-adv-x="897" d="M123 8v1079q45 10 84 11q55 0 100 -11v-331h21q58 73 175 73h3q289 0 289 -319v-502q-43 -8 -95 -8q-45 0 -90 8v469q0 88 -18 123q-31 57 -125 57q-90 0 -127 -30q-35 -29 -35 -99v-520q-43 -8 -94 -8q-43 0 -88 8z"/>
<glyph unicode="i" d="M123 8v803q43 8 92 8q47 0 92 -8v-803q-45 -8 -92 -8q-49 0 -92 8zM123 911v205q43 8 92 8q47 0 92 -8v-205q-45 -8 -92 -8q-49 0 -92 8z"/>
<glyph unicode="j" d="M-168 -344q0 80 37 145q77 -22 159 -22h7q51 0 69 26q18 25 19 101v905q43 8 92 8q47 0 92 -8v-887q0 -172 -65 -239q-59 -61 -193 -62q-117 0 -217 33zM123 911v205q43 8 92 8q47 0 92 -8v-205q-45 -8 -92 -8q-49 0 -92 8z"/>
<glyph unicode="k" horiz-adv-x="905" d="M123 10v1077q45 10 92 11q39 0 92 -11v-577l412 309q23 -12 65 -61q20 -20 41 -84l-198 -148l247 -481q-49 -45 -98 -45q-53 0 -86 12l-207 406l-176 -133v-275q-43 -10 -90 -10q-49 0 -94 10z"/>
<glyph unicode="l" d="M123 10v1077q45 10 84 11q55 0 100 -11v-1077q-45 -10 -100 -10q-39 0 -84 10z"/>
<glyph unicode="m" horiz-adv-x="1218" d="M123 10v799q35 10 88 10q37 0 80 -10l8 -35q57 55 152 55q133 0 198 -57q72 57 209 57q268 0 268 -317v-502q-43 -8 -94 -8q-45 0 -90 8v465q0 182 -92 182q-74 0 -129 -34q8 -41 8 -115v-498q-43 -8 -94 -8q-45 0 -90 8v465q0 182 -103 182q-80 0 -108 -30 q-27 -29 -27 -103v-514q-43 -8 -94 -8q-45 0 -90 8z"/>
<glyph unicode="n" horiz-adv-x="899" d="M123 8v801q45 10 86 10q27 0 72 -10l10 -53h20q58 73 193 73h4q289 0 289 -319v-502q-43 -8 -95 -8q-45 0 -90 8v469q0 88 -18 123q-31 57 -125 57q-90 0 -127 -30q-35 -29 -35 -99v-520q-43 -8 -94 -8q-45 0 -90 8z"/>
<glyph unicode="o" horiz-adv-x="856" d="M92 328v164q0 176 45 239q68 98 291 98q221 0 291 -98q45 -66 45 -239v-164q0 -174 -45 -240q-70 -98 -291 -98q-223 0 -291 98q-45 63 -45 240zM276 313q0 -78 19 -110q33 -57 133 -58q100 0 133 58q18 33 19 110v176q0 80 -19 113q-33 55 -133 55t-133 -55 q-18 -33 -19 -113v-176z"/>
<glyph unicode="p" horiz-adv-x="888" d="M123 -367v1176q43 10 94 10q47 0 90 -10v-66h19q55 86 182 86q195 0 252 -98q37 -59 37 -237v-166q0 -176 -39 -240q-59 -98 -250 -98q-156 0 -201 65v-422q-43 -10 -92 -10t-92 10zM307 281q0 -135 172 -136q88 0 117 56q16 33 16 110v178q0 78 -18 111q-33 57 -133 57 t-135 -57q-18 -33 -19 -111v-208z"/>
<glyph unicode="q" horiz-adv-x="888" d="M92 328v166q0 178 37 237q57 98 252 98q127 0 182 -86h19v66q43 10 90 10q51 0 94 -10v-1176q-43 -10 -92 -10t-92 10v422q-44 -65 -196 -65h-5q-190 0 -250 98q-39 63 -39 240zM276 311q0 -78 17 -110q29 -55 117 -56q172 0 172 136v208q0 78 -19 111q-35 57 -135 57 t-133 -57q-18 -33 -19 -111v-178z"/>
<glyph unicode="r" horiz-adv-x="585" d="M123 8v801q45 10 86 10q27 0 72 -10l10 -53h20q66 63 193 63h53q18 -33 18 -84q0 -47 -10 -88h-100q-88 0 -125 -29q-33 -29 -33 -96v-514q-45 -8 -92 -8q-49 0 -92 8z"/>
<glyph unicode="s" horiz-adv-x="784" d="M72 590q0 239 320 239h3q168 0 281 -43q-8 -84 -45 -161q-85 32 -224 32h-8q-143 0 -143 -67q0 -39 70 -66l153 -45q223 -70 223 -231q0 -141 -69 -199q-72 -59 -242 -59q-178 0 -307 51q8 94 45 145q104 -41 262 -41q127 0 127 103q0 35 -69 61q-23 8 -72 23l-82 24 q-223 74 -223 234z"/>
<glyph unicode="t" horiz-adv-x="620" d="M20 731q0 47 9 88h157v234q43 10 90 10q49 0 95 -10v-234h198q6 -41 6 -88q0 -31 -16 -67h-188v-400q0 -108 72 -108h1h121q10 -41 10 -72q0 -45 -10 -84h-119q-150 0 -204 53q-55 55 -56 211v400h-149q-16 35 -17 67z"/>
<glyph unicode="u" horiz-adv-x="888" d="M92 309v502q43 8 94 8q45 0 90 -8v-485q0 -88 19 -123q31 -57 125 -58q90 0 127 31q35 29 35 98v537q43 8 94 8q45 0 90 -8v-801q-45 -10 -86 -10q-27 0 -72 10l-10 53h-20q-58 -73 -193 -73h-4q-289 0 -289 319z"/>
<glyph unicode="v" horiz-adv-x="823" d="M20 791q44 28 92 28h3q57 0 92 -12l205 -596l204 596q33 12 93 12q47 0 94 -28l-268 -771q-57 -20 -123 -20q-64 0 -121 20z"/>
<glyph unicode="w" horiz-adv-x="1091" d="M41 807q68 12 98 12q31 0 86 -10l94 -522q80 299 113 446q63 18 115 19q55 0 119 -19l110 -444l92 520q55 10 86 10q40 0 97 -12l-154 -784q-63 -23 -113 -23q-70 0 -114 20l-123 449q-20 -84 -60 -227q-45 -164 -59 -222q-47 -20 -117 -20q-49 0 -110 23z"/>
<glyph unicode="x" horiz-adv-x="917" d="M41 799q55 20 117 20q63 0 94 -12l207 -272l207 272q31 12 94 12q61 0 117 -20l-314 -398l301 -378q-76 -23 -121 -23q-57 0 -92 8l-192 258l-193 -258q-35 -8 -92 -8q-45 0 -121 23l301 378z"/>
<glyph unicode="y" horiz-adv-x="858" d="M41 797q35 22 93 22h5q43 0 84 -10l193 -643v-21h26v21l193 643q41 10 84 10q61 0 98 -22l-352 -1170q-18 -4 -84 -4q-70 0 -92 12l96 314q6 18 33 31v20h-8q-74 0 -136 23z"/>
<glyph unicode="z" horiz-adv-x="808" d="M82 84q0 20 8 70l385 493h-383q-10 76 -10 88q0 8 10 84h625q10 -45 10 -82q0 -31 -12 -71q1 1 2 1q6 0 -383 -511h385q8 -59 8 -70q0 -49 -10 -86h-625q-10 76 -10 84z"/>
<glyph unicode="{" horiz-adv-x="688" d="M123 508q0 37 10 80q66 0 86 18q25 25 25 107v278q0 152 121 152h192q8 -59 8 -74q0 -23 -8 -82h-82q-59 0 -59 -35v-231q0 -150 -68 -207q68 -57 68 -211v-231q0 -35 59 -35h82q8 -59 8 -82q0 -14 -8 -74h-192q-121 0 -121 152v278q0 82 -25 105q-20 16 -90 16 q-6 29 -6 76z"/>
<glyph unicode="|" d="M123 -109v1242q45 10 90 10q51 0 94 -10v-1242q-43 -10 -92 -10q-47 0 -92 10z"/>
<glyph unicode="}" horiz-adv-x="688" d="M123 -45q0 23 8 82h82q59 0 59 35v231q0 154 68 211q-68 57 -68 207v231q0 35 -59 35h-82q-8 59 -8 82q0 14 8 74h193q121 0 120 -152v-278q0 -82 25 -107q20 -18 86 -18q10 -43 10 -80q0 -47 -6 -76q-70 0 -90 -16q-25 -23 -25 -105v-278q0 -152 -120 -152h-193 q-8 59 -8 74z"/>
<glyph unicode="~" horiz-adv-x="1017" d="M123 522q96 84 213 84q63 0 174 -47q113 -49 174 -49q43 0 119 57q47 -37 57 -49q29 -39 35 -82q-92 -82 -211 -82q-61 0 -172 49q-111 47 -176 48q-59 0 -127 -54q-47 45 -55 56q-25 30 -31 69z"/>
<glyph unicode="¢" horiz-adv-x="884" d="M123 303v213q0 276 268 309v129q45 10 84 11q55 0 100 -11v-131q121 -12 187 -32q0 -92 -43 -164q-100 31 -244 30q-168 0 -168 -131v-250q0 -131 168 -131q150 0 250 31q37 -66 37 -147q-76 -25 -187 -35v-133q-45 -10 -100 -11q-39 0 -84 11v133q-268 33 -268 309z"/>
<glyph unicode="£" horiz-adv-x="1077" d="M123 469q0 37 10 82h135v182q0 172 66 240q59 61 192 61q117 0 217 -33q0 -80 -36 -145q-78 23 -166 23q-51 0 -70 -27q-18 -25 -18 -100v-201h235q10 -45 10 -82q0 -43 -6 -74h-239v-239h491q10 -45 10 -80q0 -31 -10 -76h-676v395h-139q-6 31 -6 74z"/>
<glyph unicode="¥" horiz-adv-x="1187" d="M123 997q49 27 125 27q66 0 94 -12l252 -389l252 389q29 12 94 12q76 0 125 -27l-360 -530h165q10 -45 11 -82q0 -43 -7 -74h-188v-51h184q10 -45 11 -82q0 -43 -7 -74h-188v-94q-45 -10 -92 -10q-49 0 -92 10v94h-191q-6 31 -6 74q0 37 10 82h187v51h-191q-6 31 -6 74 q0 37 10 82h166z"/>
<glyph unicode="¨" horiz-adv-x="831" d="M123 907v183q43 8 92 8q47 0 92 -8v-183q-45 -8 -92 -8q-49 0 -92 8zM524 907v183q43 8 92 8q47 0 93 -8v-183q-45 -8 -93 -8q-49 0 -92 8z"/>
<glyph unicode="©" horiz-adv-x="1290" d="M123 541q0 215 153 368q152 154 369 154q215 0 369 -154t153 -368q0 -217 -153 -369q-154 -154 -369 -154q-217 0 -369 154q-154 152 -153 369zM258 541q0 -160 113 -273t272 -112q160 -1 275 112q113 113 112 273q0 160 -112 274q-115 113 -275 113t-272 -113 q-113 -115 -113 -274zM373 461q0 -236 266 -236q137 0 215 29q0 76 -29 119q-66 -20 -188 -21q-119 0 -119 97v180q0 98 119 98q113 0 186 -25q31 55 31 127q-96 29 -215 29q-266 0 -266 -235v-162z"/>
<glyph unicode="«" horiz-adv-x="1040" d="M123 434q0 70 18 121l174 297q35 16 88 16q59 0 117 -24l-231 -398h-21v-24h21l231 -397q-61 -25 -117 -25q-45 0 -84 14l-178 299q-18 51 -18 121zM520 434q0 70 19 121l174 297q35 16 88 16q59 0 117 -24l-232 -398h-20v-24h20l232 -397q-61 -25 -117 -25q-45 0 -84 14 l-178 299q-18 51 -19 121z"/>
<glyph unicode="­" horiz-adv-x="821" d="M123 406q0 37 10 81h555q10 -45 10 -81q0 -43 -6 -74h-563q-6 31 -6 74z"/>
<glyph unicode="®" horiz-adv-x="1290" d="M123 512q0 215 153 369q152 154 369 153q215 1 369 -153t153 -369q0 -217 -153 -369q-154 -154 -369 -153q-217 0 -369 153q-154 152 -153 369zM258 512q0 -160 113 -272q113 -113 272 -113q160 0 275 113q113 113 112 272q0 160 -112 274q-115 113 -275 113t-272 -113 q-113 -115 -113 -274zM428 225v592h246q104 0 147 -33q59 -45 60 -178q0 -160 -58 -198l56 -177q-27 -12 -60 -12q-55 0 -76 8l-43 164h-127v-166q-27 -6 -77 -6q-41 0 -68 6zM573 514h64q53 0 70 12q29 18 28 80q0 80 -98 80h-64v-172z"/>
<glyph unicode="´" horiz-adv-x="487" d="M123 784l49 303q45 10 90 11q50 -1 103 -13l-109 -309q-12 -8 -84 -8q-35 0 -49 16z"/>
<glyph unicode="¸" horiz-adv-x="475" d="M123 -416l102 299q12 8 78 8q35 0 49 -16l-43 -293q-45 -10 -84 -10q-49 0 -102 12z"/>
<glyph unicode="»" horiz-adv-x="1040" d="M123 25l231 397h21v24h-21l-231 398q57 25 117 24q53 0 88 -16l174 -297q18 -51 18 -121t-18 -121l-178 -299q-39 -14 -84 -14q-55 0 -117 25zM520 25l232 397h20v24h-20l-232 398q57 25 117 24q53 0 88 -16l174 -297q18 -51 19 -121q0 -70 -19 -121l-178 -299 q-39 -14 -84 -14q-55 0 -117 25z"/>
<glyph unicode="Á" horiz-adv-x="913" d="M20 27l312 974q63 23 127 23q61 0 123 -23l311 -974q-49 -27 -105 -27q-49 0 -86 12l-96 301h-301q-25 -72 -94 -301q-35 -12 -86 -12q-57 0 -105 27zM360 485h193l-94 306zM395 1143l49 303q45 10 91 10q49 0 102 -12l-109 -309q-12 -8 -84 -9q-35 0 -49 17z"/>
<glyph unicode="É" horiz-adv-x="935" d="M123 0v1024h694q10 -45 10 -88q0 -59 -6 -84h-514v-262h447q10 -35 10 -68q0 -49 -10 -88h-447v-278h510q10 -35 10 -68q0 -49 -10 -88h-694zM406 1143l49 303q45 10 90 10q49 0 102 -12l-108 -309q-12 -8 -84 -9q-35 0 -49 17z"/>
<glyph unicode="Í" d="M123 8q43 -8 92 -8q47 0 92 8v1008q-45 8 -92 8q-49 0 -92 -8v-1008zM145 1143l50 303q45 10 90 10q49 0 102 -12l-108 -309q-12 -8 -84 -9q-35 0 -50 17z"/>
<glyph unicode="Ó" horiz-adv-x="1032" d="M102 379q0 -213 54 -283q80 -106 358 -106q281 0 363 106q53 70 53 283v266q0 213 -53 283q-82 106 -363 106q-279 0 -358 -106q-53 -70 -54 -283v-266zM287 383v258q0 133 35 174q45 51 192 51q150 0 195 -51q37 -41 36 -174v-258q0 -133 -36 -172q-43 -49 -195 -49 q-150 0 -192 49q-35 39 -35 172zM459 1143l49 303q45 10 90 10q49 0 102 -12l-108 -309q-12 -8 -84 -9q-35 0 -49 17z"/>
<glyph unicode="Ú" horiz-adv-x="1085" d="M123 379q0 -211 57 -283q84 -106 363 -106t364 106q55 72 56 283v637q-45 8 -93 8q-49 0 -92 -8v-651q0 -129 -41 -170q-45 -49 -194 -50q-150 0 -195 50q-41 41 -41 170v651q-45 8 -92 8q-49 0 -92 -8v-637zM475 1143l49 303q45 10 90 10q50 0 103 -12l-109 -309 q-12 -8 -84 -9q-35 0 -49 17z"/>
<glyph unicode="Ý" horiz-adv-x="1024" d="M41 997q49 27 125 27q66 0 94 -12l252 -389l252 389q29 12 94 12q76 0 125 -27l-379 -559v-428q-45 -10 -92 -10q-49 0 -92 10v428zM457 1143l49 303q45 10 90 10q49 0 102 -12l-108 -309q-12 -8 -84 -9q-35 0 -49 17z"/>
<glyph unicode="á" horiz-adv-x="831" d="M72 262q0 131 98 193q74 45 184 45q106 0 183 -31h18v53q0 135 -184 135q-84 0 -195 -34q-43 72 -43 163q129 43 254 43q352 0 352 -309v-510q-45 -10 -92 -10q-49 0 -92 10v88q-37 -109 -186 -108q-160 0 -228 59q-70 63 -69 213zM256 246q0 -63 27 -84q20 -16 84 -17 q104 0 188 97v92h-82q-111 0 -151 -10q-66 -18 -66 -78zM360 948l50 303q45 10 90 11q49 -1 102 -13l-108 -309q-12 -8 -84 -8q-35 0 -50 16z"/>
<glyph unicode="é" horiz-adv-x="864" d="M102 303v158q0 207 66 284q70 84 272 84q203 0 275 -81q57 -70 57 -250v-168h-487v-37q0 -147 174 -148q158 0 260 31q35 -68 35 -147q-123 -39 -293 -39q-359 0 -359 313zM287 483h301v52q0 63 -25 90q-33 33 -123 32q-89 1 -118 -30q-35 -35 -35 -144zM391 948l49 303 q45 10 90 11q50 -1 103 -13l-109 -309q-12 -8 -84 -8q-35 0 -49 16z"/>
<glyph unicode="í" d="M123 8v803q43 8 92 8q47 0 92 -8v-803q-45 -8 -92 -8q-49 0 -92 8zM145 948l50 303q45 10 90 11q49 -1 102 -13l-108 -309q-12 -8 -84 -8q-35 0 -50 16z"/>
<glyph unicode="ó" horiz-adv-x="876" d="M102 328v164q0 176 45 239q68 98 291 98q221 0 291 -98q45 -66 45 -239v-164q0 -174 -45 -240q-70 -98 -291 -98q-223 0 -291 98q-45 63 -45 240zM287 313q0 -78 18 -110q33 -57 133 -58q100 0 133 58q18 33 19 110v176q0 80 -19 113q-33 55 -133 55t-133 -55 q-18 -33 -18 -113v-176zM362 948l50 303q45 10 90 11q49 -1 102 -13l-108 -309q-12 -8 -84 -8q-35 0 -50 16z"/>
<glyph unicode="ú" horiz-adv-x="899" d="M102 309v502q43 8 95 8q45 0 90 -8v-485q0 -88 18 -123q31 -57 125 -58q90 0 127 31q35 29 35 98v537q43 8 94 8q45 0 90 -8v-801q-45 -10 -86 -10q-27 0 -72 10l-10 53h-20q-59 -74 -197 -73q-289 0 -289 319zM377 948l49 303q45 10 90 11q49 -1 102 -13l-108 -309 q-12 -8 -84 -8q-35 0 -49 16z"/>
<glyph unicode="ý" horiz-adv-x="858" d="M41 797q37 23 98 22q43 0 84 -10l193 -643v-21h26v21l193 643q41 10 84 10q61 0 98 -22l-352 -1170q-18 -4 -84 -4q-70 0 -92 12l96 314q6 18 33 31v20h-8q-74 0 -136 23zM381 948l49 303q45 10 90 11q50 -1 103 -13l-109 -309q-12 -8 -84 -8q-35 0 -49 16z"/>
<glyph unicode="Č" horiz-adv-x="962" d="M102 377v268q0 193 119 293q115 96 320 96q203 0 350 -49q0 -86 -43 -162q-123 39 -311 39q-102 0 -175 -51q-76 -57 -75 -152v-294q0 -111 75 -168q66 -51 173 -52q193 0 323 39q33 -43 33 -153q-123 -41 -350 -41q-438 0 -439 387zM305 1438q55 31 94 30q39 0 74 -12 l53 -129l54 129q35 12 71 12q43 0 94 -30l-122 -289q-53 -23 -97 -23q-45 0 -98 23z"/>
<glyph unicode="č" horiz-adv-x="800" d="M92 303v213q0 313 354 313q166 0 285 -38q0 -92 -43 -164q-100 31 -244 30q-168 0 -168 -131v-250q0 -131 168 -131q150 0 250 31q37 -66 37 -147q-119 -39 -285 -39q-354 0 -354 313zM186 1243q55 31 95 31q39 0 73 -12l54 -129l53 129q35 12 71 12q43 0 95 -31 l-123 -289q-53 -23 -96 -22q-45 0 -99 22z"/>
<glyph unicode="Ď" horiz-adv-x="1019" d="M123 0v1024h356q438 0 439 -387v-250q0 -387 -439 -387h-356zM264 1438q55 31 94 30q39 0 74 -12l53 -129l54 129q35 12 71 12q43 0 95 -30l-123 -289q-53 -23 -97 -23q-45 0 -98 23zM307 156h174q115 0 183 59q70 59 69 160v274q0 203 -252 203h-174v-696z"/>
<glyph unicode="ď" horiz-adv-x="1112" d="M92 328v166q0 178 37 237q57 98 252 98q127 0 182 -86h19v344q43 10 92 11q49 0 92 -11v-1077q-43 -10 -94 -10q-47 0 -90 10v70q-45 -90 -201 -90q-190 0 -250 98q-39 63 -39 240zM276 313q0 -78 19 -110q33 -57 133 -58q100 0 135 58q18 33 19 110v209q0 135 -172 135 q-88 0 -117 -55q-16 -33 -17 -110v-179zM901 1087q43 10 94 11q52 -1 97 -11l-25 -325q-35 -8 -70 -8q-51 0 -73 8z"/>
<glyph unicode="Ě" horiz-adv-x="935" d="M123 0v1024h694q10 -45 10 -88q0 -59 -6 -84h-514v-262h447q10 -35 10 -68q0 -49 -10 -88h-447v-278h510q10 -35 10 -68q0 -49 -10 -88h-694zM264 1438q55 31 94 30q39 0 74 -12l53 -129l54 129q35 12 71 12q43 0 95 -30l-123 -289q-53 -23 -97 -23q-45 0 -98 23z"/>
<glyph unicode="ě" horiz-adv-x="854" d="M92 303v158q0 207 66 284q70 84 272 84q203 0 275 -81q57 -70 57 -250v-168h-488v-37q0 -147 175 -148q158 0 260 31q35 -68 34 -147q-123 -39 -292 -39q-359 0 -359 313zM207 1243q55 31 94 31t74 -12l53 -129l53 129q35 12 72 12q43 0 94 -31l-123 -289 q-53 -23 -96 -22q-45 0 -98 22zM276 483h302v52q0 63 -25 90q-33 33 -123 32q-90 1 -119 -30q-35 -35 -35 -144z"/>
<glyph unicode="Ň" horiz-adv-x="1103" d="M123 23v976q68 25 143 25q63 0 123 -20l408 -748v756q39 12 94 12t90 -20v-979q-68 -25 -162 -25q-61 0 -100 12l-412 760v-758q-41 -14 -96 -14q-51 0 -88 23zM326 1438q55 31 94 30q39 0 74 -12l53 -129l53 129q35 12 72 12q43 0 94 -30l-123 -289q-53 -23 -96 -23 q-45 0 -98 23z"/>
<glyph unicode="ň" horiz-adv-x="899" d="M123 8v801q45 10 86 10q27 0 72 -10l10 -53h20q59 74 197 73q289 0 289 -319v-502q-43 -8 -95 -8q-45 0 -90 8v469q0 88 -18 123q-31 57 -125 57q-90 0 -127 -30q-35 -29 -35 -99v-520q-43 -8 -94 -8q-45 0 -90 8zM227 1243q55 31 95 31q39 0 73 -12l54 -129l53 129 q35 12 71 12q43 0 95 -31l-123 -289q-53 -23 -96 -22q-45 0 -99 22z"/>
<glyph unicode="Ř" horiz-adv-x="989" d="M123 10v1014h422q182 0 248 -45q104 -72 104 -297q0 -221 -115 -295l111 -364q-39 -23 -100 -23q-51 0 -86 12l-105 330h-295v-332q-43 -10 -92 -10q-47 0 -92 10zM264 1438q55 31 94 30q39 0 74 -12l53 -129l54 129q35 12 71 12q43 0 95 -30l-123 -289q-53 -23 -97 -23 q-45 0 -98 23zM307 498h236q170 0 170 184q0 170 -170 170h-236v-354z"/>
<glyph unicode="ř" horiz-adv-x="585" d="M123 8v801q45 10 86 10q27 0 72 -10l10 -53h20q66 63 193 63h53q18 -33 18 -84q0 -47 -10 -88h-100q-88 0 -125 -29q-33 -29 -33 -96v-514q-45 -8 -92 -8q-49 0 -92 8zM125 1243q55 31 94 31t74 -12l53 -129l53 129q35 12 72 12q43 0 94 -31l-123 -289q-53 -23 -96 -22 q-45 0 -98 22z"/>
<glyph unicode="Š" horiz-adv-x="950" d="M82 88q2 84 72 145q153 -88 335 -88q92 0 134 25q61 35 61 137q0 45 -92 80q-31 12 -94 31l-109 33q-297 96 -297 288q0 295 402 295q213 0 346 -51q-6 -94 -47 -162q-106 41 -295 41q-125 0 -168 -18q-53 -25 -54 -105q0 -53 93 -90l204 -67q295 -96 295 -275 q0 -199 -120 -268q-82 -49 -261 -49q-305 0 -405 98zM264 1438q55 31 94 30q39 0 74 -12l53 -129l54 129q35 12 71 12q43 0 95 -30l-123 -289q-53 -23 -97 -23q-45 0 -98 23z"/>
<glyph unicode="š" horiz-adv-x="794" d="M82 590q0 240 324 239q168 0 280 -43q-8 -84 -45 -161q-88 33 -231 32q-143 0 -144 -67q0 -39 70 -66l153 -45q223 -70 224 -231q0 -141 -70 -199q-72 -59 -242 -59q-178 0 -307 51q8 94 45 145q104 -41 262 -41q127 0 127 103q0 35 -69 61q-23 8 -72 23l-82 24 q-223 74 -223 234zM186 1243q55 31 95 31q39 0 73 -12l54 -129l53 129q35 12 71 12q43 0 95 -31l-123 -289q-53 -23 -96 -22q-45 0 -99 22z"/>
<glyph unicode="Ť" horiz-adv-x="858" d="M31 936q0 43 8 88h780q8 -45 8 -88q0 -59 -6 -84h-299v-842q-45 -10 -90 -10q-49 0 -94 10v842h-301q-6 25 -6 84zM203 1438q55 31 94 30q39 0 74 -12l53 -129l53 129q35 12 72 12q43 0 94 -30l-123 -289q-53 -23 -96 -23q-45 0 -98 23z"/>
<glyph unicode="ť" horiz-adv-x="856" d="M20 731q0 47 9 88h157v234q43 10 90 10q49 0 95 -10v-234h198q6 -41 6 -88q0 -31 -16 -67h-188v-400q0 -109 73 -108h121q10 -41 10 -72q0 -45 -10 -84h-119q-150 0 -204 53q-55 55 -56 211v400h-149q-16 35 -17 67zM655 1087q43 10 95 11q51 -1 96 -11l-25 -325 q-35 -8 -69 -8q-51 0 -74 8z"/>
<glyph unicode="Ů" horiz-adv-x="1085" d="M123 379v637q43 8 92 8q47 0 92 -8v-651q0 -129 41 -170q45 -49 195 -50q150 0 194 50q41 41 41 170v651q43 8 92 8q47 0 93 -8v-637q0 -211 -56 -283q-86 -106 -364 -106q-279 0 -363 106q-57 72 -57 283zM319 1255q0 90 66 156q63 66 156 66q89 0 155 -66t66 -156 q0 -92 -66 -155q-66 -66 -155 -66q-92 0 -156 66q-66 63 -66 155zM469 1255q0 -72 72 -71q69 -1 69 71q0 70 -69 70q-72 0 -72 -70z"/>
<glyph unicode="ů" horiz-adv-x="888" d="M92 309v502q43 8 94 8q45 0 90 -8v-485q0 -88 19 -123q31 -57 125 -58q90 0 127 31q35 29 35 98v537q43 8 94 8q45 0 90 -8v-801q-45 -10 -86 -10q-27 0 -72 10l-10 53h-20q-59 -74 -197 -73q-289 0 -289 319zM188 1153q0 90 66 156q63 66 156 65q89 1 155 -65t66 -156 q0 -92 -66 -156q-66 -66 -155 -65q-92 0 -156 65q-66 63 -66 156zM338 1153q0 -72 72 -72q69 0 69 72q0 70 -69 70q-72 0 -72 -70z"/>
<glyph unicode="Ž" horiz-adv-x="915" d="M41 86q0 18 8 70l569 696h-567q-10 43 -10 86q0 41 10 86h813q10 -45 10 -84q0 -49 -20 -88q33 43 -559 -696h536q10 -43 11 -68q-1 -43 -11 -88h-780q-10 76 -10 86zM227 1438q55 31 95 30q39 0 73 -12l54 -129l53 129q35 12 71 12q43 0 95 -30l-123 -289 q-53 -23 -96 -23q-45 0 -99 23z"/>
<glyph unicode="ž" horiz-adv-x="808" d="M82 84q0 20 8 70l385 493h-383q-10 76 -10 88q0 8 10 84h625q10 -45 10 -82q0 -31 -12 -71q27 27 -381 -510h385q8 -59 8 -70q0 -49 -10 -86h-625q-10 76 -10 84zM193 1243q55 31 94 31t73 -12l54 -129l53 129q35 12 72 12q43 0 94 -31l-123 -289q-53 -23 -96 -22 q-45 0 -99 22z"/>
<glyph unicode="ˆ" horiz-adv-x="686" d="M123 786l123 289q53 23 98 23q43 0 96 -23l123 -289q-51 -31 -94 -30q-37 0 -72 12l-53 129l-53 -129q-35 -12 -74 -12t-94 30z"/>
<glyph unicode="˚" horiz-adv-x="612" d="M123 909q0 78 53 133q53 53 129 54q78 -1 131 -54q53 -55 53 -133q0 -74 -53 -129q-55 -57 -131 -57t-129 57q-53 53 -53 129zM254 909q0 -51 51 -51q53 0 53 51q0 49 -53 49q-51 0 -51 -49z"/>
<glyph unicode="˜" horiz-adv-x="854" d="M123 1012q103 86 199 86q33 0 98 -27q66 -27 96 -27q66 0 125 50q41 -29 53 -45q27 -27 37 -70q-106 -90 -217 -90q-35 0 -96 26q-61 27 -88 27q-55 0 -109 -39q-39 25 -61 47q-25 29 -37 62z"/>
<glyph unicode=" " horiz-adv-x="738"/>
<glyph unicode=" " horiz-adv-x="1477"/>
<glyph unicode=" " horiz-adv-x="738"/>
<glyph unicode=" " horiz-adv-x="1477"/>
<glyph unicode=" " horiz-adv-x="492"/>
<glyph unicode=" " horiz-adv-x="369"/>
<glyph unicode=" " horiz-adv-x="246"/>
<glyph unicode=" " horiz-adv-x="246"/>
<glyph unicode=" " horiz-adv-x="184"/>
<glyph unicode=" " horiz-adv-x="295"/>
<glyph unicode=" " horiz-adv-x="82"/>
<glyph unicode="‐" horiz-adv-x="821" d="M123 406q0 37 10 81h555q10 -45 10 -81q0 -43 -6 -74h-563q-6 31 -6 74z"/>
<glyph unicode="‑" horiz-adv-x="821" d="M123 406q0 37 10 81h555q10 -45 10 -81q0 -43 -6 -74h-563q-6 31 -6 74z"/>
<glyph unicode="‒" horiz-adv-x="821" d="M123 406q0 37 10 81h555q10 -45 10 -81q0 -43 -6 -74h-563q-6 31 -6 74z"/>
<glyph unicode="–" horiz-adv-x="1067" d="M123 406q0 37 10 81h801q10 -45 10 -81q0 -43 -6 -74h-809q-6 31 -6 74z"/>
<glyph unicode="—" horiz-adv-x="1265" d="M123 406q0 37 10 81h1000q10 -45 10 -81q0 -43 -6 -74h-1008q-6 31 -6 74z"/>
<glyph unicode="‘" horiz-adv-x="487" d="M123 819l104 271q39 8 68 8q25 0 70 -11l-48 -270q-45 -10 -88 -10q-59 0 -106 12z"/>
<glyph unicode="’" horiz-adv-x="487" d="M123 817l47 270q45 10 88 11q60 -1 107 -13l-105 -270q-39 -8 -67 -8q-25 0 -70 10z"/>
<glyph unicode="‚" horiz-adv-x="487" d="M123 -166l47 270q45 10 88 11q60 -1 107 -13l-105 -270q-39 -8 -67 -8q-25 0 -70 10z"/>
<glyph unicode="“" horiz-adv-x="768" d="M123 819l104 271q39 8 68 8q25 0 70 -11l-48 -270q-45 -10 -88 -10q-59 0 -106 12zM403 819l105 271q39 8 67 8q25 0 70 -11l-47 -270q-45 -10 -88 -10q-60 0 -107 12z"/>
<glyph unicode="”" horiz-adv-x="768" d="M123 817l47 270q45 10 88 11q60 -1 107 -13l-105 -270q-39 -8 -67 -8q-25 0 -70 10zM403 817l48 270q45 10 88 11q59 -1 106 -13l-104 -270q-39 -8 -68 -8q-25 0 -70 10z"/>
<glyph unicode="„" horiz-adv-x="768" d="M123 -166l47 270q45 10 88 11q60 -1 107 -13l-105 -270q-39 -8 -67 -8q-25 0 -70 10zM403 -166l48 270q45 10 88 11q59 -1 106 -13l-104 -270q-39 -8 -68 -8q-25 0 -70 10z"/>
<glyph unicode="…" horiz-adv-x="1167" d="M123 8v205q43 8 92 8q47 0 92 -8v-205q-45 -8 -92 -8q-49 0 -92 8zM492 8v205q43 8 92 8q47 0 92 -8v-205q-45 -8 -92 -8q-49 0 -92 8zM860 8v205q43 8 92 8q47 0 92 -8v-205q-45 -8 -92 -8q-49 0 -92 8z"/>
<glyph unicode=" " horiz-adv-x="295"/>
<glyph unicode="‹" horiz-adv-x="913" d="M123 385q0 66 22 129l617 254q29 -51 29 -100t-11 -84l-475 -187h-20v-22h20l475 -187q10 -35 11 -84q0 -47 -29 -100l-617 254q-23 63 -22 127z"/>
<glyph unicode="›" horiz-adv-x="913" d="M123 104q0 49 10 84l475 187h21v22h-21l-475 187q-10 35 -10 84t29 100l616 -254q23 -63 23 -129q0 -63 -23 -127l-616 -254q-29 53 -29 100z"/>
<glyph unicode=" " horiz-adv-x="369"/>
<glyph unicode="€" horiz-adv-x="1189" d="M123 365q0 37 10 81h146v99h-150q-6 31 -6 73q0 37 10 82h148q37 334 436 334q203 0 350 -49q0 -86 -43 -162q-123 39 -311 39q-90 0 -158 -41q-72 -45 -88 -121h182q10 -45 10 -82q0 -43 -6 -73h-190v-99h186q10 -45 10 -81q0 -43 -6 -74h-180q47 -145 238 -146 q192 0 323 39q33 -43 33 -153q-123 -41 -350 -41q-391 0 -432 301h-156q-6 31 -6 74z"/>
<glyph unicode="™" horiz-adv-x="1431" d="M123 971q0 25 6 53h461q6 -29 6 -53q0 -47 -4 -64h-166v-508q-27 -4 -66 -4q-41 0 -67 4v508h-166q-4 16 -4 64zM637 399v609q41 16 123 16q90 0 129 -16l84 -525l82 525q39 16 129 16q84 0 125 -16v-609q-29 -4 -66 -4q-41 0 -69 4v504h-13v-12l-90 -490q-25 -6 -98 -6 q-76 0 -101 6l-88 490v12h-14v-504q-27 -4 -65 -4q-41 0 -68 4z"/>
<glyph unicode="" horiz-adv-x="819" d="M0 0v819h819v-819h-819z"/>
</font>
</defs>
</svg>
