<?xml version="1.0" encoding="UTF-8" standalone="no"?>
<!DOCTYPE svg PUBLIC "-//W3C//DTD SVG 1.1//EN" "http://www.w3.org/Graphics/SVG/1.1/DTD/svg11.dtd">
<svg xmlns="http://www.w3.org/2000/svg">
<metadata>
This is a custom SVG font generated by IcoMoon.
1
</metadata>
<defs>
<font id="icomoon" horiz-adv-x="512">
<font-face units-per-em="512" ascent="480" descent="-32"/>
<missing-glyph horiz-adv-x="512"/>
<glyph unicode="A" d="M 512.00,192.00L 416.00,288.00L 416.00,384.00L 352.00,384.00L 352.00,352.00L 256.00,448.00L0.00,192.00L 64.00,192.00L 64.00,0.00L 224.00,0.00L 224.00,128.00L 288.00,128.00L 288.00,0.00L 448.00,0.00L 448.00,192.00  z"/>
<glyph unicode="Y" d="M 256.00,448.00L0.00,192.00l 48.00-48.00l 48.00,48.00l 32.00-192.00l 128.00,0.00 l 128.00,0.00 l 32.00,192.00l 48.00-48.00l 48.00,48.00L 256.00,448.00z M 256.00,242.746c-24.994,0.00-45.256,20.26-45.256,45.254   s 20.262,45.255, 45.256,45.255c 24.992,0.00, 45.255-20.262, 45.255-45.255C 301.255,263.006, 280.992,242.746, 256.00,242.746z"/>
<glyph unicode="Z" d="M 256.00,448.00L0.00,192.00l 48.00-48.00l 48.00,48.00l 32.00-192.00l 96.00,0.00 l0.00,96.00 l 64.00,0.00 l0.00-96.00 l 96.00,0.00 l 32.00,192.00l 48.00-48.00l 48.00,48.00L 256.00,448.00z M 256.00,242.746   c-24.994,0.00-45.256,20.26-45.256,45.254s 20.262,45.255, 45.256,45.255c 24.992,0.00, 45.255-20.262, 45.255-45.255   C 301.255,263.006, 280.992,242.746, 256.00,242.746z"/>
<glyph unicode="[" d="M 448.00,352.00L 448.00,416.00 L0.00,416.00 l0.00-352.00 c0.00-17.673, 14.327-32.00, 32.00-32.00l 432.00,0.00 c 26.511,0.00, 48.00,21.489, 48.00,48.00L 512.00,352.00 L 448.00,352.00 z M 416.00,64.00L 32.00,64.00 L 32.00,384.00 l 384.00,0.00 L 416.00,64.00 zM 64.00,320.00L 384.00,320.00L 384.00,288.00L 64.00,288.00zM 256.00,256.00L 384.00,256.00L 384.00,224.00L 256.00,224.00zM 256.00,192.00L 384.00,192.00L 384.00,160.00L 256.00,160.00zM 256.00,128.00L 352.00,128.00L 352.00,96.00L 256.00,96.00zM 64.00,256.00L 224.00,256.00L 224.00,96.00L 64.00,96.00z"/>
<glyph unicode="\" d="M 488.00,456.00c-32.00,32.00-64.00,32.00-96.00,0.00l-8.00-8.00l 96.00-96.00l 8.00,8.00C 520.00,392.00, 520.00,424.00, 488.00,456.00zM 32.00,96.00L0.00-32.00l 128.00,32.00l 320.00,320.00l-96.00,96.00L 32.00,96.00z M 128.00,64.00l-32.00,32.00l 256.00,256.00l 32.00-32.00L 128.00,64.00z"/>
<glyph unicode="]" d="M 192.00,160.00L 256.00,192.00L 480.00,416.00L 448.00,448.00L 224.00,224.00  zM 144.65,36.451c-15.816,33.364-42.833,60.381-76.198,76.198l 38.99,129.968L 192.00,288.00L 384.00,480.00l-96.00,0.00 L 96.00,288.00L0.00-32.00l 320.00,96.00l 192.00,192.00   l0.00,96.00 L 320.00,160.00l-45.383-84.559"/>
<glyph unicode="^" d="M 447.97,163.249c-0.006,0.353-0.015,0.701-0.021,1.053c-0.016,0.714-0.035,1.427-0.059,2.14C 442.875,324.266, 256.00,480.00, 256.00,480.00   S 69.123,324.266, 64.11,166.439c-0.022-0.715-0.044-1.426-0.06-2.141c-0.007-0.352-0.015-0.701-0.021-1.053   c-0.018-1.08-0.028-2.162-0.028-3.248c0.00-1.184, 0.014-2.361, 0.035-3.539c 0.002-0.098, 0.003-0.195, 0.007-0.293   C 66.082,51.899, 151.241-32.00, 256.00-32.00c 104.758,0.00, 189.916,83.899, 191.959,188.168c 0.002,0.098, 0.004,0.196, 0.005,0.293   c 0.021,1.178, 0.036,2.357, 0.036,3.539C 448.00,161.086, 447.988,162.168, 447.97,163.249z M 383.975,157.63l-0.004-0.203   c-0.659-33.643-14.266-65.167-38.313-88.774C 321.587,45.017, 289.743,32.00, 256.00,32.00c-6.231,0.00-12.397,0.447-18.462,1.319   c 69.528,41.423, 116.108,117.352, 116.108,204.161c0.00,9.728-0.59,19.317-1.726,28.74c 20.136-36.97, 31.032-71.40, 32.001-101.813   l 0.002-0.072c 0.016-0.474, 0.026-0.946, 0.039-1.422l 0.014-0.724C 383.99,161.461, 384.00,160.73, 384.00,160.00   C 384.00,159.208, 383.99,158.419, 383.975,157.63z"/>
<glyph unicode="_" d="M0.00,416.00l0.00-384.00 l 512.00,0.00 L 512.00,416.00 L0.00,416.00 z M 480.00,64.00l-32.00,0.00 l-96.00,144.00l-64.00-48.00L 160.00,320.00L 64.00,64.00L 32.00,64.00 L 32.00,384.00 l 448.00,0.00 L 480.00,64.00 zM 352.00,304.00A48.00,48.00 6300.00 1,0 448.00,304A48.00,48.00 6300.00 1,0 352.00,304z"/>
<glyph unicode="`" d="M 416.00,192.113c-32.00,0.00-64.00-32.113-96.00-32.113s-32.00,128.00-96.00,128.00S 96.00,224.00, 64.00,96.00c0.00,0.00, 352.00,0.00, 384.00,0.00   C 448.00,95.999, 448.00,192.113, 416.00,192.113zM0.00,384.00l0.00-352.00 l 512.00,0.00 L 512.00,384.00 L0.00,384.00 z M 480.00,64.00L 32.00,64.00 L 32.00,352.00 l 448.00,0.00 L 480.00,64.00 zM 352.00,272.00A48.00,48.00 6300.00 1,0 448.00,272A48.00,48.00 6300.00 1,0 352.00,272z"/>
<glyph unicode="a" d="M 154.007,208.00A101.993,101.993 6300.00 1,0 357.993,208A101.993,101.993 6300.00 1,0 154.007,208zM 480.00,352.00L 368.00,352.00 c-8.00,32.00-16.00,64.00-48.00,64.00L 192.00,416.00 c-32.00,0.00-40.00-32.00-48.00-64.00L 32.00,352.00 c-17.60,0.00-32.00-14.40-32.00-32.00l0.00-256.00 c0.00-17.60, 14.40-32.00, 32.00-32.00l 448.00,0.00    c 17.60,0.00, 32.00,14.40, 32.00,32.00L 512.00,320.00 C 512.00,337.60, 497.60,352.00, 480.00,352.00z M 256.00,64.00c-79.529,0.00-144.00,64.471-144.00,144.00c0.00,79.529, 64.471,144.00, 144.00,144.00   c 79.529,0.00, 144.00-64.471, 144.00-144.00C 400.00,128.471, 335.53,64.00, 256.00,64.00z M 480.00,288.00l-64.00,0.00 l0.00,32.00 l 64.00,0.00 L 480.00,288.00 z"/>
<glyph unicode="b" d="M 155.755,448.451l-13.09-340.294c-17.465,8.962-39.377,12.84-62.368,9.578c-49.574-7.021-85.271-44.418-79.729-83.517  c 5.543-39.102, 50.223-65.101, 99.795-58.078c 43.996,6.235, 77.021,36.395, 80.022,70.43l 0.01-0.019c 0.006,0.077, 0.011,0.193, 0.018,0.28  c 0.073,0.865, 0.115,1.741, 0.147,2.611c 1.846,35.143, 13.148,302.082, 13.148,302.082l 278.355,28.679l-12.572-240.41  c-17.863,9.942-40.822,14.371-64.964,10.95c-49.574-7.028-85.268-44.417-79.726-83.521c 5.541-39.098, 50.221-65.102, 99.795-58.071  c 44.933,6.36, 78.41,37.682, 80.166,72.604l 0.021,0.021C 495.742,97.752, 512.00,473.005, 512.00,473.005L 155.755,448.451z"/>
<glyph unicode="c" d="M 490.594,399.946C 418.778,410.271, 339.428,416.00, 256.001,416.00c-83.43,0.00-162.778-5.729-234.597-16.054  C 7.639,346.083,0.00,286.571,0.00,224.00c0.00-62.57, 7.639-122.083, 21.404-175.945C 93.223,37.729, 172.572,32.00, 256.001,32.00  c 83.427,0.00, 162.776,5.729, 234.593,16.055C 504.36,101.917, 512.00,161.43, 512.00,224.00C 512.00,286.571, 504.36,346.083, 490.594,399.946z   M 192.001,128.00L 192.001,320.00 l 160.00-96.00L 192.001,128.00z"/>
<glyph unicode="d" d="M0.00,416.00l0.00-384.00 l 512.00,0.00 L 512.00,416.00 L0.00,416.00 z M 96.00,64.00L 32.00,64.00 l0.00,64.00 l 64.00,0.00 L 96.00,64.00 z M 96.00,192.00L 32.00,192.00 l0.00,64.00 l 64.00,0.00 L 96.00,192.00 z M 96.00,320.00L 32.00,320.00 L 32.00,384.00 l 64.00,0.00 L 96.00,320.00 z M 384.00,64.00L 128.00,64.00 L 128.00,384.00 l 256.00,0.00 L 384.00,64.00 z    M 480.00,64.00l-64.00,0.00 l0.00,64.00 l 64.00,0.00 L 480.00,64.00 z M 480.00,192.00l-64.00,0.00 l0.00,64.00 l 64.00,0.00 L 480.00,192.00 z M 480.00,320.00l-64.00,0.00 L 416.00,384.00 l 64.00,0.00 L 480.00,320.00 zM 192.00,320.00L 192.00,128.00L 320.00,224.00  z"/>
<glyph unicode="e" d="M 288.00,352.00L 64.00,352.00 c-17.601,0.00-32.00-14.399-32.00-32.00l0.00-192.00 c0.00-17.60, 14.399-32.00, 32.00-32.00l 224.00,0.00 c 17.601,0.00, 32.00,14.40, 32.00,32.00L 320.00,320.00    C 320.00,337.601, 305.601,352.00, 288.00,352.00zM 352.00,242.286L 352.00,205.715L 480.00,96.00L 480.00,352.00  z"/>
<glyph unicode="f" d="M 408.785,305.925C 312.002,377.854, 278.652,435.434, 256.002,479.999l0.00,0.00C 256.00,479.999, 256.00,480.00, 256.00,480.00l0.00-0.001   c-22.648-44.565-56.00-102.146-152.783-174.074c-165.018-122.643-9.688-293.834, 126.879-199.612  c-8.898-58.465-39.265-101.086-70.104-119.441L 159.992-32.00 l 96.008,0.00 l 96.008,0.00 l0.00,18.87 c-30.841,18.354-61.205,60.977-70.106,119.442  C 418.47,12.089, 573.802,183.282, 408.785,305.925z"/>
<glyph unicode="g" d="M 393.416,283.614c-29.516,0.00-56.043-12.298-74.926-32.347c-7.998-8.492-21.881-18.556-36.90-27.405  c 7.055,26.934, 29.338,60.85, 44.814,75.728c 19.82,19.085, 31.992,45.915, 31.992,75.75C 358.399,432.787, 312.658,479.388, 256.002,480.00  c-56.66-0.611-102.398-47.213-102.398-104.659c0.00-29.836, 12.172-56.665, 31.993-75.75c 15.477-14.878, 37.76-48.794, 44.814-75.728  c-15.021,8.85-28.903,18.913-36.90,27.405c-18.884,20.049-45.41,32.347-74.925,32.347c-57.193,0.00-103.54-46.832-103.54-104.664  c0.00-57.819, 46.346-104.669, 103.54-104.669c 29.521,0.00, 56.041,12.678, 74.925,32.726c 8.402,8.936, 23.222,20.069, 39.146,29.316  c-1.501-73.846-36.766-128.084-72.659-149.453L 159.998-32.00 l 96.005,0.00 l 96.002,0.00 l0.00,18.87 c-35.896,21.368-71.16,75.608-72.66,149.453  c 15.926-9.247, 30.744-20.384, 39.146-29.316c 18.883-20.047, 45.404-32.726, 74.926-32.726c 57.193,0.00, 103.539,46.85, 103.539,104.669  C 496.955,236.782, 450.61,283.614, 393.416,283.614z"/>
<glyph unicode="h" d="M 256.00,480.00L 96.00,224.00L 256.00-32.00L 416.00,224.00 z"/>
<glyph unicode="i" d="M 224.00,288.00L 96.00-32.00l 48.596,0.00 L 256.00,65.479L 367.406-32.00L 416.00-32.00 L 288.00,288.00L 224.00,288.00 z M 149.024,14.395l 42.871,107.179l 39.81-34.833    L 149.024,14.395z M 362.978,14.396l-82.68,72.344l 39.809,34.833L 362.978,14.396z M 256.00,108.00l-51.507,45.068L 245.665,256.00l 20.67,0.00     l 41.173-102.932L 256.00,108.00zM 366.871,415.999C 377.764,397.172, 384.00,375.314, 384.00,352.00s-6.236-45.172-17.129-63.999l 27.72-16.00    C 408.204,295.535, 416.00,322.856, 416.00,352.00s-7.796,56.465-21.409,79.999L 366.871,415.999zM 145.128,288.001C 134.238,306.828, 128.00,328.686, 128.00,352.00s 6.236,45.172, 17.128,63.999L 117.41,431.998    C 103.796,408.464, 96.00,381.144, 96.00,352.00s 7.796-56.464, 21.41-79.999L 145.128,288.001zM 34.252,480.00C 12.47,442.345,0.00,398.629,0.00,352.00s 12.47-90.345, 34.252-127.999l 27.719,16.00C 42.911,272.948, 32.00,311.199, 32.00,352.00    S 42.911,431.052, 61.971,464.00L 34.252,480.00zM 512.00,352.00c0.00,46.63-12.47,90.346-34.253,128.00l0.00,0.00L 450.03,464.00C 469.09,431.052, 480.00,392.801, 480.00,352.00s-10.91-79.053-29.971-112.00    l 27.718-16.00l0.00,0.00C 499.531,261.654, 512.00,305.37, 512.00,352.00zM 224.00,352.00A32.00,32.00 6300.00 1,0 288.00,352A32.00,32.00 6300.00 1,0 224.00,352z"/>
<glyph unicode="j" d="M 240.00,128.00c 44.183,0.00, 80.00,35.817, 80.00,80.00L 320.00,400.00 c0.00,44.183-35.817,80.00-80.00,80.00s-80.00-35.817-80.00-80.00l0.00-192.00 C 160.00,163.817, 195.818,128.00, 240.00,128.00zM 352.00,256.00l0.00-48.00 c0.00-61.855-50.145-112.00-112.00-112.00c-61.856,0.00-112.00,50.145-112.00,112.00l0.00,48.00 L 96.00,256.00 l0.00-48.00 c0.00-74.119, 56.002-135.15, 128.00-143.11L 224.00,0.00    l-64.00,0.00 l0.00-32.00 l 64.00,0.00 l 32.00,0.00 l 64.00,0.00 l0.00,32.00 l-64.00,0.00 l0.00,64.89 c 71.997,7.96, 128.00,68.991, 128.00,143.11l0.00,48.00 L 352.00,256.00 z"/>
<glyph unicode="k" d="M 384.00,416.00c-49.179,0.00-94.03-18.498-128.00-48.905C 222.031,397.502, 177.179,416.00, 128.00,416.00S 33.969,397.502,0.00,367.096l0.00-8.596 l0.00-38.49 l0.00-192.004   L0.00,87.50 l0.00-6.576 c 0.342-0.306, 0.676-0.62, 1.02-0.924c 8.209-7.244, 17.04-13.798, 26.406-19.569c 9.43,7.631, 19.739,14.216, 30.761,19.569  c 21.098,10.248, 44.783,16.00, 69.813,16.00s 48.716-5.752, 69.813-16.00c 11.021-5.354, 21.331-11.938, 30.761-19.569  c 1.842-1.491, 3.65-3.022, 5.424-4.592c 8.108-7.178, 15.488-15.159, 22.002-23.83c 6.515,8.671, 13.894,16.652, 22.002,23.83  c 1.773,1.569, 3.581,3.101, 5.424,4.592c 9.43,7.631, 19.739,14.216, 30.761,19.569c 21.098,10.248, 44.783,16.00, 69.813,16.00  s 48.716-5.752, 69.813-16.00c 11.021-5.354, 21.331-11.938, 30.761-19.569c 9.366,5.771, 18.196,12.325, 26.405,19.569  c 0.344,0.304, 0.679,0.618, 1.021,0.924L 512.00,87.50 l0.00,40.506 L 512.00,320.01 L 512.00,358.50 l0.00,8.596 C 478.031,397.502, 433.179,416.00, 384.00,416.00z M 128.00,128.00  c-34.976,0.00-67.758-9.365-96.00-25.705L 32.00,352.007 C 58.741,372.095, 91.98,384.00, 128.00,384.00c 36.025,0.00, 69.258-11.919, 96.00-32.013l0.00-249.692   C 195.758,118.635, 162.976,128.00, 128.00,128.00z M 384.00,128.00c-34.976,0.00-67.758-9.365-96.00-25.705L 288.00,351.987 C 314.742,372.081, 347.976,384.00, 384.00,384.00  c 36.021,0.00, 69.259-11.906, 96.00-31.994l0.00-249.712 C 451.758,118.635, 418.976,128.00, 384.00,128.00z"/>
<glyph unicode="l" d="M 451.716,380.285l-71.432,71.431C 364.728,467.272, 334.00,480.00, 312.00,480.00L 72.00,480.00 C 50.00,480.00, 32.00,462.00, 32.00,440.00l0.00-432.00 c0.00-22.00, 18.00-40.00, 40.00-40.00l 368.00,0.00 c 22.00,0.00, 40.00,18.00, 40.00,40.00  L 480.00,312.00 C 480.00,334.00, 467.272,364.729, 451.716,380.285z M 429.089,357.657c 1.565-1.565, 3.125-3.487, 4.64-5.657L 352.00,352.00 L 352.00,433.728   c 2.17-1.515, 4.092-3.075, 5.657-4.64L 429.089,357.657z M 448.00,8.00c0.00-4.336-3.664-8.00-8.00-8.00L 72.00,0.00 c-4.336,0.00-8.00,3.664-8.00,8.00L 64.00,440.00 c0.00,4.336, 3.664,8.00, 8.00,8.00  l 240.00,0.00 c 2.416,0.00, 5.127-0.305, 8.00-0.852L 320.00,320.00 l 127.148,0.00 c 0.547-2.873, 0.852-5.583, 0.852-8.00L 448.00,8.00 z"/>
<glyph unicode="m" d="M 352.00,480.00L 32.00,480.00 l0.00-512.00 l 448.00,0.00 L 480.00,352.00 L 352.00,480.00z M 448.00,0.00L 64.00,0.00 L 64.00,448.00 l 288.00,0.00 l0.00-96.00 l 96.00,0.00 L 448.00,0.00 z"/>
<glyph unicode="n" d="M 256.00-32.00L 256.00,192.00L 32.00,192.00  zM 32.00,480.00L 32.00,224.00L 288.00,224.00L 288.00-32.00L 480.00-32.00L 480.00,480.00  z"/>
<glyph unicode="o" d="M 224.00,288.00L 416.00,288.00L 416.00,256.00L 224.00,256.00zM 224.00,224.00L 416.00,224.00L 416.00,192.00L 224.00,192.00zM 224.00,160.00L 416.00,160.00L 416.00,128.00L 224.00,128.00zM 224.00,96.00L 352.00,96.00L 352.00,64.00L 224.00,64.00zM 480.00,384.00l-96.00,0.00 L 384.00,448.00 c0.00,17.60-14.40,32.00-32.00,32.00L 32.00,480.00 C 14.40,480.00,0.00,465.60,0.00,448.00l0.00-352.00 c0.00-17.60, 14.40-32.00, 32.00-32.00l 96.00,0.00 l0.00-64.00 c0.00-17.60, 14.40-32.00, 32.00-32.00l 320.00,0.00    c 17.60,0.00, 32.00,14.40, 32.00,32.00L 512.00,352.00 C 512.00,369.60, 497.60,384.00, 480.00,384.00z M 128.00,352.00l0.00-240.00 L 48.00,112.00 L 48.00,432.00 l 288.00,0.00 l0.00-48.00 L 160.00,384.00 C 142.40,384.00, 128.00,369.60, 128.00,352.00z M 464.00,16.00L 176.00,16.00    L 176.00,336.00 l 288.00,0.00 L 464.00,16.00 z"/>
<glyph unicode="p" d="M 492.25,352.00L 19.75,352.00 c-13.20,0.00-21.882-10.59-19.293-23.534l 58.836-272.932C 61.882,42.59, 74.80,32.00, 88.00,32.00l 336.00,0.00    c 13.20,0.00, 26.118,10.59, 28.707,23.534l 58.836,272.932C 514.132,341.41, 505.45,352.00, 492.25,352.00zM 448.00,392.00c0.00,13.255-10.745,24.00-24.00,24.00L 208.00,416.00 l-16.00,32.00L 88.00,448.00 c-13.255,0.00-24.00-10.745-24.00-24.00l0.00-56.00 l 384.00,0.00 L 448.00,392.00 z"/>
<glyph unicode="q" d="M 492.25,352.00L 448.00,352.00 L 448.00,392.00 c0.00,13.255-10.745,24.00-24.00,24.00L 208.00,416.00 l-16.00,32.00L 88.00,448.00 c-13.255,0.00-24.00-10.745-24.00-24.00l0.00-72.00 L 19.75,352.00   c-13.20,0.00-21.882-10.59-19.293-23.534l 58.836-272.932C 61.882,42.59, 74.80,32.00, 88.00,32.00l 336.00,0.00 c 13.20,0.00, 26.118,10.59, 28.707,23.534  l 58.836,272.932C 514.132,341.41, 505.45,352.00, 492.25,352.00z M 96.00,416.00l 76.223,0.00 l 16.00-32.00L 416.00,384.00 l0.00-32.00 L 96.00,352.00 L 96.00,416.00 z M 421.797,64.00L 90.203,64.00 L 35.017,320.00l 441.966,0.00   L 421.797,64.00z"/>
<glyph unicode="r" d="M 288.00,480.00L0.00,192.00l 224.00-224.00l 288.00,288.00L 512.00,480.00 L 288.00,480.00 z M 416.00,337.60c-25.626,0.00-46.399,20.773-46.399,46.40S 390.374,430.40, 416.00,430.40  s 46.40-20.773, 46.40-46.40S 441.626,337.60, 416.00,337.60z"/>
<glyph unicode="s" d="M 64.00,16.00A48.00,48.00 4500.00 1,0 160.00,16A48.00,48.00 4500.00 1,0 64.00,16zM 384.00,16.00A48.00,48.00 4500.00 1,0 480.00,16A48.00,48.00 4500.00 1,0 384.00,16zM 480.00,224.00L 480.00,416.00 L 64.00,416.00 C 64.00,451.346, 35.347,480.00,0.00,480.00l0.00-32.00 c 17.645,0.00, 32.00-14.355, 32.00-32.00l 24.037-206.027C 41.39,198.244, 32.00,180.223, 32.00,160.00   c0.00-35.347, 28.654-64.00, 64.00-64.00l 384.00,0.00 l0.00,32.00 L 96.00,128.00 c-17.673,0.00-32.00,14.327-32.00,32.00c0.00,0.11, 0.007,0.218, 0.008,0.328L 480.00,224.00z"/>
<glyph unicode="t" d="M 406.494,288.00L 317.573,403.765C 319.134,407.535, 320.00,411.666, 320.00,416.00c0.00,17.673-14.326,32.00-32.00,32.00c-17.673,0.00-32.00-14.327-32.00-32.00  s 14.327-32.00, 32.00-32.00c 1.421,0.00, 2.816,0.102, 4.188,0.282L 366.144,288.00L 145.857,288.00 l 73.956,96.282C 221.184,384.102, 222.58,384.00, 224.00,384.00  c 17.673,0.00, 32.00,14.327, 32.00,32.00s-14.327,32.00-32.00,32.00s-32.00-14.327-32.00-32.00c0.00-4.334, 0.866-8.465, 2.427-12.234L 105.506,288.00L0.00,288.00 l0.00-64.00 l 32.00,0.00 l 32.00-256.00l 384.00,0.00   l 32.00,256.00l 32.00,0.00 l0.00,64.00 L 406.494,288.00 z M 160.00,32.00L 96.00,32.00 l0.00,64.00 l 64.00,0.00 L 160.00,32.00 z M 160.00,160.00L 96.00,160.00 l0.00,64.00 l 64.00,0.00 L 160.00,160.00 z M 288.00,32.00l-64.00,0.00 l0.00,64.00 l 64.00,0.00 L 288.00,32.00 z M 288.00,160.00l-64.00,0.00 l0.00,64.00 l 64.00,0.00 L 288.00,160.00 z   M 416.00,32.00l-64.00,0.00 l0.00,64.00 l 64.00,0.00 L 416.00,32.00 z M 416.00,160.00l-64.00,0.00 l0.00,64.00 l 64.00,0.00 L 416.00,160.00 z"/>
<glyph unicode="u" d="M 192.00,480.00L 32.00,480.00 C 14.40,480.00,0.00,465.60,0.00,448.00l0.00-160.00 c0.00-17.60, 14.398-32.00, 32.00-32.00l 160.00,0.00 c 17.60,0.00, 32.00,14.40, 32.00,32.00L 224.00,448.00 C 224.00,465.60, 209.60,480.00, 192.00,480.00z M 192.00,352.00   L 32.00,352.00 L 32.00,384.00 l 160.00,0.00 L 192.00,352.00 zM 480.00,480.00L 320.00,480.00 c-17.602,0.00-32.00-14.40-32.00-32.00l0.00-448.00 c0.00-17.60, 14.398-32.00, 32.00-32.00l 160.00,0.00 c 17.60,0.00, 32.00,14.40, 32.00,32.00L 512.00,448.00 C 512.00,465.60, 497.60,480.00, 480.00,480.00z    M 480.00,160.00L 320.00,160.00 l0.00,32.00 l 160.00,0.00 L 480.00,160.00 z M 480.00,256.00L 320.00,256.00 l0.00,32.00 l 160.00,0.00 L 480.00,256.00 zM 192.00,192.00L 32.00,192.00 C 14.40,192.00,0.00,177.60,0.00,160.00l0.00-160.00 c0.00-17.60, 14.398-32.00, 32.00-32.00l 160.00,0.00 c 17.60,0.00, 32.00,14.40, 32.00,32.00L 224.00,160.00 C 224.00,177.60, 209.60,192.00, 192.00,192.00   z M 192.00,64.00l-64.00,0.00 l0.00-64.00 L 96.00,0.00 l0.00,64.00 L 32.00,64.00 l0.00,32.00 l 64.00,0.00 l0.00,64.00 l 32.00,0.00 l0.00-64.00 l 64.00,0.00 L 192.00,64.00 z"/>
<glyph unicode="v" d="M 256.00,480.00C 114.615,480.00,0.00,365.385,0.00,224.00s 114.615-256.00, 256.00-256.00s 256.00,114.615, 256.00,256.00S 397.385,480.00, 256.00,480.00z M 160.00,224.00  c0.00,53.02, 42.98,96.00, 96.00,96.00s 96.00-42.98, 96.00-96.00s-42.98-96.00-96.00-96.00S 160.00,170.98, 160.00,224.00z M 462.99,138.262L 462.99,138.262l-88.71,36.745  C 380.539,190.099, 384.00,206.645, 384.00,224.00s-3.461,33.901-9.72,48.993l 61.063,25.293l 27.647,11.452C 473.944,283.327, 480.00,254.373, 480.00,224.00  C 480.00,193.627, 473.943,164.673, 462.99,138.262L 462.99,138.262z M 341.739,430.99L 341.739,430.99L 341.739,430.99l-36.745-88.71  C 289.902,348.539, 273.356,352.00, 256.00,352.00s-33.901-3.461-48.993-9.72l-17.23,41.599l-19.515,47.112C 196.673,441.943, 225.628,448.00, 256.00,448.00  C 286.373,448.00, 315.327,441.943, 341.739,430.99z M 49.01,309.738l 47.112-19.515l 41.599-17.23C 131.462,257.901, 128.00,241.355, 128.00,224.00  s 3.461-33.901, 9.72-48.993l-88.71-36.745C 38.057,164.673, 32.00,193.627, 32.00,224.00C 32.00,254.373, 38.057,283.327, 49.01,309.738z   M 170.262,17.01l 11.452,27.647l 25.293,61.063C 222.099,99.461, 238.645,96.00, 256.00,96.00s 33.901,3.461, 48.993,9.72l 36.745-88.71l0.00,0.00l0.00,0.00  C 315.327,6.058, 286.373,0.00, 256.00,0.00C 225.628,0.00, 196.673,6.057, 170.262,17.01z"/>
<glyph unicode="w" d="M 321.788,108.854c-11.188-6.236-20.175-2.064-32.764,4.572c-11.46,8.748-45.402,35.438-81.226,71.188   c-26.156,33.084-46.162,64.288-55.375,79.293c-0.625,1.66-0.944,2.632-0.944,2.632c-5.397,13.476-8.771,22.92-1.324,33.521   c 6.854,9.727, 9.50,12.383, 18.24,20.108L 80.605,450.292c-10.604-7.728-27.018-25.106-40.509-44.378   c-12.538-18.317-23.154-38.587-26.049-53.055c 15.295-55.117, 52.258-157.896, 120.583-231.325l-0.021-0.308   C 200.339,40.198, 304.774-10.204, 360.18-32.00c 14.679,1.385, 35.938,9.844, 55.456,20.404c 20.598,11.415, 39.567,25.945, 48.329,35.685   L 343.677,124.918C 335.08,117.008, 332.179,114.664, 321.788,108.854zM 205.61,351.342c 7.241,5.302, 5.313,14.944, 1.926,20.245L 140.957,473.50c-4.344,5.291-13.396,8.064-21.252,5.579L 92.272,460.698   l 88.034-129.879L 205.61,351.342zM 492.949,82.154l-94.473,76.788c-4.93,3.918-14.313,6.838-20.325,0.188l-23.046-23.05l 120.047-101.015l 21.136,25.357   C 499.573,67.986, 497.755,77.279, 492.949,82.154z"/>
<glyph unicode="x" d="M 325.608,214.818L 512.00,86.264L 512.00,382.211  zM0.00,382.211L0.00,86.264L 186.388,214.836  zM 256.00,152.309L 211.499,192.264L0.00,64.00L 512.00,64.00L 300.495,192.264  zM 496.64,384.00L 15.36,384.00L 256.00,203.074  z"/>
<glyph unicode="&quot;" d="M 256.00,480.00c-81.67,0.00-147.871-66.202-147.871-147.87c0.00-2.014, 0.061-4.101, 0.16-6.224c 0.05-1.234, 0.126-2.454, 0.209-3.682  c 0.051-0.779, 0.113-1.574, 0.18-2.371c 0.104-1.304, 0.21-2.61, 0.35-3.906C 121.292,196.493, 256.001-32.00, 256.001-32.00  s 134.705,228.492, 146.97,347.948c 0.143,1.295, 0.245,2.603, 0.351,3.905c 0.065,0.797, 0.131,1.592, 0.183,2.371  c 0.084,1.229, 0.158,2.447, 0.21,3.683c 0.097,2.124, 0.157,4.211, 0.157,6.224C 403.866,413.799, 337.666,480.00, 256.00,480.00z M 320.00,320.00  c0.00-35.347-28.654-64.00-64.00-64.00c-35.346,0.00-64.00,28.653-64.00,64.00s 28.654,64.00, 64.00,64.00C 291.346,384.00, 320.00,355.347, 320.00,320.00z"/>
<glyph unicode="#" d="M 256.00,480.00C 114.615,480.00,0.00,365.385,0.00,224.00s 114.615-256.00, 256.00-256.00s 256.00,114.615, 256.00,256.00S 397.385,480.00, 256.00,480.00z M 256.00,0.00   C 132.288,0.00, 32.00,100.288, 32.00,224.00S 132.288,448.00, 256.00,448.00s 224.00-100.288, 224.00-224.00S 379.712,0.00, 256.00,0.00zM 128.00,96.00l 169.373,79.17L 384.00,352.00l-173.255-82.745L 128.00,96.00z M 256.00,256.00c 17.673,0.00, 32.00-14.327, 32.00-32.00c0.00-17.673-14.327-32.00-32.00-32.00   c-17.673,0.00-32.00,14.327-32.00,32.00C 224.00,241.673, 238.327,256.00, 256.00,256.00z"/>
<glyph unicode="$" d="M 256.00,352.00L 256.00,192.00L 384.00,192.00L 384.00,224.00L 288.00,224.00L 288.00,352.00  zM 288.00,448.00C 164.288,448.00, 64.00,347.712, 64.00,224.00L0.00,224.00 l 80.00-96.00l 80.00,96.00L 96.00,224.00 c0.00,106.039, 85.961,192.00, 192.00,192.00c 106.039,0.00, 192.00-85.961, 192.00-192.00   c0.00-106.039-85.961-192.00-192.00-192.00c-10.904,0.00-21.592,0.923-32.00,2.67l0.00-32.385 c 10.453-1.495, 21.134-2.285, 32.00-2.285   c 123.712,0.00, 224.00,100.288, 224.00,224.00S 411.712,448.00, 288.00,448.00z"/>
<glyph unicode="%" d="M 240.00,448.00C 107.452,448.00,0.00,340.548,0.00,208.00c0.00-132.549, 107.452-240.00, 240.00-240.00c 132.549,0.00, 240.00,107.451, 240.00,240.00   C 480.00,340.548, 372.549,448.00, 240.00,448.00z M 240.00,0.00c-114.875,0.00-208.00,93.125-208.00,208.00S 125.125,416.00, 240.00,416.00s 208.00-93.125, 208.00-208.00   S 354.875,0.00, 240.00,0.00zM 256.00,253.258L 256.00,384.00 l-32.00,0.00 l0.00-130.742 c-18.641-6.59-32.00-24.36-32.00-45.258c0.00-26.51, 21.49-48.00, 48.00-48.00c 20.898,0.00, 38.667,13.359, 45.258,32.00   L 384.00,192.00 l0.00,32.00 l-98.742,0.00 C 280.438,237.635, 269.636,248.437, 256.00,253.258z"/>
<glyph unicode="&amp;" d="M 512.00,64.00c-53.021,0.00-96.00,42.98-96.00,96.00L 416.00,302.545 c0.00,70.369-54.971,129.064-128.00,142.542L 288.00,480.00 l-64.00,0.00 l0.00-34.912   C 150.968,431.609, 96.00,372.915, 96.00,302.546L 96.00,160.00 c0.00-53.02-42.981-96.00-96.00-96.00l0.00-32.00 l 214.799,0.00 c-2.604-5.712-4.055-12.059-4.055-18.745  C 210.744-11.738, 231.006-32.00, 256.00-32.00c 24.992,0.00, 45.255,20.262, 45.255,45.255c0.00,6.688-1.451,13.033-4.056,18.745L 512.00,32.00 L 512.00,64.00 z"/>
<glyph unicode="'" d="M 512.00,64.00c-53.021,0.00-96.00,42.98-96.00,96.00L 416.00,302.545 c0.00,70.37-54.971,129.064-128.00,142.543L 288.00,480.00 l-64.00,0.00 l0.00-34.912   C 150.969,431.609, 96.00,372.915, 96.00,302.545L 96.00,160.00 c0.00-53.02-42.981-96.00-96.00-96.00l0.00-32.00 l 214.799,0.00 c-2.604-5.712-4.054-12.06-4.054-18.745  C 210.745-11.739, 231.006-32.00, 256.00-32.00c 24.993,0.00, 45.255,20.261, 45.255,45.255c0.00,6.687-1.452,13.033-4.055,18.745L 512.00,32.00 L 512.00,64.00 z M 352.00,160.00  l-32.00-32.00l-64.00,64.00l-64.00-64.00l-32.00,32.00l 64.00,64.00l-64.00,64.00l 32.00,32.00l 64.00-64.00l 64.00,64.00l 32.00-32.00l-64.00-64.00L 352.00,160.00z"/>
<glyph unicode="(" d="M 512.00,64.00c-53.02,0.00-96.00,42.98-96.00,96.00L 416.00,302.546 c0.00,70.369-54.97,129.064-128.00,142.542L 288.00,480.00 l-64.00,0.00 l0.00-34.912   C 150.97,431.61, 96.00,372.915, 96.00,302.546L 96.00,160.00 c0.00-53.02-42.98-96.00-96.00-96.00l0.00-32.00 l 214.80,0.00 c-2.604-5.712-4.055-12.059-4.055-18.745  C 210.745-11.738, 231.007-32.00, 256.00-32.00c 24.994,0.00, 45.255,20.262, 45.255,45.255c0.00,6.688-1.451,13.033-4.054,18.745L 512.00,32.00 L 512.00,64.00 z M 224.00,128.00  l-96.00,96.00l 32.00,32.00l 64.00-64.00l 128.00,128.00l 32.00-32.00L 224.00,128.00z"/>
<glyph unicode=")" d="M 160.00,288.00L 224.00,288.00L 224.00,224.00L 160.00,224.00zM 256.00,288.00L 320.00,288.00L 320.00,224.00L 256.00,224.00zM 352.00,288.00L 416.00,288.00L 416.00,224.00L 352.00,224.00zM 64.00,96.00L 128.00,96.00L 128.00,32.00L 64.00,32.00zM 160.00,96.00L 224.00,96.00L 224.00,32.00L 160.00,32.00zM 256.00,96.00L 320.00,96.00L 320.00,32.00L 256.00,32.00zM 160.00,192.00L 224.00,192.00L 224.00,128.00L 160.00,128.00zM 256.00,192.00L 320.00,192.00L 320.00,128.00L 256.00,128.00zM 352.00,192.00L 416.00,192.00L 416.00,128.00L 352.00,128.00zM 64.00,192.00L 128.00,192.00L 128.00,128.00L 64.00,128.00zM 416.00,480.00l0.00-32.00 l-64.00,0.00 L 352.00,480.00 L 128.00,480.00 l0.00-32.00 L 64.00,448.00 L 64.00,480.00 L0.00,480.00 l0.00-512.00 l 480.00,0.00 L 480.00,480.00 L 416.00,480.00 z M 448.00,0.00L 32.00,0.00 L 32.00,352.00 l 416.00,0.00 L 448.00,0.00 z"/>
<glyph unicode="*" d="M 320.00,440.571L 320.00,288.00 L 192.00,288.00 L 192.00,440.571 C 144.201,429.454, 96.00,403.976, 96.00,352.00l0.00-212.00 c0.00-77.318, 71.634-140.00, 160.00-140.00c 88.363,0.00, 160.00,62.682, 160.00,140.00   L 416.00,352.00 C 416.00,403.976, 367.799,429.454, 320.00,440.571zM 288.00,446.067C 276.277,447.421, 265.321,448.00, 256.00,448.00c-9.32,0.00-20.276-0.579-32.00-1.933L 224.00,320.00 l 64.00,0.00 L 288.00,446.067 z"/>
<glyph unicode="+" d="M 512.00,64.00L 512.00,448.00 L0.00,448.00 l0.00-384.00 l 224.00,0.00 l0.00-32.00 l-96.00,0.00 l0.00-32.00 l 256.00,0.00 l0.00,32.00 l-96.00,0.00 l0.00,32.00 L 512.00,64.00 z M 64.00,384.00l 384.00,0.00 l0.00-256.00 L 64.00,128.00 L 64.00,384.00 z"/>
<glyph unicode="," d="M 448.00,128.00L 448.00,384.00 c0.00,17.60-14.40,32.00-32.00,32.00L 96.00,416.00 c-17.60,0.00-32.00-14.40-32.00-32.00l0.00-256.00 L0.00,128.00 l0.00-96.00 l 512.00,0.00 l0.00,96.00 L 448.00,128.00 z M 320.00,64.00L 192.00,64.00 l0.00,32.00 l 128.00,0.00 L 320.00,64.00 z M 416.00,128.00L 96.00,128.00   L 96.00,383.943 c 0.017,0.02, 0.038,0.041, 0.057,0.057l 319.885,0.00 c 0.02-0.017, 0.041-0.038, 0.058-0.058L 416.00,128.00 z"/>
<glyph unicode="-" d="M 384.00,480.00L 96.00,480.00 C 78.40,480.00, 64.00,465.601, 64.00,448.00l0.00-448.00 c0.00-17.60, 14.399-32.00, 32.00-32.00l 288.00,0.00 c 17.60,0.00, 32.00,14.40, 32.00,32.00L 416.00,448.00 C 416.00,465.601, 401.60,480.00, 384.00,480.00z   M 240.00-8.891c-13.746,0.00-24.891,11.145-24.891,24.891s 11.145,24.891, 24.891,24.891s 24.891-11.145, 24.891-24.891  S 253.746-8.891, 240.00-8.891z M 384.00,64.00L 96.00,64.00 L 96.00,416.00 l 288.00,0.00 L 384.00,64.00 z"/>
<glyph unicode="." d="M 416.00,480.00L 96.00,480.00 C 78.40,480.00, 64.00,465.60, 64.00,448.00l0.00-448.00 c0.00-17.60, 14.40-32.00, 32.00-32.00l 320.00,0.00 c 17.60,0.00, 32.00,14.40, 32.00,32.00L 448.00,448.00 C 448.00,465.60, 433.60,480.00, 416.00,480.00z M 256.00-16.00  c-8.837,0.00-16.00,7.163-16.00,16.00s 7.163,16.00, 16.00,16.00s 16.00-7.163, 16.00-16.00S 264.837-16.00, 256.00-16.00z M 384.00,32.00L 128.00,32.00 L 128.00,416.00 l 256.00,0.00 L 384.00,32.00 z"/>
<glyph unicode="/" d="M 336.00,480.00c-8.837,0.00-16.00-7.163-16.00-16.00l0.00-48.00 L 144.00,416.00 c-8.836,0.00-16.00-7.163-16.00-16.00l0.00-416.00 c0.00-8.836, 7.164-16.00, 16.00-16.00l 192.00,0.00 c 8.837,0.00, 16.00,7.164, 16.00,16.00L 352.00,464.00   C 352.00,472.837, 344.837,480.00, 336.00,480.00z M 192.00,0.00l-32.00,0.00 l0.00,32.00 l 32.00,0.00 L 192.00,0.00 z M 192.00,64.00l-32.00,0.00 l0.00,32.00 l 32.00,0.00 L 192.00,64.00 z M 192.00,128.00l-32.00,0.00 l0.00,32.00 l 32.00,0.00 L 192.00,128.00 z M 256.00,0.00l-32.00,0.00 l0.00,32.00 l 32.00,0.00 L 256.00,0.00 z   M 256.00,64.00l-32.00,0.00 l0.00,32.00 l 32.00,0.00 L 256.00,64.00 z M 256.00,128.00l-32.00,0.00 l0.00,32.00 l 32.00,0.00 L 256.00,128.00 z M 320.00,0.00l-32.00,0.00 l0.00,32.00 l 32.00,0.00 L 320.00,0.00 z M 320.00,64.00l-32.00,0.00 l0.00,32.00 l 32.00,0.00 L 320.00,64.00 z M 320.00,128.00l-32.00,0.00 l0.00,32.00 l 32.00,0.00 L 320.00,128.00 z   M 320.00,208.00c0.00-8.836-7.163-16.00-16.00-16.00L 176.00,192.00 c-8.836,0.00-16.00,7.164-16.00,16.00L 160.00,368.00 c0.00,8.837, 7.164,16.00, 16.00,16.00l 128.00,0.00 c 8.837,0.00, 16.00-7.163, 16.00-16.00L 320.00,208.00 z"/>
<glyph unicode="0" d="M 352.00,384.00L 160.00,384.00 L0.00,192.00l0.00-80.00 l0.00-48.00 c0.00-17.673, 14.327-32.00, 32.00-32.00l 448.00,0.00 c 17.674,0.00, 32.00,14.327, 32.00,32.00l0.00,48.00 l0.00,80.00 L 352.00,384.00z M 384.00,192.00l-64.00-64.00L 192.00,128.00   l-64.00,64.00L 41.655,192.00 l 133.333,160.00l 162.024,0.00 l 133.333-160.00L 384.00,192.00 z"/>
<glyph unicode="1" d="M 352.00,384.00L 160.00,384.00 L0.00,192.00l0.00-128.00 c0.00-17.673, 14.327-32.00, 32.00-32.00l 448.00,0.00 c 17.674,0.00, 32.00,14.327, 32.00,32.00L 512.00,192.00 L 352.00,384.00z M 320.00,128.00L 192.00,128.00 l-32.00,32.00l 192.00,0.00    L 320.00,128.00z M 41.655,192.00l 133.333,160.00l 162.024,0.00 l 133.333-160.00L 41.655,192.00 zM 142.482,288.00L 369.518,288.00L 342.851,320.00L 169.148,320.00  zM 89.149,224.00L 422.852,224.00L 396.185,256.00L 115.815,256.00  z"/>
<glyph unicode="2" d="M 416.00,448.00L 96.00,448.00 L0.00,352.00l0.00-336.00 c0.00-8.837, 7.163-16.00, 16.00-16.00l 480.00,0.00 c 8.836,0.00, 16.00,7.163, 16.00,16.00L 512.00,352.00 L 416.00,448.00z M 256.00,64.00L 96.00,192.00l 96.00,0.00 l0.00,96.00 l 128.00,0.00 l0.00-96.00 l 96.00,0.00   L 256.00,64.00z M 77.255,384.00l 32.00,32.00l 293.489,0.00 l 32.00-32.00L 77.255,384.00 z"/>
<glyph unicode="3" d="M 416.00,448.00L 96.00,448.00 L0.00,352.00l0.00-336.00 c0.00-8.837, 7.163-16.00, 16.00-16.00l 480.00,0.00 c 8.836,0.00, 16.00,7.163, 16.00,16.00L 512.00,352.00 L 416.00,448.00z M 320.00,160.00l0.00-96.00 L 192.00,64.00 l0.00,96.00 L 96.00,160.00 l 160.00,128.00  l 160.00-128.00L 320.00,160.00 z M 77.255,384.00l 32.00,32.00l 293.488,0.00 l 32.00-32.00L 77.255,384.00 z"/>
<glyph unicode="4" d="M 256.00,480.00C 114.614,480.00,0.00,444.184,0.00,400.00l0.00-64.00 c0.00-44.183, 114.611-80.00, 256.00-80.00c 141.385,0.00, 256.00,35.817, 256.00,80.00L 512.00,400.00 C 512.00,444.184, 397.385,480.00, 256.00,480.00   zM 255.193,224.00C 140.566,224.00, 43.94,247.543, 11.32,280.00C 3.705,272.423,0.00,264.361,0.00,256.00l0.00-64.00 c0.00-44.184, 114.611-80.00, 256.00-80.00   c 141.385,0.00, 256.00,35.816, 256.00,80.00l0.00,64.00 c0.00,8.361-4.516,16.423-12.131,24.00C 467.25,247.543, 369.82,224.00, 255.193,224.00zM 255.193,80.00C 140.566,80.00, 43.94,103.544, 11.32,136.00C 3.705,128.424,0.00,120.361,0.00,112.00l0.00-64.00 c0.00-44.183, 114.611-80.00, 256.00-80.00   c 141.385,0.00, 256.00,35.817, 256.00,80.00l0.00,64.00 c0.00,8.361-4.516,16.424-12.131,24.00C 467.25,103.544, 369.82,80.00, 255.193,80.00z"/>
<glyph unicode="5" d="M 380.931-32.00C 437.794,71.016, 447.375,228.153, 224.00,222.912L 224.00,96.00 L 32.00,288.00L 224.00,480.00l0.00-124.186   C 491.481,362.785, 521.285,119.707, 380.931-32.00z"/>
<glyph unicode="6" d="M 288.00,355.814L 288.00,480.00 l 192.00-192.00L 288.00,96.00L 288.00,222.912 C 64.625,228.153, 74.206,71.016, 131.07-32.00  C-9.286,119.707, 20.52,362.785, 288.00,355.814z"/>
<glyph unicode="7" d="M 131.07,480.00C 74.206,376.984, 64.625,219.848, 288.00,225.088L 288.00,352.00 l 192.00-192.00L 288.00-32.00L 288.00,92.186 C 20.52,85.215-9.286,328.293, 131.07,480.00z"/>
<glyph unicode="8" d="M 224.00,92.186L 224.00-32.00 L 32.00,160.00l 192.00,192.00l0.00-126.912 C 447.375,219.848, 437.794,376.984, 380.931,480.00  C 521.286,328.293, 491.481,85.215, 224.00,92.186z"/>
<glyph unicode="9" d="M 429.406,480.00C 486.27,376.984, 511.375,219.848, 288.00,225.088L 288.00,352.00 L 96.00,160.00l 192.00-192.00L 288.00,92.186 C 512.00,92.186, 569.762,328.293, 429.406,480.00   zM 192.00,306.745L 192.00,352.00L0.00,160.00L 192.00-32.00L 192.00,13.255L 45.255,160.00  z"/>
<glyph unicode=":" d="M 255.993,471.963C 114.606,471.963, 0.001,385.424, 0.001,278.684c0.00-83.391, 69.951-154.469, 167.963-181.565  c 1.438-8.104, 3.25-19.646, 3.25-26.787c0.00-33.625-12.867-65.518-35.788-94.295c 35.444,14.928, 85.475,62.898, 116.473,109.432  c 1.367-0.016, 2.729-0.084, 4.095-0.084c 141.40,0.00, 256.007,86.539, 256.007,193.299C 512.002,385.424, 397.395,471.963, 255.993,471.963z"/>
<glyph unicode=";" d="M 512.00,176.00c0.00,31.984-26.282,59.581-64.259,72.383c-3.818-58.182-51.143-108.229-119.261-133.935   c 12.653-7.509, 27.651-13.072, 44.103-16.029c 11.884-27.769, 30.681-54.436, 53.733-71.93c-12.468,24.473-13.195,48.944-8.824,70.484   C 471.038,102.973, 512.00,136.068, 512.00,176.00zM 416.00,256.00c0.00,70.692-85.961,128.00-192.00,128.00C 117.962,384.00, 32.00,326.692, 32.00,256.00c0.00-52.637, 47.664-97.845, 115.781-117.509   c 10.66-26.364, 16.668-61.164-1.062-95.967c 26.945,20.448, 48.081,53.424, 59.146,86.048C 211.837,128.199, 217.883,128.00, 224.00,128.00   C 330.039,128.00, 416.00,185.308, 416.00,256.00z"/>
<glyph unicode="&lt;" d="M 464.00,480.00L 48.00,480.00 C 21.60,480.00,0.00,458.40,0.00,432.00l0.00-320.00 c0.00-26.40, 21.60-48.00, 48.00-48.00l 112.00,0.00 l 96.00-96.00l 96.00,96.00l 112.00,0.00 c 26.40,0.00, 48.00,21.60, 48.00,48.00L 512.00,432.00   C 512.00,458.40, 490.401,480.00, 464.00,480.00z"/>
<glyph unicode="=" d="M 464.00,352.00L 176.00,352.00 c-26.40,0.00-48.00-21.60-48.00-48.00l0.00-224.00 c0.00-26.40, 21.60-48.00, 48.00-48.00l 80.00,0.00 l 64.00-64.00l 64.00,64.00l 80.00,0.00 c 26.40,0.00, 48.00,21.60, 48.00,48.00L 512.00,304.00    C 512.00,330.40, 490.401,352.00, 464.00,352.00zM 384.00,432.00c0.00,26.40-21.60,48.00-48.00,48.00L 48.00,480.00 C 21.60,480.00,0.00,458.40,0.00,432.00l0.00-224.00 c0.00-26.40, 21.60-48.00, 48.00-48.00l 16.00,0.00 L 64.00,368.00 c0.00,26.51, 21.49,48.00, 48.00,48.00l 272.00,0.00 L 384.00,432.00 z"/>
<glyph unicode="&gt;" d="M 480.00,416.00L 32.00,416.00 C 14.40,416.00,0.00,401.60,0.00,384.00l0.00-224.00 c0.00-17.60, 14.40-32.00, 32.00-32.00l 64.00,0.00 l0.00-96.00 l 72.00,96.00l 312.00,0.00 c 17.60,0.00, 32.00,14.40, 32.00,32.00L 512.00,384.00   C 512.00,401.60, 497.60,416.00, 480.00,416.00z"/>
<glyph unicode="?" d="M 480.00,416.00L 32.00,416.00 C 14.40,416.00,0.00,401.60,0.00,384.00l0.00-224.00 c0.00-17.60, 14.40-32.00, 32.00-32.00l 64.00,0.00 l0.00-96.00 l 72.00,96.00l 312.00,0.00 c 17.60,0.00, 32.00,14.40, 32.00,32.00L 512.00,384.00   C 512.00,401.60, 497.60,416.00, 480.00,416.00z M 160.00,224.00L 96.00,224.00 l0.00,64.00 l 64.00,0.00 L 160.00,224.00 z M 288.00,224.00l-64.00,0.00 l0.00,64.00 l 64.00,0.00 L 288.00,224.00 z M 416.00,224.00l-64.00,0.00 l0.00,64.00 l 64.00,0.00 L 416.00,224.00 z"/>
<glyph unicode="@" d="M 128.00,320.00A128.00,128.00 6300.00 1,0 384.00,320A128.00,128.00 6300.00 1,0 128.00,320zM 384.00,160.00L 128.00,160.00 C 57.308,160.00,0.00,102.691,0.00,32.00l0.00-32.00 l 4.033,0.00 l 503.934,0.00 L 512.00,0.00 l0.00,32.00 C 512.00,102.691, 454.692,160.00, 384.00,160.00z"/>
<glyph unicode="B" d="M 311.413,128.632c-11.055,1.759-11.307,32.157-11.307,32.157s 32.484,32.158, 39.564,75.401  c 19.045,0.00, 30.809,45.973, 11.761,62.148C 352.226,315.365, 375.911,432.00, 256.00,432.00c-119.911,0.00-96.225-116.635-95.432-133.662  c-19.047-16.175-7.285-62.148, 11.761-62.148c 7.079-43.243, 39.564-75.401, 39.564-75.401s-0.252-30.398-11.307-32.157  C 164.976,122.966, 32.00,64.315, 32.00,0.00l 224.00,0.00 l 224.00,0.00 C 480.00,64.315, 347.024,122.966, 311.413,128.632z"/>
<glyph unicode="C" d="M 160.00,384.00A96.00,96.00 4500.00 1,0 352.00,384A96.00,96.00 4500.00 1,0 160.00,384zM 384.039,256.00l-0.078,0.00 l-17.634,0.00 l-99.552-202.122L 304.00,240.00l-48.00,48.00l-48.00-48.00l 37.225-186.122L 145.674,256.00l-17.635,0.00 l-0.077,0.00    C 64.00,256.00, 64.00,213.007, 64.00,160.00l0.00-160.00 l 384.00,0.00 L 448.00,160.00 C 448.00,213.007, 448.00,256.00, 384.039,256.00z"/>
<glyph unicode="D" d="M 364.496,224.00C 433.373,267.667, 480.00,351.604, 480.00,448.00c0.00,10.838-0.596,21.517-1.739,32.00L 33.74,480.00 C 32.595,469.516, 32.00,458.837, 32.00,448.00   c0.00-96.396, 46.627-180.333, 115.503-224.00C 78.627,180.333, 32.00,96.396, 32.00,0.00c0.00-10.838, 0.595-21.517, 1.739-32.00l 444.521,0.00    c 1.144,10.483, 1.739,21.162, 1.739,32.00C 480.00,96.396, 433.373,180.333, 364.496,224.00z M 80.00,0.00c0.00,93.456, 40.081,172.707, 112.00,198.854   l0.00,50.293 l0.00,0.00 C 120.081,275.292, 80.00,354.543, 80.00,448.00l0.00,0.00 l 352.00,0.00 l0.00,0.00 c0.00-93.457-40.081-172.708-112.00-198.853l0.00-50.293    C 391.919,172.707, 432.00,93.456, 432.00,0.00L 80.00,0.00 zM 309.813,145.203c-35.827,20.322-37.804,46.684-37.813,62.683L 272.00,240.00 c0.00,15.997, 1.902,42.457, 37.872,62.832   c 19.252,11.182, 35.904,28.174, 48.524,49.168L 153.605,352.00 c 12.633-21.016, 29.306-38.021, 48.583-49.203   c 35.827-20.322, 37.803-46.683, 37.813-62.683L 240.001,208.00 c0.00-15.996-1.902-42.457-37.872-62.832c-36.311-21.09-63.369-62.842-71.545-113.168   l 250.835,0.00 C 373.237,82.354, 346.154,124.124, 309.813,145.203z"/>
<glyph unicode="E" d="M 192.00,416.00A64.00,64.00 6300.00 1,0 320.00,416A64.00,64.00 6300.00 1,0 192.00,416zM 327.765,359.765A64.00,64.00 6300.00 1,0 455.765,359.765A64.00,64.00 6300.00 1,0 327.765,359.765zM 416.00,224.00A32.00,32.00 6300.00 1,0 480.00,224A32.00,32.00 6300.00 1,0 416.00,224zM 359.765,88.235A32.00,32.00 6300.00 1,0 423.765,88.23500000000001A32.00,32.00 6300.00 1,0 359.765,88.23500000000001zM 224.001,32.00A32.00,32.00 6300.00 1,0 288.001,32A32.00,32.00 6300.00 1,0 224.001,32zM 88.236,88.235A32.00,32.00 6300.00 1,0 152.236,88.23500000000001A32.00,32.00 6300.00 1,0 88.236,88.23500000000001zM 72.236,359.765A48.00,48.00 6300.00 1,0 168.236,359.765A48.00,48.00 6300.00 1,0 72.236,359.765zM 28.00,224.00A36.00,36.00 6300.00 1,0 100.00,224A36.00,36.00 6300.00 1,0 28.00,224z"/>
<glyph unicode="F" d="M 512.00,224.00c-0.639,33.431-7.892,66.758-21.288,97.231c-13.352,30.50-32.731,58.129-56.521,80.96  c-23.776,22.848-51.972,40.91-82.492,52.826C 321.197,466.979, 288.401,472.693, 256.00,472.00c-32.405-0.641-64.666-7.687-94.167-20.678  c-29.524-12.948-56.271-31.735-78.367-54.788c-22.112-23.041-39.58-50.354-51.093-79.899C 20.816,287.104, 15.309,255.375, 16.00,224.00  c 0.643-31.38, 7.482-62.574, 20.067-91.103c 12.544-28.55, 30.738-54.414, 53.055-75.774c 22.305-21.377, 48.736-38.252, 77.307-49.36  C 194.988-3.389, 225.652-8.688, 256.00-8.00c 30.354,0.645, 60.481,7.277, 88.038,19.457c 27.575,12.141, 52.558,29.74, 73.183,51.322  c 20.641,21.57, 36.922,47.118, 47.627,74.715c 6.517,16.729, 10.94,34.20, 13.271,51.899c 0.623-0.036, 1.249-0.06, 1.881-0.06  c 17.673,0.00, 32.00,14.326, 32.00,32.00c0.00,0.898-0.047,1.786-0.119,2.666L 512.00,223.999 z M 461.153,139.026c-11.736-26.601-28.742-50.70-49.589-70.59  c-20.835-19.905-45.50-35.593-72.122-45.895C 312.828,12.202, 284.297,7.315, 256.00,8.00c-28.302,0.649-56.298,6.868-81.91,18.237  c-25.625,11.333-48.842,27.745-67.997,47.856c-19.169,20.099-34.264,43.882-44.161,69.529C 51.997,169.264, 47.318,196.729, 48.00,224.00  c 0.651,27.276, 6.664,54.206, 17.627,78.845c 10.929,24.65, 26.749,46.985, 46.123,65.405c 19.365,18.434, 42.265,32.935, 66.937,42.428  C 203.356,420.208, 229.755,424.681, 256.00,424.00c 26.25-0.653, 52.114-6.459, 75.781-17.017c 23.676-10.525, 45.128-25.751, 62.812-44.391  c 17.698-18.629, 31.605-40.647, 40.695-64.344C 444.412,274.552, 448.679,249.219, 448.00,224.00l 0.119,0.00 c-0.072-0.88-0.119-1.768-0.119-2.666  c0.00-16.506, 12.496-30.087, 28.543-31.812C 473.431,172.111, 468.278,155.113, 461.153,139.026z"/>
<glyph unicode="G" d="M 440.698,8.064L 313.486,194.95c-3.336,4.914-10.234,6.433-15.325,3.379l-16.069-9.668   c-5.087-3.05-6.992-9.845-4.229-15.111l 105.281-200.064c 2.763-5.252, 9.177-7.056, 14.271-3.99l 40.101,24.093   C 442.608-3.356, 444.033,3.149, 440.698,8.064zM 296.322,213.939c 48.104,30.646, 50.188,110.532, 4.747,181.875c-38.64,60.653-97.389,92.75-143.688,82.201   c-10.647-2.086-24.247-7.761-37.93-16.475c-13.683-8.721-24.604-18.643-30.979-27.432C 59.346,396.604, 63.617,329.806, 102.25,269.17   c 45.45-71.346, 118.727-103.23, 166.844-72.58l 27.22,17.346L 296.322,213.939z M 278.977,241.169   c-31.746-20.215-87.728,8.487-122.253,62.704c-34.536,54.196-36.891,117.063-5.14,137.293c 31.722,20.217, 87.719-8.50, 122.243-62.708   C 308.357,324.269, 310.704,261.392, 278.977,241.169z"/>
<glyph unicode="H" d="M 449.077,10.754l-114.54,168.305c 65.459,51.835, 83.963,145.677, 39.835,219.126   C 326.445,477.959, 222.559,503.857, 142.793,455.94C 63.028,408.007, 37.131,304.124, 85.054,224.357   c 43.213-71.942, 131.962-100.047, 207.479-69.717l 95.143-180.783c 2.95-5.611, 9.802-7.523, 15.229-4.273l 42.784,25.72   C 451.126-1.433, 452.653,5.518, 449.077,10.754z M 288.781,212.968c-54.211-32.563-124.808-14.959-157.375,39.253   c-32.565,54.197-14.952,124.794, 39.253,157.36c 54.189,32.57, 124.787,14.961, 157.351-39.245   C 360.579,316.138, 342.978,245.525, 288.781,212.968z"/>
<glyph unicode="I" d="M 192.00,384.00L 160.00,384.00L 160.00,320.00L 96.00,320.00L 96.00,288.00L 160.00,288.00L 160.00,224.00L 192.00,224.00L 192.00,288.00L 256.00,288.00L 256.00,320.00L 192.00,320.00  zM 318.771,201.076C 339.674,230.021, 352.00,265.568, 352.00,304.00C 352.00,401.202, 273.202,480.00, 176.00,480.00S0.00,401.202,0.00,304.00s 78.798-176.00, 176.00-176.00   c 38.432,0.00, 73.979,12.326, 102.924,33.229L 448.00-32.00l 64.00,64.00L 318.771,201.076z M 176.00,176.00c-70.692,0.00-128.00,57.308-128.00,128.00S 105.308,432.00, 176.00,432.00   s 128.00-57.308, 128.00-128.00S 246.693,176.00, 176.00,176.00z"/>
<glyph unicode="J" d="M 96.00,320.00L 256.00,320.00L 256.00,288.00L 96.00,288.00zM 318.771,201.076C 339.674,230.021, 352.00,265.568, 352.00,304.00C 352.00,401.202, 273.202,480.00, 176.00,480.00S0.00,401.202,0.00,304.00s 78.798-176.00, 176.00-176.00   c 38.432,0.00, 73.979,12.326, 102.924,33.229L 448.00-32.00l 64.00,64.00L 318.771,201.076z M 176.00,176.00c-70.692,0.00-128.00,57.308-128.00,128.00S 105.308,432.00, 176.00,432.00   s 128.00-57.308, 128.00-128.00S 246.693,176.00, 176.00,176.00z"/>
<glyph unicode="K" d="M 352.00,480.00c-88.365,0.00-160.00-71.634-160.00-160.00c0.00-10.013, 0.929-19.808, 2.688-29.312L0.00,96.00l0.00-96.00 c0.00-17.673, 14.327-32.00, 32.00-32.00  l 32.00,0.00 l0.00,32.00 l 64.00,0.00 l0.00,64.00 l 64.00,0.00 l0.00,64.00 l 64.00,0.00 l 41.521,41.521C 314.526,163.363, 332.869,160.00, 352.00,160.00c 88.365,0.00, 160.00,71.634, 160.00,160.00S 440.365,480.00, 352.00,480.00z   M 399.937,319.937c-26.51,0.00-48.00,21.49-48.00,48.00s 21.49,48.00, 48.00,48.00s 48.00-21.49, 48.00-48.00S 426.447,319.937, 399.937,319.937z"/>
<glyph unicode="L" d="M 501.066,322.879l-50.553,50.552c-12.396,12.397-32.685,32.684-45.081,45.082l-50.553,50.552  c-12.396,12.397-34.477,14.583-49.065,4.858L 167.595,381.777c-14.588-9.726-20.109-30.514-12.268-46.195l 35.243-70.487  c 1.077-2.153, 2.323-4.448, 3.695-6.83L 16.00,80.00L0.00-32.00l 96.00,0.00 l0.00,32.00 l 64.00,0.00 l0.00,64.00 l 64.00,0.00 l0.00,64.00l 64.00,0.00 l0.00,35.593 c 3.198-1.906, 6.267-3.608, 9.096-5.022  l 70.485-35.244c 15.683-7.841, 36.47-2.319, 46.195,12.269l 92.147,138.22C 515.65,288.402, 513.462,310.481, 501.066,322.879z   M 75.314,52.687l-22.627,22.627l 155.786,155.785l 22.627-22.627L 75.314,52.687z M 458.51,268.118l-22.628-22.628  c-6.223-6.222-16.404-6.222-22.627,0.00L 277.49,381.255c-6.223,6.222-6.223,16.405,0.00,22.627l 22.628,22.628  c 6.223,6.222, 16.404,6.222, 22.627,0.00L 458.51,290.745C 464.733,284.523, 464.733,274.34, 458.51,268.118z"/>
<glyph unicode="M" d="M 304.00,256.00l-16.00,0.00 l0.00,64.00 c0.00,70.692-57.308,128.00-128.00,128.00S 32.00,390.692, 32.00,320.00l0.00-64.00 L 16.00,256.00 c-8.80,0.00-16.00-7.20-16.00-16.00l0.00-224.00 c0.00-8.80, 7.20-16.00, 16.00-16.00l 288.00,0.00   c 8.80,0.00, 16.00,7.20, 16.00,16.00L 320.00,240.00 C 320.00,248.80, 312.80,256.00, 304.00,256.00z M 186.465,135.959L 192.00,64.00l-64.00,0.00 l 5.535,71.959  C 120.561,144.551, 112.00,159.272, 112.00,176.00c0.00,26.51, 21.49,48.00, 48.00,48.00s 48.00-21.49, 48.00-48.00C 208.00,159.272, 199.439,144.551, 186.465,135.959z M 64.00,256.00  l0.00,64.00 c0.00,53.02, 42.98,96.00, 96.00,96.00s 96.00-42.98, 96.00-96.00l0.00-64.00 L 64.00,256.00 z"/>
<glyph unicode="N" d="M 384.00,448.00c-70.692,0.00-128.00-57.308-128.00-128.00l0.00-64.00 L 16.00,256.00 c-8.80,0.00-16.00-7.20-16.00-16.00l0.00-224.00 c0.00-8.80, 7.20-16.00, 16.00-16.00l 288.00,0.00 c 8.80,0.00, 16.00,7.20, 16.00,16.00L 320.00,240.00   c0.00,8.80-7.20,16.00-16.00,16.00l-16.00,0.00 l0.00,64.00 c0.00,53.02, 42.98,96.00, 96.00,96.00s 96.00-42.98, 96.00-96.00l0.00-64.00 l 32.00,0.00 l0.00,64.00 C 512.00,390.692, 454.693,448.00, 384.00,448.00z M 186.465,135.959  L 192.00,64.00l-64.00,0.00 l 5.535,71.959C 120.561,144.551, 112.00,159.272, 112.00,176.00c0.00,26.51, 21.49,48.00, 48.00,48.00s 48.00-21.49, 48.00-48.00  C 208.00,159.272, 199.439,144.551, 186.465,135.959z"/>
<glyph unicode="O" d="M 507.882,411.883L 448.00,352.00l-64.00,64.00l 59.882,59.883C 435.057,478.557, 425.698,480.00, 416.00,480.00c-53.021,0.00-96.00-42.98-96.00-96.00  c0.00-9.697, 1.442-19.057, 4.116-27.882L 123.882,155.883C 115.057,158.557, 105.698,160.00, 96.00,160.00c-53.021,0.00-96.00-42.98-96.00-96.00  c0.00-9.697, 1.442-19.058, 4.117-27.882L 64.00,96.00l 64.00-64.00l-59.883-59.882C 76.943-30.556, 86.302-32.00, 96.00-32.00c 53.02,0.00, 96.00,42.981, 96.00,96.00  c0.00,9.698-1.444,19.059-4.118,27.883l 200.234,200.235C 396.943,289.444, 406.302,288.00, 416.00,288.00c 53.02,0.00, 96.00,42.981, 96.00,96.00  C 512.00,393.698, 510.556,403.058, 507.882,411.883z"/>
<glyph unicode="P" d="M 144.00,320.00L 80.00,320.00 c-8.80,0.00-16.00-7.20-16.00-16.00l0.00-32.00 c0.00-8.80, 7.20-16.00, 16.00-16.00l 64.00,0.00 c 8.80,0.00, 16.00,7.20, 16.00,16.00l0.00,32.00 C 160.00,312.80, 152.80,320.00, 144.00,320.00zM 96.00,416.00L 128.00,416.00L 128.00,336.00L 96.00,336.00zM 96.00,240.00L 128.00,240.00L 128.00,32.00L 96.00,32.00zM 272.00,192.00l-64.00,0.00 c-8.80,0.00-16.00-7.20-16.00-16.00l0.00-32.00 c0.00-8.80, 7.20-16.00, 16.00-16.00l 64.00,0.00 c 8.801,0.00, 16.00,7.20, 16.00,16.00l0.00,32.00 C 288.00,184.80, 280.801,192.00, 272.00,192.00zM 224.001,416.00L 256.001,416.00L 256.001,208.00L 224.001,208.00zM 224.001,112.00L 256.001,112.00L 256.001,32.00L 224.001,32.00zM 400.00,288.00l-64.00,0.00 c-8.799,0.00-16.00-7.20-16.00-16.00l0.00-32.00 c0.00-8.80, 7.201-16.00, 16.00-16.00l 64.00,0.00 c 8.801,0.00, 16.00,7.20, 16.00,16.00l0.00,32.00 C 416.00,280.80, 408.801,288.00, 400.00,288.00zM 352.00,416.00L 384.00,416.00L 384.00,304.00L 352.00,304.00zM 352.00,208.00L 384.00,208.00L 384.00,32.00L 352.00,32.00zM 440.00,480.00L 40.00,480.00 C 17.944,480.00,0.00,462.056,0.00,440.00l0.00-432.00 c0.00-22.056, 17.944-40.00, 40.00-40.00l 400.00,0.00 c 22.056,0.00, 40.00,17.944, 40.00,40.00L 480.00,440.00    C 480.00,462.056, 462.056,480.00, 440.00,480.00z M 448.00,8.00c0.00-4.40-3.60-8.00-8.00-8.00L 40.00,0.00 c-4.40,0.00-8.00,3.60-8.00,8.00L 32.00,440.00 c0.00,4.40, 3.60,8.00, 8.00,8.00l 400.00,0.00 c 4.40,0.00, 8.00-3.60, 8.00-8.00L 448.00,8.00 z"/>
<glyph unicode="Q" d="M 466.895,174.875c-26.863,46.527-10.708,106.152, 36.076,133.244l-50.313,87.146c-14.375-8.427-31.088-13.259-48.923-13.259  c-53.768,0.00-97.354,43.873-97.354,97.995L 205.752,480.001 c 0.133-16.705-4.037-33.641-12.979-49.126  c-26.862-46.528-86.578-62.351-133.431-35.379L 9.03,308.35c 14.485-8.236, 27.025-20.294, 35.943-35.739  c 26.819-46.454, 10.756-105.96-35.854-133.112l 50.313-87.146c 14.325,8.348, 30.958,13.127, 48.70,13.127  c 53.598,0.00, 97.072-43.596, 97.35-97.479l 100.627,0.00 c-0.043,16.537, 4.136,33.285, 12.983,48.609  c 26.818,46.453, 86.388,62.297, 133.207,35.506l 50.313,87.145C 488.222,147.494, 475.766,159.51, 466.895,174.875z M 256.00,120.334  c-57.254,0.00-103.668,46.412-103.668,103.667c0.00,57.254, 46.413,103.667, 103.668,103.667c 57.254,0.00, 103.666-46.413, 103.666-103.667  C 359.665,166.746, 313.254,120.334, 256.00,120.334z"/>
<glyph unicode="R" d="M 224.00,192.00L 224.00,416.00 C 100.288,416.00,0.00,315.712,0.00,192.00s 100.288-224.00, 224.00-224.00s 224.00,100.288, 224.00,224.00c0.00,36.017-8.514,70.042-23.618,100.191   L 224.00,192.00zM 456.382,356.191C 419.606,429.599, 343.695,480.00, 256.00,480.00l0.00-224.00 L 456.382,356.191z"/>
<glyph unicode="S" d="M0.00,64.00L 512.00,64.00L 512.00,0.00L0.00,0.00zM 64.00,192.00L 128.00,192.00L 128.00,96.00L 64.00,96.00zM 160.00,320.00L 224.00,320.00L 224.00,96.00L 160.00,96.00zM 256.00,224.00L 320.00,224.00L 320.00,96.00L 256.00,96.00zM 352.00,416.00L 416.00,416.00L 416.00,96.00L 352.00,96.00z"/>
<glyph unicode="T" d="M 32.00,128.00L 96.00,128.00L 96.00-32.00L 32.00-32.00zM 160.00,192.00L 224.00,192.00L 224.00-32.00L 160.00-32.00zM 288.00,224.00L 352.00,224.00L 352.00-32.00L 288.00-32.00zM 416.00,320.00L 480.00,320.00L 480.00-32.00L 416.00-32.00zM 384.00,480.00L 416.00,448.00L 288.00,320.00L 224.00,384.00L 32.00,192.00L 64.00,160.00L 224.00,320.00L 288.00,256.00L 448.00,416.00L 480.00,384.00L 480.00,480.00  z"/>
<glyph unicode="U" d="M 320.00,320.00l 96.00,64.00L 320.00,480.00l-60.00-140.00L 224.00,448.00l-96.00-64.00l 80.00-64.00L 32.00,320.00 l0.00-128.00 l 32.00,0.00 l0.00-224.00 l 384.00,0.00 L 448.00,192.00 l 32.00,0.00 L 480.00,320.00 L 320.00,320.00 z M 328.096,437.963l 50.233-50.233  l-100.467-66.978L 328.096,437.963z M 211.168,410.601l 28.364-85.092l-70.91,56.728L 211.168,410.601z M 224.00,0.00L 96.00,0.00 L 96.00,208.00 l 128.00,0.00 L 224.00,0.00 z M 224.00,224.00  L 64.00,224.00 l0.00,64.00 l 160.00,0.00 L 224.00,224.00 z M 416.00,0.00L 288.00,0.00 L 288.00,208.00 l 128.00,0.00 L 416.00,0.00 z M 448.00,224.00L 288.00,224.00 l0.00,64.00 l 160.00,0.00 L 448.00,224.00 z"/>
<glyph unicode="V" d="M 512.00,448.00c-32.00,0.00-160.00,0.00-160.00,0.00l0.00-64.00 L 160.00,384.00 L 160.00,448.00 c0.00,0.00-128.00,0.00-160.00,0.00c0.00-160.00, 128.00-347.188, 224.00-376.00l0.00-40.00 c-32.00,0.00-64.00-16.00-64.00-32.00l 192.00,0.00 c0.00,16.00-32.00,32.00-64.00,32.00  l0.00,40.00 C 384.00,100.812, 512.00,288.00, 512.00,448.00z M 383.85,366.773L 384.00,384.00L 384.00,416.00 l 94.227,0.00 c-2.787-25.839-8.855-53.128-18.14-81.495  c-12.272-37.499-30.058-75.91-51.433-111.082c-20.559-33.826-43.896-63.859-67.488-86.852c-2.266-2.208-4.521-4.336-6.765-6.391  C 376.819,215.238, 382.961,321.678, 383.85,366.773z M 170.834,136.572c-23.593,22.992-46.93,53.025-67.488,86.852  c-21.375,35.172-39.161,73.583-51.433,111.082C 42.629,362.872, 36.56,390.161, 33.773,416.00L 128.00,416.00 l0.00-32.00 l 0.15-17.227  c 0.889-45.096, 7.031-151.535, 49.448-236.592C 175.355,132.236, 173.099,134.364, 170.834,136.572z"/>
<glyph unicode="W" d="M 64.00,416.00L0.00,352.00L 128.00,352.00  zM 256.00,352.00L 192.00,416.00L 128.00,352.00  zM 256.001,352.00L 384.00,352.00L 320.00,416.00  zM 512.00,352.00L 448.00,416.00L 384.00,352.00  zM 320.00,416.00L 448.00,416.00L 416.00,448.00L 96.00,448.00L 64.00,416.00L 192.00,416.00  zM 256.00,0.00L 112.00,288.00L 198.40,288.00L 256.00,0.00L 313.60,288.00L 400.00,288.00L 256.00,0.00L 512.00,320.00L0.00,320.00  z"/>
<glyph unicode="X" d="M 423.555,258.812c 0.033,2.533, 0.049,5.076, 0.049,7.626c0.00,30.532-93.227,55.284-208.225,55.284   c-114.997,0.00-208.223-24.752-208.223-55.284C 7.156,101.615, 73.546-32.00, 215.379-32.00c 83.413,0.00, 140.723,46.225, 173.788,117.818   c 3.338-0.27, 6.699-0.457, 10.119-0.457c 58.297,0.00, 105.559,39.356, 105.559,87.904C 504.844,214.857, 470.153,249.679, 423.555,258.812z    M 349.141,244.028c-36.689-8.652-84.195-13.417-133.762-13.417c-49.565,0.00-97.07,4.765-133.76,13.417   c-35.822,8.448-50.376,18.136-54.252,22.411c 3.876,4.275, 18.431,13.961, 54.252,22.409c 36.688,8.653, 84.193,13.419, 133.76,13.419   c 49.565,0.00, 97.071-4.767, 133.762-13.419c 35.822-8.448, 50.377-18.134, 54.254-22.409C 399.518,262.164, 384.963,252.477, 349.141,244.028   z M 398.268,107.787c 12.537,33.865, 20.355,72.30, 23.60,113.514c 30.50-6.246, 48.42-28.615, 48.42-51.395   C 470.285,140.523, 448.723,111.186, 398.268,107.787zM 255.689,353.922C 283.881,396.539, 206.377,442.352, 259.908,480.00c-44.528-2.943-52.161-30.188-40.935-51.461   C 229.63,408.348, 255.649,394.268, 255.689,353.922zM 233.163,325.499c 12.646,35.708-59.269,64.515-19.554,105.806c-37.209-10.992-36.253-41.592-20.227-58.701   C 204.951,360.25, 225.905,354.518, 233.163,325.499z"/>
<glyph unicode="y" d="M 352.00,448.00L 192.00,288.00L 96.00,288.00 L0.00,160.00c0.00,0.00, 101.708,28.326, 161.033,15.042L0.00-32.00l 210.951,164.072C 240.37,64.745, 192.00-32.00, 192.00-32.00l 128.00,96.00  l0.00,96.00 l 160.00,160.00L 512.00,480.00L 352.00,448.00z"/>
<glyph unicode="!" d="M 256.00,352.00C 114.615,352.00,0.00,237.386,0.00,96.00l 32.00,0.00 c0.00,58.209, 25.903,110.363, 66.811,145.574l 108.423-135.527  c-0.665-3.245-1.014-6.604-1.014-10.047c0.00-27.492, 22.287-49.779, 49.779-49.779c 27.493,0.00, 49.779,22.287, 49.779,49.779  s-22.286,49.781-49.779,49.781c-3.441,0.00-6.802-0.351-10.046-1.016L 111.979,251.947c 31.528,22.688, 70.213,36.054, 112.021,36.054  c 106.038,0.00, 192.00-85.96, 192.00-191.999l 96.00,0.00 C 512.00,237.386, 397.385,352.00, 256.00,352.00z"/>
<glyph unicode="z" d="M 256.00,352.00C 114.615,352.00,0.00,237.386,0.00,96.00l 32.00,0.00 c0.00,106.039, 85.961,192.00, 192.00,192.00c 7.167,0.00, 14.241-0.396, 21.205-1.16l-16.586-149.264  c-13.494-8.904-22.399-24.199-22.399-41.576c0.00-27.492, 22.288-49.779, 49.78-49.779S 305.78,68.508, 305.78,96.00  c0.00,17.377-8.904,32.672-22.398,41.576l-16.172,145.542C 352.44,263.517, 416.00,187.182, 416.00,96.00l 96.00,0.00 C 512.00,237.386, 397.385,352.00, 256.00,352.00z"/>
<glyph unicode="{" d="M 416.00,96.00l 96.00,0.00 c0.00,141.386-114.615,256.00-256.00,256.00S0.00,237.386,0.00,96.00l 32.00,0.00 c0.00,106.039, 85.961,192.00, 192.00,192.00  c 56.409,0.00, 107.136-24.326, 142.263-63.061l-100.217-80.174c-3.245,0.665-6.604,1.016-10.046,1.016  c-27.493,0.00-49.78-22.289-49.78-49.781s 22.287-49.779, 49.78-49.779c 27.492,0.00, 49.778,22.287, 49.778,49.779  c0.00,3.44-0.349,6.802-1.014,10.047l 78.166,97.707C 403.803,173.031, 416.00,135.941, 416.00,96.00z"/>
<glyph unicode="|" d="M 256.00,480.00C 114.615,480.00,0.00,365.385,0.00,224.00s 114.615-256.00, 256.00-256.00s 256.00,114.615, 256.00,256.00S 397.385,480.00, 256.00,480.00z M 256.00,32.00   c-106.039,0.00-192.00,85.961-192.00,192.00c0.00,106.039, 85.961,192.00, 192.00,192.00c 106.039,0.00, 192.00-85.961, 192.00-192.00C 448.00,117.961, 362.039,32.00, 256.00,32.00zM 224.00,352.00A32.00,32.00 4500.00 1,0 288.00,352A32.00,32.00 4500.00 1,0 224.00,352zM 320.00,320.00A32.00,32.00 4500.00 1,0 384.00,320A32.00,32.00 4500.00 1,0 320.00,320zM 128.00,320.00A32.00,32.00 4500.00 1,0 192.00,320A32.00,32.00 4500.00 1,0 128.00,320zM 224.00,128.00L 224.00,96.00L 288.00,96.00L 288.00,128.00L 256.00,288.00  z"/>
<glyph unicode="}" d="M 160.504-32.00C 51.878,29.221, 23.279,87.168, 39.63,166.311c 12.071,58.44, 56.647,105.986, 60.437,164.314  c 16.884-30.726, 18.888-52.882, 20.775-84.99C 174.542,311.428, 230.231,399.478, 218.19,480.00c0.00,0.00, 133.808-64.00, 142.986-188.138  c 12.041,25.587, 12.041,66.225,0.00,92.563c 36.122-26.339, 253.609-260.16-22.577-416.425c 51.926,101.105, 13.396,237.527-76.761,300.533  c 6.021-27.092-1.505-97.832-41.391-142.232c 9.031,45.904-13.546,75.254-13.546,75.254s-7.402-41.555-36.122-83.533  C 144.553,79.689, 126.381,39.004, 160.504-32.00z"/>
<glyph unicode="" d="M 478.145,77.759L 320.00,341.271L 320.00,448.00 l 16.00,0.00 c 8.80,0.00, 16.00,7.20, 16.00,16.00s-7.20,16.00-16.00,16.00L 176.00,480.00 c-8.80,0.00-16.00-7.20-16.00-16.00s 7.20-16.00, 16.00-16.00l 16.00,0.00 l0.00-106.729   L 33.856,77.759C-2.365,17.392, 25.60-32.00, 96.00-32.00l 320.00,0.00 C 486.40-32.00, 514.365,17.392, 478.145,77.759z M 120.519,160.00L 224.00,332.469L 224.00,448.00 l 64.00,0.00   l0.00-115.531 L 391.482,160.00L 120.519,160.00 z"/>
<glyph unicode="" d="M 480.00,416.00L 320.00,416.00 L 320.00,464.00 c0.00,8.836-7.163,16.00-16.00,16.00l-96.00,0.00 c-8.836,0.00-16.00-7.164-16.00-16.00l0.00-48.00 L 32.00,416.00 L0.00,352.00l 64.00,0.00 l 32.00-384.00l 320.00,0.00 l 32.00,384.00l 64.00,0.00 L 480.00,416.00z M 224.00,32.00  l-64.00,0.00 L 160.00,320.00 l 64.00,0.00 L 224.00,32.00 z M 224.00,448.00l 64.00,0.00 l0.00-32.00 l-64.00,0.00 L 224.00,448.00 z M 352.00,32.00l-64.00,0.00 L 288.00,320.00 l 64.00,0.00 L 352.00,32.00 z"/>
<glyph unicode="" d="M 96.00-32.00L 416.00-32.00L 448.00,320.00L 64.00,320.00  zM 320.00,416.00L 320.00,480.00 L 192.00,480.00 l0.00-64.00 L 32.00,416.00 l0.00-96.00 l 32.00,32.00l 384.00,0.00 l 32.00-32.00L 480.00,416.00 L 320.00,416.00 z M 288.00,416.00l-64.00,0.00 L 224.00,448.00 l 64.00,0.00 L 288.00,416.00 z"/>
<glyph unicode="" d="M 144.00,48.00c 8.837,0.00, 16.00,7.163, 16.00,16.00c0.00,0.003,0.00,0.007,0.00,0.01L 160.00,287.991 c0.00,0.003,0.00,0.006,0.00,0.01c0.00,8.836-7.164,16.00-16.00,16.00   c-8.836,0.00-16.00-7.164-16.00-16.00l0.00,0.00 l0.00-224.00 C 128.00,55.163, 135.164,48.00, 144.00,48.00zM 240.00,48.00c 8.837,0.00, 16.00,7.163, 16.00,16.00c0.00,0.003,0.00,0.007,0.00,0.01L 256.00,287.991 c0.00,0.003,0.00,0.006,0.00,0.01c0.00,8.836-7.164,16.00-16.00,16.00   c-8.836,0.00-16.00-7.164-16.00-16.00l0.00,0.00 l0.00-224.00 C 224.00,55.163, 231.164,48.00, 240.00,48.00zM 336.00,48.00c 8.837,0.00, 16.00,7.163, 16.00,16.00c0.00,0.003,0.00,0.007,0.00,0.01L 352.00,287.991 c0.00,0.003,0.00,0.006,0.00,0.01c0.00,8.836-7.163,16.00-16.00,16.00   c-8.836,0.00-16.00-7.164-16.00-16.00l0.00,0.00 l0.00-224.00 C 320.00,55.163, 327.164,48.00, 336.00,48.00zM 351.987,415.46C 351.99,415.64, 352.00,415.819, 352.00,416.00L 352.00,448.00 c0.00,17.60-14.40,32.00-32.00,32.00L 160.00,480.00 c-17.60,0.00-32.00-14.40-32.00-32.00l0.00-32.00    c0.00-0.181, 0.011-0.36, 0.014-0.54L0.00,415.46 L0.00,384.00 l 32.00,0.00 l0.00-352.00 c0.00-35.20, 28.80-64.00, 64.00-64.00l 288.00,0.00 c 35.20,0.00, 64.00,28.80, 64.00,64.00L 448.00,384.00 l 32.00,0.00 L 480.00,415.46 L 351.987,415.46 z M 160.00,447.943   c 0.017,0.02, 0.038,0.041, 0.057,0.057l 159.885,0.00 c 0.02-0.017, 0.041-0.038, 0.058-0.058l0.00-31.885 c-0.017-0.02-0.038-0.041-0.058-0.057   L 160.057,416.00 c-0.02,0.017-0.041,0.038-0.057,0.057L 160.00,447.943 z M 416.00,32.00c0.00-8.477-3.348-16.493-9.428-22.572   C 400.493,3.348, 392.477,0.00, 384.00,0.00L 96.00,0.00 c-8.477,0.00-16.493,3.348-22.573,9.428C 67.348,15.507, 64.00,23.523, 64.00,32.00L 64.00,384.00 l 352.00,0.00 L 416.00,32.00 z"/>
<glyph unicode="" d="M 464.00,320.00L 352.00,320.00 L 352.00,384.00 c0.00,17.60-14.40,32.00-32.00,32.00L 192.00,416.00 c-17.602,0.00-32.00-14.40-32.00-32.00l0.00-64.00 L 48.00,320.00 c-26.40,0.00-48.00-21.60-48.00-48.00l0.00-224.00 c0.00-26.40, 21.60-48.00, 48.00-48.00  l 416.00,0.00 c 26.398,0.00, 48.00,21.60, 48.00,48.00L 512.00,272.00 C 512.00,298.40, 490.401,320.00, 464.00,320.00z M 192.00,383.943c 0.016,0.02, 0.037,0.041, 0.058,0.057l 127.887,0.00   c 0.021-0.018, 0.04-0.038, 0.058-0.057L 320.003,320.00 L 192.00,320.00 L 192.00,383.943 z"/>
<glyph unicode="" d="M 480.00,352.00L 352.00,352.00 L 352.00,384.00 c0.00,17.60-14.40,32.00-32.00,32.00L 192.00,416.00 c-17.602,0.00-32.00-14.40-32.00-32.00l0.00-32.00 L 32.00,352.00 C 14.40,352.00,0.00,337.60,0.00,320.00l0.00-256.00   c0.00-17.601, 14.398-32.00, 32.00-32.00l 448.00,0.00 c 17.60,0.00, 32.00,14.399, 32.00,32.00L 512.00,320.00 C 512.00,337.60, 497.60,352.00, 480.00,352.00z M 192.00,383.942  c 0.017,0.02, 0.037,0.041, 0.057,0.058l 127.886,0.00 c 0.021-0.017, 0.041-0.038, 0.059-0.058L 320.002,352.00 L 192.00,352.00 L 192.00,383.942 z M 480.00,224.00l-64.00,0.00 l0.00-48.00   c0.00-8.801-7.20-16.00-16.00-16.00l-32.00,0.00 c-8.802,0.00-16.00,7.199-16.00,16.00l0.00,48.00 L 160.00,224.00 l0.00-48.00 c0.00-8.801-7.20-16.00-16.00-16.00l-32.00,0.00 c-8.801,0.00-16.00,7.199-16.00,16.00l0.00,48.00 L 32.00,224.00 l0.00,32.00 l 448.00,0.00   L 480.00,224.00 z"/>
<glyph unicode="" d="M 436.304,320.00L 352.00,448.00L 160.00,448.00 L 75.695,320.00L0.00,320.00 l0.00-224.00 l 64.00,0.00 l0.00-80.00 c0.00-8.80, 7.199-16.00, 16.00-16.00l 64.00,0.00 c 8.80,0.00, 16.00,7.20, 16.00,16.00l0.00,80.00 l 192.00,0.00 l0.00-80.00   c0.00-8.80, 7.198-16.00, 16.00-16.00l 64.00,0.00 c 8.80,0.00, 16.00,7.20, 16.00,16.00l0.00,80.00 l 64.00,0.00 L 512.00,320.00 L 436.304,320.00 z M 177.24,416.00l 157.519,0.00 l 63.228-96.00L 114.012,320.00 L 177.24,416.00z M 128.00,146.745  c-24.994,0.00-45.256,20.261-45.256,45.255s 20.263,45.254, 45.256,45.254c 24.992,0.00, 45.254-20.261, 45.254-45.254  C 173.255,167.006, 152.993,146.745, 128.00,146.745z M 384.00,146.745c-24.993,0.00-45.257,20.261-45.257,45.255s 20.263,45.254, 45.257,45.254  c 24.991,0.00, 45.255-20.261, 45.255-45.254C 429.255,167.006, 408.991,146.745, 384.00,146.745z"/>
<glyph unicode="" d="M 480.00,224.00c0.00,0.00-16.279,192.00-32.00,224.00S 320.00,480.00, 256.00,480.00S 79.72,480.00, 64.00,448.00S 32.00,224.00, 32.00,224.00l0.00-192.00 l 64.00,0.00 l0.00-32.00 c0.00-17.673, 14.327-32.00, 32.00-32.00  s 32.00,14.327, 32.00,32.00l0.00,32.00 l 192.00,0.00 l0.00-32.00 c0.00-17.673, 14.327-32.00, 32.00-32.00c 17.674,0.00, 32.00,14.327, 32.00,32.00l0.00,32.00 l 64.00,0.00 L 480.00,224.00 z M 160.00,448.00l 192.00,0.00 l0.00-32.00 L 160.00,416.00 L 160.00,448.00 z   M 105.058,279.23c 6.083,53.329, 10.847,81.788, 13.844,96.464c 8.586,2.002, 23.196,4.479, 46.867,6.145C 196.495,384.00, 229.49,384.00, 256.00,384.00  s 59.505,0.00, 90.231-2.161c 23.671-1.665, 38.281-4.142, 46.867-6.145c 2.996-14.676, 7.761-43.136, 13.844-96.465  c 0.903-7.917, 1.759-15.718, 2.559-23.23L 102.499,255.999 C 103.299,263.512, 104.155,271.313, 105.058,279.23z M 128.00,113.60  c-25.626,0.00-46.40,20.773-46.40,46.40c0.00,25.626, 20.773,46.40, 46.40,46.40s 46.40-20.774, 46.40-46.40C 174.40,134.373, 153.627,113.60, 128.00,113.60z   M 384.00,113.60c-25.627,0.00-46.399,20.773-46.399,46.40c0.00,25.626, 20.772,46.40, 46.399,46.40s 46.40-20.774, 46.40-46.40  C 430.401,134.373, 409.627,113.60, 384.00,113.60z"/>
<glyph unicode="" d="M 256.00,448.00L 32.00,352.00L 256.00,256.00L 480.00,352.00  zM 32.00,64.00L 224.00-16.00L 224.00,208.00L 32.00,288.00  zM 288.00-16.00L 480.00,64.00L 480.00,288.00L 288.00,208.00  z"/>
<glyph unicode="" d="M 240.00,448.00L0.00,352.00l0.00-224.00 l 240.00-128.00l 240.00,128.00L 480.00,352.00 L 240.00,448.00z M 224.00,44.80L 32.00,147.20L 32.00,302.933 l 192.00-102.40L 224.00,44.80 z M 41.498,334.134L 240.00,413.535  l 198.502-79.401L 240.00,228.267L 41.498,334.134z M 448.00,147.20L 256.00,44.80L 256.00,200.533 l 192.00,102.40L 448.00,147.20 z"/>
<glyph unicode="" d="M 472.037,344.543l-77.289,0.00 c-21.704,0.033-43.327,8.772-22.241,45.979C 393.634,427.804, 408.548,480.00, 323.729,480.00  c-84.816,0.00-69.901-52.195-48.774-89.478c 21.086-37.207-0.537-45.945-22.243-45.979l-77.29,0.00 c-18.051,0.00-32.819-14.771-32.819-32.818  l0.00-94.87 c0.00-21.746-8.701-43.492-45.98-22.367c-37.28,21.127-89.478,36.04-89.478-48.778c0.00-84.814, 52.196-69.90, 89.478-48.775  c 37.279,21.127, 45.98-0.619, 45.98-22.369l0.00-73.747 c0.00-18.053, 14.77-32.818, 32.819-32.818l 77.163,0.00 c 21.749,0.00, 43.495,8.701, 22.37,45.981  c-21.126,37.277-36.042,89.475, 48.774,89.475c 84.817,0.00, 69.903-52.195, 48.776-89.475C 351.38-23.299, 373.128-32.00, 394.875-32.00l 77.16,0.00   c 18.053,0.00, 32.821,14.77, 32.821,32.818L 504.856,311.726 C 504.858,329.774, 490.09,344.543, 472.037,344.543z"/>
<glyph unicode="" d="M0.00,352.00l0.00-256.00 l 160.00,0.00 l 96.00,96.00l 96.00-96.00l 160.00,0.00 L 512.00,352.00 L0.00,352.00 z M 224.00,224.00l-64.00-64.00L 32.00,160.00 L 32.00,288.00 l 192.00,0.00 L 224.00,224.00 z M 480.00,160.00L 352.00,160.00 l-64.00,64.00l0.00,64.00 l 192.00,0.00 L 480.00,160.00 z"/>
<glyph unicode="" d="M 352.00,448.00l0.00-48.00 l 80.00-144.00L 80.00,256.00 l 80.00,144.00L 160.00,448.00 L0.00,256.00l0.00-256.00 l 160.00,0.00 l 96.00,96.00l 96.00-96.00l 160.00,0.00 L 512.00,256.00 L 352.00,448.00z M 224.00,128.00l-64.00-64.00L 32.00,64.00 L 32.00,192.00 l 192.00,0.00 L 224.00,128.00 z M 480.00,64.00L 352.00,64.00   l-64.00,64.00l0.00,64.00 l 192.00,0.00 L 480.00,64.00 z"/>
<glyph unicode="" d="M 480.00,384.00L 480.00,416.00L 256.00,352.00L 32.00,416.00L 32.00,384.00L 192.00,320.00L 192.00,192.00L 128.00-32.00L 160.00-32.00L 256.00,192.00L 352.00-32.00L 384.00-32.00L 320.00,192.00L 320.00,320.00  zM 208.00,432.00A48.00,48.00 6300.00 1,0 304.00,432A48.00,48.00 6300.00 1,0 208.00,432z"/>
<glyph unicode="" d="M 160.00,16.00c-61.856,0.00-112.00,50.145-112.00,112.00c0.00,43.848, 25.20,81.803, 61.903,100.19l-21.47,42.938C 36.001,244.86,0.00,190.639,0.00,128.00   c0.00-88.366, 71.634-160.00, 160.00-160.00s 160.00,71.634, 160.00,160.00l-48.00,0.00 C 272.00,66.145, 221.856,16.00, 160.00,16.00zM 480.00,128.00L 448.00,96.00L 338.743,205.255L 224.00,205.255L 224.00,256.00L 352.00,256.00L 352.00,288.00L 224.00,288.00L 224.00,352.00L 160.00,352.00L 160.00,160.00L 320.00,160.00L 448.00,32.00L 512.00,96.00  zM 144.00,432.00A48.00,48.00 6300.00 1,0 240.00,432A48.00,48.00 6300.00 1,0 144.00,432z"/>
<glyph unicode="" d="M 256.00,480.00C 114.844,480.00,0.00,365.162,0.00,223.999C0.00,82.838, 114.844-32.00, 256.00-32.00c 141.155,0.00, 256.00,114.838, 256.00,255.999   C 512.00,365.162, 397.156,480.00, 256.00,480.00z M 256.00,24.889c-109.789,0.00-199.11,89.323-199.11,199.11c0.00,109.79, 89.322,199.112, 199.11,199.112   s 199.11-89.322, 199.11-199.112C 455.113,114.212, 365.788,24.889, 256.00,24.889zM 256.00,366.223c-78.422,0.00-142.224-63.801-142.224-142.224c0.00-78.421, 63.801-142.224, 142.224-142.224   s 142.223,63.803, 142.223,142.224C 398.223,302.422, 334.423,366.223, 256.00,366.223z M 256.00,138.666   c-47.058,0.00-85.334,38.277-85.334,85.333c0.00,47.058, 38.276,85.335, 85.334,85.335c 47.056,0.00, 85.335-38.277, 85.335-85.335   C 341.335,176.943, 303.056,138.666, 256.00,138.666zM 224.00,224.00A32.00,32.00 6300.00 1,0 288.00,224A32.00,32.00 6300.00 1,0 224.00,224z"/>
<glyph unicode="" d="M 256.00,480.00C 114.615,480.00,0.00,365.385,0.00,224.00s 114.615-256.00, 256.00-256.00s 256.00,114.615, 256.00,256.00S 397.385,480.00, 256.00,480.00z M 391.765,88.235  C 363.16,59.631, 327.117,41.174, 288.00,34.648L 288.00,128.00 l-64.00,0.00 l0.00-93.352 c-39.117,6.525-75.16,24.982-103.765,53.587  C 91.632,116.84, 73.174,152.883, 66.649,192.00L 160.00,192.00 l0.00,64.00 L 66.649,256.00 c 6.525,39.117, 24.983,75.16, 53.587,103.765  C 148.84,388.369, 184.883,406.826, 224.00,413.352L 224.00,320.00 l 64.00,0.00 L 288.00,413.352 c 39.117-6.525, 75.16-24.983, 103.765-53.587  c 28.604-28.604, 47.062-64.647, 53.587-103.765L 352.00,256.00 l0.00-64.00 l 93.352,0.00 C 438.826,152.883, 420.369,116.84, 391.765,88.235z"/>
<glyph unicode="" d="M 192.00,480.00L0.00,224.00L 192.00,224.00L 64.00-32.00L 512.00,288.00L 256.00,288.00L 448.00,480.00 z"/>
<glyph unicode="" d="M 352.00,480.00L 64.00,192.00L 240.00,192.00L 160.00-32.00L 448.00,256.00L 272.00,256.00 z"/>
<glyph unicode="" d="M0.00,128.00L 160.00,384.00L 320.00,224.00L 512.00,352.00L 352.00,64.00L 192.00,224.00 z"/>
<glyph unicode="" d="M 384.00,416.00l-64.00,0.00 L 320.00,448.00 c0.00,17.60-14.40,32.00-32.00,32.00l-64.00,0.00 c-17.602,0.00-32.00-14.40-32.00-32.00l0.00-32.00 l-64.00,0.00 l0.00-64.00 l 256.00,0.00 L 384.00,416.00 z M 288.00,416.00l-64.00,0.00 L 224.00,447.943    c 0.017,0.019, 0.036,0.039, 0.057,0.057l 63.884,0.00 c 0.021-0.018, 0.041-0.038, 0.059-0.057L 288.00,416.00 L 288.00,416.00zM 432.00,416.00l-32.00,0.00 l0.00-32.00 l 16.00,0.00 l0.00-384.00 L 96.00,0.00 L 96.00,384.00 l 16.00,0.00 L 112.00,416.00 L 80.00,416.00 c-8.801,0.00-16.00-7.20-16.00-16.00l0.00-416.00 c0.00-8.80, 7.199-16.00, 16.00-16.00l 352.00,0.00 c 8.80,0.00, 16.00,7.20, 16.00,16.00L 448.00,400.00    C 448.00,408.80, 440.80,416.00, 432.00,416.00z"/>
<glyph unicode="" d="M 384.00,416.00l-64.00,0.00 L 320.00,448.00 c0.00,17.60-14.40,32.00-32.00,32.00l-64.00,0.00 c-17.602,0.00-32.00-14.40-32.00-32.00l0.00-32.00 l-64.00,0.00 l0.00-64.00 l 256.00,0.00 L 384.00,416.00 z M 288.00,416.00l-64.00,0.00 L 224.00,447.943    c 0.017,0.019, 0.036,0.039, 0.057,0.057l 63.884,0.00 c 0.021-0.018, 0.041-0.038, 0.059-0.057L 288.00,416.00 L 288.00,416.00zM 432.00,416.00l-32.00,0.00 l0.00-32.00 l 16.00,0.00 l0.00-384.00 L 96.00,0.00 L 96.00,384.00 l 16.00,0.00 L 112.00,416.00 L 80.00,416.00 c-8.801,0.00-16.00-7.20-16.00-16.00l0.00-416.00 c0.00-8.80, 7.199-16.00, 16.00-16.00l 352.00,0.00 c 8.80,0.00, 16.00,7.20, 16.00,16.00L 448.00,400.00    C 448.00,408.80, 440.80,416.00, 432.00,416.00zM 128.00,288.00L 384.00,288.00L 384.00,256.00L 128.00,256.00zM 128.00,192.00L 384.00,192.00L 384.00,160.00L 128.00,160.00zM 128.00,96.00L 384.00,96.00L 384.00,64.00L 128.00,64.00z"/>
<glyph unicode="" d="M0.00,448.00L 320.00,448.00L 320.00,384.00L0.00,384.00zM0.00,320.00L 288.00,320.00L 288.00,256.00L0.00,256.00zM0.00,192.00L 224.00,192.00L 224.00,128.00L0.00,128.00zM0.00,64.00L 160.00,64.00L 160.00,0.00L0.00,0.00zM 416.00,480.00l-64.00,0.00 l0.00-356.559 c-10.01,2.949-20.778,4.559-32.00,4.559c-53.02,0.00-96.00-35.817-96.00-80.00s 42.98-80.00, 96.00-80.00s 96.00,35.817, 96.00,80.00L 416.00,384.00 l 96.00-32.00   L 512.00,416.00 L 416.00,480.00z"/>
<glyph unicode="" d="M0.00,480.00L 224.00,480.00L 224.00,256.00L0.00,256.00zM 288.00,480.00L 512.00,480.00L 512.00,256.00L 288.00,256.00zM0.00,192.00L 224.00,192.00L 224.00-32.00L0.00-32.00zM 288.00,192.00L 512.00,192.00L 512.00-32.00L 288.00-32.00z"/>
<glyph unicode="" d="M 480.00,128.00l-51.741,0.00 L 308.546,327.522C 315.536,333.404, 320.00,342.205, 320.00,352.00L 320.00,416.00 c0.00,17.60-14.40,32.00-32.00,32.00l-64.00,0.00 c-17.60,0.00-32.00-14.40-32.00-32.00  l0.00-64.00 c0.00-9.795, 4.464-18.596, 11.455-24.478L 83.741,128.00L 32.00,128.00 c-17.60,0.00-32.00-14.40-32.00-32.00l0.00-64.00 c0.00-17.60, 14.40-32.00, 32.00-32.00l 64.00,0.00 c 17.60,0.00, 32.00,14.40, 32.00,32.00l0.00,64.00   c0.00,9.795-4.464,18.596-11.455,24.478L 236.26,320.00l 39.482,0.00 l 119.714-199.522C 388.465,114.596, 384.00,105.795, 384.00,96.00l0.00-64.00   c0.00-17.60, 14.40-32.00, 32.00-32.00l 64.00,0.00 c 17.60,0.00, 32.00,14.40, 32.00,32.00l0.00,64.00 C 512.00,113.60, 497.60,128.00, 480.00,128.00z"/>
<glyph unicode="" d="M 192.00,448.00L 320.00,448.00L 320.00,320.00L 192.00,320.00zM 192.00,288.00L 320.00,288.00L 320.00,160.00L 192.00,160.00zM 192.00,128.00L 320.00,128.00L 320.00,0.00L 192.00,0.00z"/>
<glyph unicode="" d="M 192.00,384.00A64.00,64.00 2700.00 1,0 320.00,384A64.00,64.00 2700.00 1,0 192.00,384zM 192.00,224.00A64.00,64.00 2700.00 1,0 320.00,224A64.00,64.00 2700.00 1,0 192.00,224zM 192.00,64.00A64.00,64.00 2700.00 1,0 320.00,64A64.00,64.00 2700.00 1,0 192.00,64z"/>
<glyph unicode="" d="M 512.00,151.229c0.00,41.045-28.339,75.45-66.498,84.74C 443.881,300.319, 391.273,352.00, 326.571,352.00  c-37.896,0.00-71.633-17.747-93.427-45.366c-12.221,15.799-31.345,25.98-52.854,25.98c-36.905,0.00-66.821-29.937-66.821-66.861  c0.00-3.218, 0.24-6.38, 0.682-9.477c-5.611,1.012-11.383,1.569-17.285,1.569C 43.367,257.846,0.00,214.452,0.00,160.924  C0.00,107.393, 43.367,64.00, 96.865,64.00l 328.131,0.00 l0.00,0.006 C 473.065,64.098, 512.00,103.112, 512.00,151.229z"/>
<glyph unicode="" d="M 445.502,299.97C 443.881,364.319, 391.273,416.00, 326.571,416.00c-37.896,0.00-71.633-17.747-93.427-45.366  c-12.221,15.799-31.345,25.98-52.854,25.98c-36.905,0.00-66.821-29.937-66.821-66.861c0.00-3.218, 0.24-6.38, 0.682-9.477  c-5.611,1.012-11.383,1.569-17.285,1.569C 43.367,321.846,0.00,278.452,0.00,224.924C0.00,171.393, 43.367,128.00, 96.865,128.00l 49.88,0.00 L 256.00,18.745  L 365.255,128.00l 59.741,0.00 l0.00,0.006 C 473.065,128.098, 512.00,167.112, 512.00,215.229C 512.00,256.274, 483.661,290.679, 445.502,299.97z M 256.00,64.00l-96.00,96.00  l 64.00,0.00 l0.00,96.00 l 64.00,0.00 l0.00-96.00 l 64.00,0.00 L 256.00,64.00z"/>
<glyph unicode="" d="M 448.00,128.00L 448.00,64.00L 64.00,64.00L 64.00,128.00L0.00,128.00L0.00,0.00L 512.00,0.00L 512.00,128.00  zM 384.00,288.00L 288.00,288.00L 288.00,448.00L 224.00,448.00L 224.00,288.00L 128.00,288.00L 256.00,96.00  z"/>
<glyph unicode="" d="M 445.502,299.97C 443.881,364.319, 391.273,416.00, 326.571,416.00c-37.896,0.00-71.633-17.747-93.427-45.366  c-12.221,15.799-31.345,25.98-52.854,25.98c-36.905,0.00-66.821-29.937-66.821-66.861c0.00-3.218, 0.24-6.38, 0.682-9.477  c-5.611,1.012-11.383,1.569-17.285,1.569C 43.367,321.846,0.00,278.452,0.00,224.924C0.00,171.393, 43.367,128.00, 96.865,128.00L 192.00,128.00 l0.00-96.00 l 128.00,0.00 l0.00,96.00   l 104.996,0.00 l0.00,0.006 C 473.065,128.098, 512.00,167.112, 512.00,215.229C 512.00,256.274, 483.661,290.679, 445.502,299.97z M 288.00,160.00l0.00-96.00 l-64.00,0.00 l0.00,96.00 l-64.00,0.00   l 96.00,96.00l 96.00-96.00L 288.00,160.00 z"/>
<glyph unicode="" d="M 448.00,128.00L 448.00,64.00L 64.00,64.00L 64.00,128.00L0.00,128.00L0.00,0.00L 512.00,0.00L 512.00,128.00  zM 128.00,256.00L 224.00,256.00L 224.00,96.00L 288.00,96.00L 288.00,256.00L 384.00,256.00L 256.00,448.00  z"/>
<glyph unicode="" d="M 160.00,128.00c 8.80-8.80, 23.637-8.363, 32.971,0.971L 351.03,287.029C 360.364,296.363, 360.80,311.20, 352.00,320.00   s-23.637,8.363-32.971-0.971L 160.971,160.971C 151.637,151.637, 151.20,136.80, 160.00,128.00zM 238.444,142.444c 2.28-4.525, 3.495-9.58, 3.495-14.848c0.00-8.808-3.372-17.03-9.496-23.154l-81.691-81.691   c-6.124-6.124-14.347-9.496-23.154-9.496s-17.03,3.372-23.154,9.496l-49.691,49.691c-6.124,6.124-9.496,14.347-9.496,23.154   s 3.372,17.03, 9.496,23.154l 81.691,81.691c 6.124,6.124, 14.347,9.497, 23.154,9.497c 5.268,0.00, 10.322-1.215, 14.848-3.495l 32.669,32.669   c-13.935,10.705-30.72,16.08-47.517,16.08c-19.993,0.00-39.986-7.583-55.154-22.751l-81.691-81.691   c-30.335-30.335-30.335-79.974,0.00-110.309l 49.691-49.691C 87.611-24.416, 107.604-32.00, 127.597-32.00   c 19.994,0.00, 39.987,7.584, 55.154,22.751l 81.691,81.691c 27.91,27.91, 30.119,72.149, 6.672,102.672L 238.444,142.444zM 489.249,407.558l-49.691,49.691C 424.391,472.417, 404.398,480.00, 384.404,480.00c-19.993,0.00-39.986-7.583-55.154-22.751l-81.691-81.691   c-27.91-27.91-30.119-72.149-6.671-102.671l 32.669,32.67c-2.279,4.525-3.494,9.58-3.494,14.847c0.00,8.808, 3.372,17.03, 9.496,23.154   l 81.691,81.691c 6.124,6.124, 14.347,9.497, 23.154,9.497s 17.03-3.373, 23.154-9.497l 49.691-49.691   c 6.124-6.124, 9.496-14.347, 9.496-23.154s-3.372-17.03-9.496-23.154l-81.691-81.691c-6.124-6.124-14.347-9.496-23.154-9.496   c-5.268,0.00-10.322,1.215-14.848,3.495l-32.669-32.669c 13.936-10.705, 30.72-16.08, 47.517-16.08c 19.994,0.00, 39.987,7.584, 55.154,22.751   l 81.691,81.691C 519.584,327.584, 519.584,377.223, 489.249,407.558z"/>
<glyph unicode="" d="M 238.444,142.443c 2.28-4.524, 3.495-9.579, 3.495-14.848c0.00-8.808-3.372-17.029-9.496-23.154l-81.69-81.69   c-6.124-6.124-14.348-9.496-23.154-9.496s-17.03,3.372-23.154,9.496l-49.69,49.69c-6.124,6.125-9.496,14.348-9.496,23.154   s 3.372,17.03, 9.496,23.154l 81.69,81.691c 6.124,6.123, 14.348,9.496, 23.154,9.496c 5.269,0.00, 10.322-1.215, 14.848-3.494l 32.669,32.668   c-13.935,10.705-30.72,16.08-47.517,16.08c-19.993,0.00-39.986-7.583-55.154-22.751l-81.69-81.691   c-30.335-30.335-30.335-79.975,0.00-110.309l 49.69-49.691c 15.167-15.166, 35.16-22.75, 55.153-22.75   c 19.994,0.00, 39.987,7.584, 55.154,22.751l 81.69,81.69c 27.91,27.91, 30.119,72.149, 6.672,102.673L 238.444,142.443zM 489.248,407.558l-49.69,49.691C 424.391,472.417, 404.398,480.00, 384.404,480.00c-19.993,0.00-39.985-7.583-55.153-22.751l-81.691-81.691   c-27.91-27.91-30.119-72.149-6.671-102.671l 32.669,32.67c-2.279,4.525-3.494,9.58-3.494,14.847c0.00,8.808, 3.372,17.03, 9.496,23.154   l 81.691,81.691c 6.123,6.124, 14.347,9.497, 23.153,9.497c 8.808,0.00, 17.03-3.373, 23.154-9.497l 49.69-49.691   c 6.124-6.124, 9.496-14.347, 9.496-23.154c0.00-8.807-3.372-17.03-9.496-23.154l-81.69-81.691c-6.124-6.124-14.347-9.496-23.154-9.496   c-5.268,0.00-10.322,1.215-14.848,3.495l-32.669-32.669c 13.936-10.705, 30.72-16.08, 47.517-16.08c 19.994,0.00, 39.987,7.584, 55.154,22.752   l 81.69,81.69C 519.584,327.584, 519.584,377.223, 489.248,407.558zM 116.684,340.688L 20.687,436.685L 43.315,459.313L 139.312,363.316zM 192.00,480.00L 224.00,480.00L 224.00,384.00L 192.00,384.00zM0.00,288.00L 96.00,288.00L 96.00,256.00L0.00,256.00zM 395.316,107.312L 491.314,11.314L 468.686-11.314L 372.688,84.684zM 288.00,64.00L 320.00,64.00L 320.00-32.00L 288.00-32.00zM 416.00,192.00L 512.00,192.00L 512.00,160.00L 416.00,160.00z"/>
<glyph unicode="" d="M 432.311,476.862L 303.69,451.138C 295.061,449.412, 288.00,455.20, 288.00,464.00S 280.94,478.588, 272.311,476.862L 128.00,448.00L 128.00,480.00 L 64.00,480.00 l0.00-512.00 l 64.00,0.00 L 128.00,224.00   l 144.311,28.862C 280.94,254.588, 288.00,248.80, 288.00,240.00s 7.061-14.588, 15.689-12.862l 128.621,25.725C 440.94,254.588, 448.00,263.20, 448.00,272.00L 448.00,464.00   C 448.00,472.80, 440.94,478.588, 432.311,476.862z"/>
<glyph unicode="" d="M 254.059,418.977C 205.881,476.227, 169.369,480.00, 96.00,480.00l0.00-256.00 c 128.267,64.00, 142.636-8.335, 223.506-1.023   C 399.234,230.197, 467.031,291.564, 512.00,352.00C 384.644,322.547, 320.54,339.977, 254.059,418.977zM0.00,480.00L 64.00,480.00L 64.00-32.00L0.00-32.00z"/>
<glyph unicode="" d="M 348.916,316.476l-32.476,32.461L 154.035,186.566c-26.907-26.896-26.907-70.524,0.00-97.422  c 26.902-26.896, 70.53-26.896, 97.437,0.00l 194.886,194.854c 44.857,44.831, 44.857,117.531,0.00,162.363  c-44.833,44.852-117.556,44.852-162.391,0.00L 79.335,241.788l 0.017-0.016c-0.145-0.152-0.306-0.288-0.438-0.423  c-62.551-62.548-62.551-163.928,0.00-226.453c 62.527-62.528, 163.934-62.528, 226.494,0.00c 0.137,0.137, 0.258,0.284, 0.41,0.438l 0.016-0.017  l 139.666,139.646l-32.493,32.46L 273.35,47.792l-0.008,0.00 c-0.148-0.134-0.282-0.285-0.423-0.422  c-44.537-44.529-116.99-44.529-161.538,0.00c-44.531,44.521-44.531,116.961,0.00,161.489c 0.152,0.152, 0.302,0.291, 0.444,0.423l-0.023,0.03  l 204.64,204.583c 26.856,26.869, 70.572,26.869, 97.443,0.00c 26.856-26.867, 26.856-70.574,0.00-97.42L 218.999,121.625  c-8.968-8.961-23.527-8.961-32.486,0.00c-8.947,8.943-8.947,23.516,0.00,32.46L 348.916,316.476z"/>
<glyph unicode="" d="M 256.00,368.00C 128.00,368.00, 0.001,256.001,0.00,224.00l0.00,0.00c 0.001-32.001, 128.00-144.00, 256.00-144.00s 255.997,111.999, 256.00,144.00l0.00,0.00   C 511.997,256.001, 384.00,368.00, 256.00,368.00z M 256.00,128.00c-53.021,0.00-96.00,42.98-96.00,96.00c0.00,53.02, 42.979,96.00, 96.00,96.00c 53.02,0.00, 96.00-42.98, 96.00-96.00   C 352.00,170.98, 309.02,128.00, 256.00,128.00zM 224.00,224.00A32.00,32.00 6300.00 1,0 288.00,224A32.00,32.00 6300.00 1,0 224.00,224z"/>
<glyph unicode="" d="M 256.00,384.00C 144.341,384.00, 47.559,318.979,0.00,224.00c 47.559-94.979, 144.341-160.00, 256.00-160.00c 111.657,0.00, 208.439,65.021, 256.00,160.00  C 464.442,318.979, 367.657,384.00, 256.00,384.00z M 256.00,177.811c-25.51,0.00-46.189,20.682-46.189,46.189s 20.681,46.189, 46.189,46.189  s 46.188-20.681, 46.188-46.189C 302.19,198.49, 281.509,177.811, 256.00,177.811z M 121.171,135.361  C 86.304,157.602, 57.231,188.037, 36.35,224.00c 20.88,35.963, 49.953,66.397, 84.821,88.639c 19.81,12.635, 41.182,22.406, 63.521,29.043  c 11.229,3.334, 22.684,5.862, 34.281,7.586C 164.881,333.302, 125.40,283.266, 125.40,224.00c0.00-59.266, 39.481-109.303, 93.575-125.268  c-11.60,1.723-23.052,4.25-34.282,7.586C 162.353,112.955, 140.981,122.727, 121.171,135.361z M 390.827,135.361  c-19.811-12.637-41.183-22.406-63.521-29.043c-11.229-3.336-22.685-5.862-34.28-7.586C 347.117,114.697, 386.60,164.734, 386.60,224.00  c0.00,59.266-39.481,109.303-93.574,125.268c 11.598-1.724, 23.051-4.252, 34.28-7.586c 22.341-6.637, 43.713-16.408, 63.521-29.043  c 34.868-22.24, 63.94-52.676, 84.822-88.639C 454.769,188.037, 425.697,157.604, 390.827,135.361z"/>
<glyph unicode="" d="M 96.00,480.00L 96.00-32.00L 256.00,128.00L 416.00-32.00L 416.00,480.00 z"/>
<glyph unicode="" d="M 96.00,480.00l0.00-512.00 l 160.00,160.00l 160.00-160.00L 416.00,480.00 L 96.00,480.00 z M 384.00,45.255l-128.00,128.00l-128.00-128.00L 128.00,448.00 l 256.00,0.00 L 384.00,45.255 z"/>
<glyph unicode="" d="M 512.00,287.996L 316.434,287.996 L 256.00,473.991l-60.434-185.995L0.00,287.996 l 158.217-114.953L 97.783-12.951L 256.00,102.00l 158.216-114.951l-60.434,185.994  L 512.00,287.996z M 368.565,49.882L 256.00,131.666l-112.566-81.784l 42.996,132.327L 73.864,263.996l 139.14,0.00 L 256.00,396.326l 42.997-132.33  l 139.139,0.00 l-112.566-81.787L 368.565,49.882z"/>
<glyph unicode="" d="M 512.00,287.996L 316.434,287.996 L 256.00,473.991l-60.435-185.995L0.00,287.996 l 158.217-114.952L 97.783-12.951L 256.00,102.00l 158.216-114.95l-60.434,185.994  L 512.00,287.996z M 368.566,49.882L 256.00,131.666L 256.00,396.325 l 42.996-132.33l 139.14,0.00 L 325.57,182.211L 368.566,49.882z"/>
<glyph unicode="" d="M 512.00,287.996L 316.434,287.996L 256.00,473.991L 195.567,287.996L0.00,287.996L 158.217,173.044L 97.783-12.951L 256.00,102.00L 414.216-12.95L 353.783,173.044 z"/>
<glyph unicode="" d="M 377.594,448.00c-53.815,0.00-100.129-43.777-121.582-89.50C 234.543,404.222, 188.223,448.00, 134.404,448.00C 60.213,448.00,0.00,387.78,0.00,313.584  c0.00-150.923, 152.25-190.497, 256.011-339.709C 354.088,122.163, 512.00,167.478, 512.00,313.584C 512.00,387.78, 451.785,448.00, 377.594,448.00z"/>
<glyph unicode="" d="M 377.594,416.00C 434.061,416.00, 480.00,370.056, 480.00,313.584c0.00-17.689-2.709-33.877-8.28-49.492  c-5.107-14.312-12.658-28.205-23.085-42.472c-20.959-28.684-51.409-55.677-83.647-84.255  c-35.333-31.323-74.42-65.975-109.504-109.938c-35.252,42.688-73.336,76.052-107.772,106.221  c-33.969,29.76-63.305,55.46-84.255,84.381c-10.427,14.395-17.981,28.573-23.096,43.348C 34.735,277.63, 32.00,294.707, 32.00,313.584  C 32.00,370.056, 77.938,416.00, 134.404,416.00c 40.713,0.00, 76.563-36.856, 92.643-71.101l 28.977-61.711l 28.959,61.72  C 301.047,379.148, 336.881,416.00, 377.594,416.00 M 377.594,448.00c-53.815,0.00-100.129-43.777-121.582-89.50C 234.543,404.222, 188.223,448.00, 134.404,448.00  C 60.213,448.00,0.00,387.78,0.00,313.584c0.00-150.923, 152.25-190.497, 256.011-339.709C 354.088,122.163, 512.00,167.478, 512.00,313.584  C 512.00,387.78, 451.785,448.00, 377.594,448.00L 377.594,448.00z"/>
<glyph unicode="" d="M 446.141,117.407c 0.852,10.12, 21.951,23.983, 21.934,34.12c-0.049,10.643-18.482,28.455-17.086,39.007  c 1.104,8.37, 16.555,20.793, 17.059,29.245c 0.898,15.353-19.852,45.40-34.119,51.174c-22.643,9.168-137.705,4.883-137.705,4.883  c-11.246,19.653, 20.035,68.201, 28.639,89.162c 12.631,30.719, 10.504,71.466-5.471,92.399C 299.879,482.98, 264.063,484.68, 263.325,473.238  c-5.336-83.01-21.229-106.053-42.505-122.455c-12.786-9.863-23.954-18.497-29.854-33.528  c-36.261-92.354-65.52-122.037-79.528-125.254L 64.00,192.001 l0.00-198.885 l 145.721-19.501c0.00,0.00, 133.455-12.632, 175.482,0.00  c 13.223,3.966, 36.039,23.818, 41.432,36.556c 3.074,7.315-1.197,24.622, 2.443,31.677c 5.371,10.458, 28.051,23.559, 28.027,37.771  C 457.082,89.754, 445.276,107.298, 446.141,117.407z"/>
<glyph unicode="" d="M 468.051,228.233c-0.50,8.447-15.959,20.854-17.063,29.237c-1.398,10.544, 17.047,28.369, 17.076,39.00  c 0.023,10.137-21.072,24.002-21.93,34.127c-0.861,10.104, 10.953,27.644, 10.969,37.781c 0.025,14.216-22.658,27.314-28.033,37.771  c-3.631,7.059, 0.643,24.368-2.443,31.681c-5.385,12.739-28.203,32.595-41.414,36.556c-42.035,12.629-175.483,0.00-175.483,0.00L 64.00,454.89  L 64.00,256.00 l 47.445,0.00 c 13.993-7.782, 43.261-32.282, 79.526-124.636c 5.90-15.034, 17.073-24.288, 29.854-34.143  c 21.282-16.406, 37.157-39.442, 42.493-122.459c 0.743-11.443, 36.557-9.74, 56.064,15.837c 15.975,20.931, 18.109,61.682, 5.484,92.402  c-8.604,20.962-39.895,69.511-28.643,89.171c0.00,0.00, 115.066-4.285, 137.701,4.871C 448.192,182.817, 468.942,212.873, 468.051,228.233z"/>
<glyph unicode="" d="M 256.001,480.00C 114.615,480.00,0.00,365.386,0.00,224.00c0.00-141.385, 114.614-256.00, 256.001-256.00C 397.386-32.00, 512.00,82.615, 512.00,224.00  C 512.00,365.386, 397.386,480.00, 256.001,480.00z M 336.001,365.256c 12.495,0.00, 22.627-20.262, 22.627-45.256c0.00-24.993-10.132-45.255-22.627-45.255  c-12.498,0.00-22.629,20.262-22.629,45.255C 313.372,344.994, 323.503,365.256, 336.001,365.256z M 176.001,365.256  c 12.496,0.00, 22.627-20.262, 22.627-45.256c0.00-24.993-10.131-45.255-22.627-45.255c-12.498,0.00-22.628,20.262-22.628,45.255  C 153.373,344.994, 163.503,365.256, 176.001,365.256z M 256.001,64.00C 172.566,64.00, 103.289,133.936, 96.00,223.152  c 46.885-27.057, 102.025-42.532, 160.001-42.532c 57.974,0.00, 113.114,15.403, 160.00,42.46C 408.712,133.861, 339.435,64.00, 256.001,64.00z"/>
<glyph unicode="" d="M 256.00,480.00C 114.615,480.00,0.00,365.385,0.00,224.00s 114.612-256.00, 256.00-256.00c 141.385,0.00, 256.00,114.615, 256.00,256.00S 397.385,480.00, 256.00,480.00z M 344.00,368.00  c 17.674,0.00, 32.00-14.327, 32.00-32.00s-14.326-32.00-32.00-32.00c-17.673,0.00-32.00,14.327-32.00,32.00S 326.327,368.00, 344.00,368.00z M 168.00,368.00c 17.673,0.00, 32.00-14.327, 32.00-32.00  s-14.327-32.00-32.00-32.00s-32.00,14.327-32.00,32.00S 150.327,368.00, 168.00,368.00z M 400.069,137.549c-14.676-24.406-35.46-44.84-60.104-59.089  C 314.551,63.768, 285.517,56.00, 256.00,56.00c-29.518,0.00-58.551,7.768-83.964,22.46c-24.646,14.249-45.431,34.683-60.105,59.09l-4.126,6.862  l 41.161,24.699l 4.119-6.852C 175.019,125.779, 213.492,104.00, 256.00,104.00c 42.507,0.00, 80.979,21.779, 102.913,58.261l 4.119,6.851l 41.162-24.698  L 400.069,137.549z"/>
<glyph unicode="" d="M 256.00,480.00C 114.615,480.00,0.00,365.385,0.00,224.00s 114.613-256.00, 256.00-256.00c 141.385,0.00, 256.00,114.615, 256.00,256.00S 397.385,480.00, 256.00,480.00z M 320.00,96.00L 192.00,96.00 l0.00,32.00   l 128.00,0.00 L 320.00,96.00 z M 344.00,368.00c 17.674,0.00, 32.00-14.327, 32.00-32.00s-14.326-32.00-32.00-32.00c-17.673,0.00-32.00,14.327-32.00,32.00S 326.327,368.00, 344.00,368.00z M 168.00,368.00  c 17.673,0.00, 32.00-14.327, 32.00-32.00s-14.327-32.00-32.00-32.00s-32.00,14.327-32.00,32.00S 150.327,368.00, 168.00,368.00z"/>
<glyph unicode="" d="M 256.00,480.00C 114.615,480.00,0.00,365.385,0.00,224.00s 114.615-256.00, 256.00-256.00s 256.00,114.615, 256.00,256.00S 397.385,480.00, 256.00,480.00z M 288.00,192.00l0.00-160.00 l-64.00,0.00 L 224.00,192.00 L 64.00,192.00 l0.00,64.00   l 160.00,0.00 L 224.00,416.00 l 64.00,0.00 l0.00-160.00 l 160.00,0.00 l0.00-64.00 L 288.00,192.00 z"/>
<glyph unicode="" d="M 256.00,480.00C 114.615,480.00,0.00,365.385,0.00,224.00s 114.615-256.00, 256.00-256.00s 256.00,114.615, 256.00,256.00S 397.385,480.00, 256.00,480.00z M 64.00,192.00l0.00,64.00 l 384.00,0.00 l0.00-64.00 L 64.00,192.00 z"/>
<glyph unicode="" d="M 256.00,480.00C 114.615,480.00,0.00,365.385,0.00,224.00s 114.615-256.00, 256.00-256.00s 256.00,114.615, 256.00,256.00S 397.385,480.00, 256.00,480.00z M 256.00,32.00  c-26.51,0.00-48.00,21.49-48.00,48.00s 21.49,48.00, 48.00,48.00s 48.00-21.49, 48.00-48.00S 282.51,32.00, 256.00,32.00z M 368.064,302.971  c-2.495-8.446-5.956-16.459-10.406-24.007c-4.445-7.567-9.79-14.732-16.019-21.476c-6.229-6.771-13.061-13.267-20.541-19.486  c-8.363-6.936-15.08-13.076-20.146-18.418c-5.057-5.328-8.488-9.967-10.269-13.867c-3.339-7.174-5.853-24.363-2.691-45.717l-63.959,0.00   c-0.525,37.938, 5.058,56.501, 11.688,70.258c 6.764,13.884, 19.377,28.554, 37.888,44.031c 8.011,6.567, 14.236,12.408, 18.675,17.479  c 4.449,5.067, 7.841,9.599, 10.143,13.604c 2.307,4.00, 3.729,7.734, 4.271,11.211c 0.53,3.461, 0.793,7.056, 0.793,10.799  c0.00,6.938-1.199,13.337-3.603,19.205c-2.396,5.883-5.824,10.938-10.264,15.197c-4.457,4.281-9.696,7.617-15.744,10.021  c-6.048,2.399-12.804,3.61-20.279,3.61c-29.164,0.00-46.955-20.371-53.365-61.104l-64.027,0.00 c 1.598,17.44, 5.56,33.211, 11.876,47.353  c 6.313,14.15, 14.576,26.151, 24.813,36.028c 10.231,9.876, 22.146,17.47, 35.754,22.796c 13.60,5.34, 28.409,8.012, 44.419,8.012  c 17.08,0.00, 32.642-2.441, 46.696-7.332c 14.057-4.899, 26.104-11.709, 36.146-20.42c 10.057-8.713, 17.872-19.119, 23.482-31.211  c 5.591-12.104, 8.411-25.261, 8.411-39.484C 371.804,320.454, 370.546,311.424, 368.064,302.971z"/>
<glyph unicode="" d="M 256.00,480.00C 114.615,480.00,0.00,365.385,0.00,224.00s 114.613-256.00, 256.00-256.00c 141.385,0.00, 256.00,114.615, 256.00,256.00S 397.385,480.00, 256.00,480.00z M 256.00,0.00    C 132.288,0.00, 32.00,100.288, 32.00,224.00S 132.288,448.00, 256.00,448.00s 224.00-100.288, 224.00-224.00S 379.712,0.00, 256.00,0.00zM 224.00,128.00L 288.00,128.00L 288.00,64.00L 224.00,64.00zM 352.00,352.00L 160.00,352.00 l0.00-64.00 l 160.00,0.00 l0.00-32.00 l-96.00-64.00l0.00-32.00 l 64.00,0.00 l 96.00,64.00l0.00,96.00 C 384.00,337.673, 369.673,352.00, 352.00,352.00z"/>
<glyph unicode="" d="M 256.00,480.00C 114.615,480.00,0.00,365.385,0.00,224.00s 114.614-256.00, 256.00-256.00c 141.385,0.00, 256.00,114.615, 256.00,256.00S 397.385,480.00, 256.00,480.00z M 256.00,416.00   c 35.347,0.00, 64.00-28.654, 64.00-64.00s-28.653-64.00-64.00-64.00s-64.00,28.654-64.00,64.00S 220.654,416.00, 256.00,416.00z M 352.00,32.00L 160.00,32.00 l0.00,32.00 l 32.00,0.00 L 192.00,224.00 l-32.00,0.00 l0.00,32.00 l 160.00,0.00 l0.00-192.00 l 32.00,0.00 L 352.00,32.00 z   "/>
<glyph unicode="" d="M0.00,224.00c0.00-141.385, 114.615-256.00, 256.00-256.00c 141.386,0.00, 256.00,114.615, 256.00,256.00S 397.386,480.00, 256.00,480.00C 114.615,480.00,0.00,365.385,0.00,224.00z M 448.00,224.00  c0.00-36.618-10.256-70.84-28.044-99.956L 156.045,387.956C 185.16,405.745, 219.382,416.00, 256.00,416.00C 362.038,416.00, 448.00,330.039, 448.00,224.00z M 64.00,224.00  c0.00,36.618, 10.256,70.839, 28.045,99.956l 263.911-263.912C 326.839,42.255, 292.618,32.00, 256.00,32.00C 149.962,32.00, 64.00,117.961, 64.00,224.00z"/>
<glyph unicode="" d="M 256.00,480.00C 114.615,480.00,0.00,365.385,0.00,224.00s 114.615-256.00, 256.00-256.00s 256.00,114.615, 256.00,256.00S 397.385,480.00, 256.00,480.00z M 416.00,128.00l-64.00-64.00l-96.00,96.00l-96.00-96.00  l-64.00,64.00l 96.00,96.00l-96.00,96.00l 64.00,64.00l 96.00-96.00l 96.00,96.00l 64.00-64.00l-96.00-96.00L 416.00,128.00z"/>
<glyph unicode="" d="M 507.331,68.67c-0.002,0.002-0.004,0.004-0.006,0.005L 352.003,224.00l 155.322,155.325c 0.002,0.002, 0.004,0.003, 0.006,0.005   c 1.672,1.673, 2.881,3.627, 3.656,5.708c 2.123,5.688, 0.912,12.341-3.662,16.915L 433.952,475.326c-4.574,4.573-11.225,5.783-16.914,3.66   c-2.08-0.775-4.035-1.984-5.709-3.655c0.00-0.002-0.002-0.003-0.004-0.005L 256.001,320.00L 100.677,475.325   c-0.002,0.002-0.003,0.003-0.005,0.005c-1.673,1.671-3.627,2.88-5.707,3.655c-5.69,2.124-12.341,0.913-16.915-3.66L 4.676,401.951   c-4.574-4.574-5.784-11.226-3.661-16.914c 0.776-2.08, 1.985-4.036, 3.656-5.708c 0.002-0.001, 0.003-0.003, 0.005-0.005L 160.001,224.00   L 4.676,68.674c-0.001-0.002-0.003-0.003-0.004-0.005c-1.671-1.673-2.88-3.627-3.657-5.707c-2.124-5.688-0.913-12.341, 3.661-16.915   l 73.374-73.373c 4.575-4.574, 11.226-5.784, 16.915-3.661c 2.08,0.776, 4.035,1.985, 5.708,3.656c 0.001,0.002, 0.003,0.003, 0.005,0.005   l 155.324,155.325l 155.324-155.325c 0.002-0.001, 0.004-0.003, 0.006-0.004c 1.674-1.672, 3.627-2.881, 5.707-3.657   c 5.689-2.123, 12.342-0.913, 16.914,3.661l 73.373,73.374c 4.574,4.574, 5.785,11.227, 3.662,16.915   C 510.212,65.043, 509.003,66.997, 507.331,68.67z"/>
<glyph unicode="" d="M 512.00,352.00L 384.00,480.00L 256.00,352.00L 128.00,480.00L0.00,352.00L 128.00,224.00L0.00,96.00L 128.00-32.00L 256.00,96.00L 384.00-32.00L 512.00,96.00L 384.00,224.00 z"/>
<glyph unicode="" d="M 432.00,432.00L 192.00,192.00L 80.00,304.00L0.00,224.00L 192.00,32.00L 512.00,352.00 z"/>
<glyph unicode="" d="M0.00,272.00l0.00-96.00 c0.00-8.836, 7.164-16.00, 16.00-16.00l 480.00,0.00 c 8.836,0.00, 16.00,7.164, 16.00,16.00l0.00,96.00 c0.00,8.836-7.164,16.00-16.00,16.00L 16.00,288.00 C 7.164,288.00,0.00,280.836,0.00,272.00z"/>
<glyph unicode="" d="M 496.00,288.00L 320.00,288.00 L 320.00,464.00 c0.00,8.836-7.164,16.00-16.00,16.00l-96.00,0.00 c-8.836,0.00-16.00-7.164-16.00-16.00l0.00-176.00 L 16.00,288.00 c-8.836,0.00-16.00-7.164-16.00-16.00l0.00-96.00   c0.00-8.836, 7.164-16.00, 16.00-16.00l 176.00,0.00 l0.00-176.00 c0.00-8.836, 7.164-16.00, 16.00-16.00l 96.00,0.00 c 8.836,0.00, 16.00,7.164, 16.00,16.00L 320.00,160.00 l 176.00,0.00 c 8.836,0.00, 16.00,7.164, 16.00,16.00l0.00,96.00   C 512.00,280.836, 504.836,288.00, 496.00,288.00z"/>
<glyph unicode="" d="M 448.00,448.00L 96.00,448.00 C 78.40,448.00, 64.00,433.60, 64.00,416.00l0.00-128.00 l 64.00,0.00 L 128.00,384.00 l 352.00,0.00 L 480.00,416.00 C 480.00,433.60, 465.60,448.00, 448.00,448.00zM 336.00,208.00L 192.00,352.00L 192.00,256.00L0.00,256.00L0.00,160.00L 192.00,160.00L 192.00,64.00  zM 128.00,128.00L 64.00,128.00 l0.00-128.00 c0.00-17.60, 14.399-32.00, 32.00-32.00l 352.00,0.00 c 17.60,0.00, 32.00,14.40, 32.00,32.00l0.00,32.00 L 128.00,32.00 L 128.00,128.00 z"/>
<glyph unicode="" d="M 496.00,208.00L 352.00,352.00L 352.00,256.00L 160.00,256.00L 160.00,160.00L 352.00,160.00L 352.00,64.00  zM 416.00,384.00L 416.00,416.00 c0.00,17.60-14.40,32.00-32.00,32.00L 32.00,448.00 C 14.40,448.00,0.00,433.60,0.00,416.00l0.00-416.00 c0.00-17.60, 14.399-32.00, 32.00-32.00l 352.00,0.00 c 17.60,0.00, 32.00,14.40, 32.00,32.00l0.00,32.00 L 64.00,32.00 L 64.00,384.00    L 416.00,384.00 z"/>
<glyph unicode="" d="M 160.00,160.00L 160.00,256.00L 256.00,256.00L 128.00,384.00L0.00,256.00L 96.00,256.00L 96.00,96.00L 288.00,96.00L 224.00,160.00  zM 416.00,192.00L 416.00,352.00L 224.00,352.00L 288.00,288.00L 352.00,288.00L 352.00,192.00L 256.00,192.00L 384.00,64.00L 512.00,192.00  z"/>
<glyph unicode="" d="M 384.00,160.00L 256.00,288.00L 128.00,160.00 z"/>
<glyph unicode="" d="M 192.001,96.00L 320.001,224.00L 192.001,352.00 z"/>
<glyph unicode="" d="M 128.00,288.00L 256.00,160.00L 384.00,288.00 z"/>
<glyph unicode="" d="M 320.001,352.00L 192.001,224.00L 320.001,95.999 z"/>
<glyph unicode="" d="M0.00,96.00L 128.00,224.00L 384.00-32.00L 512.00,96.00L 256.00,352.00L 383.999,480.00L0.00,480.00 z"/>
<glyph unicode="" d="M 256.001,480.00L0.00,224.00L 160.00,224.00L 160.00-31.999L 352.00-32.00L 352.00,224.00L 512.00,224.00 z"/>
<glyph unicode="" d="M 128.00,480.00L 256.001,352.00L0.00,96.00L 128.00-32.00L 384.00,224.00L 512.00,96.001L 512.00,480.00 z"/>
<glyph unicode="" d="M 512.00,224.00L 256.00,480.00L 256.00,320.00L 0.001,320.00L0.00,128.00L 256.00,128.00L 256.00-32.00 z"/>
<glyph unicode="" d="M 512.00,352.00L 384.00,224.00L 128.00,480.00L0.00,352.00L 256.001,96.00L 128.001-32.00L 512.00-32.00 z"/>
<glyph unicode="" d="M 256.00-32.00L 512.00,224.00L 352.00,224.00L 352.00,479.999L 160.00,480.00L 160.00,224.00L0.00,224.00 z"/>
<glyph unicode="" d="M 384.00-32.00L 256.00,96.00L 512.00,352.00L 384.00,480.00L 128.00,223.999L0.00,351.999L0.00-32.00 z"/>
<glyph unicode="" d="M0.00,224.00L 256.00-32.00L 256.00,128.00L 511.999,128.00L 512.00,320.00L 256.00,320.00L 256.00,480.00 z"/>
<glyph unicode="" d="M0.00,480.00L0.00,192.00L 96.00,288.00L 512.00-32.00L 192.00,384.00L 285.309,480.00 z"/>
<glyph unicode="" d="M 256.002-32.00L 200.00,352.00L 96.00,352.00L 255.999,480.00L 416.00,352.00L 311.999,352.00 z"/>
<glyph unicode="" d="M 512.00,480.00L 224.00,480.00L 320.00,384.00L0.00-32.00L 416.00,288.00L 512.00,194.691 z"/>
<glyph unicode="" d="M0.00,223.998L 384.00,280.00L 384.00,384.00L 512.00,224.001L 384.00,64.00L 384.00,168.001 z"/>
<glyph unicode="" d="M 512.00-32.00L 512.00,256.00L 416.001,160.00L0.00,480.00L 320.00,64.00L 226.692-32.00 z"/>
<glyph unicode="" d="M 255.998,480.00L 312.00,96.00L 416.00,96.00L 256.001-32.00L 96.00,96.00L 200.001,96.00 z"/>
<glyph unicode="" d="M0.00-32.00L 288.00-32.00L 192.00,64.00L 512.00,480.00L 96.00,160.00L0.00,253.308 z"/>
<glyph unicode="" d="M 512.00,224.002L 128.00,168.00L 128.00,64.00L0.00,223.999L 128.00,384.00L 128.00,279.999 z"/>
<glyph unicode="" d="M 32.00,448.00L 32.00,128.00L 128.00,32.00L 128.00,256.00L 384.00,0.00L 480.00,96.00L 224.00,352.00L 448.00,352.00L 352.00,448.00 z"/>
<glyph unicode="" d="M 32.00,256.00L 32.00,128.00L 192.00,288.00L 192.00-32.00L 320.00-32.00L 320.00,288.00L 480.00,128.00L 480.00,256.00L 256.00,480.00 z"/>
<glyph unicode="" d="M 480.00,448.00L 160.00,448.00L 64.00,352.00L 288.00,352.00L 32.00,96.00L 128.00,0.00L 384.00,256.00L 384.00,32.00L 480.00,128.00 z"/>
<glyph unicode="" d="M 288.00,448.00L 160.00,448.00L 320.00,288.00L0.00,288.00L0.00,160.00L 320.00,160.00L 160.00,0.00L 288.00,0.00L 512.00,224.00 z"/>
<glyph unicode="" d="M 480.00,0.00L 480.00,320.00L 384.00,416.00L 384.00,192.00L 128.00,448.00L 32.00,352.00L 288.00,96.00L 64.001,96.00L 160.001,0.00 z"/>
<glyph unicode="" d="M 480.00,192.00L 480.00,320.00L 320.00,160.00L 320.00,480.00L 192.00,480.00L 192.001,159.999L 32.00,320.00L 32.00,191.999L 256.001-32.00 z"/>
<glyph unicode="" d="M 32.00,0.00L 352.00,0.00L 448.00,96.00L 224.00,96.00L 480.00,352.00L 384.00,448.00L 128.00,192.00L 128.00,416.00L 32.00,320.00 z"/>
<glyph unicode="" d="M 224.00,0.00L 352.00,0.00L 192.00,160.00L 512.00,160.00L 512.00,288.00L 192.00,288.00L 352.00,448.00L 224.00,448.00L0.00,224.00 z"/>
<glyph unicode="" d="M 512.00,256.00L 256.00,480.00L0.00,256.00l 186.225,0.00 L 128.00-32.00l 256.00,0.00 l-58.226,288.00L 512.00,256.00 z M 346.226,0.00L 165.775,0.00 L 224.00,288.00L 85.167,288.00 L 256.00,437.479L 426.834,288.00  L 288.00,288.00 L 346.226,0.00z"/>
<glyph unicode="" d="M 288.00-32.00l 224.00,256.00L 288.00,480.00l0.00-186.225 L0.00,352.00l0.00-256.00 l 288.00,58.227L 288.00-32.00 z M 32.00,133.774L 32.00,314.226 L 320.00,256.00L 320.00,394.833 L 469.479,224.00L 320.00,53.166L 320.00,192.00   L 32.00,133.774z"/>
<glyph unicode="" d="M0.00,192.00l 256.00-224.00l 256.00,224.00L 325.776,192.00 L 384.00,480.00L 128.00,480.00 l 58.227-288.00L0.00,192.00 z M 165.775,448.00l 180.451,0.00 L 288.00,160.00l 138.833,0.00 L 256.00,10.521L 85.166,160.00L 224.00,160.00   L 165.775,448.00z"/>
<glyph unicode="" d="M 224.00,480.00L0.00,224.00l 224.00-256.00L 224.00,154.226 l 288.00-58.225L 512.00,352.00 l-288.00-58.227L 224.00,480.00 z M 480.00,314.226l0.00-180.45 l-288.00,58.226l0.00-138.833 L 42.522,224.00  L 192.00,394.834L 192.00,256.00 L 480.00,314.226z"/>
<glyph unicode="" d="M 256.00,480.00L 32.00-32.00L 256.00,64.00L 480.00-32.00 z"/>
<glyph unicode="" d="M 512.00,224.00L0.00,448.00L 96.00,224.00L0.00,0.00 z"/>
<glyph unicode="" d="M 256.00-32.00L 480.00,480.00L 256.00,384.00L 32.00,480.00 z"/>
<glyph unicode="" d="M0.00,224.00L 512.00,0.00L 416.00,224.00L 512.00,448.00 z"/>
<glyph unicode="" d="M 128.00,256.00L 128.00,192.001L 224.00,288.00L 224.00,96.001L 288.00,96.00L 288.001,288.00L 384.001,192.00L 384.001,256.00L 256.001,384.00  zM0.00,224.00c0.00-141.384, 114.615-255.999, 256.00-256.00c 141.385,0.00, 256.00,114.615, 256.00,256.00c 0.001,141.385-114.614,256.00-256.00,256.00   S0.00,365.385,0.00,224.00z M 480.001,224.00C 480.00,100.288, 379.712,0.00, 256.00,0.00C 132.288,0.001, 32.00,100.289, 32.00,224.00c0.00,123.712, 100.288,224.00, 224.00,224.00   S 480.001,347.712, 480.001,224.00z"/>
<glyph unicode="" d="M 288.00,352.00L 224.00,352.00L 320.00,256.00L 128.00,256.00L 128.00,192.00L 320.00,192.00L 224.00,96.00L 288.00,96.00L 416.00,224.00  zM 256.00,480.00C 114.615,480.00,0.00,365.385,0.00,224.00s 114.615-256.00, 256.00-256.00s 256.00,114.615, 256.00,256.00S 397.385,480.00, 256.00,480.00z M 256.00,0.00   C 132.288,0.00, 32.00,100.288, 32.00,224.00S 132.288,448.00, 256.00,448.00s 224.00-100.288, 224.00-224.00S 379.712,0.00, 256.00,0.00z"/>
<glyph unicode="" d="M 384.00,192.00L 384.00,256.00L 288.00,160.00L 288.00,352.00L 224.00,352.00L 224.00,160.00L 128.00,256.00L 128.00,192.00L 256.00,64.00  zM 512.00,224.00C 512.00,365.385, 397.385,480.00, 256.00,480.00S0.00,365.385,0.00,224.00s 114.615-256.00, 256.00-256.00S 512.00,82.615, 512.00,224.00z M 32.00,224.00   C 32.00,347.712, 132.288,448.00, 256.00,448.00s 224.00-100.288, 224.00-224.00S 379.712,0.00, 256.00,0.00S 32.00,100.288, 32.00,224.00z"/>
<glyph unicode="" d="M 224.00,96.00L 288.00,96.00L 192.00,192.00L 384.00,192.00L 384.00,256.00L 192.00,256.00L 288.00,352.00L 224.00,352.00L 96.00,224.00  zM 256.00-32.00c 141.385,0.00, 256.00,114.615, 256.00,256.00S 397.385,480.00, 256.00,480.00C 114.615,480.00,0.00,365.385,0.00,224.00C0.00,82.615, 114.615-32.00, 256.00-32.00z    M 256.00,448.00c 123.712,0.00, 224.00-100.289, 224.00-224.00S 379.712,0.00, 256.00,0.00S 32.00,100.288, 32.00,224.00C 32.00,347.712, 132.288,448.00, 256.00,448.00z"/>
<glyph unicode="" d="M 384.00,256.00L 256.00,384.00L 128.00,256.00  zM 128.00,160.00L 256.00,32.00L 384.00,160.00  z"/>
<glyph unicode="" d="M 512.00,448.00L 416.00,448.00L 416.00,224.00L 176.00,224.00L 256.00,304.00L 192.00,368.00L0.00,176.00L 192.00-16.00L 256.00,48.00L 176.00,128.00L 512.00,128.00 z"/>
<glyph unicode="" d="M 160.00,384.00L0.00,224.00l 160.00-160.00l 352.00,0.00 L 512.00,384.00 L 160.00,384.00 z M 480.00,96.00L 173.255,96.00 l-128.00,128.00l 128.00,128.00L 480.00,352.00 L 480.00,96.00 zM 288.00,128.00L 352.00,192.00L 416.00,128.00L 448.00,160.00L 384.00,224.00L 448.00,288.00L 416.00,320.00L 352.00,256.00L 288.00,320.00L 256.00,288.00L 320.00,224.00L 256.00,160.00  z"/>
<glyph unicode="" d="M 160.00,384.00L0.00,224.00l 160.00-160.00l 352.00,0.00 L 512.00,384.00 L 160.00,384.00 z M 469.12,145.92l-39.04-39.04L 352.00,184.96l-78.08-78.08l-39.04,39.04L 312.96,224.00  l-78.08,78.08l 39.04,39.04L 352.00,263.04l 78.08,78.08l 39.04-39.04L 391.04,224.00L 469.12,145.92z"/>
<glyph unicode="" d="M 352.00,192.00L 480.00,320.00L 352.00,448.00L 352.00,352.00L0.00,352.00L0.00,288.00L 352.00,288.00  zM 160.00,160.00L 160.00,256.00L 32.00,128.00L 160.00,0.00L 160.00,96.00L 512.00,96.00L 512.00,160.00  z"/>
<glyph unicode="" d="M 352.00,384.00L0.00,384.00L0.00,320.00L 352.00,320.00L 352.00,224.00L 480.00,352.00L 352.00,480.00  zM 480.00,480.00L 480.00,352.00L 480.00,224.00L 512.00,224.00L 512.00,480.00  zM 160.00,224.00L 32.00,96.00L 160.00-32.00L 160.00,64.00L 512.00,64.00L 512.00,128.00L 160.00,128.00  zM0.00,224.00L0.00-32.00L 32.00-32.00L 32.00,96.00L 32.00,224.00  z"/>
<glyph unicode="" d="M0.00,480.00l0.00-512.00 l 512.00,0.00 L 512.00,480.00 L0.00,480.00 z M 480.00,0.00L 32.00,0.00 L 32.00,448.00 l 448.00,0.00 L 480.00,0.00 zM 384.00,352.00L 224.00,192.00L 128.00,288.00L 64.00,224.00L 224.00,64.00L 448.00,288.00  z"/>
<glyph unicode="" d="M0.00,480.00l0.00-512.00 l 512.00,0.00 L 512.00,480.00 L0.00,480.00 z M 480.00,0.00L 32.00,0.00 L 32.00,448.00 l 448.00,0.00 L 480.00,0.00 z"/>
<glyph unicode="" d="M0.00,480.00l0.00-512.00 l 512.00,0.00 L 512.00,480.00 L0.00,480.00 z M 480.00,0.00L 32.00,0.00 L 32.00,448.00 l 448.00,0.00 L 480.00,0.00 zM 128.00,352.00L 384.00,352.00L 384.00,96.00L 128.00,96.00z"/>
<glyph unicode="" d="M 256.00,480.00C 114.615,480.00,0.00,365.385,0.00,224.00s 114.615-256.00, 256.00-256.00s 256.00,114.615, 256.00,256.00S 397.385,480.00, 256.00,480.00z M 256.00,32.00   c-106.039,0.00-192.00,85.961-192.00,192.00c0.00,106.039, 85.961,192.00, 192.00,192.00c 106.039,0.00, 192.00-85.961, 192.00-192.00C 448.00,117.961, 362.039,32.00, 256.00,32.00zM 160.00,224.00A96.00,96.00 6300.00 1,0 352.00,224A96.00,96.00 6300.00 1,0 160.00,224z"/>
<glyph unicode="" d="M 256.00,480.00C 114.615,480.00,0.00,365.385,0.00,224.00s 114.615-256.00, 256.00-256.00s 256.00,114.615, 256.00,256.00S 397.385,480.00, 256.00,480.00z M 256.00,32.00  c-106.039,0.00-192.00,85.961-192.00,192.00c0.00,106.039, 85.961,192.00, 192.00,192.00c 106.039,0.00, 192.00-85.961, 192.00-192.00C 448.00,117.961, 362.039,32.00, 256.00,32.00z"/>
<glyph unicode="" d="M 399.798,471.896C 354.535,471.896, 325.488,480.00, 278.874,480.00C 128.232,480.00, 57.978,394.208, 57.978,307.064  c0.00-51.339, 24.32-68.229, 72.282-68.229c-3.379,7.432-9.457,15.54-9.457,52.017c0.00,102.005, 38.503,131.729, 87.818,133.755  c0.00,0.00-40.459-396.687-157.889-444.271L 50.732-32.00 l 84.359,0.00 l 73.938,0.00 l 54.013,256.00l 98.922,0.00 L 384.00,288.00L 276.546,288.00 l 25.972,123.095  c 29.723-6.078, 58.771-12.158, 83.766-12.158c 31.074,0.00, 59.447,9.457, 74.984,81.063C 442.355,473.92, 422.087,471.896, 399.798,471.896z"/>
<glyph unicode="" d="M0.00,384.00L 512.00,384.00L 512.00,352.00L0.00,352.00zM0.00,320.00L 352.00,320.00L 352.00,288.00L0.00,288.00zM0.00,256.00L 512.00,256.00L 512.00,224.00L0.00,224.00zM0.00,192.00L 352.00,192.00L 352.00,160.00L0.00,160.00zM0.00,128.00L 512.00,128.00L 512.00,96.00L0.00,96.00zM0.00,64.00L 352.00,64.00L 352.00,32.00L0.00,32.00z"/>
<glyph unicode="" d="M0.00,384.00L 512.00,384.00L 512.00,352.00L0.00,352.00zM 96.00,320.00L 416.00,320.00L 416.00,288.00L 96.00,288.00zM 96.00,192.00L 416.00,192.00L 416.00,160.00L 96.00,160.00zM 96.00,64.00L 416.00,64.00L 416.00,32.00L 96.00,32.00zM0.00,256.00L 512.00,256.00L 512.00,224.00L0.00,224.00zM0.00,128.00L 512.00,128.00L 512.00,96.00L0.00,96.00z"/>
<glyph unicode="" d="M0.00,384.00L 512.00,384.00L 512.00,352.00L0.00,352.00zM 160.00,320.00L 512.00,320.00L 512.00,288.00L 160.00,288.00zM0.00,256.00L 512.00,256.00L 512.00,224.00L0.00,224.00zM 160.00,192.00L 512.00,192.00L 512.00,160.00L 160.00,160.00zM0.00,128.00L 512.00,128.00L 512.00,96.00L0.00,96.00zM 160.00,64.00L 512.00,64.00L 512.00,32.00L 160.00,32.00z"/>
<glyph unicode="" d="M 256.00,480.00c-70.692,0.00-128.00-57.308-128.00-128.00s 57.308-128.00, 128.00-128.00l0.00-256.00 l 64.00,0.00 L 320.00,416.00 l 64.00,0.00 l0.00-448.00 l 64.00,0.00 L 448.00,416.00 l 64.00,0.00 L 512.00,480.00 L 256.00,480.00 zM0.00,128.00L 128.00,256.00L0.00,384.00  z"/>
<glyph unicode="" d="M 128.00,480.00C 57.308,480.00,0.00,422.692,0.00,352.00s 57.308-128.00, 128.00-128.00l0.00-256.00 l 64.00,0.00 L 192.00,416.00 l 64.00,0.00 l0.00-448.00 l 64.00,0.00 L 320.00,416.00 l 64.00,0.00 L 384.00,480.00 L 128.00,480.00 zM 512.00,384.00L 384.00,256.00L 512.00,128.00  z"/>
<glyph unicode="" d="M 128.00,160.00c0.00,0.00, 29.412,96.00, 192.00,96.00l0.00-96.00 l 192.00,128.00L 320.00,416.00l0.00-96.00 C 192.00,320.00, 128.00,240.164, 128.00,160.00zM 352.00,96.00L 64.00,96.00 L 64.00,288.00 l 62.938,0.00 c 5.047,5.959, 10.456,11.667, 16.244,17.09c 21.982,20.595, 48.281,36.326, 78.057,46.91L0.00,352.00 l0.00-320.00 l 416.00,0.00    L 416.00,166.312 l-64.00-42.667L 352.00,96.00 z"/>
<glyph unicode="" d="M 320.00,448.00L 384.00,384.00L 160.00,160.00L 192.00,128.00L 416.00,352.00L 480.00,288.00L 480.00,448.00  zM 352.00,64.00L 96.00,64.00L 96.00,320.00L 224.00,320.00L 288.00,384.00L 32.00,384.00L 32.00,0.00L 416.00,0.00L 416.00,256.00L 352.00,192.00  z"/>
<glyph unicode="" d="M 160.00,352.00L 32.00,224.00L 160.00,96.00L 224.00,96.00L 96.00,224.00L 224.00,352.00  zM 352.00,352.00L 288.00,352.00L 416.00,224.00L 288.00,96.00L 352.00,96.00L 480.00,224.00  z"/>
<glyph unicode="" d="M 352.00,416.00L 384.00,448.00L 352.00,480.00L 160.00,480.00L 128.00,448.00L 160.00,416.00  zM 384.00,432.00L 352.00,400.00L 352.00,272.00L 384.00,240.00L 416.00,272.00L 416.00,400.00  zM 160.00,271.999L 160.00,400.00L 128.00,432.00L 96.00,400.00L 96.00,271.999L 128.00,239.999  zM 352.00,176.00L 352.00,48.00L 384.00,16.00L 416.00,48.00L 416.00,176.00L 384.00,208.00  zM 160.00,48.00L 160.00,176.00L 128.00,208.00L 96.00,176.00L 96.00,48.00L 128.00,16.00  zM 160.00,32.00L 128.00,0.00L 160.00-32.00L 352.00-32.00L 384.00,0.00L 352.00,32.00  z"/>
<glyph unicode="" d="M 384.00,432.00L 352.00,400.00L 352.00,272.00L 384.00,240.00L 416.00,272.00L 416.00,400.00  zM 352.00,176.00L 352.00,48.00L 384.00,16.00L 416.00,48.00L 416.00,176.00L 384.00,208.00  z"/>
<glyph unicode="" d="M 128.00,448.00L 160.00,480.00L 352.00,480.00L 384.00,448.00L 352.00,416.00L 160.00,416.00 zM 384.00,240.00L 352.00,272.00L 352.00,400.00L 384.00,432.00L 416.00,400.00L 416.00,272.00 zM 128.00,16.00L 96.00,48.00L 96.00,176.00L 128.00,208.00L 160.00,176.00L 160.00,48.00 zM 128.00,224.00L 160.00,256.00L 352.00,256.00L 384.00,224.00L 352.00,192.00L 160.00,192.00 zM 128.00,0.00L 160.00,32.00L 352.00,32.00L 384.00,0.00L 352.00-32.00L 160.00-32.00 z"/>
<glyph unicode="" d="M 128.00,448.00L 160.00,480.00L 352.00,480.00L 384.00,448.00L 352.00,416.00L 160.00,416.00 zM 384.00,240.00L 352.00,272.00L 352.00,400.00L 384.00,432.00L 416.00,400.00L 416.00,272.00 zM 384.00,16.00L 352.00,48.00L 352.00,176.00L 384.00,208.00L 416.00,176.00L 416.00,48.00 zM 128.00,224.00L 160.00,256.00L 352.00,256.00L 384.00,224.00L 352.00,192.00L 160.00,192.00 zM 128.00,0.00L 160.00,32.00L 352.00,32.00L 384.00,0.00L 352.00-32.00L 160.00-32.00 z"/>
<glyph unicode="" d="M 384.00,240.00L 352.00,272.00L 352.00,400.00L 384.00,432.00L 416.00,400.00L 416.00,272.00 zM 128.00,239.999L 96.00,271.999L 96.00,400.00L 128.00,432.00L 160.00,400.00L 160.00,271.999 zM 384.00,16.00L 352.00,48.00L 352.00,176.00L 384.00,208.00L 416.00,176.00L 416.00,48.00 zM 128.00,224.00L 160.00,256.00L 352.00,256.00L 384.00,224.00L 352.00,192.00L 160.00,192.00 z"/>
<glyph unicode="" d="M 128.00,448.00L 160.00,480.00L 352.00,480.00L 384.00,448.00L 352.00,416.00L 160.00,416.00 zM 128.00,239.999L 96.00,271.999L 96.00,400.00L 128.00,432.00L 160.00,400.00L 160.00,271.999 zM 384.00,16.00L 352.00,48.00L 352.00,176.00L 384.00,208.00L 416.00,176.00L 416.00,48.00 zM 128.00,224.00L 160.00,256.00L 352.00,256.00L 384.00,224.00L 352.00,192.00L 160.00,192.00 zM 128.00,0.00L 160.00,32.00L 352.00,32.00L 384.00,0.00L 352.00-32.00L 160.00-32.00 z"/>
<glyph unicode="" d="M 128.00,448.00L 160.00,480.00L 352.00,480.00L 384.00,448.00L 352.00,416.00L 160.00,416.00 zM 128.00,239.999L 96.00,271.999L 96.00,400.00L 128.00,432.00L 160.00,400.00L 160.00,271.999 zM 384.00,16.00L 352.00,48.00L 352.00,176.00L 384.00,208.00L 416.00,176.00L 416.00,48.00 zM 128.00,16.00L 96.00,48.00L 96.00,176.00L 128.00,208.00L 160.00,176.00L 160.00,48.00 zM 128.00,224.00L 160.00,256.00L 352.00,256.00L 384.00,224.00L 352.00,192.00L 160.00,192.00 zM 128.00,0.00L 160.00,32.00L 352.00,32.00L 384.00,0.00L 352.00-32.00L 160.00-32.00 z"/>
<glyph unicode="" d="M 128.00,448.00L 160.00,480.00L 352.00,480.00L 384.00,448.00L 352.00,416.00L 160.00,416.00 zM 384.00,240.00L 352.00,272.00L 352.00,400.00L 384.00,432.00L 416.00,400.00L 416.00,272.00 zM 384.00,16.00L 352.00,48.00L 352.00,176.00L 384.00,208.00L 416.00,176.00L 416.00,48.00 z"/>
<glyph unicode="" d="M 352.00,416.00L 384.00,448.00L 352.00,480.00L 160.00,480.00L 128.00,448.00L 160.00,416.00  zM 384.00,432.00L 352.00,400.00L 352.00,272.00L 384.00,240.00L 416.00,272.00L 416.00,400.00  zM 160.00,271.999L 160.00,400.00L 128.00,432.00L 96.00,400.00L 96.00,271.999L 128.00,239.999  zM 352.00,176.00L 352.00,48.00L 384.00,16.00L 416.00,48.00L 416.00,176.00L 384.00,208.00  zM 160.00,48.00L 160.00,176.00L 128.00,208.00L 96.00,176.00L 96.00,48.00L 128.00,16.00  zM 128.00,224.00L 160.00,192.00L 352.00,192.00L 384.00,224.00L 352.00,256.00L 160.00,256.00  zM 160.00,32.00L 128.00,0.00L 160.00-32.00L 352.00-32.00L 384.00,0.00L 352.00,32.00  z"/>
<glyph unicode="" d="M 128.00,448.00L 160.00,480.00L 352.00,480.00L 384.00,448.00L 352.00,416.00L 160.00,416.00 zM 384.00,240.00L 352.00,272.00L 352.00,400.00L 384.00,432.00L 416.00,400.00L 416.00,272.00 zM 128.00,239.999L 96.00,271.999L 96.00,400.00L 128.00,432.00L 160.00,400.00L 160.00,271.999 zM 384.00,16.00L 352.00,48.00L 352.00,176.00L 384.00,208.00L 416.00,176.00L 416.00,48.00 zM 128.00,224.00L 160.00,256.00L 352.00,256.00L 384.00,224.00L 352.00,192.00L 160.00,192.00 zM 128.00,0.00L 160.00,32.00L 352.00,32.00L 384.00,0.00L 352.00-32.00L 160.00-32.00 z"/>
<glyph unicode="" d="M 390.628,320.00L 256.00,455.553l0.00-192.925 L 155.314,363.314l-22.628-22.628L 249.372,224.00L 132.686,107.313l 22.628-22.627L 256.00,185.372  l0.00-192.924 L 390.628,128.00l-96.00,96.00L 390.628,320.00z M 288.00,377.819L 345.372,320.00L 288.00,262.628L 288.00,377.819 z M 345.372,128.00L 288.00,70.181L 288.00,185.372   L 345.372,128.00z"/>
<glyph unicode="" d="M 432.00,128.00c-22.58,0.00-42.96-9.369-57.506-24.415L 158.992,211.336C 159.649,215.462, 160.00,219.689, 160.00,224.00  s-0.351,8.538-1.008,12.663l 215.502,107.751C 389.04,329.369, 409.42,320.00, 432.00,320.00c 44.183,0.00, 80.00,35.817, 80.00,80.00S 476.183,480.00, 432.00,480.00  s-80.00-35.817-80.00-80.00c0.00-4.311, 0.352-8.538, 1.008-12.663L 137.506,279.585C 122.96,294.63, 102.58,304.00, 80.00,304.00c-44.183,0.00-80.00-35.818-80.00-80.00  c0.00-44.184, 35.817-80.00, 80.00-80.00c 22.58,0.00, 42.96,9.369, 57.506,24.414l 215.502-107.751C 352.352,56.538, 352.00,52.311, 352.00,48.00  c0.00-44.184, 35.817-80.00, 80.00-80.00s 80.00,35.816, 80.00,80.00C 512.00,92.182, 476.183,128.00, 432.00,128.00z"/>
<glyph unicode="" d="M 192.00,224.00A64.00,64.00 6300.00 1,0 320.00,224A64.00,64.00 6300.00 1,0 192.00,224zM 256.00,352.00c 35.346,0.00, 67.346-14.327, 90.51-37.49l 45.255,45.255C 357.02,394.51, 309.02,416.00, 256.00,416.00   c-83.596,0.00-154.70-53.431-181.06-128.00L0.00,288.00 l0.00-64.00 l 128.00,0.00 C 128.00,294.692, 185.308,352.00, 256.00,352.00zM 384.00,224.00c0.00-70.692-57.308-128.00-128.00-128.00c-35.346,0.00-67.346,14.327-90.51,37.49l-45.255-45.255   C 154.981,53.49, 202.981,32.00, 256.00,32.00c 83.596,0.00, 154.70,53.431, 181.06,128.00L 512.00,160.00 l0.00,64.00 L 384.00,224.00 z"/>
<glyph unicode="" d="M 426.655,480.00L 85.345,480.00 C 38.405,480.00,0.00,441.608,0.00,394.671l0.00-341.328 C0.00,6.405, 38.405-32.00, 85.345-32.00l 341.311,0.00   C 473.625-32.00, 512.00,6.405, 512.00,53.343L 512.00,394.671 C 512.00,441.608, 473.625,480.00, 426.655,480.00z M 128.00,352.00l 256.00,0.00 c 4.569,0.00, 9.002-0.981, 13.072-2.831  L 256.00,184.585L 114.928,349.17C 118.998,351.018, 123.431,352.00, 128.00,352.00z M 96.00,128.00L 96.00,320.00 c0.00,0.67, 0.028,1.336, 0.07,2.00l 93.832-109.47  L 97.103,119.73C 96.381,122.399, 96.00,125.173, 96.00,128.00z M 384.00,96.00L 128.00,96.00 c-2.827,0.00-5.601,0.381-8.27,1.103l 91.059,91.059L 256.00,135.414  l 45.212,52.747l 91.058-91.059C 389.60,96.381, 386.827,96.00, 384.00,96.00z M 416.00,128.00c0.00-2.827-0.381-5.60-1.103-8.27l-92.799,92.799L 415.93,322.00  c 0.042-0.664, 0.07-1.33, 0.07-2.00L 416.00,128.00 z"/>
<glyph unicode="" d="M 256.00,480.00C 114.615,480.00,0.00,365.385,0.00,224.00s 114.615-256.00, 256.00-256.00s 256.00,114.615, 256.00,256.00S 397.385,480.00, 256.00,480.00z M 128.00,352.00l 256.00,0.00   c 4.569,0.00, 9.002-0.981, 13.072-2.831L 256.00,184.585L 114.928,349.17C 118.998,351.018, 123.431,352.00, 128.00,352.00z M 96.00,128.00L 96.00,320.00   c0.00,0.67, 0.028,1.336, 0.07,2.00l 93.832-109.471L 97.103,119.73C 96.381,122.398, 96.00,125.173, 96.00,128.00z M 384.00,96.00L 128.00,96.00   c-2.827,0.00-5.601,0.381-8.27,1.104l 91.059,91.059L 256.00,135.414l 45.212,52.747l 91.058-91.06C 389.60,96.381, 386.827,96.00, 384.00,96.00z   M 416.00,128.00c0.00-2.827-0.381-5.60-1.103-8.27l-92.80,92.799L 415.93,322.00c 0.042-0.664, 0.07-1.33, 0.07-2.00L 416.00,128.00 z"/>
<glyph unicode="" d="M 279.533,448.00c0.00,0.00-100.478,0.00-133.97,0.00C 85.503,448.00, 28.978,402.497, 28.978,349.789c0.00-53.863, 40.941-97.333, 102.044-97.333   c 4.249,0.00, 8.378,0.085, 12.421,0.376c-3.965-7.593-6.801-16.144-6.801-25.021c0.00-14.969, 8.052-27.105, 18.234-37.012   c-7.693,0.00-15.121-0.224-23.226-0.224C 57.259,190.576,0.00,143.196,0.00,94.065c0.00-48.389, 62.771-78.657, 137.167-78.657   c 84.812,0.00, 131.653,48.122, 131.653,96.514c0.00,38.80-11.448,62.036-46.843,87.067c-12.108,8.572-35.265,29.418-35.265,41.672   c0.00,14.36, 4.098,21.434, 25.714,38.323c 22.156,17.312, 37.836,41.651, 37.836,69.958c0.00,33.703-15.01,66.549-43.186,77.386l 42.477,0.00    L 279.533,448.00z M 232.74,120.271c 1.063-4.486, 1.642-9.103, 1.642-13.814c0.00-39.10-25.196-69.655-97.487-69.655   c-51.421,0.00-88.558,32.552-88.558,71.65c0.00,38.321, 46.063,70.222, 97.482,69.666c 12.00-0.127, 23.184-2.058, 33.335-5.345   C 207.067,153.36, 227.092,142.392, 232.74,120.271z M 150.409,266.112c-34.519,1.032-67.318,38.613-73.276,83.93   c-5.958,45.333, 17.185,80.021, 51.694,78.995c 34.505-1.037, 67.319-37.407, 73.279-82.729   C 208.059,300.978, 184.911,265.079, 150.409,266.112zM 416.00,352.00L 416.00,448.00L 384.00,448.00L 384.00,352.00L 288.00,352.00L 288.00,320.00L 384.00,320.00L 384.00,224.00L 416.00,224.00L 416.00,320.00L 512.00,320.00L 512.00,352.00  z"/>
<glyph unicode="" d="M 426.756,480.00L 84.621,480.00 C 37.571,480.00,0.00,441.107,0.00,394.061l0.00-340.176 C0.00,5.674, 37.571-32.00, 84.621-32.00l 342.134,0.00   C 473.803-32.00, 512.00,5.674, 512.00,53.885L 512.00,394.061 C 512.00,441.107, 473.803,480.00, 426.756,480.00z M 352.00,464.00l0.00-80.00 l-80.00,0.00 L 272.00,464.00 L 352.00,464.00 z M 240.00,464.00l0.00-80.00 l-80.00,0.00 L 160.00,464.00 L 240.00,464.00 z   M 16.00,384.00L 16.00,394.061 C 16.00,432.625, 46.783,464.00, 84.621,464.00L 128.00,464.00 l0.00-80.00 L 16.00,384.00 z M 384.00,160.00l-96.00,0.00 l0.00-96.00 l-64.00,0.00 l0.00,96.00 l-96.00,0.00 l0.00,64.00 l 96.00,0.00 l0.00,96.00 l 64.00,0.00 l0.00-96.00 l 96.00,0.00 L 384.00,160.00 z M 496.00,384.00L 384.00,384.00 L 384.00,464.00   l 42.756,0.00 C 464.938,464.00, 496.00,432.625, 496.00,394.061L 496.00,384.00 z"/>
<glyph unicode="" d="M 0.403,45.168c-0.122,1.266-0.226,2.535-0.292,3.815C 0.176,47.703, 0.281,46.434, 0.403,45.168zM 117.954,197.426c 46.005-1.369, 76.867,46.349, 68.931,106.599c-7.947,60.24-51.698,108.584-97.704,109.961   c-46.013,1.365-76.87-44.741-68.926-105.00C 28.196,248.752, 71.931,198.799, 117.954,197.426zM 512.00,352.00L 512.00,394.655 C 512.00,441.595, 473.609,480.00, 426.671,480.00L 85.343,480.00 C 39.205,480.00, 1.337,442.884, 0.061,397.037   c 29.181,25.693, 69.662,47.158, 111.437,47.158c 44.652,0.00, 178.622,0.00, 178.622,0.00l-39.974-33.809l-56.634,0.00    c 37.565-14.402, 57.578-58.062, 57.578-102.861c0.00-37.624-20.905-69.977-50.444-92.984c-28.822-22.451-34.286-31.854-34.286-50.939   c0.00-16.289, 30.873-44.00, 47.016-55.394c 47.191-33.269, 62.458-64.156, 62.458-115.728c0.00-8.214-1.021-16.415-3.033-24.48l 153.871,0.00    C 473.609-32.00, 512.00,6.375, 512.00,53.345L 512.00,319.999 l-96.00,0.00 L 416.00,224.00 l-32.00,0.00 l0.00,96.00 l-95.999,0.00 l0.00,32.00 L 384.00,352.00 L 384.00,448.00 l 32.00,0.00 l0.00-96.00 L 512.00,352.00 zM 92.943,97.032c 10.807,0.00, 20.711,0.295, 30.968,0.295c-13.573,13.167-24.313,29.30-24.313,49.19   c0.00,11.804, 3.782,23.168, 9.067,33.26c-5.391-0.385-10.895-0.497-16.563-0.497c-37.178,0.00-68.753,12.038-92.102,31.927l0.00-33.621    l 0.003-100.865C 26.723,89.408, 58.447,97.032, 92.943,97.032zM 1.71,36.371c-0.556,2.729-0.983,5.503-1.271,8.317C 0.726,41.874, 1.154,39.10, 1.71,36.371zM 227.725,3.577c-7.529,29.403-34.227,43.982-71.444,69.784c-13.536,4.366-28.447,6.937-44.447,7.104   c-44.809,0.482-86.554-17.471-110.108-44.186C 9.686-2.574, 44.243-32.00, 85.343-32.00l 143.222,0.00 c 0.908,5.564, 1.348,11.316, 1.348,17.216   C 229.913-8.517, 229.146-2.388, 227.725,3.577z"/>
<glyph unicode="" d="M 209.304,145.838c-2.208,1.536-4.496,3.129-6.858,4.798c-6.883,2.123-14.152,3.238-21.632,3.318   c-0.315,0.003-0.62,0.005-0.93,0.005c-34.69,0.00-65.121-21.302-65.121-45.585c0.00-26.444, 25.998-47.159, 59.187-47.159   c 24.12,0.00, 41.903,4.632, 52.854,13.766c 8.954,7.469, 13.307,17.872, 13.307,31.804c0.00,2.858-0.338,5.776-1.004,8.675   C 236.274,126.641, 226.928,133.574, 209.304,145.838zM 256.00,480.00C 114.615,480.00,0.00,365.385,0.00,224.00s 114.615-256.00, 256.00-256.00s 256.00,114.615, 256.00,256.00S 397.385,480.00, 256.00,480.00z M 256.812,50.464   c-20.807-17.217-49.387-26.317-82.65-26.317c-30.692,0.00-59.188,6.449-80.238,18.16C 70.113,55.553, 57.00,74.94, 57.00,96.898   c0.00,22.268, 12.208,44.534, 33.493,61.089c 21.139,16.442, 48.776,25.613, 77.959,25.898c-3.125,6.363-4.70,12.951-4.70,19.712   c0.00,3.209, 0.352,6.468, 1.051,9.76c-23.559,1.026-44.831,10.012-60.295,25.562c-16.037,16.127-24.869,38.143-24.869,61.991   c0.00,22.806, 11.474,45.612, 31.479,62.572c 19.325,16.383, 44.694,25.779, 69.603,25.779l 142.047,0.00 l-33.512-37.29l-32.309,0.00    c 9.861-13.337, 15.57-31.501, 15.57-51.737c0.00-23.887-11.835-46.484-33.324-63.629c-16.244-12.96-16.324-16.044-16.325-22.657   c 0.613-4.122, 11.704-16.779, 23.409-25.239c 29.697-21.444, 40.74-42.468, 40.74-77.566   C 287.018,88.464, 276.008,66.347, 256.812,50.464z M 384.00,288.00l0.00-64.00 l-32.00,0.00 l0.00,64.00 l-64.00,0.00 l0.00,32.00 l 64.00,0.00 L 352.00,384.00 l 32.00,0.00 l0.00-64.00 l 64.00,0.00 l0.00-32.00 L 384.00,288.00 zM 204.776,253.153c 8.643,9.826, 12.456,26.164, 10.20,43.705c-3.979,30.90-25.348,56.596-47.637,57.28   c-0.285,0.008-0.57,0.013-0.856,0.013c-7.519,0.00-14.24-3.124-19.438-9.033c-8.519-9.686-12.116-25.26-9.867-42.729   c 3.979-30.903, 25.792-57.573, 47.635-58.24C 192.491,243.909, 199.394,247.033, 204.776,253.153z"/>
<glyph unicode="" d="M 287.935-32.00L 192.00-32.00 L 192.00,224.00 l-64.00,0.00 l0.00,88.225 l 64.00,0.029l-0.104,51.976C 191.896,436.206, 211.413,480.00, 296.195,480.00l 70.588,0.00 l0.00-88.242 l-44.115,0.00   c-33.016,0.00-34.603-12.328-34.603-35.342l-0.131-44.162l 79.345,0.00 l-9.352-88.225L 288.00,224.00L 287.935-32.00z"/>
<glyph unicode="" d="M 426.672,480.00L 85.342,480.00 C 38.406,480.00,0.00,441.593,0.00,394.656l0.00-341.313 C0.00,6.374, 38.406-32.00, 85.342-32.00l 341.33,0.001  c 46.938,0.00, 85.328,38.373, 85.328,85.344L 512.00,394.656 C 512.00,441.593, 473.609,480.00, 426.672,480.00z M 435.296,224.00L 352.00,224.00 l0.00-224.00 l-96.00,0.00 L 256.00,224.00 l-46.263,0.00 l0.00,73.282 L 256.00,297.282   l0.00,47.593 C 256.00,409.546, 283.896,448.00, 359.935,448.00l 87.622,0.00 l0.00-79.285 l-71.565,0.00 c-21.241,0.035-23.876-11.076-23.876-31.756L 352.00,297.282l 96.00,0.00   L 435.296,224.00z"/>
<glyph unicode="" d="M 464.00,480.00L 48.00,480.00 C 21.60,480.00,0.00,458.40,0.00,432.00l0.00-416.00 c0.00-26.40, 21.60-48.00, 48.00-48.00l 416.00,0.00 c 26.40,0.00, 48.00,21.60, 48.00,48.00L 512.00,432.00 C 512.00,458.40, 490.40,480.00, 464.00,480.00z M 472.00,72.00L 352.00,72.00   l0.00-16.00 l 120.00,0.00 l0.00-16.00 L 352.00,40.00 l0.00-16.00 l 120.00,0.00 l0.00-16.00 L 352.00,8.00 l0.00-8.00 l-96.00,0.00 l0.00,8.00 L 40.00,8.00 l0.00,16.00 l 216.00,0.00 l0.00,16.00 L 40.00,40.00 l0.00,16.00 l 216.00,0.00 l0.00,16.00 L 40.00,72.00 l0.00,16.00 l 216.00,0.00 L 256.00,224.00 l-46.263,0.00 l0.00,73.282 L 256.00,297.282 l0.00,47.593   C 256.00,409.546, 283.896,448.00, 359.935,448.00l 87.622,0.00 l0.00-79.285 l-71.565,0.00 c-21.241,0.035-23.876-11.076-23.876-31.756L 352.00,297.282l 96.00,0.00 L 435.296,224.00  L 352.00,224.00 l0.00-136.00 l 120.00,0.00 L 472.00,72.00 z"/>
<glyph unicode="" d="M 256.00,480.00C 114.615,480.00,0.00,365.385,0.00,224.00c0.00-119.285, 81.585-219.516, 192.00-247.935L 192.00,192.00 l-46.263,0.00 l0.00,73.282 L 192.00,265.282 l0.00,47.593   C 192.00,377.546, 219.896,416.00, 295.935,416.00l 87.622,0.00 l0.00-79.285 l-71.565,0.00 c-21.241,0.035-23.876-11.076-23.876-31.756L 288.00,265.282l 96.00,0.00 L 371.296,192.00  L 288.00,192.00 l0.00-222.013 C 414.281-14.265, 512.00,93.453, 512.00,224.00C 512.00,365.385, 397.385,480.00, 256.00,480.00z"/>
<glyph unicode="" d="M 512.00,382.791c-18.838-8.354-39.082-14.001-60.33-16.54c 21.686,13.00, 38.343,33.585, 46.186,58.115  c-20.298-12.039-42.778-20.78-66.705-25.49c-19.16,20.415-46.461,33.17-76.673,33.17c-58.011,0.00-105.044-47.029-105.044-105.039  c0.00-8.233, 0.929-16.25, 2.72-23.939c-87.30,4.382-164.701,46.20-216.509,109.753c-9.042-15.514-14.223-33.558-14.223-52.809  c0.00-36.444, 18.544-68.596, 46.73-87.433c-17.219,0.546-33.416,5.271-47.577,13.139c-0.01-0.438-0.01-0.878-0.01-1.321  c0.00-50.894, 36.209-93.348, 84.261-103.00c-8.813-2.40-18.094-3.686-27.674-3.686c-6.769,0.00-13.349,0.66-19.764,1.886  c 13.368-41.73, 52.16-72.103, 98.126-72.948c-35.95-28.175-81.243-44.967-130.458-44.967c-8.479,0.00-16.84,0.497-25.058,1.47  c 46.486-29.805, 101.701-47.197, 161.021-47.197c 193.211,0.00, 298.868,160.062, 298.868,298.872c0.00,4.554-0.103,9.084-0.305,13.59  C 480.11,343.227, 497.918,361.727, 512.00,382.791z"/>
<glyph unicode="" d="M 426.671,480.00L 85.343,480.00 C 38.406,480.00,0.00,441.595,0.00,394.655l0.00-341.311 C0.00,6.375, 38.406-32.00, 85.343-32.00l 341.328,0.00   C 473.609-32.00, 512.00,6.375, 512.00,53.345L 512.00,394.655 C 512.00,441.595, 473.609,480.00, 426.671,480.00z M 419.026,309.083  c 0.164-3.671, 0.245-7.364, 0.245-11.074c0.00-113.107-84.608-243.534-239.329-243.534c-47.502,0.00-91.717,14.174-128.943,38.459  c 6.58-0.794, 13.276-1.197, 20.065-1.197c 39.411,0.00, 75.679,13.685, 104.467,36.641c-36.808,0.69-67.872,25.438-78.577,59.441  c 5.137-1.00, 10.406-1.537, 15.826-1.537c 7.672,0.00, 15.103,1.048, 22.16,3.004c-38.48,7.866-67.475,42.458-67.475,83.928  c0.00,0.361,0.00,0.719, 0.008,1.076c 11.34-6.41, 24.312-10.26, 38.10-10.705c-22.571,15.349-37.421,41.546-37.421,71.244  c0.00,15.685, 4.147,30.389, 11.389,43.029c 41.487-51.785, 103.468-85.86, 173.377-89.431c-1.435,6.266-2.179,12.798-2.179,19.507  c0.00,47.269, 37.663,85.59, 84.115,85.59c 24.195,0.00, 46.059-10.393, 61.401-27.029c 19.16,3.838, 37.162,10.96, 53.416,20.771  c-6.281-19.988-19.617-36.761-36.983-47.355c 17.013,2.069, 33.226,6.67, 48.31,13.477C 449.725,336.226, 435.463,321.15, 419.026,309.083  z"/>
<glyph unicode="" d="M 256.00,480.00C 114.615,480.00,0.00,365.385,0.00,224.00s 114.615-256.00, 256.00-256.00s 256.00,114.615, 256.00,256.00S 397.385,480.00, 256.00,480.00z M 403.121,299.456  c 0.146-3.254, 0.221-6.528, 0.221-9.819c0.00-100.311-76.354-215.982-215.979-215.982c-42.868,0.00-82.768,12.568-116.363,34.107  c 5.938-0.704, 11.981-1.063, 18.108-1.063c 35.565,0.00, 68.295,12.138, 94.275,32.497c-33.217,0.61-61.25,22.561-70.912,52.716  c 4.637-0.884, 9.392-1.361, 14.283-1.361c 6.923,0.00, 13.629,0.928, 19.999,2.662c-34.726,6.976-60.893,37.656-60.893,74.434  c0.00,0.32,0.00,0.639, 0.008,0.955c 10.235-5.685, 21.939-9.10, 34.382-9.494c-20.37,13.611-33.77,36.846-33.77,63.184  c0.00,13.911, 3.744,26.952, 10.278,38.162c 37.439-45.927, 93.374-76.146, 156.462-79.314c-1.294,5.559-1.965,11.351-1.965,17.302  c0.00,41.92, 33.99,75.906, 75.909,75.906c 21.833,0.00, 41.562-9.218, 55.409-23.97c 17.29,3.404, 33.537,9.721, 48.206,18.42  c-5.668-17.727-17.705-32.603-33.376-41.997c 15.355,1.834, 29.984,5.916, 43.597,11.952  C 430.825,323.529, 417.955,310.16, 403.121,299.456z"/>
<glyph unicode="" d="M 68.147,104.535c-37.598,0.00-68.146-30.667-68.146-68.038c0.00-37.577, 30.55-67.901, 68.146-67.901   c 37.733,0.00, 68.247,30.324, 68.247,67.901C 136.393,73.868, 105.882,104.535, 68.147,104.535zM 0.078,306.035l0.00-98.129 c 63.892,0.00, 123.979-24.986, 169.229-70.256c 45.192-45.159, 70.141-105.518, 70.141-169.65l 98.561,0.00    C 338.008,154.41, 186.368,306.035, 0.078,306.035zM 0.194,480.00l0.00-98.178 c 227.891,0.00, 413.378-185.667, 413.378-413.822L 512.00-32.00 C 512.00,250.235, 282.373,480.00, 0.194,480.00z"/>
<glyph unicode="" d="M 426.67,480.00L 85.343,480.00 C 38.405,480.00,0.00,441.594,0.00,394.656l0.00-341.314 C0.00,6.375, 38.406-32.00, 85.344-32.00L 426.67-32.00   c 46.938,0.00, 85.33,38.374, 85.33,85.342L 512.00,394.656 C 512.00,441.594, 473.608,480.00, 426.67,480.00z M 139.472,64.376C 115.487,64.376, 96.00,83.722, 96.00,107.69  c0.00,23.842, 19.486,43.406, 43.472,43.406c 24.079,0.00, 43.53-19.564, 43.53-43.406C 183.001,83.722, 163.55,64.376, 139.472,64.376z   M 248.734,64.002c0.00,40.905-15.904,79.409-44.73,108.222c-28.857,28.875-67.188,44.813-107.952,44.813L 96.052,279.63   c 118.826,0.00, 215.563-96.721, 215.563-215.627L 248.734,64.002L 248.734,64.002z M 359.814,64.002  c0.00,145.531-118.329,263.97-263.688,263.97L 96.126,390.596 c 180.001,0.00, 326.473-146.562, 326.473-326.596L 359.814,64.002L 359.814,64.002z"/>
<glyph unicode="" d="M 256.00,480.00C 114.615,480.00,0.00,365.385,0.00,224.00s 114.615-256.00, 256.00-256.00s 256.00,114.615, 256.00,256.00S 397.385,480.00, 256.00,480.00z M 139.589,78.896  c-23.297,0.00-42.229,17.821-42.229,39.907c0.00,21.963, 18.931,39.985, 42.229,39.985c 23.384,0.00, 42.292-18.022, 42.292-39.985  C 181.881,96.718, 162.971,78.896, 139.589,78.896z M 245.742,78.548c0.00,37.689-15.461,73.166-43.466,99.704  c-28.04,26.605-65.275,41.289-104.868,41.289l0.00,57.672 c 115.441,0.00, 209.41-89.111, 209.411-198.665L 245.742,78.548 z M 353.645,78.548  c0.00,134.088-114.945,243.204-256.164,243.204l0.00,57.70 c 174.862,0.00, 317.159-135.034, 317.159-300.904L 353.645,78.548 z"/>
<glyph unicode="" d="M 416.00,416.00L 96.00,416.00 c-52.80,0.00-96.00-43.20-96.00-96.00l0.00-192.00 c0.00-52.80, 43.20-96.00, 96.00-96.00l 320.00,0.00 c 52.80,0.00, 96.00,43.20, 96.00,96.00L 512.00,320.00 C 512.00,372.80, 468.80,416.00, 416.00,416.00z   M 192.00,96.00L 192.00,352.00 l 160.00-128.00L 192.00,96.00z"/>
<glyph unicode="" d="M 416.00,416.00L 96.00,416.00 c-52.80,0.00-96.00-43.20-96.00-96.00l0.00-192.00 c0.00-52.80, 43.20-96.00, 96.00-96.00l 320.00,0.00 c 52.80,0.00, 96.00,43.20, 96.00,96.00L 512.00,320.00 C 512.00,372.80, 468.80,416.00, 416.00,416.00z    M 480.00,128.00c0.00-16.989-6.687-33.031-18.827-45.173C 449.031,70.687, 432.99,64.00, 416.00,64.00L 96.00,64.00 c-16.989,0.00-33.031,6.687-45.172,18.827   C 38.687,94.969, 32.00,111.011, 32.00,128.00L 32.00,320.00 c0.00,16.989, 6.687,33.031, 18.828,45.172S 79.011,384.00, 96.00,384.00l 320.00,0.00    c 16.989,0.00, 33.031-6.687, 45.173-18.828C 473.314,353.031, 480.00,336.989, 480.00,320.00L 480.00,128.00 zM 192.00,96.00L 352.00,224.00L 192.00,352.00  z"/>
<glyph unicode="" d="M0.00,325.815l 20.797-27.272c0.00,0.00, 42.885,33.804, 57.18,16.901c 14.294-16.901, 68.868-220.978, 87.085-258.623  c 15.90-33.015, 59.759-76.66, 107.857-45.491c 48.068,31.17, 207.92,167.643, 236.533,328.808  c 28.59,161.113-192.36,127.363-215.765-13.005c 58.495,35.118, 89.718-14.269, 59.785-70.186  c-29.879-55.862-57.18-92.296-71.476-92.296c-14.269,0.00-25.245,37.384-41.594,102.723c-16.899,67.551-16.796,189.23-87.058,175.435  C 87.085,429.803,0.00,325.815,0.00,325.815z"/>
<glyph unicode="" d="M 426.655,480.00L 85.345,480.00 C 38.406,480.00,0.00,441.592,0.00,394.654l0.00-341.31 C0.00,6.375, 38.406-32.00, 85.345-32.00l 341.31,0.00   C 473.594-32.00, 512.00,6.375, 512.00,53.345L 512.00,394.654 C 512.00,441.592, 473.594,480.00, 426.655,480.00z M 406.434,292.937  c-16.979-95.648-111.854-176.648-140.39-195.155c-28.544-18.503-54.577,7.411-64.019,26.997  c-10.808,22.354-43.205,143.47-51.684,153.51c-8.482,10.019-33.938-10.04-33.938-10.04l-12.346,16.188  c0.00,0.00, 51.691,61.724, 91.02,69.439c 41.702,8.183, 41.64-64.033, 51.67-104.121c 9.70-38.782, 16.22-60.976, 24.688-60.976  c 8.486,0.00, 24.692,21.631, 42.426,54.786c 17.768,33.188-0.768,62.505-35.486,41.646C 292.267,368.536, 423.406,388.57, 406.434,292.937z"/>
<glyph unicode="" d="M0.00,224.00A112.00,112.00 8100.00 1,0 224.00,224A112.00,112.00 8100.00 1,0 0.00,224zM 288.00,224.00A112.00,112.00 8100.00 1,0 512.00,224A112.00,112.00 8100.00 1,0 288.00,224z"/>
<glyph unicode="" d="M 426.687,480.00L 85.344,480.00 C 38.406,480.00,0.00,441.594,0.00,394.659l0.00-341.313 C0.00,6.375, 38.406-32.00, 85.344-32.00l 341.342,0.00   C 473.622-32.00, 512.00,6.377, 512.00,53.348L 512.00,394.659 C 512.00,441.594, 473.622,480.00, 426.687,480.00z M 160.00,144.00c-44.183,0.00-80.00,35.816-80.00,80.00  c0.00,44.183, 35.817,80.00, 80.00,80.00s 80.00-35.817, 80.00-80.00C 240.00,179.816, 204.183,144.00, 160.00,144.00z M 352.00,144.00c-44.182,0.00-80.00,35.816-80.00,80.00  c0.00,44.183, 35.818,80.00, 80.00,80.00c 44.184,0.00, 80.00-35.817, 80.00-80.00C 432.00,179.816, 396.184,144.00, 352.00,144.00z"/>
<glyph unicode="" d="M 256.00,480.00C 114.615,480.00,0.00,365.385,0.00,224.00s 114.615-256.00, 256.00-256.00s 256.00,114.615, 256.00,256.00S 397.385,480.00, 256.00,480.00z M 148.00,140.00  c-46.392,0.00-84.00,37.608-84.00,84.00c0.00,46.392, 37.608,84.00, 84.00,84.00c 46.393,0.00, 84.00-37.608, 84.00-84.00C 232.00,177.608, 194.393,140.00, 148.00,140.00z M 364.00,140.00  c-46.393,0.00-84.00,37.608-84.00,84.00c0.00,46.392, 37.607,84.00, 84.00,84.00s 84.00-37.608, 84.00-84.00C 448.00,177.608, 410.393,140.00, 364.00,140.00z"/>
<glyph unicode="" d="M 361.51,457.045C 328.055,472.176, 292.647,480.00, 255.961,480.00c-30.521,0.00-60.527-5.865-89.381-16.779l 194.93-176.84L 361.51,457.045 zM 124.222,5.364L 124.222,225.441 L 18.468,129.299C 38.963,77.934, 76.409,34.285, 124.222,5.364zM 139.312,451.59C 53.362,407.432, 0.001,320.553, 0.001,224.00c0.00-22.029, 3.313-44.368, 9.294-66.499l 226.91,206.181L 139.312,451.59zM 151.109-9.355C 184.386-24.385, 219.612-32.00, 255.961-32.00c 97.624,0.00, 187.28,56.817, 229.895,144.727L 151.109,112.727 L 151.109-9.355 zM 388.479,442.325l0.00-302.63 l 108.904,0.00 c 9.57,27.277, 14.617,55.586, 14.617,84.304C 512.002,312.937, 464.651,396.004, 388.479,442.325z"/>
<glyph unicode="" d="M 512.00,394.659C 512.00,441.791, 473.793,480.00, 426.66,480.00L 85.338,480.00 C 38.207,480.00,0.00,441.791,0.00,394.659l0.00-341.318 C0.00,6.208, 38.207-32.00, 85.338-32.00  l 341.323,0.00 C 473.793-32.00, 512.00,6.208, 512.00,53.341L 512.00,394.659 z M 255.877,400.865c 25.346,0.00, 49.785-5.406, 72.825-15.859l0.00-117.908 L 194.078,389.271  C 214.012,396.812, 234.79,400.865, 255.877,400.865z M 79.134,224.00c0.00,66.707, 36.867,126.73, 96.249,157.236l 66.939-60.732L 85.556,178.057  C 81.424,193.348, 79.134,208.779, 79.134,224.00z M 164.864,72.949c-32.768,19.979-58.905,50.138-73.063,85.623l 73.063,66.423L 164.864,72.949 z   M 255.854,47.174c-25.11,0.00-49.518,5.226-72.558,15.605L 183.296,147.20 l 231.507,0.00 C 385.361,86.271, 323.30,47.174, 255.854,47.174z   M 422.767,165.632l-75.118,0.00 L 347.649,374.836 c 52.735-32.002, 85.278-89.452, 85.278-150.898C 432.927,204.096, 429.382,184.576, 422.767,165.632z"/>
<glyph unicode="" d="M 256.00-32.00C 114.614-32.00,0.00,82.609,0.00,223.99C0.00,365.37, 114.615,480.00, 256.00,480.00c 141.375,0.00, 256.00-114.631, 256.00-256.01S 397.375-32.00, 256.00-32.00z   M 465.581,197.137c-50.24,6.594-94.794,7.071-134.495,0.938c 16.435-46.862, 30.188-97.346, 41.018-150.532  C 422.346,80.675, 457.642,134.609, 465.581,197.137z M 331.781,26.927c-10.141,59.365-24.095,112.72-42.061,161.953  c-67.229-20.177-119.50-63.339-163.374-131.501c 35.816-27.915, 80.724-44.679, 129.641-44.679  C 282.74,12.70, 308.221,17.858, 331.781,26.927z M 44.687,223.99c0.00-52.272, 19.091-100.029, 50.543-136.932  c 53.639,78.629, 114.009,119.584, 179.935,138.636c-5.431,12.771-11.058,25.377-17.11,37.648  c-58.881-17.743-128.601-27.041-212.938-30.931C 45.00,229.606, 44.687,226.839, 44.687,223.99z M 49.46,268.461  c 66.551,2.933, 131.525,10.337, 191.075,28.33c-22.678,40.52-49.305,78.583-79.691,115.691  C 104.744,384.111, 62.996,331.59, 49.46,268.461z M 255.99,435.30c-18.52,0.00-36.382-2.62-53.505-7.093  c 29.358-32.323, 56.089-71.637, 79.734-116.73c 41.102,16.973, 78.827,40.332, 111.747,72.344C 356.941,415.811, 308.782,435.30, 255.99,435.30z   M 419.551,357.736c-34.483-34.944-73.847-60.965-120.584-80.061c 6.377-13.77, 12.399-28.102, 18.227-42.724  c 47.438,7.343, 97.428,5.721, 149.608,0.374C 464.343,281.648, 447.138,324.04, 419.551,357.736z"/>
<glyph unicode="" d="M 152.278,90.703c 28.653-22.332, 64.579-35.743, 103.712-35.743c 21.402,0.00, 41.787,4.127, 60.635,11.382   c-8.112,47.492-19.275,90.176-33.648,129.563C 229.194,179.763, 187.377,145.232, 152.278,90.703zM 271.331,225.356c-4.345,10.217-8.846,20.301-13.688,30.118c-47.104-14.194-102.88-21.633-170.351-24.745   c-0.092-2.245-0.343-4.458-0.343-6.737c0.00-41.818, 15.272-80.023, 40.435-109.545C 170.295,177.35, 218.591,210.114, 271.331,225.356zM 366.373,351.856c-29.621,25.592-68.147,41.184-110.381,41.184c-14.815,0.00-29.105-2.096-42.804-5.674   c 23.486-25.859, 44.871-57.31, 63.787-93.384C 309.858,307.56, 340.037,326.247, 366.373,351.856zM 179.875,374.786c-44.88-22.697-78.278-64.714-89.107-115.217c 53.241,2.346, 105.22,8.27, 152.86,22.664   C 225.486,314.649, 204.185,345.099, 179.875,374.786zM 316.069,203.26c 13.148-37.49, 24.151-77.877, 32.814-120.426c 40.193,26.506, 68.431,69.653, 74.782,119.676   C 383.473,207.784, 347.83,208.166, 316.069,203.26zM 426.672,480.00L 85.343,480.00 C 38.406,480.00,0.00,441.595,0.00,394.655l0.00-341.311 C0.00,6.375, 38.406-32.00, 85.343-32.00l 341.33,0.00    C 473.612-32.00, 512.00,6.374, 512.00,53.345L 512.00,394.655 C 512.002,441.595, 473.612,480.00, 426.672,480.00z M 256.00,19.20   c-113.109,0.00-204.80,91.688-204.80,204.792C 51.20,337.096, 142.892,428.80, 256.00,428.80c 113.10,0.00, 204.80-91.705, 204.80-204.808   C 460.80,110.889, 369.10,19.20, 256.00,19.20zM 290.373,266.94c 5.102-11.016, 9.92-22.481, 14.582-34.179c 37.95,5.875, 77.941,4.577, 119.687,0.299   c-1.968,37.058-15.731,70.972-37.801,97.929C 359.254,303.034, 327.764,282.217, 290.373,266.94z"/>
<glyph unicode="" d="M 373.271,359.848C 341.80,387.04, 300.865,403.605, 255.992,403.605c-15.742,0.00-30.925-2.227-45.48-6.029   c 24.955-27.475, 47.676-60.892, 67.773-99.221C 313.223,312.783, 345.289,332.638, 373.271,359.848zM 175.117,384.21c-47.685-24.116-83.171-68.758-94.676-122.418c 56.568,2.493, 111.796,8.787, 162.414,24.081   C 223.578,320.314, 200.945,352.668, 175.117,384.21zM 308.016,233.309c 40.321,6.242, 82.812,4.863, 127.166,0.318c-2.09,39.375-16.715,75.408-40.164,104.049   c-29.31-29.702-62.77-51.82-102.496-68.052C 297.941,257.919, 303.061,245.737, 308.016,233.309zM 272.29,225.44c-4.616,10.855-9.399,21.57-14.544,32.001c-50.048-15.082-109.311-22.985-180.997-26.291   c-0.10-2.385-0.366-4.737-0.366-7.158c0.00-44.431, 16.227-85.025, 42.961-116.392C 164.938,174.435, 216.253,209.246, 272.29,225.44zM 256.00,480.00C 114.615,480.00,0.00,365.385,0.00,224.00s 114.615-256.00, 256.00-256.00s 256.00,114.615, 256.00,256.00S 397.385,480.00, 256.00,480.00z M 256.00,6.40   c-120.179,0.00-217.60,97.418-217.60,217.591S 135.823,441.60, 256.00,441.60c 120.168,0.00, 217.60-97.436, 217.60-217.608   C 473.60,103.82, 376.168,6.40, 256.00,6.40zM 319.822,201.964c 13.971-39.833, 25.66-82.745, 34.865-127.952c 42.706,28.162, 72.707,74.006, 79.456,127.154   C 391.439,206.771, 353.568,207.177, 319.822,201.964zM 145.794,82.372c 30.444-23.728, 68.615-37.977, 110.195-37.977c 22.74,0.00, 44.398,4.384, 64.425,12.093   c-8.621,50.46-20.481,95.812-35.752,137.66C 227.517,176.998, 183.087,140.311, 145.794,82.372z"/>
<glyph unicode="" d="M 217.984-32.00L 217.984,83.744L 142.464,126.432L 157.723,149.02L 217.984,116.917L 217.984,211.712L 262.528,211.712L 262.528,151.223L 315.485,175.775L 328.834,151.136L 262.528,119.426L 262.528,85.557L 359.153,130.71L 371.084,106.419L 262.528,55.155L 262.528-32.00L 463.434-32.00L 240.31,480.00L 16.567-32.00 z"/>
<glyph unicode="" d="M 512.00,394.658C 512.00,441.791, 473.804,480.00, 426.688,480.00L 85.313,480.00 C 38.196,480.00,0.00,441.791,0.00,394.658l0.00-341.316 C0.00,6.209, 38.196-32.00, 85.313-32.00  l 341.375,0.00 C 473.804-32.00, 512.00,6.209, 512.00,53.342L 512.00,394.658 z M 414.05,44.288L 272.384,44.288 l0.00,60.739 l 76.841,36.324l-8.453,17.234l-68.388-32.023  l0.00,24.023 l 46.889,22.48l-9.458,17.48l-37.431-17.42l0.00,42.678 L 240.64,215.803 l0.00-66.998 l-42.799,22.741l-10.763-15.996l 53.562-30.262l0.00-81.006   L 98.168,44.282 L 256.332,406.221L 414.05,44.288z"/>
<glyph unicode="" d="M 280.928,276.50c-19.521,1.141-42.041-0.024-68.125-4.475l 60.167-108.444L 512.00,229.214  c-2.577,6.13-6.343,12.113-11.331,17.899c-24.737,28.639-78.37,54.187-136.802,65.709l 0.001,0.013  c-57.322,13.437-119.401,12.872-182.98,3.274c-2.292-0.344-4.572-0.711-6.84-1.092l-21.136,39.146  c-20.571-2.746-39.904-7.025-57.803-12.737l 20.13-42.099c-32.88-12.738-59.861-30.88-79.329-52.716  C 3.804,210.079-8.885,164.157, 6.537,119.435c 3.102-9.021, 7.294-17.58, 12.468-25.598l 239.034,65.649l-66.375,122.924  c 2.279,0.44, 4.598,0.884, 6.964,1.312c 107.341,19.149, 166.051-10.432, 198.208-41.915l-81.779-19.824L 280.928,276.50z M 87.361,166.805  c-7.379,33.676-1.506,71.263, 45.202,96.297l 36.569-76.474L 87.361,166.805z"/>
<glyph unicode="" d="M 117.552,177.044l 67.131,16.274l-30.021,62.783C 116.316,235.549, 111.494,204.691, 117.552,177.044zM 426.678,480.00L 85.322,480.00 C 38.20,480.00,0.00,441.791,0.00,394.659l0.00-341.318 C0.00,6.208, 38.20-32.00, 85.322-32.00l 341.356,0.00    C 473.80-32.00, 512.00,6.208, 512.00,53.341L 512.00,394.659 C 512.00,441.791, 473.80,480.00, 426.678,480.00z M 269.932,174.398l-49.396,89.029   c 21.415,3.654, 39.902,4.611, 55.929,3.674l 28.02-44.756l 67.138,16.275c-26.40,25.846-74.60,50.131-162.723,34.41   c-1.943-0.351-3.846-0.715-5.717-1.077l 54.492-100.917L 61.434,117.14c-4.248,6.582-7.689,13.609-10.236,21.016   c-12.661,36.716-2.244,74.416, 24.115,104.408c 15.982,17.926, 38.133,32.82, 65.126,43.278l-16.526,34.563   c 14.695,4.689, 30.567,8.203, 47.455,10.457l 17.352-32.138c 1.861,0.313, 3.733,0.614, 5.615,0.896   c 52.196,7.88, 103.162,8.343, 150.221-2.688l-0.001-0.011c 47.971-9.46, 92.002-30.434, 112.311-53.945   c 4.095-4.75, 7.187-9.662, 9.303-14.695L 269.932,174.398z"/>
<glyph unicode="" d="M 424.598,402.047c 3.946,12.739, 9.222,41.029-5.26,77.244c0.00,0.00-25.548,8.113-83.339-30.565    c-22.645,5.656-46.731,8.453-70.859,8.453c-26.547,0.00-53.372-3.383-78.393-10.244c-59.63,40.683-85.956,32.348-85.956,32.348    C 83.604,436.31, 94.228,404.492, 97.46,396.589c-20.196-21.797-32.528-49.623-32.528-83.738c0.00-25.757, 2.933-48.86, 10.097-68.943    l 7.532-17.061c 20.129-37.527, 59.824-61.766, 130.437-69.377c-10.022-6.729-20.245-18.18-24.389-37.556    c-13.66-6.533-56.891-22.479-82.833,22.14c0.00,0.00-14.521,26.551-42.312,28.627c0.00,0.00-26.96,0.414-1.863-16.801    c0.00,0.00, 18.04-8.501, 30.488-40.443c0.00,0.00, 16.236-54.492, 94.59-37.008l0.00-56.28 c0.00,0.00-1.655-19.907-19.906-26.54    c0.00,0.00-10.781-7.473, 0.835-11.609c0.00,0.00, 50.589-4.149, 50.589,37.318l0.00,61.371 c0.00,0.00-2.007,24.338, 9.952,32.802l0.00-100.806     c0.00,0.00-0.827-24.056-13.267-33.176c0.00,0.00-8.301-14.923, 9.947-10.785c0.00,0.00, 34.833,4.979, 36.493,45.615l 0.789,102.014l 8.373,0.00     l 0.796-102.014c 1.658-40.636, 36.491-45.615, 36.491-45.615c 18.24-4.138, 9.949,10.785, 9.949,10.785    c-12.441,9.125-13.268,33.176-13.268,33.176L 304.452,112.62 c 11.948-9.312, 9.949-31.933, 9.949-31.933l0.00-61.369     c0.00-41.471, 50.592-37.316, 50.592-37.316c 11.605,4.139, 0.832,11.604, 0.832,11.604c-18.249,6.634-19.905,26.542-19.905,26.542    l0.00,80.442 c0.00,31.371-13.209,47.989-26.131,56.755c 75.307,7.469, 111.444,31.782, 128.094,69.564l 5.946,16.865    c 5.583,20.118, 7.262,43.271, 7.262,69.088C 461.092,349.886, 447.181,379.507, 424.598,402.047z M 264.535,171.357    c-82.092,0.00-148.627,12.355-148.627,91.684c0.00,18.991, 9.354,36.625, 25.371,51.259c 26.725,24.389, 71.947,11.475, 123.253,11.475    c 51.078,0.008, 96.148,13.053, 122.906-11.168l 0.01-0.008c 16.219-14.696, 25.706-32.441, 25.706-51.559    C 413.156,173.771, 346.615,171.357, 264.535,171.357zM 184.177,303.006c-17.079,0.00-30.924-19.924-30.924-44.506c0.00-24.589, 13.846-44.52, 30.924-44.52s 30.922,19.931, 30.922,44.52    C 215.099,283.082, 201.254,302.988, 184.177,303.006zM 350.095,303.006c-17.078,0.00-30.921-19.924-30.921-44.506c0.00-24.589, 13.843-44.52, 30.921-44.52    c 17.079,0.00, 30.922,19.931, 30.922,44.52C 381.018,283.082, 367.175,302.988, 350.095,303.006z"/>
<glyph unicode="" d="M 256.00,480.00C 114.615,480.00,0.00,365.385,0.00,224.00s 114.615-256.00, 256.00-256.00s 256.00,114.615, 256.00,256.00S 397.385,480.00, 256.00,480.00z M 408.028,71.972  c-19.759-19.758-42.756-35.266-68.354-46.093c-6.503-2.75-13.107-5.164-19.80-7.246L 319.874,57.00 c0.00,20.167-6.917,35.00-20.75,44.50  c 8.667,0.833, 16.625,2.00, 23.875,3.50s 14.917,3.667, 23.00,6.50s 15.333,6.208, 21.75,10.125s 12.583,9.00, 18.50,15.25s 10.875,13.333, 14.875,21.25  s 7.167,17.417, 9.50,28.50s 3.50,23.292, 3.50,36.625c0.00,25.833-8.417,47.833-25.25,66.00c 7.667,20.00, 6.833,41.75-2.50,65.25l-6.25,0.75  c-4.333,0.50-12.125-1.333-23.375-5.50s-23.875-11.00-37.875-20.50c-19.833,5.50-40.417,8.25-61.75,8.25c-21.50,0.00-42.00-2.75-61.50-8.25  c-8.833,6.00-17.208,10.958-25.125,14.875c-7.917,3.917-14.25,6.583-19.00,8.00s-9.167,2.292-13.25,2.625s-6.708,0.417-7.875,0.25  s-2.00-0.333-2.50-0.50c-9.333-23.667-10.167-45.417-2.50-65.25c-16.833-18.167-25.25-40.167-25.25-66.00c0.00-13.333, 1.167-25.542, 3.50-36.625  s 5.50-20.583, 9.50-28.50s 8.958-15.00, 14.875-21.25s 12.083-11.333, 18.50-15.25s 13.667-7.292, 21.75-10.125s 15.75-5.00, 23.00-6.50  s 15.208-2.667, 23.875-3.50c-13.667-9.333-20.50-24.167-20.50-44.50l0.00-39.115 c-7.549,2.247-14.99,4.902-22.30,7.994  c-25.597,10.827-48.594,26.335-68.353,46.093c-19.758,19.759-35.267,42.756-46.093,68.354C 46.679,166.805, 41.00,194.957, 41.00,224.00  s 5.679,57.195, 16.879,83.675c 10.827,25.597, 26.335,48.594, 46.093,68.353s 42.756,35.267, 68.353,46.093  C 198.805,433.321, 226.957,439.00, 256.00,439.00s 57.195-5.679, 83.675-16.879c 25.598-10.827, 48.595-26.335, 68.354-46.093  c 19.758-19.758, 35.266-42.756, 46.093-68.353C 465.321,281.195, 471.00,253.043, 471.00,224.00s-5.679-57.195-16.879-83.675  C 443.294,114.728, 427.786,91.73, 408.028,71.972z"/>
<glyph unicode="" d="M0.00,217.316c0.00,44.445, 13.867,82.578, 41.60,114.40c-1.60,4.089-3.022,8.978-4.267,14.667c-1.245,5.688-2.40,13.511-3.467,23.467  c-1.067,9.955-0.622,21.511, 1.333,34.666c 1.956,13.156, 5.511,26.578, 10.667,40.267c 0.889,0.356, 2.267,0.667, 4.133,0.934  s 6.089,0.045, 12.667-0.667c 6.578-0.711, 13.733-2.311, 21.467-4.80c 7.733-2.488, 18.044-7.11, 30.934-13.866  c 12.889-6.756, 26.444-15.378, 40.667-25.867C 180.089,407.806, 213.511,411.45, 256.00,411.45c 42.489,0.00, 75.822-3.645, 100.00-10.934  c 14.222,10.489, 27.733,19.156, 40.533,26.00c 12.80,6.845, 23.245,11.423, 31.334,13.733c 8.088,2.312, 15.155,3.911, 21.199,4.80  c 6.045,0.89, 10.40,1.067, 13.067,0.534l 4.00-0.801c 5.155-13.688, 8.666-27.11, 10.533-40.267c 1.866-13.155, 2.267-24.755, 1.199-34.80  c-1.066-10.044-2.178-17.822-3.333-23.333c-1.155-5.512-2.533-10.40-4.133-14.667c 27.733-32.00, 41.60-70.133, 41.60-114.40  c0.00-24.711-2.178-47.111-6.533-67.20c-4.355-20.088-10.40-37.511-18.134-52.267c-7.733-14.755-17.555-27.688-29.467-38.80  c-11.911-11.111-24.844-20.267-38.80-27.467c-13.955-7.199-29.866-13.021-47.733-17.467c-17.866-4.444-36.089-7.555-54.666-9.333  c-18.578-1.777-38.978-2.667-61.20-2.667c-22.222,0.00-42.578,0.89-61.067,2.667c-18.489,1.778-36.667,4.889-54.533,9.333  c-17.867,4.445-33.733,10.268-47.60,17.467c-13.867,7.20-26.711,16.355-38.533,27.467s-21.60,24.045-29.333,38.80  c-7.733,14.756-13.733,32.179-18.00,52.267C 2.133,170.205,0.00,192.605,0.00,217.316z M 68.267,150.116c0.00-15.11, 1.778-28.577, 5.333-40.399  c 3.555-11.822, 8.044-21.733, 13.467-29.733c 5.422-8.00, 13.022-14.756, 22.80-20.267c 9.778-5.512, 19.245-9.778, 28.40-12.80  c 9.156-3.022, 20.978-5.378, 35.467-7.067c 14.489-1.688, 27.422-2.711, 38.80-3.066s 25.778-0.533, 43.20-0.533  c 17.422,0.00, 31.866,0.178, 43.333,0.533s 24.444,1.378, 38.934,3.066c 14.489,1.689, 26.312,4.045, 35.467,7.067  c 9.155,3.021, 18.622,7.288, 28.40,12.80c 9.777,5.511, 17.377,12.267, 22.80,20.267c 5.422,8.00, 9.911,17.911, 13.467,29.733  c 3.555,11.822, 5.333,25.289, 5.333,40.399c0.00,25.778-10.667,49.156-32.00,70.134c-6.40,6.40-13.867,11.245-22.40,14.533  c-8.533,3.289-18.178,5.156-28.933,5.601c-10.756,0.444-21.022,0.355-30.801-0.267c-9.777-0.622-21.866-1.467-36.267-2.533  c-14.40-1.067-26.844-1.601-37.333-1.601c-10.489,0.00-22.934,0.533-37.333,1.601c-14.40,1.066-26.489,1.911-36.267,2.533  s-20.044,0.711-30.80,0.267c-10.756-0.444-20.355-2.312-28.80-5.601c-8.444-3.288-15.867-8.133-22.267-14.533  C 78.933,199.272, 68.267,175.895, 68.267,150.116z M 136.267,156.25c0.00,11.911, 2.489,22.00, 7.467,30.267s 11.022,12.40, 18.133,12.40  s 13.155-4.134, 18.133-12.40s 7.467-18.355, 7.467-30.267c0.00-11.733-2.489-21.778-7.467-30.134s-11.022-12.533-18.133-12.533  s-13.155,4.178-18.133,12.533S 136.267,144.517, 136.267,156.25z M 221.867,80.783c-0.355,1.422-0.267,2.80, 0.267,4.134  c 0.533,1.333, 1.422,2.178, 2.667,2.533c 3.022,1.244, 4.978,0.178, 5.867-3.20c 1.956-6.045, 5.245-10.934, 9.867-14.667s 9.689-5.60, 15.20-5.60  c 5.511,0.00, 10.577,1.866, 15.20,5.60c 4.622,3.733, 7.911,8.622, 9.866,14.667c 0.89,3.378, 2.845,4.444, 5.866,3.20  c 1.245-0.355, 2.134-1.20, 2.667-2.533c 0.533-1.334, 0.622-2.712, 0.267-4.134c-2.488-8.178-6.844-14.80-13.066-19.866  c-6.223-5.067-13.155-7.601-20.80-7.601s-14.578,2.533-20.80,7.601C 228.711,65.983, 224.355,72.605, 221.867,80.783z M 238.40,113.05  c0.00,2.312, 1.689,4.312, 5.067,6.00c 3.378,1.689, 7.378,2.533, 12.00,2.533s 8.622-0.844, 12.00-2.533c 3.378-1.688, 5.066-3.688, 5.066-6.00  c0.00-2.311-1.688-4.311-5.066-6.00c-3.378-1.688-7.378-2.533-12.00-2.533s-8.622,0.845-12.00,2.533C 240.089,108.739, 238.40,110.739, 238.40,113.05  z M 323.467,156.25c0.00,11.911, 2.488,22.00, 7.467,30.267c 4.978,8.267, 11.021,12.40, 18.133,12.40s 13.155-4.134, 18.134-12.40  c 4.978-8.267, 7.467-18.355, 7.467-30.267c0.00-11.733-2.489-21.778-7.467-30.134c-4.979-8.355-11.022-12.533-18.134-12.533  s-13.155,4.178-18.133,12.533C 325.955,134.472, 323.467,144.517, 323.467,156.25z"/>
<glyph unicode="" d="M0.00,201.795c0.00,41.395, 13.854,77.197, 41.561,107.408c-1.502,4.006-2.879,8.554-4.131,13.645  c-1.251,5.091-2.42,12.352-3.505,21.782s-0.667,20.321, 1.252,32.673s 5.466,24.953, 10.64,37.806c 1.001,0.333, 2.379,0.626, 4.131,0.876  s 5.967,0.042, 12.644-0.626c 6.676-0.668, 13.854-2.128, 21.531-4.382c 7.678-2.253, 17.985-6.593, 30.92-13.019  s 26.497-14.479, 40.685-24.16c 24.369,6.676, 57.751,10.015, 100.147,10.015c 42.562,0.00, 76.028-3.339, 100.396-10.015  c 14.188,9.681, 27.666,17.734, 40.435,24.16s 23.201,10.766, 31.296,13.019c 8.095,2.254, 15.189,3.756, 21.281,4.507  s 10.474,0.876, 13.145,0.376l 3.755-0.751c 5.175-12.853, 8.722-25.454, 10.641-37.806c 1.92-12.352, 2.337-23.242, 1.252-32.673  s-2.253-16.691-3.505-21.782s-2.629-9.639-4.131-13.645C 498.146,278.992, 512.00,243.189, 512.00,201.795c0.00-23.20-2.17-44.189-6.51-62.967  s-10.39-35.093-18.151-48.946s-17.609-26.039-29.543-36.554c-11.935-10.516-24.87-19.111-38.808-25.788  c-13.937-6.677-29.835-12.101-47.694-16.273s-36.053-7.094-54.58-8.764c-18.527-1.669-38.974-2.503-61.34-2.503  c-22.199,0.00-42.562,0.834-61.089,2.503c-18.527,1.67-36.679,4.591-54.455,8.764c-17.776,4.173-33.591,9.597-47.444,16.273  s-26.706,15.272-38.556,25.788c-11.851,10.515-21.615,22.70-29.293,36.554c-7.678,13.854-13.687,30.169-18.026,48.946  C 2.17,157.605,0.00,178.595,0.00,201.795z M 62.842,138.953c0.00-14.354, 1.794-27.081, 5.383-38.181c 3.588-11.10, 8.179-20.405, 13.77-27.916  s 13.353-13.896, 23.284-19.153s 19.612-9.305, 29.042-12.143c 9.431-2.837, 21.532-5.049, 36.303-6.635s 27.958-2.546, 39.558-2.879  c 11.60-0.334, 26.33-0.501, 44.189-0.501c 17.86,0.00, 32.589,0.167, 44.19,0.501c 11.60,0.333, 24.786,1.293, 39.558,2.879  s 26.873,3.798, 36.304,6.635c 9.431,2.838, 19.111,6.885, 29.042,12.143c 9.932,5.258, 17.692,11.643, 23.284,19.153  s 10.182,16.816, 13.771,27.916c 3.588,11.10, 5.383,23.826, 5.383,38.181c0.00,24.369-10.933,46.401-32.798,66.097  c-6.51,6.01-14.104,10.558-22.783,13.646c-8.68,3.088-18.486,4.84-29.419,5.258c-10.933,0.417-21.406,0.334-31.421-0.251  c-10.015-0.584-22.366-1.377-37.054-2.378c-14.688-1.002-27.374-1.502-38.056-1.502s-23.368,0.50-38.056,1.502  c-14.688,1.001-27.04,1.794-37.054,2.378c-10.015,0.585-20.488,0.668-31.421,0.251c-10.933-0.418-20.739-2.17-29.418-5.258  c-8.679-3.088-16.274-7.636-22.783-13.646C 73.775,185.021, 62.842,162.988, 62.842,138.953z M 135.699,134.697  c0.00,15.689, 3.755,29.126, 11.267,40.309c 7.511,11.184, 16.607,16.774, 27.29,16.774c 10.682,0.00, 19.737-5.55, 27.165-16.649  c 7.428-11.099, 11.142-24.577, 11.142-40.434s-3.714-29.335-11.142-40.435s-16.482-16.649-27.165-16.649  c-10.683,0.00-19.779,5.592-27.29,16.774C 139.454,105.571, 135.699,119.007, 135.699,134.697z M 296.685,134.697  c0.00,15.689, 3.756,29.126, 11.267,40.309c 7.511,11.184, 16.524,16.774, 27.039,16.774c 10.683,0.00, 19.779-5.591, 27.29-16.774  c 7.512-11.183, 11.267-24.619, 11.267-40.309c0.00-15.69-3.755-29.126-11.267-40.31c-7.511-11.183-16.607-16.774-27.29-16.774  c-10.515,0.00-19.528,5.592-27.039,16.774C 300.44,105.571, 296.685,119.007, 296.685,134.697z"/>
<glyph unicode="" d="M 117.639,355.64c-25.396,0.00-47.242-8.403-65.542-25.208c-19.043-17.926-28.57-40.33-28.57-67.218   c0.00-17.926, 5.188-34.731, 15.647-50.416c 9.337-14.563, 19.09-23.903, 31.889-28.012l0.00-1.121 c-12.799-5.224-18.483-18.295-18.483-39.209   c0.00-16.062, 5.686-28.011, 18.483-35.854l0.00-1.121 c-35.327-11.573-51.496-33.047-51.496-64.415c0.00-27.267, 11.874-47.244, 35.033-59.939   C 72.895-26.959, 96.389-32.00, 124.773-32.00c 69.085,0.00, 103.703,28.941, 103.703,86.832c0.00,36.223-26.661,58.441-80.064,66.658   c-12.323,1.863-21.643,6.348-27.991,13.445c-4.854,4.854-7.271,9.709-7.271,14.563c0.00,13.816, 7.479,21.848, 22.41,24.088   c 22.779,3.357, 41.364,13.912, 55.743,31.648c 14.375,17.74, 21.565,38.559, 21.565,62.458c0.00,7.469-2.259,15.498-5.244,24.086   c 9.709,2.244, 16.525,4.297, 21.646,6.166L 229.27,355.64 c-22.527-8.964-43.495-13.442-61.421-13.442   C 152.162,351.159, 135.937,355.64, 117.639,355.64z M 123.801,76.115c 31.372,0.00, 47.052-9.521, 47.052-28.57   c0.00-20.168-14.377-30.246-43.132-30.246c-32.862,0.00-49.293,9.711-49.293,29.127C 78.427,66.221, 93.55,76.115, 123.801,76.115z    M 119.88,224.00c-23.527,0.00-35.293,12.882-35.293,38.654c0.00,27.631, 11.766,41.453, 35.293,41.453c 11.201,0.00, 19.979-4.298, 26.326-12.884   c 5.229-7.845, 7.845-17.18, 7.845-28.011C 154.051,237.073, 142.658,224.00, 119.88,224.00zM 290.192,480.00c-10.828,0.00-20.07-4.107-27.727-12.324c-7.657-8.218-11.485-18.108-11.485-29.688   c0.00-11.205, 3.829-20.91, 11.485-29.129c 7.654-8.217, 16.896-12.32, 27.727-12.32c 10.455,0.00, 19.514,4.104, 27.17,12.32   c 7.656,8.219, 11.48,17.924, 11.48,29.129c0.00,11.58-3.824,21.472-11.48,29.688C 309.703,475.893, 300.647,480.00, 290.192,480.00zM 321.565,352.001l-63.303,0.00 c 0.748-7.168-0.32-18.021-0.32-35.57l0.00-174.216 c0.00-17.928, 1.068-32.387, 0.32-38.018l 63.303,0.00    c-0.75,8.188-2.697,22.334-2.697,41.379L 318.868,317.549 C 318.865,333.981, 320.815,344.833, 321.565,352.001zM 461.168,157.90c-16.436,0.00-24.541,12.514-24.541,37.533l0.00,103.32 l 24.932,0.00 c 4.48,0.00, 8.516,0.246, 13.559-0.123   c 5.043-0.374, 7.076-0.125, 9.639-0.125l0.00,53.495 l-48.129,0.00 l0.00,23.808 c0.00,8.961, 1.408,17.151, 2.527,22.271l-64.979,0.00    c 1.121-5.12, 1.014-12.938, 1.014-23.395L 375.19,352.00 l-28.16,0.00 l0.00-53.494 c 7.682,1.12, 14.545,1.678, 19.398,1.678l 8.762-0.559l0.00-0.292 l0.00,0.00l0.00-101.101    c0.00-31.371, 3.979-54.336, 11.818-68.90c 10.461-19.42, 28.811-29.129, 56.068-29.129c 19.424,0.00, 36.559,3.732, 49.357,11.205l0.00,56.016    C 482.196,161.074, 472.742,157.90, 461.168,157.90z"/>
<glyph unicode="" d="M 131.736,100.316c0.00-13.526, 11.447-20.291, 34.334-20.291c 20.032,0.00, 30.044,7.021, 30.044,21.067   c0.00,13.269-10.923,19.898-32.772,19.898C 142.269,120.992, 131.736,114.102, 131.736,100.316zM 426.674,480.00L 85.344,480.00 C 38.406,480.00,0.00,441.595,0.00,394.656l0.00-341.313 C0.00,6.375, 38.406-32.00, 85.344-32.00l 341.33,0.00    C 473.608-32.00, 512.00,6.375, 512.00,53.344L 512.00,394.656 C 512.00,441.595, 473.609,480.00, 426.674,480.00z M 237.864,275.506   c-3.642-1.302-8.844-2.729-15.606-4.293c 2.08-5.983, 3.123-11.576, 3.123-16.777c0.00-16.646-5.009-31.149-15.022-43.506   c-10.015-12.354-22.956-19.703-38.823-22.043c-10.402-1.563-15.604-7.156-15.604-16.779c0.00-3.381, 1.689-6.765, 5.072-10.145   c 4.422-4.943, 10.924-8.066, 19.509-9.367c 37.195-5.721, 55.793-21.197, 55.793-46.427c0.00-40.321-24.062-60.481-72.181-60.481   c-19.771,0.00-36.028,3.513-48.772,10.535c-16.129,8.844-24.188,22.76-24.188,41.75c0.00,21.852, 12.096,36.808, 36.282,44.869l0.00,0.78    c-8.842,5.462-13.263,13.785-13.263,24.972c0.00,14.566, 4.162,23.672, 12.484,27.311l0.00,0.781 c-8.323,2.862-15.737,9.366-22.24,19.512   c-7.282,10.926-10.925,22.63-10.925,35.115c0.00,18.729, 6.635,34.335, 19.896,46.82c 12.748,11.707, 27.964,17.558, 45.653,17.558   c 12.747,0.00, 24.579-3.119, 35.505-9.361c 12.485,0.00, 26.921,3.12, 43.313,9.361L 237.864,275.506L 237.864,275.506z M 301.089,140.503   l-44.093,0.00 c 0.521,5.201, 0.779,14.042, 0.779,26.532L 257.775,288.381 c0.00,12.227-0.261,20.682-0.779,25.359l 44.093,0.00    c-0.521-4.942-0.781-13.135-0.781-24.582l0.00-119.782 C 300.308,156.109, 300.569,146.484, 301.089,140.503z M 298.159,352.759   c-5.332-5.722-11.641-8.581-18.923-8.581c-7.543,0.00-13.979,2.859-19.313,8.581c-5.333,5.726-8.001,12.486-8.001,20.289   c0.00,8.067, 2.668,14.956, 8.001,20.683c 5.333,5.721, 11.77,8.584, 19.313,8.584c 7.282,0.00, 13.592-2.863, 18.923-8.584   c 5.333-5.728, 7.999-12.615, 7.999-20.683C 306.158,365.245, 303.492,358.484, 298.159,352.759z M 420.845,145.576   c-9.627-5.205-21.203-7.803-34.729-7.803c-18.985,0.00-32.124,6.76-39.405,20.287c-5.465,10.145-8.193,26.14-8.193,47.99l0.00,69.842    l 0.389,0.00 l0.00,0.781 l-5.853,0.391c-3.382,0.00-7.806-0.391-13.267-1.171L 319.787,313.74 l 19.117,0.00 l0.00,15.216 c0.00,7.285-0.389,13.14-1.17,17.56l 45.259,0.00    c-0.775-4.94-1.168-10.533-1.168-16.776l0.00-15.999 l 33.943,0.00 l0.00-37.846 c-1.299,0.00-3.705,0.129-7.218,0.389   c-3.512,0.261-6.828,0.393-9.949,0.393l-16.777,0.00 l0.00-72.572 c0.00-17.432, 5.725-26.145, 17.167-26.145c 8.063,0.00, 15.348,2.209, 21.854,6.632   L 420.845,145.576 L 420.845,145.576zM 160.608,279.797c-16.388,0.00-24.582-9.627-24.582-28.873c0.00-17.951, 8.194-26.924, 24.582-26.924   c 15.868,0.00, 23.801,9.104, 23.801,27.313c0.00,7.545-1.82,14.047-5.461,19.511C 174.525,276.805, 168.411,279.797, 160.608,279.797z"/>
<glyph unicode="" d="M 470.943,261.377L 261.372,470.945c-12.064,12.072-31.638,12.072-43.717,0.00l-43.514-43.522l 55.201-55.205   c 12.83,4.334, 27.542,1.426, 37.765-8.80c 10.283-10.286, 13.167-25.126, 8.723-38.002l 53.207-53.202   c 12.876,4.438, 27.72,1.571, 38.004-8.729c 14.365-14.36, 14.365-37.644,0.00-52.02c-14.374-14.37-37.651-14.37-52.033,0.00   c-10.804,10.815-13.477,26.696-7.998,40.006l-49.626,49.626l0.00-130.581 c 3.499-1.733, 6.806-4.044, 9.724-6.952   c 14.365-14.365, 14.365-37.644,0.00-52.029c-14.365-14.36-37.658-14.36-52.013,0.00c-14.365,14.386-14.365,37.664,0.00,52.029   c 3.55,3.545, 7.663,6.229, 12.049,8.023L 227.144,303.372 c-4.386,1.796-8.488,4.458-12.049,8.03c-10.881,10.875-13.498,26.848-7.917,40.209   l-54.42,54.432L 9.053,262.347c-12.07-12.081-12.07-31.655,0.00-43.73l 209.581-209.565c 12.065-12.069, 31.633-12.069, 43.718,0.00   l 208.592,208.597C 483.019,229.723, 483.019,249.308, 470.943,261.377z"/>
<glyph unicode="" d="M 192.00,160.00c0.00,18.718, 1.099,19.844, 13.203,31.948L 352.00,338.746c 29.157,29.157, 31.843,44.204, 31.992,74.019L 384.00,412.765 L 384.00,480.00 l-64.00,0.00 l0.00-64.00    c0.00-18.718-1.099-19.843-13.202-31.948L 160.00,237.255c-29.156-29.157-31.842-44.204-31.991-74.019L 128.00,163.236 L 128.00,96.00 L 80.00,96.00 l 80.00-128.00l 79.282,128.00L 192.00,96.00    L 192.00,160.00 zM 384.00,96.00l0.00,67.236 l-0.008,0.00 c-0.149,29.813-2.835,44.861-31.992,74.019l-17.15,17.151l-45.255-45.253l 17.203-17.203   C 318.902,179.845, 320.00,178.719, 320.00,160.001l0.00-64.00 l-47.281,0.00 l 79.281-128.00l 80.00,128.00L 384.00,96.00L 384.00,96.00z"/>
<glyph unicode="" d="M 64.00,224.004c0.00-74.013, 44.161-137.984, 108.215-168.289L 80.626,300.107C 69.972,276.853, 64.00,251.116, 64.00,224.004zM 385.614,233.436c0.00,23.117-8.527,39.118-15.827,51.571c-9.729,15.41-18.86,28.447-18.86,43.858    c0.00,17.187, 13.383,33.188, 32.243,33.188c 0.852,0.00, 1.66-0.102, 2.488-0.151C 351.50,392.387, 305.988,411.00, 256.004,411.00    c-67.08,0.00-126.093-33.523-160.422-84.284c 4.505-0.141, 8.753-0.227, 12.356-0.227c 20.077,0.00, 51.17,2.376, 51.17,2.376    c 10.345,0.591, 11.566-14.217, 1.229-15.411c0.00,0.00-10.405-1.184-21.976-1.775l 69.917-202.553l 42.022,122.728l-29.911,79.825    c-10.344,0.592-20.139,1.775-20.139,1.775c-10.351,0.596-9.136,16.001, 1.219,15.411c0.00,0.00, 31.70-2.376, 50.567-2.376    c 20.073,0.00, 51.175,2.376, 51.175,2.376c 10.351,0.591, 11.57-14.217, 1.223-15.411c0.00,0.00-10.417-1.186-21.974-1.775L 351.85,110.67    l 19.156,62.316C 379.296,198.861, 385.614,217.436, 385.614,233.436zM 259.371,207.648l-57.613-163.029c 17.208-4.929, 35.397-7.619, 54.244-7.619c 22.358,0.00, 43.802,3.759, 63.759,10.60    c-0.509,0.801-0.987,1.652-1.375,2.577L 259.371,207.648zM 424.481,313.714c 0.826-5.955, 1.294-12.343, 1.294-19.229c0.00-18.965-3.646-40.298-14.601-66.975l-58.643-165.136    C 409.612,94.788, 448.00,155.018, 448.00,224.003C 448.00,256.518, 439.47,287.083, 424.481,313.714zM 256.00,480.00C 114.615,480.00,0.00,365.385,0.00,224.00s 114.615-256.00, 256.00-256.00s 256.00,114.615, 256.00,256.00S 397.385,480.00, 256.00,480.00z M 256.00,0.00   C 132.288,0.00, 32.00,100.288, 32.00,224.00S 132.288,448.00, 256.00,448.00s 224.00-100.288, 224.00-224.00S 379.712,0.00, 256.00,0.00z"/>
<glyph unicode="" d="M 259.555,206.271l-60.828-176.742c 18.164-5.343, 37.372-8.262, 57.269-8.262c 23.608,0.00, 46.251,4.077, 67.321,11.492   c-0.539,0.868-1.039,1.793-1.45,2.795L 259.555,206.271zM 392.852,234.232c0.00,25.062-9.006,42.405-16.718,55.905c-10.273,16.708-19.912,30.843-19.912,47.55   c0.00,18.631, 14.13,35.979, 34.045,35.979c 0.896,0.00, 1.753-0.108, 2.624-0.165c-36.064,33.048-84.119,53.225-136.896,53.225   c-70.82,0.00-133.129-36.34-169.376-91.371c 4.757-0.153, 9.242-0.244, 13.044-0.244c 21.197,0.00, 54.028,2.576, 54.028,2.576   c 10.928,0.639, 12.213-15.416, 1.299-16.707c0.00,0.00-10.985-1.282-23.198-1.928l 73.816-219.589l 44.371,133.05l-31.584,86.541   c-10.92,0.645-21.262,1.926-21.262,1.926c-10.927,0.646-9.645,17.347, 1.288,16.707c0.00,0.00, 33.47-2.576, 53.391-2.576   c 21.199,0.00, 54.03,2.576, 54.03,2.576c 10.931,0.64, 12.218-15.414, 1.297-16.707c0.00,0.00-10.999-1.281-23.202-1.926l 73.262-217.916   l 20.229,67.559C 386.179,196.748, 392.852,216.882, 392.852,234.232zM 357.915,48.781c 60.269,35.14, 100.803,100.438, 100.803,175.227c0.00,35.246-9.005,68.381-24.831,97.254   c 0.871-6.455, 1.366-13.382, 1.366-20.847c0.00-20.564-3.854-43.688-15.416-72.609L 357.915,48.781zM 53.277,224.008c0.00-80.24, 46.624-149.592, 114.258-182.448L 70.83,306.51C 59.577,281.299, 53.277,253.399, 53.277,224.008zM 426.688,480.00L 85.346,480.00 C 38.406,480.00,0.00,441.594,0.00,394.659l0.00-341.313 C0.00,6.376, 38.406-32.00, 85.346-32.00l 341.342,0.00    C 473.622-32.00, 512.00,6.376, 512.00,53.346L 512.00,394.659 C 512.00,441.594, 473.622,480.00, 426.688,480.00z M 255.993-1.48   c-124.327,0.00-225.476,101.156-225.476,225.488c0.00,124.324, 101.147,225.475, 225.476,225.475   c 124.327,0.00, 225.484-101.149, 225.484-225.475C 481.48,99.676, 380.322-1.48, 255.993-1.48z"/>
<glyph unicode="" d="M 478.898,288.00l-28.103,0.00 l-0.60,0.00 c-17.583,0.00-32.994,14.871-34.195,32.00l0.00,0.00C 416.002,411.334, 342.371,480.00, 250.405,480.00l-83.912,0.00   C 74.587,480.00, 0.065,406.00,0.00,314.667l0.00-181.399 C0.00,41.941, 74.587-32.00, 166.492-32.00l 179.21,0.00 C 437.676-32.00, 512.00,41.941, 512.00,133.268L 512.00,250.459   C 512.00,268.71, 497.28,288.00, 478.898,288.00z M 160.00,352.00l 96.00,0.00 c 17.60,0.00, 32.00-14.40, 32.00-32.00s-14.40-32.00-32.00-32.00l-96.00,0.00 c-17.60,0.00-32.00,14.40-32.00,32.00S 142.40,352.00, 160.00,352.00  z M 352.00,96.00L 160.00,96.00 c-17.60,0.00-32.00,14.40-32.00,32.00s 14.40,32.00, 32.00,32.00l 192.00,0.00 c 17.60,0.00, 32.00-14.40, 32.00-32.00S 369.60,96.00, 352.00,96.00z"/>
<glyph unicode="" d="M 184.00,272.00l 72.00,0.00 c 13.199,0.00, 24.00,10.80, 24.00,24.00s-10.801,24.00-24.00,24.00l-72.00,0.00 c-13.20,0.00-24.00-10.80-24.00-24.00S 170.801,272.00, 184.00,272.00zM 328.00,176.00L 184.00,176.00 c-13.20,0.00-24.00-10.80-24.00-24.00c0.00-13.199, 10.80-24.00, 24.00-24.00l 144.00,0.00 c 13.199,0.00, 24.00,10.801, 24.00,24.00C 352.00,165.20, 341.199,176.00, 328.00,176.00zM 426.674,480.00L 85.325,480.00 C 38.202,480.00,0.00,441.791,0.00,394.659l0.00-341.318 C0.00,6.208, 38.202-32.00, 85.325-32.00l 341.348,0.00    c 47.125,0.00, 85.324,38.208, 85.324,85.341L 512.00,394.659C 512.00,441.791, 473.798,480.00, 426.674,480.00z M 448.00,155.951   C 448.00,87.456, 392.257,32.00, 323.278,32.00L 188.869,32.00 C 119.941,32.00, 64.00,87.456, 64.00,155.951L 64.00,292.00 c 0.048,68.50, 55.94,124.00, 124.869,124.00l 62.934,0.00    C 320.779,416.00, 376.002,364.50, 376.00,296.00c 0.901-12.847, 12.461-24.00, 25.646-24.00l 0.449,0.00 l 21.078,0.00 C 436.959,272.00, 448.00,257.533, 448.00,243.844L 448.00,155.951 z"/>
<glyph unicode="" d="M 416.751-4.105c-21.85-10.277-41.685-17.525-59.414-21.689c-17.75-4.121-36.931-6.203-57.533-6.203  c-23.413,0.00-37.227,2.943-55.204,8.828c-17.979,5.934-33.33,14.402-46.01,25.27c-12.725,10.961-21.511,22.604-26.424,34.916  c-4.913,12.318-7.358,30.207-7.358,53.621L 164.808,270.189 L 95.249,270.189 l0.00,72.503 c 20.104,6.521, 43.428,15.894, 57.736,28.076  c 14.377,12.225, 25.883,26.853, 34.553,43.972c 8.696,17.073, 14.674,38.856, 17.936,65.258l 72.818,0.00 l0.00-118.423 L 396.67,361.575 l0.00-91.387 L 278.29,270.188 l0.00-131.28   c0.00-29.709-0.385-46.828, 2.765-55.25c 3.125-8.377, 10.959-17.072, 19.495-22.10c 11.343-6.795, 24.271-10.189, 38.854-10.189  c 25.927,0.00, 51.716,8.424, 77.348,25.27L 416.752-4.105 L 416.751-4.105z"/>
<glyph unicode="" d="M 426.69,480.00L 85.344,480.00 C 38.405,480.00, 0.001,441.593, 0.001,394.657l0.00-341.313 C 0.001,6.375, 38.405-32.00, 85.344-32.00L 426.69-32.00   C 473.625-32.00, 512.00,6.375, 512.00,53.344L 512.00,394.658 C 511.996,441.593, 473.621,480.00, 426.69,480.00z M 365.858,67.656  c-15.076-7.094-28.764-12.094-41.00-14.969c-12.248-2.845-25.48-4.279-39.701-4.279c-16.156,0.00-25.688,2.029-38.094,6.094  c-12.404,4.094-23.00,9.936-31.75,17.436c-8.779,7.564-14.843,15.599-18.233,24.097c-3.392,8.502-5.078,20.846-5.078,37.002L 192.002,256.938   l-47.998,0.00 l0.00,50.033 c 13.872,4.50, 29.968,10.967, 39.842,19.375c 9.92,8.436, 17.859,18.529, 23.842,30.342  c 6.002,11.783, 10.125,26.813, 12.376,45.033l 50.25,0.00 L 270.314,320.00 L 352.00,320.00 l0.00-63.063 l-81.689,0.00 l0.00-90.594 c0.00-20.50-0.264-32.313, 1.908-38.125  c 2.156-5.78, 7.563-11.78, 13.451-15.25c 7.828-4.688, 16.752-7.03, 26.813-7.03c 17.893,0.00, 35.689,5.813, 53.375,17.438L 365.858,67.656   L 365.858,67.656z"/>
<glyph unicode="" d="M 482.459,335.562L 282.333,335.562 l 7.708-31.23l 54.623,0.00 l-91.913-83.016c-18.752,25.917-62.711,79.942-93.377,124.485l 68.461,0.00 l0.00,31.23 L0.00,377.031    l0.00-31.23 l 67.666,0.00 c 26.25-20.479, 126.708-146.104, 130.875-158.604c 1.667-11.709, 3.21-80.947-1.708-86.156   c-9.875-10.459-54.916-7.706-65.793-8.496l-3.748-21.435c 19.832-0.584, 84.415,1.613, 104.50,1.613   c 39.541,0.00, 108.833,0.164, 118.624-0.586l 1.21,22.498c-10.003,1.668-64.542,0.205-72.084,1.87   c-1.667,10.919-3.502,83.709-1.833,91.211c 7.541,21.749, 122.168,110.494, 134.71,113.868c 2.831,0.584, 7.04,1.719, 11.831,2.742   l 36.916,0.00 L 482.459,335.562zM 440.334,107.218L 440.501,73.552L 456.043,72.218L 472.79,70.968L 477.707,103.927L 460.04,104.802  zM 445.625,129.342l 30.669-2.458L 512.00,264.844c-5.957,0.206-60.166,5.331-67.211,6.706L 445.625,129.342z"/>
<glyph unicode="" d="M 426.656,480.00L 85.343,480.00 C 38.406,480.00,0.00,441.594,0.00,394.657l0.00-341.314 C0.00,6.376, 38.406-32.00, 85.343-32.00l 341.313,0.00   C 473.594-32.00, 512.00,6.376, 512.00,53.343L 512.00,394.657 C 512.00,441.594, 473.594,480.00, 426.656,480.00z M 373.315,282.031  c-9.407-2.531-95.377-68.938-101.032-85.25c-1.252-5.627, 0.125-60.221, 1.375-68.408c 5.655-1.248, 46.563-0.154, 54.063-1.402  l-0.906-16.877c-7.344,0.563-59.313,0.438-88.969,0.438c-15.064,0.00-63.50-1.654-78.374-1.218l 2.81,16.062  c 8.159,0.594, 41.939-1.499, 49.346,6.345c 3.688,3.905, 2.531,55.781, 1.281,64.564c-3.125,9.374-78.47,103.436-98.156,118.842L 64.00,315.127   l0.00,23.626 l 171.125,0.00 l0.00-23.626 L 183.53,315.127 c 22.999-33.499, 55.971-73.97, 70.033-93.406l 68.938,62.218L 281.53,283.939 l-5.779,23.627l 150.095,0.00   l-15.97-23.627l-27.688,0.00 C 378.594,283.156, 375.437,282.469, 373.315,282.031z M 418.593,109.219l-12.563,0.938l-11.654,1.001  l-0.125,25.248l 14.778-1.813l 13.25-0.655L 418.593,109.219z M 421.22,151.156L 398.218,153.00l-0.625,106.655  c 5.279-1.031, 45.938-4.874, 50.404-5.028L 421.22,151.156z"/>
<glyph unicode="" d="M 454.655,127.238c-62.828-26.668-131.154-39.521-193.27-39.521c-92.10,0.00-181.261,25.24-253.37,67.197   c-6.297,3.692-11.00-2.772-5.753-7.521c 66.818-60.353, 155.136-96.638, 253.243-96.638c 69.969,0.00, 151.233,22.052, 207.298,63.375   C 472.084,121.023, 464.147,131.27, 454.655,127.238zM 510.049,159.031c-6.129,7.559-58.711,14.068-90.756-8.484c-4.956-3.443-4.113-8.23, 1.387-7.561   c 18.059,2.145, 58.291,6.973, 65.431-2.185c 7.187-9.196-7.978-47.034-14.738-63.918c-2.059-5.122, 2.352-7.182, 6.972-3.317   C 508.451,98.723, 516.182,151.428, 510.049,159.031zM 269.739,305.544c-24.436-2.787-56.404-4.565-79.298-14.646c-26.394-11.39-44.96-34.698-44.96-68.923   c0.00-43.832, 27.64-65.717, 63.109-65.717c 30.011,0.00, 46.381,7.061, 69.511,30.666c 7.71-11.094, 10.203-16.492, 24.197-28.115   c 3.146-1.658, 7.179-1.479, 9.965,1.01l 0.119-0.118c 8.423,7.475, 23.726,20.815, 32.321,27.996c 3.442,2.848, 2.85,7.409, 0.119,11.209   c-7.709,10.678-15.895,19.334-15.895,39.086l0.00,65.715 c0.00,27.818, 1.959,53.383-18.566,72.54   c-16.189,15.537-42.998,20.997-63.519,20.997c-40.095,0.00-84.874-14.948-94.307-64.533c-0.948-5.276, 2.847-8.063, 6.287-8.837   l 40.927-4.39c 3.795,0.18, 6.583,3.916, 7.296,7.711c 3.499,17.082, 17.853,25.326, 33.925,25.326c 8.66,0.00, 18.502-3.203, 23.667-10.975   c 5.869-8.658, 5.10-20.521, 5.10-30.546L 269.739,305.544L 269.739,305.544z M 261.851,217.883c-6.702-11.863-17.322-19.158-29.18-19.158   c-16.192,0.00-25.622,12.338-25.622,30.548c0.00,35.938, 32.204,42.464, 62.69,42.464l0.00-9.133    C 269.739,246.173, 270.156,232.473, 261.851,217.883z"/>
<glyph unicode="" d="M 291.765,274.281c-10.922,0.00-21.844-0.718-31.312-2.906c-17.469-5.094-31.313-16.031-31.313-39.313   c0.00-18.219, 9.485-30.594, 25.50-30.594c 2.188,0.00, 4.36,0.751, 5.813,0.751c 9.468,2.188, 18.201,8.749, 23.297,18.938   c 8.72,14.533, 8.016,27.626, 8.016,44.377L 291.765,274.281L 291.765,274.281zM 426.671,480.00L 85.344,480.00 C 38.406,480.00,0.00,441.596,0.00,394.656l0.00-341.313 C0.00,6.375, 38.407-32.00, 85.344-32.00l 341.328,0.00    C 473.61-32.00, 512.00,6.374, 512.00,53.344L 512.00,394.656 C 512.00,441.596, 473.61,480.00, 426.671,480.00z M 286.671,344.187   c-5.109,7.25-14.577,10.905-23.296,10.905c-1.452,0.00-2.188,0.00-2.922,0.00c-14.563-1.469-27.656-9.468-31.313-25.468   c-0.718-3.656-2.891-7.282-7.266-8.033l-40.766,5.096c-2.906,0.748-7.28,2.938-5.844,8.75   c 8.749,45.875, 48.062,61.875, 85.188,64.063c 2.922,0.00, 5.827,0.00, 8.748,0.00c 20.377,0.00, 46.597-5.813, 63.329-21.126   c 20.375-18.907, 18.204-44.375, 18.204-72.063l0.00-65.529 c0.00-19.626, 8.00-28.375, 16.016-38.563c 2.172-3.658, 2.906-8.00-0.72-10.938   c-8.031-7.282-23.313-20.375-32.047-27.656c-2.906-2.188-6.546-2.188-10.188-0.718c-13.845,11.625-16.017,16.718-24.032,27.655   c-13.826-14.563-25.468-22.563-39.312-26.938c-8.721-2.188-18.188-3.625-29.846-3.625c-34.937,0.00-62.606,21.813-62.606,64.782   c0.00,34.218, 18.204,57.50, 45.141,68.438c 13.827,6.53, 30.579,9.469, 47.313,11.625c 10.922,1.467, 21.844,2.188, 31.312,2.938l0.00,5.812    C 291.765,323.782, 292.469,335.437, 286.671,344.187z M 413.985,92.406c-5.14-3.938-10.656-7.499-16.203-10.688   c-41.531-24.904-95.313-37.968-141.983-37.968c-75.156,0.00-142.392,27.688-193.405,73.969c-4.357,3.563-0.797,8.688, 4.343,5.938   c 54.984-32.031, 123.00-51.438, 193.405-51.438c 44.313,0.00, 92.141,8.313, 137.641,26.124c 3.157,1.188, 6.721,2.782, 9.874,3.972   C 414.781,105.471, 421.11,97.532, 413.985,92.406z M 451.563,117.719c-0.39-14.25-7.906-41.529-25.703-56.562   c-3.562-2.781-7.109-1.188-5.547,2.78c 5.157,12.656, 17.00,41.938, 11.484,48.653c-3.953,5.126-20.172,4.72-34.018,3.563   c-6.327-0.813-11.875-1.188-16.219-2.00c-3.952-0.375-4.75,3.154-0.798,5.938c 5.141,3.563, 10.688,6.313, 17.017,8.313   c 22.53,6.722, 48.655,2.752, 52.221-1.592c 0.778-1.188, 1.562-3.531, 1.562-6.721L 451.563,117.719L 451.563,117.719z"/>
<glyph unicode="" d="M 395.749,207.954c-0.647,64.841, 52.879,95.938, 55.271,97.483c-30.076,44.01-76.925,50.039-93.621,50.736   c-39.871,4.037-77.798-23.474-98.033-23.474c-20.184,0.00-51.409,22.877-84.476,22.276c-43.458-0.646-83.529-25.269-105.906-64.19   c-45.152-78.349-11.563-194.42, 32.445-257.963c 21.504-31.102, 47.146-66.038, 80.813-64.79c 32.421,1.294, 44.681,20.979, 83.878,20.979   c 39.197,0.00, 50.214-20.979, 84.525-20.335c 34.887,0.648, 56.991,31.699, 78.346,62.898c 24.695,36.084, 34.863,71.019, 35.462,72.813   C 463.679,104.74, 396.423,130.505, 395.749,207.954zM 331.281,398.239C 349.15,419.918, 361.211,449.995, 357.921,480.00c-25.739-1.048-56.939-17.145-75.405-38.775   c-16.571-19.188-31.074-49.813-27.187-79.218C 284.062,359.765, 313.393,376.609, 331.281,398.239z"/>
<glyph unicode="" d="M 256.50,96.00c-66.156,0.00-130.837,9.686-193.05,28.849l 10.124,30.371C 132.526,137.141, 193.812,128.00, 256.50,128.00   c 8.172,0.00, 16.319,0.164, 24.441,0.474C 283.054,167.254, 288.00,192.00, 288.00,192.00s-32.00,0.00-96.00,0.00c0.00,87.505, 29.909,165.027, 62.465,223.50L0.00,415.50 l0.00-383.00    l 283.088,0.00 c-2.336,22.842-3.152,44.43-3.077,63.92C 272.195,96.146, 264.358,96.00, 256.50,96.00z M 96.00,352.00l 32.00,0.00 l0.00-64.00 L 96.00,288.00 L 96.00,352.00 zM 512.00,415.50L 298.435,415.50 c-0.974-1.598-1.947-3.207-2.92-4.843c-19.208-32.286-34.468-65.379-45.358-98.36   c-9.103-27.566-15.151-55.116-18.086-82.297l 102.429,0.00 l-9.229-45.417c-0.157-0.808-4.085-21.422-6.10-53.471   c 40.932,4.063, 81.111,12.103, 120.257,24.107l 10.124-30.371c-42.783-13.178-86.732-21.874-131.526-26.021   c-0.018-2.188-0.028-4.395-0.021-6.64c 0.062-20.315, 1.173-40.285, 3.301-59.688L 512.00,32.499 L 512.00,415.50 z M 416.00,288.00l-32.00,0.00 l0.00,64.00 l 32.00,0.00 L 416.00,288.00 zM 293.632-32.00l 39.084,0.00 c-2.73,10.907-5.094,22.096-7.069,33.543c-1.747,10.126-3.191,20.46-4.343,30.957l-38.216,0.00    C 285.204,11.811, 288.563-9.901, 293.632-32.00zM 344.224,480.00l-48.198,0.00 c-12.875-17.435-27.466-39.185-41.56-64.50l 43.969,0.00 C 315.272,443.156, 332.017,465.201, 344.224,480.00z"/>
<glyph unicode="" d="M 432.00,320.00c-17.60,0.00-32.00-14.40-32.00-32.00l0.00-128.00 c0.00-17.60, 14.40-32.00, 32.00-32.00s 32.00,14.40, 32.00,32.00L 464.00,288.00 C 464.00,305.60, 449.60,320.00, 432.00,320.00zM 48.00,320.00c-17.60,0.00-32.00-14.40-32.00-32.00l0.00-128.00 c0.00-17.60, 14.40-32.00, 32.00-32.00s 32.00,14.40, 32.00,32.00L 80.00,288.00 C 80.00,305.60, 65.599,320.00, 48.00,320.00zM 96.00,112.00c0.00-26.51, 21.49-48.00, 48.00-48.00l 16.00,0.00 l0.00-64.00 c0.00-17.60, 14.40-32.00, 32.00-32.00s 32.00,14.40, 32.00,32.00l0.00,64.00 l 32.00,0.00 l0.00-64.00 c0.00-17.60, 14.401-32.00, 32.00-32.00s 32.00,14.40, 32.00,32.00   l0.00,64.00 l 16.00,0.00 c 26.51,0.00, 48.00,21.49, 48.00,48.00L 384.00,288.00 L 96.00,288.00 L 96.00,112.00 zM 299.299,435.253l 20.252,38.903c 1.016,1.951, 0.25,4.379-1.701,5.395s-4.379,0.25-5.395-1.701l-20.559-39.493   C 275.797,444.581, 258.299,448.00, 240.00,448.00c-18.298,0.00-35.796-3.419-51.898-9.643L 167.544,477.849c-1.016,1.951-3.443,2.717-5.395,1.701   s-2.717-3.443-1.701-5.395l 20.25-38.904c-45.315-20.509-78.12-63.792-83.81-115.252l 286.22,0.00    C 377.42,371.461, 344.615,414.743, 299.299,435.253z M 176.00,344.80c-12.813,0.00-23.20,10.387-23.20,23.20c0.00,12.813, 10.387,23.20, 23.20,23.20   s 23.20-10.387, 23.20-23.20C 199.199,355.187, 188.813,344.80, 176.00,344.80z M 304.00,344.80c-12.813,0.00-23.201,10.387-23.201,23.20   c0.00,12.813, 10.389,23.20, 23.201,23.20s 23.199-10.387, 23.199-23.20C 327.199,355.187, 316.813,344.80, 304.00,344.80z"/>
<glyph unicode="" d="M 206.115,224.043c-23.854,12.259-47.043,18.479-68.94,18.479c-2.978,0.00-5.976-0.09-8.974-0.354   c-27.94-2.312-53.461-9.684-69.875-15.414c-4.354-1.599-8.817-3.288-13.415-5.153L0.00,65.904   c 30.851,11.416, 58.146,16.969, 83.135,16.969c 40.423,0.00, 69.764-15.104, 93.996-30.652c 11.481,38.959, 39.022,133.045, 47.241,161.162   C 218.397,217.025, 212.334,220.668, 206.115,224.043zM 264.174,184.465l-45.223-157.074c 13.416-7.686, 58.549-32.025, 93.106-32.025c 27.896,0.00, 59.126,7.148, 95.417,21.896   l 43.178,150.988c-29.316-9.461-57.438-14.26-83.732-14.26C 318.945,153.99, 285.363,169.539, 264.174,184.465zM 146.411,295.605c 38.559-0.399, 67.076-15.104, 90.708-30.251l 46.376,158.672c-9.773,5.598-35.403,19.547-53.929,24.30   c-12.193,2.842-25.01,4.308-38.602,4.308c-25.898-0.488-54.194-6.973-86.444-19.90l-44.22-155.298   c 32.404,12.218, 60.322,18.17, 86.043,18.17C 146.366,295.605, 146.411,295.605, 146.411,295.605zM 512.00,380.938c-29.407-11.416-58.104-17.233-85.514-17.233c-45.843,0.00-79.646,15.901-101.547,31.183L 278.964,235.77   c 30.873-19.854, 64.145-29.939, 99.061-29.939c 28.474,0.00, 57.97,6.84, 87.731,20.344l-0.091,1.111l 1.867,0.443L 512.00,380.938z"/>
<glyph unicode="" d="M 445.98,222.898c-9.043,0.00-17.674-1.76-25.532-4.928C 415.195,275.149, 365.303,320.00, 304.448,320.00   c-14.893,0.00-29.341-2.815-42.159-7.582c-4.98-1.851-6.289-3.76-6.289-7.458l0.00-201.357 c0.00-3.883, 3.12-7.117, 7.062-7.498   C 263.23,96.088, 444.83,96.00, 446.007,96.00C 482.459,96.00, 512.00,124.408, 512.00,159.447S 482.433,222.898, 445.98,222.898zM 200.00,96.00L 216.00,96.00L 224.00,208.11L 216.00,320.00L 200.00,320.00L 192.00,208.11  zM 152.00,96.00L 136.00,96.00L 128.00,177.375L 136.00,256.00L 152.00,256.00L 160.00,176.00  zM 72.00,96.00L 88.00,96.00L 96.00,160.00L 88.00,224.00L 72.00,224.00L 64.00,160.00  zM 8.00,128.00L 24.00,128.00L 32.00,160.00L 24.00,192.00L 8.00,192.00L0.00,160.00  z"/>
<glyph unicode="" d="M 426.686,480.00L 85.344,480.00 C 38.407,480.00, 0.001,441.597, 0.001,394.66l0.00-234.658 L 8.00,192.00l 16.00,0.00 l 8.00-32.00l-8.00-32.00L 8.00,128.00 l-8.00,31.998l0.00-106.652   C 0.001,6.377, 38.407-32.00, 85.344-32.00l 341.342,0.00 C 473.625-32.00, 512.00,6.377, 512.00,53.346L 512.00,159.447 C 512.00,124.408, 482.459,96.00, 446.007,96.00  c-1.177,0.00-182.777,0.088-182.945,0.105c-3.941,0.381-7.062,3.615-7.062,7.498L 256.00,304.96 c0.00,3.697, 1.309,5.606, 6.289,7.458  c 12.818,4.767, 27.267,7.582, 42.159,7.582c 60.854,0.00, 110.746-44.851, 115.999-102.029c 7.858,3.168, 16.489,4.928, 25.532,4.928  c 36.453,0.00, 66.021-28.412, 66.021-63.451L 512.00,394.659 C 512.00,441.597, 473.621,480.00, 426.686,480.00z M 88.00,96.00L 72.00,96.00 l-8.00,64.00l 8.00,64.00l 16.00,0.00 l 8.00-64.00L 88.00,96.00z M 152.00,96.00l-16.00,0.00   l-8.00,81.375L 136.00,256.00l 16.00,0.00 l 8.00-80.00L 152.00,96.00z M 216.00,96.00l-16.00,0.00 l-8.00,112.11L 200.00,320.00l 16.00,0.00 l 8.00-111.89L 216.00,96.00z"/>
<glyph unicode="" d="M 487.655,191.031c 1.406,10.40, 2.215,20.973, 2.215,31.736c0.00,129.155-105.271,233.872-235.103,233.872  c-12.904,0.00-25.555-1.06-37.866-3.08c-22.072,14.384-48.342,22.767-76.612,22.767C 62.766,476.326,0.00,413.518,0.00,336.02  c0.00-28.198, 8.299-54.394, 22.59-76.389c-1.925-12.017-2.909-24.323-2.909-36.859c0.00-129.176, 105.217-233.882, 235.085-233.882  c 14.657,0.00, 28.927,1.427, 42.796,3.933c 21.55-13.369, 46.934-21.148, 74.146-21.148C 449.21-28.326, 512.00,34.498, 512.00,111.988  C 511.997,141.281, 503.04,168.516, 487.655,191.031z M 276.74,50.404c-74.705-3.892-109.664,12.637-141.689,42.691  c-35.765,33.567-21.398,71.854, 7.74,73.801c 29.122,1.944, 46.607-33.013, 62.15-42.736c 15.524-9.688, 74.594-31.76, 105.794,3.908  c 33.976,38.828-22.594,58.92-64.059,65.002c-59.203,8.766-133.95,40.792-128.135,103.907c 5.816,63.074, 53.582,95.414, 103.85,99.976  c 64.077,5.817, 105.791-9.707, 138.785-37.86c 38.15-32.529, 17.508-68.894-6.799-71.82c-24.212-2.909-51.404,53.504-104.791,54.352  c-55.027,0.864-92.217-57.261-24.286-73.784c 67.966-16.505, 140.75-23.286, 166.961-85.417  C 418.49,120.287, 351.507,54.299, 276.74,50.404z"/>
<glyph unicode="" d="M 511.999,229.039c0.00,32.207-26.201,58.405-58.404,58.405c-14.562,0.00-27.883-5.368-38.123-14.217   c-39.656,25.738-90.988,40.764-145.924,42.896l 29.022,94.637l 84.437-18.901c-0.002-0.229-0.033-0.448-0.033-0.676   c0.00-26.613, 21.654-48.267, 48.266-48.267c 26.612,0.00, 48.267,21.652, 48.267,48.267c0.00,26.613-21.652,48.265-48.267,48.265   c-20.00,0.00-37.19-12.229-44.506-29.601l-92.44,20.693c-4.685,1.049-9.383-1.681-10.789-6.271l-33.106-107.944   c-57.917-0.929-112.308-16.122-153.872-43.10c-10.237,8.848-23.563,14.217-38.123,14.217c-32.202,0.00-58.401-26.199-58.401-58.405   c0.00-21.122, 11.271-39.659, 28.113-49.918c-0.86-5.484-1.313-11.031-1.313-16.633c0.00-41.855, 24.355-80.934, 68.577-110.023   c 43.037-28.313, 100.078-43.91, 160.621-43.91c 60.537,0.00, 117.582,15.601, 160.619,43.91c 44.224,29.092, 68.576,68.168, 68.576,110.023   c0.00,5.602-0.451,11.146-1.313,16.633C 500.726,189.379, 511.999,207.918, 511.999,229.039z M 431.238,421.079   c 16.484,0.00, 29.896-13.41, 29.896-29.896c0.00-16.482-13.412-29.896-29.896-29.896c-16.481,0.00-29.896,13.414-29.896,29.896   C 401.341,407.668, 414.753,421.079, 431.238,421.079z M 18.367,229.039c0.00,22.076, 17.959,40.036, 40.033,40.036   c 8.359,0.00, 16.122-2.583, 22.549-6.978c-23.513-18.578-39.833-40.381-48.038-63.904C 24.036,205.541, 18.367,216.639, 18.367,229.039z    M 255.999,26.924c-116.252,0.00-210.829,60.813-210.829,135.564c0.00,3.213, 0.187,6.396, 0.53,9.555   c 0.667,6.111, 1.956,12.115, 3.846,17.982c 7.062,21.914, 22.373,41.909, 43.751,58.577c 4.741,3.701, 9.792,7.229, 15.105,10.583   c 38.062,24.02, 90.179,38.86, 147.597,38.86c 57.414,0.00, 109.533-14.843, 147.592-38.86c 5.313-3.354, 10.367-6.884, 15.106-10.583   c 21.379-16.667, 36.691-36.663, 43.752-58.577c 1.892-5.867, 3.181-11.871, 3.847-17.982c 0.346-3.156, 0.528-6.342, 0.528-9.555   C 466.824,87.736, 372.249,26.924, 255.999,26.924z M 479.087,198.191c-8.203,23.522-24.527,45.328-48.039,63.905   c 6.426,4.395, 14.188,6.978, 22.547,6.978c 22.076,0.00, 40.035-17.959, 40.035-40.036C 493.63,216.639, 487.964,205.541, 479.087,198.191zM 325.974,103.744c-17.406-14.27-38.988-20.633-69.975-20.633c-30.989,0.00-52.57,6.363-69.979,20.633   c-4.117,3.375-10.194,2.771-13.568-1.344c-3.377-4.119-2.775-10.195, 1.344-13.572c 20.81-17.061, 46.93-25.004, 82.204-25.004   c 35.273,0.00, 61.393,7.943, 82.203,25.004c 4.117,3.377, 4.722,9.453, 1.345,13.572C 336.164,106.523, 330.091,107.119, 325.974,103.744zM 214.117,189.99c0.00,19.184-15.552,34.734-34.735,34.734c-19.188,0.00-34.74-15.551-34.74-34.734   c0.00-19.189, 15.554-34.742, 34.74-34.742C 198.566,155.25, 214.117,170.801, 214.117,189.99zM 334.261,224.725c-19.189,0.00-34.742-15.551-34.742-34.734c0.00-19.189, 15.553-34.742, 34.742-34.742   c 19.184,0.00, 34.738,15.553, 34.738,34.742C 368.999,209.174, 353.445,224.725, 334.261,224.725z"/>
<glyph unicode="" d="M 426.656,480.00L 85.344,480.00 C 38.406,480.00,0.00,441.594,0.00,394.657l0.00-341.313 C0.00,6.376, 38.407-32.00, 85.344-32.00l 341.312,0.00   C 473.593-32.00, 512.00,6.376, 512.00,53.344L 512.00,394.656 C 511.997,441.594, 473.593,480.00, 426.656,480.00z M 157.395,51.365L 79.969,51.365 L 79.969,284.329 l 77.426,0.00 L 157.395,51.365 z   M 118.684,316.121l-0.508,0.00 c-25.983,0.00-42.788,17.898-42.788,40.266c0.00,22.846, 17.313,40.248, 43.803,40.248  c 26.486,0.00, 42.791-17.396, 43.296-40.248C 162.487,334.027, 145.678,316.121, 118.684,316.121z M 436.611,51.365l-77.426,0.00 L 359.185,176.003   c0.00,31.308-11.205,52.669-39.219,52.669c-21.396,0.00-34.144-14.406-39.73-28.318c-2.041-4.979-2.548-11.924-2.548-18.883l0.00-130.104   l-77.443,0.00 c0.00,0.00, 1.018,211.103,0.00,232.963l 77.436,0.00 l0.00-33.00 c 10.283,15.864, 28.672,38.479, 69.785,38.479c 50.951,0.00, 89.146-33.309, 89.146-104.856  L 436.612,51.365 L 436.611,51.365z"/>
<glyph unicode="" d="M 409.79,73.186c-53.333,0.209-81.749,26.291-101.496,72.251l-5.649,12.541l-48.685,111.00  c-16.146,39.293-56.211,65.836-101.417,65.836c-61.167,0.00-110.792-49.626-110.792-110.836c0.00-61.209, 49.624-110.834, 110.792-110.834  c 42.669,0.00, 79.771,24.125, 98.291,59.50l 19.688-45.416c-27.956-34.085-70.438-55.792-117.977-55.792C 68.29,71.436,0.00,139.687,0.00,223.979  c0.00,84.252, 68.29,152.586, 152.542,152.586c 63.583,0.00, 114.918-33.959, 141.00-94.126c 1.978-4.668, 27.579-64.543, 49.913-115.50  c 13.834-31.541, 25.63-52.459, 63.878-53.752c 37.584-1.291, 63.378,21.584, 63.378,50.504c0.00,28.25-19.668,35.041-52.875,46.082  c-59.691,19.667-90.503,39.417-90.503,86.751c0.00,46.168, 31.416,76.959, 82.457,76.959c 33.248,0.00, 57.253-14.793, 73.88-44.293  l-32.628-16.666c-12.295,17.207-25.854,24.00-43.086,24.00c-23.956,0.00-41.063-16.668-41.063-38.833c0.00-31.461, 28.147-36.211, 67.503-49.127  C 487.375,231.314, 512.00,211.604, 512.00,162.396C 512.001,110.728, 467.664,73.102, 409.79,73.186z"/>
<glyph unicode="" d="M 426.671,480.00L 85.344,480.00 C 38.406,480.00,0.00,441.596,0.00,394.658l0.00-341.313 C0.00,6.375, 38.408-32.00, 85.344-32.00L 426.67-32.00   c 46.937,0.00, 85.33,38.375, 85.33,85.345L 512.00,394.657 C 512.00,441.596, 473.608,480.00, 426.671,480.00z M 371.342,108.469  c-39.999,0.157-61.313,19.721-76.124,54.189l-4.236,9.404l-36.513,83.25c-12.11,29.469-42.159,49.375-76.063,49.375  c-45.875,0.00-83.096-37.219-83.096-83.125s 37.222-83.125, 83.096-83.125c 32.00,0.00, 59.828,18.094, 73.717,44.625L 266.89,149.00  c-20.969-25.563-52.829-41.844-88.484-41.844C 115.218,107.156, 64.00,158.343, 64.00,221.561c0.00,63.188, 51.219,114.438, 114.405,114.438  c 47.688,0.00, 86.188-25.469, 105.75-70.594c 1.483-3.50, 20.688-48.406, 37.438-86.625c 10.375-23.656, 19.219-39.346, 47.906-40.313  c 28.188-0.969, 47.53,16.188, 47.53,37.876c0.00,21.188-14.751,26.281-39.657,34.563C 332.609,225.658, 309.50,240.47, 309.50,275.97  c0.00,34.626, 23.563,57.72, 61.842,57.72c 24.937,0.00, 42.938-11.094, 55.408-33.221L 402.28,287.97  c-9.221,12.906-19.393,18.001-32.313,18.001c-17.97,0.00-30.797-12.501-30.797-29.126c0.00-23.595, 21.107-27.157, 50.627-36.844  C 429.529,227.064, 448.00,212.283, 448.00,175.376C 447.997,136.626, 414.746,108.406, 371.342,108.469z"/>
<glyph unicode="" d="M 426.688,480.00L 85.343,480.00 C 38.405,480.00,0.00,441.592,0.00,394.654l0.00-341.312 C0.00,6.377, 38.405-32.00, 85.343-32.00l 341.345,0.00   C 473.625-32.00, 512.00,6.376, 512.00,53.342L 512.00,394.654 C 512.00,441.592, 473.625,480.00, 426.688,480.00z M 480.00,53.342c0.00-14.167-5.57-27.541-15.685-37.658  C 454.204,5.57, 440.841,0.00, 426.688,0.00L 256.00,0.00 L 256.00,224.00 L 32.00,224.00 L 32.00,394.654 c0.00,14.154, 5.575,27.525, 15.698,37.648C 57.82,442.425, 71.19,448.00, 85.343,448.00  L 256.00,448.00 l0.00-224.00 l 224.00,0.00 L 480.00,53.342 z"/>
<glyph unicode="" d="M 256.00,480.00C 114.615,480.00,0.00,365.385,0.00,224.00s 114.614-256.00, 256.00-256.00c 141.385,0.00, 256.00,114.615, 256.00,256.00S 397.385,480.00, 256.00,480.00z M 256.00,286.294  c-8.484,0.00-15.359-6.876-15.359-15.36l0.00-93.868 c0.00-35.816-29.037-64.854-64.854-64.854c-35.818,0.00-64.854,29.036-64.854,64.854l0.00,42.668   l 49.493,0.00 l0.00-40.961 c0.00-8.483, 6.877-15.359, 15.36-15.359c 8.482,0.00, 15.358,6.876, 15.358,15.359l0.00,92.161   c0.00,35.817, 29.035,64.853, 64.854,64.853c 35.815,0.00, 64.854-29.036, 64.854-64.853l0.00-18.774 l-29.014-9.386l-20.479,9.386l0.00,18.774   C 271.361,279.417, 264.484,286.294, 256.00,286.294z M 401.067,177.066c0.00-35.816-29.036-64.854-64.853-64.854  c-35.818,0.00-64.854,29.036-64.854,64.854L 271.36,218.88 l 20.479-9.387l 29.014,9.387l0.00-41.813 c0.00-8.482, 6.875-15.359, 15.36-15.359  c 8.481,0.00, 15.358,6.877, 15.358,15.359l0.00,40.961 l 49.493,0.00 l0.00-40.961 L 401.067,177.067 z"/>
<glyph unicode="" d="M 426.675,480.00L 85.325,480.00 C 38.20,480.00,0.00,441.79,0.00,394.658l0.00-341.315 C0.00,6.21, 38.20-32.00, 85.325-32.00l 341.35,0.00 C 473.80-32.00, 512.00,6.21, 512.00,53.343  L 512.00,394.658 C 512.00,441.79, 473.80,480.00, 426.675,480.00z M 256.00,286.294c-8.484,0.00-15.359-6.876-15.359-15.36l0.00-93.868   c0.00-35.816-29.037-64.854-64.854-64.854c-35.818,0.00-64.854,29.036-64.854,64.854l0.00,42.668 l 49.493,0.00 l0.00-40.961   c0.00-8.483, 6.877-15.359, 15.36-15.359c 8.482,0.00, 15.359,6.876, 15.359,15.359l0.00,92.161 c0.00,35.817, 29.035,64.853, 64.854,64.853  c 35.815,0.00, 64.854-29.036, 64.854-64.853l0.00-18.774 l-29.014-9.386l-20.48,9.386l0.00,18.774 C 271.36,279.417, 264.484,286.294, 256.00,286.294z   M 401.067,177.066c0.00-35.816-29.037-64.854-64.854-64.854c-35.818,0.00-64.854,29.036-64.854,64.854L 271.359,218.88 l 20.48-9.387l 29.014,9.387  l0.00-41.813 c0.00-8.482, 6.875-15.359, 15.359-15.359c 8.482,0.00, 15.36,6.877, 15.36,15.359l0.00,40.961 l 49.492,0.00 l0.00-40.961 L 401.067,177.067 z"/>
<glyph unicode="" d="M 256.00,480.00C 114.615,480.00,0.00,365.385,0.00,224.00s 114.613-256.00, 256.00-256.00c 141.385,0.00, 256.00,114.615, 256.00,256.00S 397.385,480.00, 256.00,480.00z M 280.822,137.941  c-23.26,1.807-33.021,13.328-51.252,24.404C 219.54,109.757, 207.288,59.337, 171.00,33.002  c-11.202,79.484, 16.447,139.182, 29.285,202.557c-21.892,36.853, 2.635,111.017, 48.81,92.737  c 56.813-22.474-49.20-137.004, 21.966-151.308c 74.31-14.934, 104.644,128.929, 58.571,175.712  c-66.579,67.553-193.799,1.54-178.155-95.178c 3.807-23.646, 28.236-30.819, 9.762-63.451c-42.61,9.446-55.325,43.051-53.688,87.856  c 2.634,73.337, 65.892,124.682, 129.343,131.783c 80.242,8.982, 155.553-29.454, 165.953-104.938  C 414.553,223.577, 366.623,131.307, 280.822,137.941z"/>
<glyph unicode="" d="M 426.675,480.00L 85.324,480.00 C 38.199,480.00,0.00,441.79,0.00,394.657l0.00-341.315 C0.00,6.209, 38.199-32.00, 85.324-32.00l 341.351,0.00   C 473.80-32.00, 512.00,6.209, 512.00,53.342L 512.00,394.657 C 512.00,441.79, 473.80,480.00, 426.675,480.00z M 280.822,137.941  c-23.26,1.807-33.021,13.328-51.252,24.404c-10.03-52.589-22.281-103.009-58.569-129.344  c-11.202,79.484, 16.447,139.182, 29.285,202.557c-21.893,36.853, 2.635,111.017, 48.81,92.737  c 56.813-22.474-49.20-137.004, 21.966-151.308c 74.31-14.934, 104.644,128.929, 58.571,175.712  c-66.579,67.553-193.799,1.54-178.155-95.178c 3.807-23.646, 28.236-30.819, 9.762-63.451c-42.61,9.446-55.325,43.051-53.688,87.856  c 2.634,73.337, 65.892,124.682, 129.343,131.783c 80.242,8.982, 155.553-29.454, 165.953-104.938  C 414.553,223.577, 366.623,131.307, 280.822,137.941z"/>
<glyph unicode="" d="M 426.671,480.00L 85.343,480.00 C 38.406,480.00,0.00,441.595,0.00,394.655l0.00-341.311 C0.00,6.375, 38.406-32.00, 85.343-32.00l 341.328,0.00   C 473.609-32.00, 512.00,6.375, 512.00,53.345L 512.00,394.655 C 512.00,441.595, 473.609,480.00, 426.671,480.00z M 155.889,146.606l-55.632,0.00   c-3.351,0.00-5.854,1.504-7.271,3.792c-1.467,2.379-1.542,5.464,0.00,8.534l 59.11,104.313c 0.063,0.114, 0.063,0.19,0.00,0.316l-37.615,65.116  c-1.556,3.098-1.783,6.157-0.316,8.534c 1.417,2.301, 4.235,3.477, 7.586,3.477l 55.632,0.00 c 8.535,0.00, 12.72-5.499, 15.489-10.431  c0.00,0.00, 38.02-66.33, 38.249-66.696c-2.252-3.97-60.059-106.21-60.059-106.21C 168.218,152.22, 164.21,146.606, 155.889,146.606z   M 418.956,404.731L 295.78,186.941c-0.075-0.115-0.075-0.255,0.00-0.367l 78.431-143.295c 1.556-3.084, 1.593-6.221, 0.113-8.597  c-1.415-2.288-4.033-3.552-7.383-3.552l-55.57,0.00 c-8.522,0.00-12.783,5.663-15.54,10.596c0.00,0.00-78.848,144.646-79.05,145.023  c 3.944,6.98, 123.797,219.523, 123.797,219.523c 2.984,5.362, 6.587,10.596, 14.894,10.596l 56.203,0.00 c 3.351,0.00, 5.981-1.265, 7.396-3.553  C 420.537,410.939, 420.499,407.804, 418.956,404.731z"/>
<glyph unicode="" d="M 267.313,468.686C 261.091,474.908, 248.80,480.00, 240.00,480.00L 48.00,480.00 c-8.80,0.00-16.00-7.20-16.00-16.00l0.00-480.00 c0.00-8.80, 7.20-16.00, 16.00-16.00l 384.00,0.00 c 8.80,0.00, 16.00,7.20, 16.00,16.00L 448.00,272.00    c0.00,8.80-5.091,21.091-11.313,27.313L 267.313,468.686z M 416.00,0.00L 64.00,0.00 L 64.00,448.00 l 175.579,0.00 c 1.458-0.24, 4.204-1.377, 5.405-2.239l 168.778-168.777   c 0.861-1.201, 1.998-3.947, 2.238-5.405L 416.00,0.00 zM 432.00,480.00l-96.00,0.00 c-8.80,0.00-10.909-5.091-4.687-11.313l 105.373-105.373C 442.909,357.091, 448.00,359.20, 448.00,368.00L 448.00,464.00 C 448.00,472.80, 440.80,480.00, 432.00,480.00   z"/>
<glyph unicode="" d="M 421.006,185.26c-6.824,6.723-21.957,10.283-44.986,10.586c-15.589,0.172-34.351-1.201-54.085-3.964   c-8.837,5.099-17.946,10.647-25.094,17.329c-19.231,17.958-35.284,42.886-45.288,70.297c 0.652,2.56, 1.207,4.81, 1.724,7.106   c0.00,0.00, 10.833,61.53, 7.965,82.333c-0.395,2.853-0.637,3.681-1.404,5.898l-0.941,2.417c-2.948,6.796-8.724,13.997-17.783,13.604   l-5.312,0.169l-0.146,0.003c-10.10,0.00-18.332-5.166-20.493-12.887c-6.569-24.217, 0.209-60.446, 12.491-107.369l-3.144-7.643   c-8.794-21.438-19.815-43.03-29.539-62.079l-1.264-2.476c-10.23-20.019-19.512-37.013-27.927-51.411l-8.688-4.594   c-0.632-0.334-15.522-8.209-19.014-10.322c-29.628-17.691-49.261-37.77-52.518-53.708c-1.036-5.085-0.265-11.593, 5.007-14.607   l 8.403-4.229c 3.645-1.826, 7.489-2.751, 11.427-2.751c 21.102,0.00, 45.60,26.286, 79.348,85.183   c 38.965,12.684, 83.327,23.228, 122.207,29.045c 29.629-16.684, 66.071-28.273, 89.071-28.273c 4.084,0.00, 7.606,0.389, 10.466,1.148   c 4.411,1.168, 8.129,3.683, 10.396,7.096c 4.463,6.716, 5.367,15.966, 4.156,25.438C 425.68,179.411, 423.435,182.887, 421.006,185.26z    M 105.823,72.976c 3.848,10.521, 19.08,31.322, 41.602,49.778c 1.416,1.148, 4.904,4.416, 8.097,7.451   C 131.971,92.643, 116.199,77.672, 105.823,72.976z M 239.217,380.157c 6.783,0.00, 10.642-17.097, 10.962-33.127   c 0.32-16.03-3.429-27.28-8.079-35.604c-3.851,12.324-5.713,31.75-5.713,44.452C 236.387,355.878, 236.104,380.157, 239.217,380.157z    M 199.426,161.253c 4.725,8.458, 9.641,17.378, 14.665,26.839c 12.246,23.158, 19.979,41.278, 25.739,56.173   c 11.455-20.842, 25.722-38.56, 42.493-52.756c 2.092-1.771, 4.309-3.551, 6.637-5.325C 254.855,179.436, 225.378,171.229, 199.426,161.253z    M 414.452,163.174c-2.077-1.299-8.027-2.05-11.854-2.05c-12.353,0.00-27.636,5.647-49.063,14.833   c 8.234,0.609, 15.781,0.919, 22.55,0.919c 12.391,0.00, 16.06,0.054, 28.175-3.036S 416.529,164.473, 414.452,163.174zM 451.716,380.285l-71.432,71.431C 364.728,467.272, 334.00,480.00, 312.00,480.00L 72.00,480.00 C 50.00,480.00, 32.00,462.00, 32.00,440.00l0.00-432.00 c0.00-22.00, 18.00-40.00, 40.00-40.00l 368.00,0.00    c 22.00,0.00, 40.00,18.00, 40.00,40.00L 480.00,312.00 C 480.00,334.00, 467.272,364.729, 451.716,380.285z M 429.089,357.657c 1.565-1.565, 3.125-3.487, 4.64-5.657L 352.00,352.00 L 352.00,433.728    c 2.17-1.515, 4.092-3.075, 5.657-4.64L 429.089,357.657z M 448.00,8.00c0.00-4.336-3.664-8.00-8.00-8.00L 72.00,0.00 c-4.336,0.00-8.00,3.664-8.00,8.00L 64.00,440.00    c0.00,4.336, 3.664,8.00, 8.00,8.00l 240.00,0.00 c 2.416,0.00, 5.127-0.305, 8.00-0.852L 320.00,320.00 l 127.148,0.00 c 0.547-2.873, 0.852-5.583, 0.852-8.00L 448.00,8.00 z"/>
<glyph unicode="" d="M 345.11,244.159c-30.334,14.326-68.986,17.21-97.417-3.024c 34.57,3.302, 72.479-2.419, 97.553-28.562    c 24.00,27.54, 62.057,32.703, 96.479,29.866C 412.981,261.511, 375.115,258.951, 345.11,244.159zM 332.824,177.125c-34.189,0.789-67.217-11.586-95.55-30.052c-53.588,22.794-121.368,18.562-167.001-19.491    c 13.165,0.467, 26.003,3.723, 39.028,5.396c 47.591,4.744, 98.294-7.071, 134.256-39.912c 14.886,21.771, 35.822,39.121, 59.826,49.961    c 31.537,15.26, 67.08,16.842, 101.41,17.26C 383.949,174.611, 357.485,177.264, 332.824,177.125zM 451.716,380.285l-71.432,71.431C 364.728,467.272, 334.00,480.00, 312.00,480.00L 72.00,480.00 C 50.00,480.00, 32.00,462.00, 32.00,440.00l0.00-432.00 c0.00-22.00, 18.00-40.00, 40.00-40.00l 368.00,0.00    c 22.00,0.00, 40.00,18.00, 40.00,40.00L 480.00,312.00 C 480.00,334.00, 467.272,364.729, 451.716,380.285z M 429.089,357.657c 1.565-1.565, 3.125-3.487, 4.64-5.657L 352.00,352.00 L 352.00,433.728    c 2.17-1.515, 4.092-3.075, 5.657-4.64L 429.089,357.657z M 448.00,8.00c0.00-4.336-3.664-8.00-8.00-8.00L 72.00,0.00 c-4.336,0.00-8.00,3.664-8.00,8.00L 64.00,440.00    c0.00,4.336, 3.664,8.00, 8.00,8.00l 240.00,0.00 c 2.416,0.00, 5.127-0.305, 8.00-0.852L 320.00,320.00 l 127.148,0.00 c 0.547-2.873, 0.852-5.583, 0.852-8.00L 448.00,8.00 z"/>
<glyph unicode="" d="M 319.889,242.054L 341.995,242.054L 316.489,128.965L 283.326,287.97L 230.051,287.97L 191.494,128.965L 162.586,287.97L 106.889,287.97L 163.435,32.029L 217.854,32.029L 256.001,183.383L 290.129,32.029L 340.297,32.029L 405.112,287.97L 319.889,287.97     zM 451.716,380.285l-71.432,71.431C 364.728,467.272, 334.00,480.00, 312.00,480.00L 72.00,480.00 C 50.00,480.00, 32.00,462.00, 32.00,440.00l0.00-432.00 c0.00-22.00, 18.00-40.00, 40.00-40.00l 368.00,0.00    c 22.00,0.00, 40.00,18.00, 40.00,40.00L 480.00,312.00 C 480.00,334.00, 467.272,364.729, 451.716,380.285z M 429.089,357.657c 1.565-1.565, 3.125-3.487, 4.64-5.657L 352.00,352.00 L 352.00,433.728    c 2.17-1.515, 4.092-3.075, 5.657-4.64L 429.089,357.657z M 448.00,8.00c0.00-4.336-3.664-8.00-8.00-8.00L 72.00,0.00 c-4.336,0.00-8.00,3.664-8.00,8.00L 64.00,440.00    c0.00,4.336, 3.664,8.00, 8.00,8.00l 240.00,0.00 c 2.416,0.00, 5.127-0.305, 8.00-0.852L 320.00,320.00 l 127.148,0.00 c 0.547-2.873, 0.852-5.583, 0.852-8.00L 448.00,8.00 z"/>
<glyph unicode="" d="M 371.514,288.00L 303.867,288.00L 256.001,217.484L 208.131,288.00L 140.487,288.00L 221.568,166.768L 130.081,32.00L 261.201,32.00L 261.201,77.788L 230.923,77.788L 256.001,115.285L 311.699,32.00L 381.92,32.00L 290.432,166.768  zM 451.716,380.285l-71.432,71.431C 364.728,467.272, 334.00,480.00, 312.00,480.00L 72.00,480.00 C 50.00,480.00, 32.00,462.00, 32.00,440.00l0.00-432.00 c0.00-22.00, 18.00-40.00, 40.00-40.00l 368.00,0.00    c 22.00,0.00, 40.00,18.00, 40.00,40.00L 480.00,312.00 C 480.00,334.00, 467.272,364.729, 451.716,380.285z M 429.089,357.657c 1.565-1.565, 3.125-3.487, 4.64-5.657L 352.00,352.00 L 352.00,433.728    c 2.17-1.515, 4.092-3.075, 5.657-4.64L 429.089,357.657z M 448.00,8.00c0.00-4.336-3.664-8.00-8.00-8.00L 72.00,0.00 c-4.336,0.00-8.00,3.664-8.00,8.00L 64.00,440.00    c0.00,4.336, 3.664,8.00, 8.00,8.00l 240.00,0.00 c 2.416,0.00, 5.127-0.305, 8.00-0.852L 320.00,320.00 l 127.148,0.00 c 0.547-2.873, 0.852-5.583, 0.852-8.00L 448.00,8.00 z"/>
<glyph unicode="" d="M 303.999,224.00c-44.187,0.00-80.00-35.816-80.00-80.00s 35.815-80.00, 80.00-80.00c 44.184,0.00, 80.00,35.816, 80.00,80.00S 348.183,224.00, 303.999,224.00z M 303.999,144.00   l0.00,64.00 c 35.287,0.00, 64.00-28.71, 64.00-64.00L 303.999,144.00 zM 96.00,224.00L 192.00,224.00L 192.00,192.00L 96.00,192.00zM 96.00,160.00L 192.00,160.00L 192.00,128.00L 96.00,128.00zM 96.00,96.00L 192.00,96.00L 192.00,64.00L 96.00,64.00zM 451.716,380.285l-71.432,71.431C 364.728,467.272, 334.00,480.00, 312.00,480.00L 72.00,480.00 C 50.00,480.00, 32.00,462.00, 32.00,440.00l0.00-432.00 c0.00-22.00, 18.00-40.00, 40.00-40.00l 368.00,0.00    c 22.00,0.00, 40.00,18.00, 40.00,40.00L 480.00,312.00 C 480.00,334.00, 467.272,364.729, 451.716,380.285z M 429.089,357.657c 1.565-1.565, 3.125-3.487, 4.64-5.657L 352.00,352.00 L 352.00,433.728    c 2.17-1.515, 4.092-3.075, 5.657-4.64L 429.089,357.657z M 448.00,8.00c0.00-4.336-3.664-8.00-8.00-8.00L 72.00,0.00 c-4.336,0.00-8.00,3.664-8.00,8.00L 64.00,440.00    c0.00,4.336, 3.664,8.00, 8.00,8.00l 240.00,0.00 c 2.416,0.00, 5.127-0.305, 8.00-0.852L 320.00,320.00 l 127.148,0.00 c 0.547-2.873, 0.852-5.583, 0.852-8.00L 448.00,8.00 z"/>
</font>
</defs>
</svg>
