<?xml version="1.0" standalone="no"?>
<!DOCTYPE svg PUBLIC "-//W3C//DTD SVG 1.1//EN" "http://www.w3.org/Graphics/SVG/1.1/DTD/svg11.dtd" >
<svg>
<metadata>
Created by FontForge 20110222 at Wed Oct  2 13:35:04 2013
 By Orthosie Webhosting
Copyright 2011 Dalton Maag Ltd. Modification of this file requires prior written permission from Dalton Maag Ltd.
</metadata>
<defs>
<font id="FocoRegular" horiz-adv-x="332" >
  <font-face 
    font-family="FocoRegular"
    font-weight="400"
    font-stretch="normal"
    units-per-em="1000"
    panose-1="2 11 5 4 5 2 2 2 2 3"
    ascent="800"
    descent="-200"
    x-height="473"
    cap-height="672"
    bbox="-173 -224 1125 914"
    underline-thickness="20"
    underline-position="-113"
    unicode-range="U+0008-FB04"
  />
<missing-glyph horiz-adv-x="500" 
d="M50 0v750h400v-750h-400zM400 50v650h-300v-650h300z" />
    <glyph glyph-name="f_f" unicode="ff" horiz-adv-x="640" 
d="M74 522q0 97 45.5 146t130.5 49q26 0 48 -6t37.5 -15t24.5 -20t9 -21q0 -14 -8 -27.5t-19 -24.5h-11q-17 21 -38.5 31t-42.5 10q-42 0 -66 -24.5t-24 -84.5v-65h214v52q0 97 45 146t130 49q31 0 57 -7t45 -17t29 -21.5t10 -21.5q0 -14 -8 -27.5t-19 -24.5h-12
q-17 21 -41 33.5t-56 12.5q-45 0 -70 -24.5t-25 -84.5v-65h168v-73h-168v-397h-85v397h-214v-397h-86v522z" />
    <glyph glyph-name="f_i" unicode="fi" horiz-adv-x="532" 
d="M73 519q0 97 48.5 147.5t142.5 50.5q37 0 67.5 -7.5t52 -18.5t33.5 -24t12 -25q0 -11 -8 -25t-16 -25h-15q-16 21 -46.5 36.5t-75.5 15.5q-54 0 -82 -25t-28 -85v-64h291v-372q0 -34 7.5 -47.5t40.5 -13.5v-36q-10 -3 -25.5 -5t-29.5 -2q-29 0 -44.5 9.5t-23 25t-9 35.5
t-1.5 41v292h-206v-397h-85v519z" />
    <glyph glyph-name="f_l" unicode="fl" horiz-adv-x="541" 
d="M73 520q0 17 2 33t4 28q14 68 66 102t126 34q32 0 61 -5t53 -13t42.5 -17t30.5 -18v-561q0 -18 0.5 -30.5t5 -20.5t14.5 -11.5t28 -3.5v-36q-9 -3 -24 -5t-29 -2q-29 0 -45 8.5t-23.5 23.5t-9.5 35.5t-2 43.5v516h1q-18 8 -46.5 15t-57.5 7q-54 0 -82.5 -24t-28.5 -84
v-65h154v-73h-154v-397h-86v520z" />
    <glyph glyph-name="f_f_i" unicode="ffi" horiz-adv-x="831" 
d="M75 522q0 97 45 146t130 49q26 0 48 -6t38 -15t25 -20t9 -21q0 -14 -8 -27.5t-19 -24.5h-12q-17 21 -38 31t-43 10q-42 0 -66 -24.5t-24 -84.5v-65h212v49q0 97 48.5 147.5t142.5 50.5q37 0 67.5 -7.5t52 -18.5t33.5 -24t12 -25q0 -11 -8 -25t-16 -25h-15
q-16 21 -46.5 36.5t-75.5 15.5q-54 0 -82 -25t-28 -85v-64h291v-372q0 -34 7.5 -47.5t40.5 -13.5v-36q-10 -3 -25.5 -5t-29.5 -2q-29 0 -44.5 9.5t-23 25t-9 35.5t-1.5 41v292h-206v-397h-85v397h-212v-397h-85v522z" />
    <glyph glyph-name="f_f_l" unicode="ffl" horiz-adv-x="841" 
d="M75 522q0 97 45 146t130 49q26 0 48 -6t38 -15t25 -20t9 -21q0 -14 -8 -27.5t-19 -24.5h-12q-17 21 -38 31t-43 10q-42 0 -66 -24.5t-24 -84.5v-65h213v50q0 17 2 33t4 28q14 68 66 102t126 34q32 0 61 -5t53 -13t42.5 -17t30.5 -18v-561q0 -18 0.5 -30.5t5 -20.5
t14.5 -11.5t28 -3.5v-36q-9 -3 -24 -5t-29 -2q-29 0 -45 8.5t-23.5 23.5t-9.5 35.5t-2 43.5v516h1q-18 8 -46.5 15t-57.5 7q-54 0 -82.5 -24t-28.5 -84v-65h154v-73h-154v-397h-86v397h-213v-397h-85v522z" />
    <glyph glyph-name=".notdef" horiz-adv-x="500" 
d="M50 0v750h400v-750h-400zM400 50v650h-300v-650h300z" />
    <glyph glyph-name=".null" horiz-adv-x="0" 
 />
    <glyph glyph-name=".null" horiz-adv-x="0" 
 />
    <glyph glyph-name=".null" horiz-adv-x="0" 
 />
    <glyph glyph-name="nonmarkingreturn" unicode="&#x9;" horiz-adv-x="200" 
 />
    <glyph glyph-name="nonmarkingreturn" unicode="&#xd;" horiz-adv-x="200" 
 />
    <glyph glyph-name="space" unicode=" " horiz-adv-x="200" 
 />
    <glyph glyph-name="exclam" unicode="!" horiz-adv-x="225" 
d="M68 671h6q3 0 6.5 0.5t6.5 0.5q28 0 47.5 -14t19.5 -52v-431q-3 -1 -7 -1h-12q-28 0 -47.5 14t-19.5 52v431zM113 -15q-26 0 -42 16.5t-16 42.5t16 43.5t42 17.5q25 0 41 -17.5t16 -43.5t-16 -42.5t-41 -16.5z" />
    <glyph glyph-name="quotedbl" unicode="&#x22;" horiz-adv-x="328" 
d="M202 681q3 0 8 0.5t7 0.5q23 0 42 -14t19 -49v-4l-7 -179h-69v245zM53 681q3 0 8 0.5t7 0.5q23 0 42 -14t19 -49v-4l-7 -179h-69v245z" />
    <glyph glyph-name="numbersign" unicode="#" horiz-adv-x="655" 
d="M177 175h-141l9 65h141l21 147h-141l9 66h141l22 150h69l-22 -150h141l22 150h69l-22 -150h136l-9 -66h-136l-21 -147h136l-9 -65h-136l-20 -146h-69l20 146h-141l-20 -146h-69zM396 240l21 147h-141l-21 -147h141z" />
    <glyph glyph-name="dollar" unicode="$" horiz-adv-x="549" 
d="M240 -15q-47 1 -88 12q-45 12 -71 32q-23 17 -23 37q0 11 8.5 28t19.5 32q15 -13 33 -24.5t40 -21.5q19 -8 39 -13t42 -6v253q-14 5 -26.5 10t-25.5 10q-49 20 -82 58t-33 106t33.5 111t88.5 61q19 7 45 10v79h62v-78q25 -3 49 -9q42 -9 70 -27q15 -10 25.5 -21.5
t10.5 -26.5q0 -12 -9 -26t-23 -28q-13 11 -36 27.5t-61 27.5q-6 2 -12.5 3t-13.5 2v-221q29 -10 59 -26q22 -11 41 -26.5t32.5 -35.5t21.5 -46t8 -59q0 -75 -34 -123t-93 -68l-35 -9v-83h-62v79zM302 67l8 4q38 15 52.5 43t14.5 62q0 42 -16.5 68.5t-51.5 43.5l-7 3v-224z
M240 602q-12 -2 -19 -6q-33 -12 -47 -36.5t-14 -54.5q0 -25 9 -43t26 -32q20 -15 44 -25l1 -1v198z" />
    <glyph glyph-name="percent" unicode="%" horiz-adv-x="823" 
d="M88 374q-40 46 -40 132q0 88 42.5 132t108.5 44q152 0 152 -176q0 -87 -42 -132t-109 -45q-72 0 -112 45zM508 30q-40 44 -40 132q0 43 11.5 76t31.5 55t47.5 33.5t60.5 11.5q70 0 110.5 -44t40.5 -132t-41.5 -132.5t-108.5 -44.5q-72 0 -112 45zM619 48q44 0 61 31.5
t17 83.5q0 51 -16.5 81.5t-61.5 30.5q-43 0 -60 -31t-17 -82t17.5 -82.5t59.5 -31.5zM199 393q44 0 61 31t17 83q0 51 -16.5 81.5t-61.5 30.5q-42 0 -59 -31t-17 -82t17 -82t59 -31zM570 644q9 14 25 26.5t39 12.5q16 0 26 -2t17 -5l-450 -676h-86z" />
    <glyph glyph-name="ampersand" unicode="&#x26;" horiz-adv-x="698" 
d="M475 93q-42 -46 -92 -75t-116 -29q-57 0 -97.5 16.5t-67 43.5t-38.5 63t-12 75q0 45 14 81t37 64t53.5 48.5t63.5 33.5h-1q-23 30 -33.5 56.5t-10.5 61.5q0 34 14 62t37.5 47.5t55 30t66.5 10.5q42 0 71 -9.5t50 -23.5q22 -16 22 -36q0 -13 -11 -28t-19 -24h-10
q-21 20 -44 33t-56 13q-36 0 -61.5 -20.5t-25.5 -59.5q0 -26 12 -49t31 -47q38 -48 83 -103t84 -103q14 35 22 73.5t9 81.5v25.5t-1 27.5h161v-65h-88q-2 -57 -16 -111.5t-36 -96.5l128 -157q-11 -5 -24 -8.5t-25 -3.5q-39 0 -66 30zM262 354q-26 -11 -49 -26t-40 -35
t-27 -45t-10 -55q0 -55 34.5 -92.5t98.5 -37.5q51 0 86.5 22t69.5 67l-82 101z" />
    <glyph glyph-name="quotesingle" unicode="'" horiz-adv-x="179" 
d="M49 681q3 0 8 0.5t7 0.5q23 0 42 -14t19 -49v-4l-7 -179h-69v245z" />
    <glyph glyph-name="parenleft" unicode="(" horiz-adv-x="283" 
d="M249 -121q-10 -2 -18 -2q-12 0 -22.5 4.5t-21.5 12.5q-12 9 -34.5 36t-44 75.5t-38 121t-16.5 172.5q0 88 15.5 157.5t36.5 119t43.5 80t37.5 42.5q10 8 20 13t23 5q12 0 20 -1.5t15 -4.5l-25.5 -34t-39.5 -75t-36 -123.5t-16 -178.5q0 -109 17.5 -186.5t39.5 -128.5
q13 -29 27.5 -54t30.5 -45q-8 -5 -14 -6z" />
    <glyph glyph-name="parenright" unicode=")" horiz-adv-x="281" 
d="M26 -121q-6 1 -14 6q16 20 30.5 45t27.5 54q22 51 39.5 128.5t17.5 186.5q0 104 -16 178.5t-36 123.5t-39.5 75l-25.5 34q13 6 35 6q13 0 23 -5t20 -13q15 -12 37.5 -42.5t43.5 -80t36.5 -119t15.5 -157.5q0 -100 -16.5 -172.5t-38 -121t-44 -75.5t-34.5 -36
q-11 -8 -21.5 -12.5t-22.5 -4.5q-8 0 -18 2z" />
    <glyph glyph-name="asterisk" unicode="*" horiz-adv-x="390" 
d="M69 565q-4 1 -8.5 3t-9.5 4q-14 8 -14 26q0 13 7 24q11 20 28 20q9 0 18 -5.5t18 -13.5l42 -39q3 -2 6 -7t3 -10q0 -12 -6.5 -16t-14.5 -4q-6 0 -18 3zM96 434q-9 -9 -22 -9q-17 0 -30 22q-6 10 -6 23q0 18 14 26q6 3 12 5t11 4l51 16q10 2 13 2q8 0 13 -6t5 -14
q0 -7 -4 -12.5t-9 -10.5zM282 621q9 8 18 13.5t18 5.5q17 0 28 -20q7 -11 7 -24q0 -18 -14 -26q-5 -2 -9.5 -4t-8.5 -3l-51 -15q-12 -3 -18 -3q-8 0 -14.5 4t-6.5 16q0 5 3 10t6 7zM244 478q-5 5 -9 10.5t-4 12.5q0 8 5 14t13 6q3 0 13 -2l51 -16q5 -2 11 -4t12 -5
q14 -8 14 -26q0 -13 -6 -23q-13 -22 -30 -22q-13 0 -22 9zM164 659q-4 9 -4 25q0 13 9 22.5t28 9.5t28.5 -9t9.5 -23q0 -16 -5 -28l-12 -48q-3 -12 -6.5 -18t-14.5 -6q-16 0 -21 23zM172 465q3 11 7 18t15 7q16 0 20 -22l12 -52q4 -11 4 -25q0 -13 -9 -22.5t-28 -9.5
q-38 0 -38 31q0 7 1.5 15.5t3.5 13.5z" />
    <glyph glyph-name="plus" unicode="+" horiz-adv-x="549" 
d="M233 297h-156v80h156v160h82v-159h157v-80h-157v-161h-82v160z" />
    <glyph glyph-name="comma" unicode="," horiz-adv-x="226" 
d="M70 -118q-25 0 -35 31q9 4 19.5 11.5t19.5 17.5t15.5 21t9.5 23q-12 8 -25.5 23t-13.5 38q0 25 14 41.5t40 16.5q29 0 43 -20.5t14 -49.5q0 -23 -5.5 -45t-14.5 -41t-21.5 -33.5t-27.5 -23.5q-16 -10 -32 -10z" />
    <glyph glyph-name="hyphen" unicode="-" horiz-adv-x="441" 
d="M323 314q9 0 18.5 -1t17.5 -6t13.5 -15t5.5 -28q0 -5 -0.5 -11t-0.5 -11q-1 -4 -1 -11h-255q-21 0 -36 11.5t-15 40.5v10.5t1 10.5q0 7 1 10h251z" />
    <glyph glyph-name="period" unicode="." horiz-adv-x="225" 
d="M71 3q-16 17 -16 44q0 26 16.5 44t40.5 18q25 0 41.5 -18t16.5 -44t-16 -44t-42 -18q-25 0 -41 18z" />
    <glyph glyph-name="slash" unicode="/" horiz-adv-x="381" 
d="M267 630q6 17 20 29.5t37 12.5q16 0 26 -2t17 -5l-269 -665h-86z" />
    <glyph glyph-name="zero" unicode="0" horiz-adv-x="549" 
d="M98 70q-60 85 -60 256q0 79 15 142.5t45 108t75 68.5t105 24q118 0 174.5 -90t56.5 -253q0 -166 -59.5 -253.5t-174.5 -87.5q-116 0 -177 85zM216 75q28 -14 60 -14q33 0 59 13.5t45 44.5t29 82t10 125q0 75 -10 125.5t-29 81.5t-45 44.5t-59 13.5t-60 -13.5t-46 -44.5
t-29.5 -81.5t-10.5 -125.5q0 -109 22.5 -169.5t63.5 -81.5z" />
    <glyph glyph-name="one" unicode="1" horiz-adv-x="549" 
d="M272 557l-140 -73q-8 10 -18 25t-10 28q0 10 6 19t16 14l130 72q19 11 33.5 17t28.5 6q13 0 24 -4.5t16 -9.5v-651h-86v557z" />
    <glyph glyph-name="two" unicode="2" horiz-adv-x="549" 
d="M58 70q19 15 45 37t54.5 49t58.5 58t58 64q43 51 69.5 97.5t26.5 100.5q0 33 -9.5 54.5t-26 35t-38 19t-45.5 5.5q-26 0 -49 -8t-41.5 -19.5t-33 -24.5t-24.5 -24h-15q-30 33 -30 51q0 9 5 17t12 14q6 6 22 18t40 24.5t55 21.5t68 9q40 0 76 -10t63 -32t43 -58t16 -88
q0 -77 -37.5 -142t-91.5 -121q-42 -45 -81.5 -82.5t-68.5 -60.5h236q32 0 47 -15.5t15 -37.5q0 -13 -3 -22h-416v70z" />
    <glyph glyph-name="three" unicode="3" horiz-adv-x="549" 
d="M202 384h36q13 0 34.5 4t41.5 16t34.5 34t14.5 58q0 96 -114 96q-27 0 -50.5 -7t-42 -17.5t-33 -22.5t-24.5 -22h-13q-15 13 -24 26t-9 23q0 11 10 22.5t23 21.5q28 21 73 37t96 16t88 -12.5t61 -35t35.5 -52.5t11.5 -66q0 -35 -10.5 -60.5t-25.5 -44.5t-32 -30.5
t-29 -17.5q15 -6 34.5 -17t37 -29.5t29.5 -46.5t12 -67q0 -44 -13.5 -81.5t-41.5 -64.5t-70.5 -42.5t-99.5 -15.5q-36 0 -66 5.5t-53 14t-38.5 17t-23.5 14.5q-20 15 -20 33q0 11 10.5 28.5t24.5 36.5q9 -10 24 -23t36 -24t47 -19t57 -8q25 0 49.5 6t44.5 20.5t32.5 39
t12.5 61.5q0 42 -17 66t-40 37t-47 16.5t-37 3.5h-36v73z" />
    <glyph glyph-name="four" unicode="4" horiz-adv-x="549" 
d="M56 240l267 373q17 23 33 37t40 14q23 0 37 -10v-409h31q26 0 36.5 -12.5t10.5 -31.5q0 -5 -0.5 -9.5t-1.5 -9.5q-1 -3 -1 -9h-75v-173h-86v173h-291v67zM347 246v288l-209 -288h209z" />
    <glyph glyph-name="five" unicode="5" horiz-adv-x="549" 
d="M114 661h330q2 -5 2.5 -10t0.5 -12q0 -36 -17 -46.5t-45 -10.5h-203l-17 -169q13 3 32.5 6.5t45.5 3.5q46 0 87 -11t72.5 -36.5t50 -66.5t18.5 -101q0 -46 -14.5 -86.5t-43 -70.5t-72 -47.5t-100.5 -17.5q-39 0 -69.5 5.5t-52.5 13t-36 15.5t-20 13q-8 6 -14 14.5
t-6 20.5q0 13 9.5 29t23.5 35q9 -10 24.5 -22.5t36.5 -23t48 -18t59 -7.5q25 0 50 8t45 25t32 44t12 65q0 48 -15 76.5t-38.5 44t-51.5 20.5t-54 5q-34 0 -64 -6t-50 -13l-28 13z" />
    <glyph glyph-name="six" unicode="6" horiz-adv-x="549" 
d="M183 408q22 14 54 26.5t73 12.5q48 0 82.5 -18.5t57 -49.5t33.5 -71.5t11 -84.5q0 -57 -16 -101.5t-44.5 -75t-67.5 -46t-84 -15.5q-112 0 -166 74t-54 212q0 91 24 160.5t63 118t88 77t99 38.5q15 3 29 4t25 1q44 0 44 -42q0 -20 -3 -33q-8 1 -15 1h-15
q-63 0 -106.5 -24t-71.5 -57.5t-43 -68.5t-20 -56zM148 255q0 -30 5 -64.5t20 -63.5t41.5 -48.5t70.5 -19.5q55 0 87.5 42.5t32.5 115.5q0 33 -6.5 61.5t-20.5 50t-36.5 33.5t-54.5 12q-25 0 -47 -7t-39.5 -16.5t-30.5 -20t-19 -16.5l-3 -28v-31z" />
    <glyph glyph-name="seven" unicode="7" horiz-adv-x="549" 
d="M387 580h-333q-1 3 -1 8q-1 4 -1 9v10q0 24 15 39t46 15h338q20 0 29.5 -7t9.5 -27v-24l-286 -603h-94z" />
    <glyph glyph-name="eight" unicode="8" horiz-adv-x="549" 
d="M90 408q-24 40 -24 85q0 43 17.5 76t47 55t66.5 33.5t76 11.5q41 0 78.5 -10t66 -31t45.5 -53t17 -76q0 -48 -25.5 -86.5t-70.5 -61.5q27 -9 48.5 -26t37 -39.5t24 -49t8.5 -53.5q0 -51 -18 -88.5t-49 -62t-72.5 -36t-89.5 -11.5q-51 0 -93 11.5t-72.5 35.5t-47 60.5
t-16.5 86.5q0 27 9.5 53.5t25 49t36.5 40t45 27.5q-22 10 -39.5 24.5t-30.5 34.5zM170 88q41 -32 103 -32q63 0 102.5 33.5t39.5 94.5q0 57 -38 92t-104 35q-33 0 -59.5 -10t-45 -27t-28.5 -41t-10 -52q0 -62 40 -93zM186 416q36 -30 87 -30q25 0 47 8.5t38.5 23t26 34
t9.5 42.5q0 25 -9.5 45t-26 33t-38.5 20t-47 7q-51 0 -86.5 -27.5t-35.5 -79.5q0 -23 9.5 -42t25.5 -34z" />
    <glyph glyph-name="nine" unicode="9" horiz-adv-x="549" 
d="M148 59q63 0 107 23.5t72 57t42.5 69.5t18.5 61q-9 -8 -21.5 -17.5t-30 -18t-39.5 -14.5t-49 -6q-51 0 -87.5 18.5t-60 49.5t-34.5 70.5t-11 81.5q0 57 16 101t44.5 73.5t67.5 45t85 15.5q55 0 96 -19.5t68.5 -56t41.5 -88t14 -115.5q0 -101 -27 -176.5t-71.5 -126.5
t-102 -76.5t-118.5 -25.5q-25 0 -39 8t-14 33q0 10 0.5 18.5t1.5 15.5q5 -1 15 -1h15zM399 379q1 6 1 12v13q0 28 -5 61t-20 62t-41.5 48.5t-69.5 19.5q-54 0 -87 -41t-33 -113q0 -70 27.5 -113t93.5 -43q25 0 47 7.5t39.5 18.5t29.5 24t17 24q1 5 1 10v10z" />
    <glyph glyph-name="colon" unicode=":" horiz-adv-x="225" 
d="M71 3q-16 17 -16 44q0 26 16.5 44t40.5 18q25 0 41.5 -18t16.5 -44t-16 -44t-42 -18q-25 0 -41 18zM71 381q-16 17 -16 44q0 26 16.5 44t40.5 18q25 0 41.5 -18t16.5 -44t-16 -44t-42 -18q-25 0 -41 18z" />
    <glyph glyph-name="semicolon" unicode=";" horiz-adv-x="238" 
d="M70 -118q-25 0 -35 31q9 4 19.5 11.5t19.5 17.5t15.5 21t9.5 23q-12 8 -25.5 23t-13.5 38q0 25 14 41.5t40 16.5q29 0 43 -20.5t14 -49.5q0 -23 -5.5 -45t-14.5 -41t-21.5 -33.5t-27.5 -23.5q-16 -10 -32 -10zM84 381q-16 17 -16 44q0 26 16.5 44t40.5 18q25 0 41.5 -18
t16.5 -44t-16 -44t-42 -18q-25 0 -41 18z" />
    <glyph glyph-name="less" unicode="&#x3c;" horiz-adv-x="549" 
d="M86 373l375 172v-87l-261 -122l261 -122v-90l-375 175v74z" />
    <glyph glyph-name="equal" unicode="=" horiz-adv-x="549" 
d="M78 466h393v-80l-393 -1v81zM78 283h393v-80h-393v80z" />
    <glyph glyph-name="greater" unicode="&#x3e;" horiz-adv-x="549" 
d="M86 214l262 123l-262 119v89l375 -172v-74l-375 -175v90z" />
    <glyph glyph-name="question" unicode="?" horiz-adv-x="439" 
d="M46 550q-8 11 -16.5 25t-8.5 27q0 15 17 27q7 6 21 15t35 17.5t48.5 14.5t62.5 6q40 0 75.5 -10.5t62.5 -32t43 -54.5t16 -78q0 -30 -8 -54.5t-21 -45.5t-29 -38.5t-32 -32.5q-35 -30 -61 -59.5t-26 -61.5q0 -8 1 -19t3 -21q-4 -1 -9.5 -1h-10.5q-27 0 -41.5 16.5
t-14.5 45.5q0 40 24.5 71t56.5 60q30 28 54.5 60.5t24.5 76.5q0 28 -9.5 47.5t-26 32t-37.5 18t-45 5.5q-27 0 -49 -6t-39 -15t-29.5 -19t-19.5 -17h-12zM152 2q-16 17 -16 44q0 26 16.5 44t40.5 18q26 0 42.5 -18t16.5 -44t-16.5 -43.5t-42.5 -17.5q-24 0 -41 17z" />
    <glyph glyph-name="at" unicode="@" horiz-adv-x="792" 
d="M159 343q-10 13 -14.5 23t-4.5 21t14.5 22.5t38.5 21t54 15.5t61 6q84 0 131.5 -40t47.5 -129v-142q0 -28 7.5 -40t38.5 -13v-37q-23 -6 -42 -6q-33 0 -57 17.5t-24 59.5v94h-20q-15 0 -37.5 -1.5t-47 -6t-48.5 -13t-43.5 -23t-31.5 -36.5t-12 -52q0 -18 7 -41t28 -43
t59.5 -34t101.5 -14q58 0 109 18t88 56t58.5 97.5t21.5 142.5q0 73 -23.5 128t-65 92t-98.5 55.5t-124 18.5q-47 0 -88 -9.5t-74 -23t-56 -27.5t-35 -24h-11q-11 9 -18.5 21.5t-7.5 22.5q0 22 43 48q20 11 47 22.5t59 21t69 15.5t77 6q94 0 165.5 -28.5t119.5 -78t72 -116.5
t24 -144q0 -87 -24 -158t-70 -121t-113.5 -77.5t-153.5 -27.5q-70 0 -120.5 15t-83 42t-48 64t-15.5 81q0 62 30.5 99t74 56.5t90 26t79.5 8.5h24t20 -1q-1 22 -6.5 42.5t-17.5 35.5t-33 24t-53 9q-38 0 -70.5 -12.5t-53.5 -28.5h-15z" />
    <glyph glyph-name="A" unicode="A" horiz-adv-x="625" 
d="M264 663q7 3 21 6t28 3q19 0 34.5 -8.5t24.5 -32.5l231 -631h-91l-67 180h-270l-65 -180h-88zM422 251l-112 319l-113 -319h225z" />
    <glyph glyph-name="B" unicode="B" horiz-adv-x="567" 
d="M78 667q41 4 78 6.5t85 2.5q69 0 116.5 -11t76.5 -32t42 -52.5t13 -71.5q0 -35 -10 -61.5t-24.5 -45.5t-31.5 -31t-31 -18q16 -4 38.5 -13.5t42 -27.5t33.5 -47t14 -73q0 -56 -19 -93t-54 -59t-85 -31t-111 -9h-173v667zM228 72q45 0 82 4t64 16.5t42 36.5t15 64
q0 35 -14 57.5t-38 36t-54.5 18.5t-63.5 5h-96v-238h63zM260 381q63 0 102.5 32.5t39.5 92.5q0 31 -12.5 50.5t-34.5 30t-52.5 14.5t-66.5 4q-24 0 -42 -1t-29 -3v-220h95z" />
    <glyph glyph-name="C" unicode="C" horiz-adv-x="596" 
d="M512 534q-11 12 -25.5 25t-33.5 23t-42.5 16.5t-53.5 6.5q-60 0 -99.5 -23.5t-63 -62t-33.5 -87t-10 -99.5q0 -52 10.5 -101t35.5 -87.5t66 -61.5t102 -23q33 0 60 9.5t47 22.5t32.5 25t17.5 18q11 -9 23.5 -25.5t12.5 -28.5q0 -16 -14 -30q-5 -5 -19 -16t-37 -22
t-56 -19.5t-76 -8.5q-77 0 -133 26t-92 72t-53 110t-17 139t17.5 139.5t54 111t92 73t132.5 26.5q39 0 75 -9t63.5 -23t44 -31t16.5 -32q0 -13 -8.5 -27.5t-17.5 -25.5h-18z" />
    <glyph glyph-name="D" unicode="D" horiz-adv-x="633" 
d="M79 666q54 6 94 8t75 2q96 0 160 -26t102.5 -71t54.5 -105t16 -128q0 -91 -30 -166t-94 -123q-39 -28 -94 -42.5t-128 -14.5h-156v666zM249 74q67 0 113.5 21t75 57t41 84.5t12.5 104.5t-11 103.5t-39 82t-74.5 53.5t-116.5 19q-20 0 -41.5 -1t-42.5 -4v-520h83z" />
    <glyph glyph-name="E" unicode="E" horiz-adv-x="509" 
d="M78 669h386q1 -4 1.5 -8.5t0.5 -12.5q0 -23 -13 -38.5t-48 -15.5h-240v-206h227v-77h-227v-236h254q32 0 47 -15.5t15 -38.5v-8.5t-1 -12.5h-402v669z" />
    <glyph glyph-name="F" unicode="F" horiz-adv-x="475" 
d="M78 669h386q1 -5 1.5 -8.5t0.5 -12.5q0 -23 -13 -38.5t-49 -15.5h-239v-200h227v-76h-227v-318h-87v669z" />
    <glyph glyph-name="G" unicode="G" horiz-adv-x="651" 
d="M507 279h-140v71h223v-283q-7 -9 -25.5 -22.5t-48 -27t-69.5 -23t-89 -9.5q-77 0 -133 26t-92.5 73t-54 111.5t-17.5 141.5q0 75 18 138.5t55 109t94.5 71.5t135.5 26q36 0 71 -8.5t62 -22t44 -30t17 -31.5q0 -12 -8 -27t-18 -27h-17q-9 11 -23.5 23.5t-34.5 22.5
t-45 16.5t-54 6.5q-61 0 -101 -23t-64 -60.5t-33.5 -85.5t-9.5 -99q0 -53 10.5 -103t36 -89t67 -63t103.5 -24q28 0 51.5 5t41.5 12t29.5 14.5t17.5 13.5v176z" />
    <glyph glyph-name="H" unicode="H" horiz-adv-x="650" 
d="M79 670q6 1 13 1.5t12 0.5q10 0 21 -2.5t20 -9t15 -19t6 -32.5v-223h318v284q6 1 13 1.5t12 0.5q10 0 21 -2.5t20 -9t15 -19t6 -32.5v-609h-87v310h-318v-310h-87v670z" />
    <glyph glyph-name="I" unicode="I" horiz-adv-x="240" 
d="M76 670q6 1 13 1.5t12 0.5q10 0 20.5 -2t20 -9t15.5 -19t7 -33v-609h-88v670z" />
    <glyph glyph-name="J" unicode="J" horiz-adv-x="248" 
d="M84 670q6 1 13 1.5t12 0.5q10 0 21 -2.5t20 -9t15 -19t6 -32.5v-540q0 -21 -1 -43t-3 -45q-3 -29 -13.5 -57.5t-30 -51t-48.5 -36.5t-69 -14q-32 0 -42.5 14t-10.5 35v12.5t1 11.5q73 0 101.5 29t28.5 97v649z" />
    <glyph glyph-name="K" unicode="K" horiz-adv-x="562" 
d="M184 340v32l239 267q16 17 28.5 24t27.5 7t30.5 -6.5t27.5 -14.5l-259 -289l278 -356q-12 -5 -27.5 -8.5t-27.5 -3.5q-26 0 -42.5 9t-31.5 28zM79 670q5 1 10.5 1.5t13.5 0.5q9 0 19.5 -2.5t20.5 -9t16.5 -19t6.5 -32.5v-609h-87v670z" />
    <glyph glyph-name="L" unicode="L" horiz-adv-x="479" 
d="M78 670q6 1 13 1.5t12 0.5q10 0 21 -2.5t20 -9t15 -19t6 -32.5v-533h232q32 0 46 -15.5t14 -37.5v-9.5t-1 -13.5h-378v670z" />
    <glyph glyph-name="M" unicode="M" horiz-adv-x="794" 
d="M112 666q7 2 18 4t25 2q21 0 33.5 -10t20.5 -27l186 -404l186 402q11 24 27.5 31.5t32.5 7.5q13 0 25 -2t19 -4l47 -666h-82l-36 526l-178 -374h-85l-169 357l-37 -509h-83z" />
    <glyph glyph-name="N" unicode="N" horiz-adv-x="660" 
d="M79 667q6 2 17 3.5t22 1.5q22 0 34.5 -7.5t23.5 -25.5l324 -506v537q6 1 12.5 1.5t11.5 0.5q9 0 19 -2.5t18.5 -9t14 -19t5.5 -32.5v-609h-81l-340 519v-519h-81v667z" />
    <glyph glyph-name="O" unicode="O" horiz-adv-x="699" 
d="M638 338q0 -72 -16.5 -136t-51.5 -112t-90.5 -76.5t-133.5 -28.5t-132.5 29.5t-88.5 78t-49 112t-15 132.5t17 131.5t53 110t91.5 75.5t132.5 28q75 0 128.5 -27t88 -73.5t50.5 -109.5t16 -134zM547 337q0 55 -10 103.5t-32.5 85t-60 58t-91.5 21.5q-57 0 -95 -21.5
t-61.5 -58t-33.5 -85t-10 -103.5q0 -54 10 -103.5t33 -87.5t60.5 -61t93.5 -23q55 0 93 23t61 61t33 87.5t10 103.5z" />
    <glyph glyph-name="P" unicode="P" horiz-adv-x="538" 
d="M78 667q37 4 78.5 6.5t79.5 2.5q138 0 201.5 -49t63.5 -146q0 -65 -21.5 -108t-58.5 -69t-85 -36.5t-100 -10.5h-71v-257h-87v667zM204 330q49 0 87.5 6t65 22t40.5 44.5t14 73.5q0 37 -13 61.5t-35.5 39t-53.5 20.5t-66 6q-26 0 -45 -1t-36 -3h2v-269h40z" />
    <glyph glyph-name="Q" unicode="Q" horiz-adv-x="705" 
d="M129 91q-34 49 -49.5 113t-15.5 133t17 131.5t53 110t91.5 75.5t132.5 28q75 0 128.5 -27t88 -73.5t50.5 -109.5t16 -134q0 -72 -16.5 -136t-51.5 -112t-90.5 -76.5t-133.5 -28.5t-132 29t-88 77zM259 84q37 -22 94 -22q55 0 93 22.5t61 61t33 88t10 103.5t-10 102
t-32.5 84.5t-60 57.5t-91.5 21q-57 0 -95 -21t-61.5 -57.5t-33.5 -84.5t-10 -102q0 -41 5.5 -79t18 -71t32 -59.5t47.5 -43.5zM373 -54q13 9 24 9q15 0 30 -8t32 -19q22 -14 53.5 -27.5t82.5 -14.5q0 -36 -17.5 -57t-43.5 -21q-24 0 -50.5 12.5t-51 30.5t-44.5 38.5
t-32 37.5q4 9 17 19z" />
    <glyph glyph-name="R" unicode="R" horiz-adv-x="556" 
d="M79 667q36 5 77.5 7t79.5 2q137 0 197 -46.5t60 -144.5q0 -42 -12 -75t-32 -57.5t-46.5 -40t-56.5 -22.5l183 -290q-10 -5 -23 -7t-24 -2q-46 0 -71 39l-156 244h-89v-274h-87v667zM237 348q37 0 67 7t52 23t34 41t12 61q0 37 -11.5 61t-33 37.5t-52 18.5t-67.5 5
q-23 0 -40.5 -1t-31.5 -3v-250h71z" />
    <glyph glyph-name="S" unicode="S" horiz-adv-x="496" 
d="M392 561q-20 16 -55 30t-80 14q-35 0 -58.5 -8.5t-38 -22t-21 -32t-6.5 -37.5q0 -25 10 -43t29 -31.5t46 -24.5t62 -22q34 -11 66 -26.5t56 -38.5t38.5 -55t14.5 -75q0 -50 -16.5 -88t-46.5 -64t-71.5 -39t-91.5 -13q-55 0 -102.5 12t-74.5 32q-25 16 -25 37q0 11 9 28
t21 32q32 -26 76.5 -45.5t95.5 -19.5q39 0 65 10t41.5 26t22.5 36.5t7 42.5q0 29 -8.5 49.5t-25 35.5t-41.5 26.5t-57 21.5q-37 11 -71 24.5t-60.5 35t-42.5 52.5t-16 77q0 45 16.5 79.5t45 57.5t67.5 35t85 12q37 0 79.5 -9.5t72.5 -27.5q16 -10 27 -21.5t11 -26.5
q0 -12 -9.5 -26t-23.5 -28q-4 4 -9.5 8.5t-12.5 9.5z" />
    <glyph glyph-name="T" unicode="T" horiz-adv-x="540" 
d="M223 593h-212q-3 13 -3 28q0 19 15.5 33.5t45.5 14.5h459q1 -5 1.5 -12.5t0.5 -10.5q0 -22 -15 -37.5t-46 -15.5h-158v-593h-88v593z" />
    <glyph glyph-name="U" unicode="U" horiz-adv-x="637" 
d="M74 670q6 1 13 1.5t12 0.5q10 0 21 -2.5t20 -9t15 -19t6 -32.5v-355q0 -42 7.5 -77t25 -60.5t47 -39.5t74.5 -14q69 0 106.5 26t48.5 86q6 33 6 79v416q6 1 13 1.5t12 0.5q10 0 21 -2.5t20 -9t15 -19t6 -32.5v-343q0 -20 -0.5 -41t-2.5 -40q-4 -42 -19.5 -78.5
t-45.5 -63.5t-74.5 -42.5t-107.5 -15.5q-108 0 -162.5 48t-70.5 133q-4 21 -5 46t-1 51v407z" />
    <glyph glyph-name="V" unicode="V" horiz-adv-x="583" 
d="M9 667q15 5 46 5q50 0 67 -56l168 -529l177 529q8 26 25 41t44 15q11 0 19.5 -1.5t18.5 -3.5l-240 -672h-91z" />
    <glyph glyph-name="W" unicode="W" horiz-adv-x="878" 
d="M11 666q7 2 19 4t25 2q27 0 42 -14.5t23 -40.5l161 -519l123 413l-43 156q10 2 20 3.5t21 1.5q46 0 63 -56l146 -514l153 513q8 27 22.5 42t40.5 15q18 0 40 -5l-213 -672h-87l-124 405l-123 -405h-87z" />
    <glyph glyph-name="X" unicode="X" horiz-adv-x="561" 
d="M229 337l-186 323q13 5 27 8.5t25 3.5q42 0 66 -44l122 -221l131 220q17 29 35 36.5t34 7.5q26 0 45 -11l-195 -322l205 -338q-23 -10 -47 -10q-27 0 -43 12t-31 36l-139 229l-157 -267h-95z" />
    <glyph glyph-name="Y" unicode="Y" horiz-adv-x="524" 
d="M218 275l-215 387q9 5 23 8t29 3q24 0 38 -10t25 -31l145 -275l145 267q11 20 26.5 34t40.5 14q11 0 22 -2t24 -6l-215 -387v-277h-88v275z" />
    <glyph glyph-name="Z" unicode="Z" horiz-adv-x="521" 
d="M15 64l370 530h-341q-3 13 -3 28q0 19 15 33t46 14h358q17 0 26.5 -7.5t9.5 -26.5v-28l-376 -532h320q31 0 46 -15.5t15 -37.5q0 -13 -3 -22h-483v64z" />
    <glyph glyph-name="bracketleft" unicode="[" horiz-adv-x="269" 
d="M60 717h187v-71h-104v-709h104v-71h-187v851z" />
    <glyph glyph-name="backslash" unicode="\" horiz-adv-x="381" 
d="M281 0l-269 665q7 3 17 5t26 2q23 0 37 -12.5t20 -29.5l255 -630h-86z" />
    <glyph glyph-name="bracketright" unicode="]" horiz-adv-x="269" 
d="M22 -134v71h104v709h-104v71h187v-851h-187z" />
    <glyph glyph-name="asciicircum" unicode="^" horiz-adv-x="583" 
d="M239 669h92l156 -370h-79l-123 310l-122 -310h-80z" />
    <glyph glyph-name="underscore" unicode="_" horiz-adv-x="468" 
d="M38 -91h392v-63h-392v63z" />
    <glyph glyph-name="grave" unicode="`" horiz-adv-x="365" 
d="M79 675q11 9 27 16.5t30 7.5q19 0 30.5 -10t22.5 -25l84 -110q-8 -6 -19.5 -11t-22.5 -5q-15 0 -27.5 7.5t-23.5 20.5z" />
    <glyph glyph-name="a" unicode="a" horiz-adv-x="504" 
d="M91 365q-8 13 -13.5 28t-5.5 24q0 13 16 24.5t41.5 20.5t56.5 14t61 5q51 0 85 -11t55 -33t29.5 -55t8.5 -76v-197q0 -24 2 -37.5t7.5 -20t15 -8.5t24.5 -2v-40q-9 -3 -22 -5t-27 -2q-31 0 -54 12.5t-27 44.5q-25 -25 -60 -42.5t-92 -17.5q-26 0 -52.5 6t-48 22t-35.5 43
t-14 69q0 52 26.5 85t65.5 52t83.5 26t81.5 8h21t21 -1v15q0 45 -21.5 68.5t-82.5 23.5q-45 0 -76 -11.5t-60 -31.5h-10zM342 237h-29q-32 0 -65 -4t-60 -15t-44 -31t-17 -51q0 -30 18 -53t67 -23q26 0 49.5 7.5t41.5 18.5t28.5 24t10.5 25v102z" />
    <glyph glyph-name="b" unicode="b" horiz-adv-x="539" 
d="M74 709q7 1 11.5 1h6.5q30 0 48.5 -15t18.5 -53v-212q20 20 53 35.5t84 15.5q39 0 73.5 -13t61 -41.5t42 -74t15.5 -111.5q0 -75 -18.5 -124.5t-48 -78.5t-65.5 -41t-70 -12q-29 0 -50.5 6t-37.5 14.5t-26 18t-15 16.5v-40h-83v709zM159 113q6 -8 16 -17.5t24.5 -17.5
t33 -14t39.5 -6q63 0 94 45.5t31 132.5q0 36 -6.5 68t-21 55t-39 36.5t-60.5 13.5q-49 0 -80 -21t-31 -50v-225z" />
    <glyph glyph-name="c" unicode="c" horiz-adv-x="463" 
d="M396 352q-17 20 -44 37.5t-73 17.5q-38 0 -65 -13t-44.5 -36.5t-25.5 -55t-8 -67.5q0 -37 8 -69.5t25.5 -56.5t45.5 -38t67 -14q27 0 48.5 8.5t36.5 19.5q20 13 32 28q4 -4 9.5 -10.5t11 -14t9 -15.5t3.5 -15q0 -14 -21 -32q-19 -17 -54.5 -29t-86.5 -12q-32 0 -70.5 9
t-72 36t-56.5 75.5t-23 128.5q0 74 24 122t59 75.5t74.5 38.5t69.5 11q36 0 64.5 -7.5t49 -19t31.5 -24.5t11 -25t-8 -27t-16 -26h-11z" />
    <glyph glyph-name="d" unicode="d" horiz-adv-x="538" 
d="M381 40q-8 -8 -20 -18t-28.5 -18t-37.5 -13.5t-46 -5.5q-39 0 -75 13t-63.5 41.5t-43.5 75t-16 113.5q0 66 16.5 114t44 78.5t64 45.5t75.5 15q45 0 76.5 -15t51.5 -34v277q7 1 11.5 1h6.5q30 0 48.5 -15t18.5 -53v-642h-83v40zM379 357h1q-6 6 -15.5 14.5t-24 17
t-33.5 14t-43 5.5q-57 0 -90 -42.5t-33 -127.5q0 -39 6 -72t21 -57.5t39.5 -38t60.5 -13.5q24 0 44.5 6t35.5 15t23 21t8 24v234z" />
    <glyph glyph-name="e" unicode="e" horiz-adv-x="498" 
d="M136 219q3 -73 38.5 -117.5t109.5 -44.5q28 0 50 6t38 14.5t26.5 18.5t17.5 18q11 -14 19.5 -30t8.5 -25q0 -8 -5 -16.5t-17 -17.5q-23 -17 -59 -28.5t-87 -11.5q-47 0 -88.5 13.5t-72.5 43.5t-49 78.5t-18 118.5q0 63 18.5 109t48.5 75.5t68.5 43.5t79.5 14
q51 0 87.5 -17t59.5 -45.5t34 -66t11 -77.5q0 -14 -0.5 -28.5t-2.5 -27.5h-316zM370 283q0 27 -5.5 50t-18.5 40.5t-34.5 27.5t-52.5 10q-52 0 -85.5 -34t-37.5 -94h234z" />
    <glyph glyph-name="f" unicode="f" horiz-adv-x="337" 
d="M73 522q0 97 45 146t130 49q31 0 57 -7t44.5 -17t28.5 -21.5t10 -21.5q0 -14 -8 -27.5t-17 -24.5h-13q-17 21 -41.5 33.5t-55.5 12.5q-45 0 -70 -24.5t-25 -84.5v-65h168v-73h-168v-397h-85v522z" />
    <glyph glyph-name="g" unicode="g" horiz-adv-x="538" 
d="M381 40q-8 -8 -20 -18t-28.5 -18t-37.5 -13.5t-46 -5.5q-39 0 -75 13t-63.5 41.5t-43.5 75t-16 113.5q0 66 16 114t43 78.5t63 45.5t76 15q48 0 79.5 -14.5t52.5 -36.5q5 22 23 32.5t35 10.5h11t14 -2v-438q0 -61 -10.5 -108.5t-36.5 -80.5t-70 -50.5t-111 -17.5
q-48 0 -82.5 9t-57.5 22q-18 11 -25.5 21t-7.5 21q0 13 11.5 29t20.5 26q2 -3 13 -11.5t29.5 -18.5t43.5 -17.5t55 -7.5q48 0 76.5 13.5t44 38t20 58t4.5 74.5v7zM379 357h1q-6 6 -15.5 14.5t-24 17t-33.5 14t-43 5.5q-57 0 -90 -42.5t-33 -127.5q0 -39 6 -72t21 -57.5
t39.5 -38t60.5 -13.5q24 0 44.5 6t35.5 15t23 21t8 24v234z" />
    <glyph glyph-name="h" unicode="h" horiz-adv-x="544" 
d="M74 709q7 1 11.5 1h6.5q30 0 48 -15t18 -53v-220q26 29 66 44t85 15q70 0 107 -31.5t47 -73.5q5 -20 6 -44.5t1 -47.5v-284h-85v281q0 19 -0.5 36.5t-5.5 32.5q-7 26 -29 40t-65 14q-29 0 -52 -6.5t-39.5 -16.5t-25.5 -23t-9 -26v-332h-85v709z" />
    <glyph glyph-name="i" unicode="i" horiz-adv-x="241" 
d="M58 624q0 25 15.5 41t38.5 16t38.5 -16t15.5 -41q0 -23 -15.5 -38.5t-38.5 -15.5t-38.5 15.5t-15.5 38.5zM73 475q7 1 11.5 1h6.5q30 0 48.5 -15t18.5 -53v-318q0 -29 8.5 -41t39.5 -12v-36q-9 -3 -24.5 -5t-30.5 -2q-29 0 -44.5 9t-23 24t-9 33.5t-1.5 36.5v378z" />
    <glyph glyph-name="j" unicode="j" horiz-adv-x="234" 
d="M67 624q0 25 15.5 41t38.5 16t38.5 -16t15.5 -41q0 -23 -15.5 -38.5t-38.5 -15.5t-38.5 15.5t-15.5 38.5zM80 475q7 1 11.5 1h6.5q30 0 48.5 -15t18.5 -53v-455q0 -60 -15.5 -95t-37 -53.5t-44.5 -23.5t-39 -5q-17 0 -27 5.5t-15 14.5t-6.5 21t-1.5 25q60 2 80.5 29
t20.5 81v523z" />
    <glyph glyph-name="k" unicode="k" horiz-adv-x="492" 
d="M182 246v33l172 171q29 26 57 26q17 0 29 -6t22 -15l-192 -189l222 -265q-24 -9 -50 -9q-20 0 -39.5 8.5t-35.5 27.5zM74 709q7 1 11.5 1h6.5q30 0 48.5 -15t18.5 -53v-642h-85v709z" />
    <glyph glyph-name="l" unicode="l" horiz-adv-x="241" 
d="M73 709q7 1 11.5 1h6.5q30 0 48.5 -15t18.5 -53v-548q0 -15 1 -25.5t5.5 -17.5t14 -10.5t27.5 -3.5v-36q-9 -3 -24.5 -5t-30.5 -2q-29 0 -44.5 9t-23 24t-9 33.5t-1.5 36.5v612z" />
    <glyph glyph-name="m" unicode="m" horiz-adv-x="817" 
d="M74 472q8 1 12.5 1h6.5q26 0 42.5 -12.5t20.5 -38.5q23 24 60.5 41.5t88.5 17.5q18 0 37 -3.5t37 -11t33 -19.5t24 -28q23 25 62.5 43.5t90.5 18.5q66 0 101.5 -30t45.5 -75q5 -20 6 -44.5t1 -47.5v-284h-85v281q0 19 -0.5 36.5t-5.5 32.5q-7 26 -28 40t-66 14
q-33 0 -61.5 -14t-42.5 -31q2 -17 3 -35.5t1 -38.5v-285h-85v281q0 21 -2 39.5t-7 33.5q-17 50 -90 50q-22 0 -42.5 -6t-36.5 -16t-26 -22.5t-10 -24.5v-335h-85v472z" />
    <glyph glyph-name="n" unicode="n" horiz-adv-x="543" 
d="M74 472q7 1 11 1h6q23 0 41.5 -11.5t22.5 -39.5q23 23 62.5 41t93.5 18q68 0 104 -30t47 -75q5 -20 6 -44.5t1 -47.5v-284h-85v281q0 19 -0.5 36.5t-5.5 32.5q-8 26 -29.5 40t-64.5 14q-29 0 -52 -6t-39 -16t-25 -23t-9 -26v-333h-85v472z" />
    <glyph glyph-name="o" unicode="o" horiz-adv-x="536" 
d="M488 237q0 -49 -12 -94.5t-38.5 -80.5t-68.5 -56t-102 -21q-59 0 -101 20t-68 53.5t-38 79t-12 96.5q0 50 14 95t42 78.5t69.5 53.5t97.5 20q58 0 99.5 -20t67.5 -53.5t38 -77.5t12 -93zM398 236q0 31 -5.5 61.5t-19.5 55t-39 39.5t-65 15q-38 0 -63.5 -15t-40.5 -39.5
t-21.5 -55t-6.5 -61.5t5.5 -62.5t20.5 -57.5t40 -42.5t64 -16.5q40 0 66 16.5t40 42t19.5 57.5t5.5 63z" />
    <glyph glyph-name="p" unicode="p" horiz-adv-x="539" 
d="M74 472q8 1 12.5 1h6.5q24 0 41.5 -11t23.5 -37q19 23 53 39.5t85 16.5q39 0 73.5 -13t61 -41.5t42 -74t15.5 -111.5q0 -75 -18.5 -124.5t-48 -78.5t-65.5 -41t-70 -12q-54 0 -85 18.5t-42 33.5v-253h-85v688zM159 113q6 -8 16 -17.5t24.5 -17.5t33 -14t39.5 -6
q63 0 94 45.5t31 132.5q0 36 -6.5 68t-21 55t-39 36.5t-60.5 13.5q-48 0 -79.5 -20t-31.5 -48v-228z" />
    <glyph glyph-name="q" unicode="q" horiz-adv-x="538" 
d="M379 38q-17 -17 -48 -35t-79 -18q-42 0 -78.5 13.5t-64 42.5t-43 75t-15.5 111q0 73 18.5 122t48 78t65.5 41.5t71 12.5q26 0 47.5 -6t37 -14t26.5 -17t16 -15q6 24 23.5 34t34.5 10q5 0 11 -0.5t14 -1.5v-687h-85v254zM379 358q-5 6 -14.5 14.5t-23 16.5t-31.5 13.5
t-39 5.5q-67 0 -98.5 -43t-31.5 -131q0 -38 6.5 -70t21.5 -56t40.5 -37.5t63.5 -13.5q23 0 42.5 6.5t33.5 16t22 20.5t8 20v238z" />
    <glyph glyph-name="r" unicode="r" horiz-adv-x="348" 
d="M74 472q8 1 12.5 1h5.5q23 0 41.5 -11.5t22.5 -38.5q14 21 42 39.5t65 18.5q11 0 23.5 -2t23.5 -6.5t18 -12.5t7 -21q0 -16 -8 -34.5t-16 -30.5q-13 12 -28 18.5t-38 6.5q-17 0 -32.5 -5.5t-27.5 -15t-19 -21.5t-7 -25v-332h-85v472z" />
    <glyph glyph-name="s" unicode="s" horiz-adv-x="419" 
d="M331 360q-17 21 -49.5 36.5t-69.5 15.5q-13 0 -28.5 -2.5t-29 -9t-22.5 -18.5t-9 -30q0 -16 7.5 -27t21 -19t31.5 -13.5t39 -10.5q30 -7 58 -17.5t49.5 -27t34 -41.5t12.5 -62t-15 -64.5t-40 -46t-58.5 -28t-69.5 -9.5q-35 0 -63 5.5t-47 13.5q-25 10 -35 20.5t-10 21.5
q0 13 7 27t18 32q7 -6 19.5 -14.5t30 -17t38.5 -14t45 -5.5q18 0 35 3.5t30.5 11.5t22 22t8.5 35t-9 34.5t-24 22.5t-33.5 14.5t-37.5 9.5q-29 6 -55.5 15.5t-47 25.5t-33 39.5t-12.5 58.5q0 33 14 58.5t38 42t54.5 25t63.5 8.5q38 0 69.5 -8t50.5 -19q20 -11 27 -20.5
t7 -18.5q0 -11 -5.5 -25.5t-13.5 -28.5z" />
    <glyph glyph-name="t" unicode="t" horiz-adv-x="356" 
d="M72 614q7 1 11.5 1h6.5q30 0 48.5 -15t18.5 -53v-77h149v-72h-149v-258q0 -82 65 -82q16 0 30 5.5t25.5 13t18.5 14.5t9 10q12 -15 20.5 -29t8.5 -27q0 -9 -9 -19.5t-25 -19.5t-39.5 -15t-51.5 -6q-52 0 -83 20t-44 55q-7 19 -8.5 41.5t-1.5 44.5v468z" />
    <glyph glyph-name="u" unicode="u" horiz-adv-x="537" 
d="M70 475q7 1 11.5 1h6.5q30 0 48.5 -15t18.5 -53v-233q0 -39 5.5 -62t22.5 -35q15 -11 32.5 -15t40.5 -4q27 0 49.5 7.5t38.5 18.5t25 23.5t9 22.5v344q7 1 11.5 1h6.5q30 0 48.5 -15t18.5 -53v-408h-85v44q-20 -23 -56 -41t-93 -18q-58 0 -90 18t-47.5 46t-18.5 61.5
t-3 64.5v300z" />
    <glyph glyph-name="v" unicode="v" horiz-adv-x="473" 
d="M15 465q24 8 45 8q30 0 44.5 -18.5t25.5 -53.5l107 -318l109 314q12 37 26.5 56.5t45.5 19.5q12 0 22.5 -2.5t17.5 -6.5l-180 -468h-87z" />
    <glyph glyph-name="w" unicode="w" horiz-adv-x="694" 
d="M15 466q11 3 21.5 5t22.5 2q47 0 63 -52l103 -330l96 235l-51 141q19 6 40 6q45 0 62 -48l120 -335l82 317q7 27 21 46.5t43 19.5q19 0 41 -8l-143 -469h-85l-94 243l-103 -243h-76z" />
    <glyph glyph-name="x" unicode="x" horiz-adv-x="437" 
d="M169 233l-153 235q9 2 23.5 5t25.5 3q27 0 41 -10t26 -29l89 -142l90 135q15 23 31 34.5t41 11.5q15 0 25.5 -2.5t18.5 -6.5l-160 -234l159 -232q-8 -4 -22 -6t-24 -2q-17 0 -35.5 7t-32.5 27l-97 142l-91 -139q-14 -22 -32.5 -29.5t-41.5 -7.5q-9 0 -20.5 1.5t-19.5 5.5
z" />
    <glyph glyph-name="y" unicode="y" horiz-adv-x="466" 
d="M209 1h-34l-162 464q22 8 44 8q26 0 42 -16t24 -41l110 -341l110 332q3 11 8 22.5t13.5 21.5t20.5 16t29 6q20 0 37 -9l-182 -529q-11 -32 -24 -61t-32 -50.5t-46.5 -34.5t-66.5 -13q-38 0 -63.5 11t-25.5 34q0 14 7.5 29t15.5 26q8 -7 24.5 -16.5t41.5 -9.5
q35 0 56.5 26t38.5 80z" />
    <glyph glyph-name="z" unicode="z" horiz-adv-x="428" 
d="M30 62l259 337h-255q0 37 15.5 55.5t50.5 18.5h254q42 0 42 -35v-24l-264 -340h207q34 0 50 -16t16 -58h-375v62z" />
    <glyph glyph-name="braceleft" unicode="{" horiz-adv-x="317" 
d="M106 161q0 45 -17 71.5t-53 26.5v72q38 0 54 28t16 77v113q0 36 9 67t28 53.5t48 35t70 12.5q16 0 27 -7.5t11 -26.5q0 -6 -1 -15.5t-4 -21.5q-21 0 -39 -2.5t-32 -11t-22 -23.5t-8 -40v-149q0 -45 -14 -76.5t-50 -48.5q38 -16 51 -54.5t13 -85.5v-143q0 -25 8.5 -40
t22.5 -23.5t32 -11t38 -2.5q3 -13 4 -22.5t1 -16.5q0 -20 -13 -26t-31 -6q-43 0 -71.5 13.5t-46 34.5t-24.5 47t-7 52v150z" />
    <glyph glyph-name="bar" unicode="|" horiz-adv-x="259" 
d="M86 793h78v-979h-78v979z" />
    <glyph glyph-name="braceright" unicode="}" horiz-adv-x="316" 
d="M204 11q0 -26 -7 -52t-24.5 -47t-46 -34.5t-71.5 -13.5q-18 0 -31 6t-13 26q0 7 1 16.5t4 22.5q19 0 37.5 2.5t32.5 11t22.5 23.5t8.5 40v143q0 47 13 85.5t51 54.5q-36 17 -50 48.5t-14 76.5v149q0 25 -8 40t-22 23.5t-32 11t-39 2.5q-3 12 -4 21.5t-1 15.5
q0 19 11 26.5t27 7.5q40 0 69.5 -12.5t48.5 -35t28 -53.5t9 -67v-113q0 -49 16 -77t54 -28v-72q-36 0 -53 -26.5t-17 -71.5v-150z" />
    <glyph glyph-name="asciitilde" unicode="~" horiz-adv-x="462" 
d="M14 513q7 69 42.5 106.5t89.5 37.5q38 0 64.5 -15t49.5 -31l4 -3q13 -10 28 -18.5t30 -8.5q30 0 44 21.5t18 55.5h63q-2 -36 -13 -63.5t-27.5 -46t-37.5 -28t-43 -9.5q-29 0 -51.5 12t-42.5 26q-2 2 -3.5 2.5t-3.5 2.5q-2 1 -3 2t-3 2q-17 11 -33.5 20t-37.5 9
q-29 0 -48 -18t-24 -56h-62z" />
    <glyph glyph-name="uni00A0" unicode="&#xa0;" horiz-adv-x="200" 
 />
    <glyph glyph-name="exclamdown" unicode="&#xa1;" horiz-adv-x="225" 
d="M83 285h6q3 0 6.5 0.5t6.5 0.5q28 0 47.5 -14t19.5 -52v-431q-3 -1 -7 -1h-12q-28 0 -47.5 14t-19.5 52v431zM124 355q-25 0 -41 17.5t-16 43.5t16 42.5t41 16.5q26 0 42 -16.5t16 -42.5t-16 -43.5t-42 -17.5z" />
    <glyph glyph-name="cent" unicode="&#xa2;" horiz-adv-x="549" 
d="M270 82q-31 4 -64.5 16.5t-61 40.5t-45.5 74t-18 117q0 66 18.5 111t46.5 72.5t61.5 41.5t62.5 19v97h62v-96q29 -3 53.5 -11t42 -18.5t27 -22.5t9.5 -22t-6.5 -22t-13.5 -24l-3 -6h-12q-15 17 -38.5 31.5t-58.5 19.5v-346q23 2 40.5 11t31.5 19q8 5 14.5 11.5l13.5 13.5
q8 -8 19.5 -23.5t11.5 -28.5q0 -18 -27 -36q-17 -11 -44.5 -22.5t-59.5 -15.5v-101h-62v100zM270 497q-54 -13 -77.5 -56.5t-23.5 -109.5q0 -70 23 -114.5t78 -59.5v340z" />
    <glyph glyph-name="sterling" unicode="&#xa3;" horiz-adv-x="549" 
d="M131 286h-71v71h70v124q0 51 16.5 87t45 58.5t65 32.5t77.5 10q33 0 64 -7.5t55.5 -19.5t39.5 -26.5t15 -29.5q0 -11 -8.5 -25.5t-21.5 -27.5h-10q-8 9 -20 19.5t-28.5 20t-37.5 15.5t-46 6q-24 0 -46 -5.5t-38.5 -19t-26 -37t-9.5 -59.5v-116h211v-71h-211v-211h233
q32 0 46 -15t14 -37q0 -5 -0.5 -9t-0.5 -7v-7h-377v286z" />
    <glyph glyph-name="currency" unicode="&#xa4;" horiz-adv-x="551" 
d="M102 217q-17 25 -27.5 57.5t-10.5 64.5q0 34 10.5 66.5t28.5 58.5h1l-57 54l51 50l54 -54q26 18 58 28.5t64 10.5t64.5 -11.5t58.5 -29.5l57 58l51 -51l-60 -57h1q17 -26 26.5 -58t9.5 -64t-9.5 -64t-27.5 -57l59 -59l-50 -49l-57 56q-27 -18 -59.5 -28.5t-64.5 -10.5
t-63 10t-57 27l-57 -54l-50 49zM274 193q66 0 101 41t35 105q0 66 -35 106.5t-101 40.5q-67 0 -102.5 -40.5t-35.5 -106.5q0 -64 36 -105t102 -41z" />
    <glyph glyph-name="yen" unicode="&#xa5;" horiz-adv-x="549" 
d="M90 196h139v80h-139v61h111l-166 325q19 11 51 11q23 0 38 -11t24 -30l126 -270l127 263q9 20 24.5 33.5t39.5 13.5q13 0 23.5 -2t23.5 -6l-168 -327h116v-61h-143v-80h143v-61h-143v-135h-88v135h-139v61z" />
    <glyph glyph-name="brokenbar" unicode="&#xa6;" horiz-adv-x="259" 
d="M86 220h78v-406h-78v406zM86 793h78v-379h-78v379z" />
    <glyph glyph-name="section" unicode="&#xa7;" horiz-adv-x="499" 
d="M165 160q-57 23 -79 56t-22 76q0 25 8 46t20 37t25.5 27.5t24.5 18.5q-30 19 -47.5 46t-17.5 72q0 33 14.5 59.5t39 45t57 28.5t69.5 10q28 0 57 -6t52.5 -16.5t38.5 -25t15 -31.5q0 -16 -7.5 -28.5t-16.5 -23.5h-14q-20 23 -51 40.5t-73 17.5q-45 0 -71.5 -18t-26.5 -52
q0 -32 24 -50.5t67 -36.5l78 -34q51 -21 79.5 -52t28.5 -86q0 -23 -8 -43.5t-19.5 -37.5t-24.5 -30t-23 -21q20 -17 35.5 -40t15.5 -59q0 -38 -14 -66t-38 -47.5t-55.5 -29t-66.5 -9.5q-49 0 -86 10t-60 25q-24 16 -24 37q0 14 11 29.5t20 26.5q60 -55 139 -55q38 0 65.5 19
t27.5 54q0 17 -6 29t-18 22t-31 19t-45 20zM306 183q17 14 34 37t17 52q0 31 -23 51t-54 33l-82 33q-7 -4 -16.5 -11.5t-18.5 -18.5t-15 -25t-6 -31q0 -26 15 -44.5t58 -36.5z" />
    <glyph glyph-name="dieresis" unicode="&#xa8;" horiz-adv-x="383" 
d="M65 570q-14 16 -14 38q0 23 14.5 38.5t36.5 15.5t36.5 -15.5t14.5 -38.5t-14 -38t-37 -15q-24 0 -37 15zM244 570q-14 16 -14 38q0 23 14.5 38.5t36.5 15.5t36.5 -15.5t14.5 -38.5t-14 -38t-37 -15q-24 0 -37 15z" />
    <glyph glyph-name="copyright" unicode="&#xa9;" horiz-adv-x="793" 
d="M525 439q-20 26 -45.5 40.5t-67.5 14.5q-35 0 -59.5 -13t-39.5 -35t-22 -50t-7 -59q0 -30 6.5 -58t22 -50t40 -35.5t60.5 -13.5q26 0 47.5 7.5t35.5 17.5q8 5 15.5 11.5t14.5 13.5q7 -8 18 -20.5t11 -25.5q0 -10 -5.5 -16.5t-15.5 -14.5q-14 -11 -47 -24.5t-81 -13.5
q-35 0 -70.5 10t-64 35.5t-47 68t-18.5 108.5q0 65 20.5 108t51.5 68.5t67 36t67 10.5q34 0 61 -8.5t46 -20t28.5 -24t9.5 -19.5q0 -11 -7.5 -24t-16.5 -25h-8zM151 84q-42 48 -64.5 112t-22.5 136t23 135.5t66 111t104.5 75.5t139.5 28t139.5 -28t104 -75.5t65.5 -111
t23 -135.5t-23 -136t-66 -112t-104.5 -76t-139.5 -28t-140 28t-105 76zM281 61q51 -24 116 -24t115.5 24.5t85 65t52.5 94t18 111.5t-18 111t-52.5 93.5t-85 64.5t-115.5 24t-115 -24t-84.5 -64.5t-52.5 -93.5t-18 -111q0 -90 39.5 -161.5t114.5 -109.5z" />
    <glyph glyph-name="ordfeminine" unicode="&#xaa;" horiz-adv-x="418" 
d="M83 587q-7 11 -11.5 21.5t-4.5 21.5q0 10 12.5 19t32.5 16.5t44 12t48 4.5q80 0 110 -36t30 -103v-156q0 -21 8.5 -28t34.5 -7v-31q-3 -2 -13 -6q-17 -5 -37 -5q-23 0 -40 10t-23 27q-17 -16 -46 -28t-65 -12q-20 0 -40.5 4.5t-37.5 17t-28 34t-11 54.5q0 40 20 65.5
t50 39.5t64 19.5t63 5.5h25v9q0 29 -14.5 46.5t-56.5 17.5q-35 0 -59 -9.5t-45 -23.5h-10zM269 495h-15q-23 0 -46.5 -3t-42.5 -11.5t-31 -23.5t-12 -38q0 -20 12 -37t45 -17q17 0 33.5 4.5t29 11.5t20 15.5t7.5 16.5v82z" />
    <glyph glyph-name="guillemotleft" unicode="&#xab;" horiz-adv-x="485" 
d="M277 214q-14 13 -23 28t-9 33q0 17 10.5 32.5t24.5 28.5l129 121q9 -10 15 -23t6 -24q0 -24 -15 -42l-82 -93l79 -93q10 -12 13.5 -23t3.5 -22t-5 -24t-12 -22zM87 214q-14 13 -23 28t-9 33q0 17 10.5 32.5t24.5 28.5l129 121q9 -10 15 -23t6 -24q0 -24 -15 -42l-82 -93
l79 -93q10 -12 13.5 -23t3.5 -22t-5 -24t-12 -22z" />
    <glyph glyph-name="logicalnot" unicode="&#xac;" horiz-adv-x="562" 
d="M65 422h436v-255h-79v175h-357v80z" />
    <glyph glyph-name="uni00AD" unicode="&#xad;" horiz-adv-x="441" 
d="M323 314q9 0 18.5 -1t17.5 -6t13.5 -15t5.5 -28q0 -5 -0.5 -11t-0.5 -11q-1 -4 -1 -11h-255q-21 0 -36 11.5t-15 40.5v10.5t1 10.5q0 7 1 10h251z" />
    <glyph glyph-name="registered" unicode="&#xae;" horiz-adv-x="793" 
d="M151 84q-42 48 -64.5 112t-22.5 136t23 135.5t66 111t104.5 75.5t139.5 28t139.5 -28t104 -75.5t65.5 -111t23 -135.5t-23 -136t-66 -112t-104.5 -76t-139.5 -28t-140 28t-105 76zM281 61q51 -24 116 -24t115.5 24.5t85 65t52.5 94t18 111.5t-18 111t-52.5 93.5t-85 64.5
t-115.5 24t-115 -24t-84.5 -64.5t-52.5 -93.5t-18 -111q0 -90 39.5 -161.5t114.5 -109.5zM273 545q28 3 60.5 4.5t52.5 1.5q88 0 126.5 -35.5t38.5 -89.5q0 -26 -8 -47.5t-21 -37t-30.5 -26t-35.5 -14.5h2l103 -171q-9 -5 -18.5 -7t-17.5 -2q-15 0 -28.5 6.5t-23.5 23.5
l-85 141h-52v-166h-63v419zM399 351q86 0 86 74q0 33 -22.5 50t-73.5 17q-18 0 -31 -0.5t-24 -2.5h2v-138h63z" />
    <glyph glyph-name="macron" unicode="&#xaf;" horiz-adv-x="368" 
d="M283 640q23 0 37.5 -8t14.5 -35q0 -8 -0.5 -14t-1.5 -11h-255q-24 0 -35 9t-11 32q0 14 4 27h247z" />
    <glyph glyph-name="degree" unicode="&#xb0;" horiz-adv-x="374" 
d="M88 466q-35 37 -35 95q0 27 10 51.5t27.5 42.5t42 28.5t53.5 10.5q61 0 97 -37.5t36 -95.5q0 -28 -10 -52.5t-27.5 -42.5t-42 -28.5t-53.5 -10.5q-31 0 -55.5 10.5t-42.5 28.5zM186 484q32 0 54 22.5t22 54.5t-22 54t-54 22t-52.5 -22t-20.5 -54t20.5 -54.5t52.5 -22.5z
" />
    <glyph glyph-name="plusminus" unicode="&#xb1;" horiz-adv-x="549" 
d="M80 80h388v-80h-388v80zM233 297h-153v80h153v160h82v-159h153v-80h-153v-161h-82v160z" />
    <glyph glyph-name="twosuperior" unicode="&#xb2;" 
d="M48 359q24 20 53 49t52 56q24 28 39.5 53.5t15.5 53.5q0 26 -15.5 39t-43.5 13q-27 0 -46.5 -13t-30.5 -26h-11q-11 11 -17 20t-6 19q0 8 3.5 13t9.5 10q5 4 15 10.5t24 12.5t31 10t36 4q54 0 87 -26t33 -84q0 -40 -21.5 -75.5t-49.5 -67.5q-15 -17 -29.5 -32t-29.5 -29
h102q8 0 16 -1t14 -5t10 -12t4 -22q0 -4 -0.5 -7.5t-0.5 -7.5v-8h-244v53z" />
    <glyph glyph-name="threesuperior" unicode="&#xb3;" 
d="M118 530h33q7 0 17 1.5t19.5 7t16 15t6.5 25.5q0 45 -55 45q-29 0 -48.5 -11.5t-32.5 -24.5h-13q-8 10 -14 19t-6 17t7.5 16.5t19.5 16.5q15 11 38 18.5t55 7.5q63 0 91 -27t28 -70q0 -35 -15 -55t-31 -29q9 -5 18.5 -12t17.5 -17t13.5 -24.5t5.5 -33.5q0 -51 -33.5 -84
t-100.5 -33q-29 0 -54 7.5t-39 17.5q-15 11 -20 18.5t-5 16.5q0 12 9.5 25t16.5 21q14 -16 37 -30.5t52 -14.5q12 0 23.5 2.5t21.5 8.5t16 17.5t6 29.5q0 19 -8.5 30.5t-19.5 16.5t-23 6.5t-18 1.5h-32v58z" />
    <glyph glyph-name="acute" unicode="&#xb4;" horiz-adv-x="365" 
d="M172 664q11 15 22.5 25t30.5 10q14 0 30 -7.5t27 -16.5l-101 -109q-11 -13 -23.5 -20.5t-27.5 -7.5q-11 0 -22.5 5t-19.5 11z" />
    <glyph glyph-name="mu" unicode="&#xb5;" horiz-adv-x="539" 
d="M74 475q7 1 11.5 1h6.5q30 0 48.5 -15t18.5 -53v-224q0 -60 23 -91.5t85 -31.5q23 0 44 6.5t36.5 16.5t25 21.5t9.5 20.5v349q7 1 11.5 1h6.5q30 0 48.5 -15t18.5 -53v-287q0 -24 2.5 -40t9.5 -25.5t20 -13.5t34 -4v-32q-13 -5 -27.5 -8.5t-29.5 -3.5q-36 0 -58 16.5
t-29 41.5q-20 -25 -51.5 -43t-76.5 -18q-34 0 -61 9t-45 31v-249h-81v693z" />
    <glyph glyph-name="paragraph" unicode="&#xb6;" horiz-adv-x="573" 
d="M262 262h-16q-45 0 -81.5 16t-61.5 43.5t-38.5 64t-13.5 77.5q0 51 16.5 89.5t44.5 64.5t66 39t82 13h186q8 0 17 -1t16.5 -6.5t12 -16t4.5 -28.5v-735h-74v718h-87v-718h-73v380z" />
    <glyph glyph-name="periodcentered" unicode="&#xb7;" horiz-adv-x="250" 
d="M90 315q-16 17 -16 44q0 26 16.5 44t40.5 18q25 0 41.5 -18t16.5 -44t-16 -44t-42 -18q-25 0 -41 18z" />
    <glyph glyph-name="cedilla" unicode="&#xb8;" horiz-adv-x="363" 
d="M229 9q-14 -14 -21.5 -23.5t-7.5 -20.5q0 -10 5 -17t13 -14q9 -9 17.5 -21t8.5 -34t-8.5 -39t-22 -28.5t-30.5 -17.5t-34 -6q-35 0 -35 31q0 5 1 14t4 19q7 -3 13.5 -4t12.5 -1q36 0 36 25q0 12 -6 20t-14 16t-14 16.5t-6 22.5q0 19 11.5 36.5t17.5 25.5h59z" />
    <glyph glyph-name="onesuperior" unicode="&#xb9;" 
d="M146 596l-92 -47q-7 9 -14.5 23t-7.5 22q0 15 20 26l88 49q11 6 21 10.5t20 4.5q22 0 35 -10v-368h-70v290z" />
    <glyph glyph-name="ordmasculine" unicode="&#xba;" horiz-adv-x="453" 
d="M94 363q-20 26 -29.5 60t-9.5 71q0 39 10.5 73t32.5 59.5t54 40.5t76 15q46 0 78.5 -14.5t53 -40t29.5 -59t9 -71.5t-9.5 -73t-30 -61t-53.5 -41.5t-80 -15.5q-46 0 -78.5 15.5t-52.5 41.5zM181 383q17 -10 45 -10t46 10.5t28.5 28t14.5 40t4 45.5q0 22 -4 44t-14.5 39
t-28 27.5t-45.5 10.5q-27 0 -45 -10.5t-29 -27.5t-15.5 -39t-4.5 -45q0 -35 10.5 -65.5t37.5 -47.5z" />
    <glyph glyph-name="guillemotright" unicode="&#xbb;" horiz-adv-x="485" 
d="M263 91q-7 9 -12 22t-5 24t3.5 22t13.5 23l79 93l-82 93q-15 18 -15 42q0 11 6 24t15 23l129 -121q14 -13 24.5 -28.5t10.5 -32.5q0 -18 -9 -33t-23 -28zM73 91q-7 9 -12 22t-5 24t3.5 22t13.5 23l79 93l-82 93q-15 18 -15 42q0 11 6 24t15 23l129 -121
q14 -13 24.5 -28.5t10.5 -32.5q0 -18 -9 -33t-23 -28z" />
    <glyph glyph-name="onequarter" unicode="&#xbc;" horiz-adv-x="810" 
d="M525 643q10 18 24.5 28.5t39.5 10.5q18 0 27 -4l7 -3l-373 -675h-82zM147 596l-92 -47q-7 9 -14.5 23t-7.5 22q0 15 20 26l88 49q11 6 21 10.5t20 4.5q22 0 35 -10v-368h-70v290zM493 121l149 225q8 12 19 22.5t26 10.5q8 0 17 -2.5t16 -7.5v-240h14q33 0 33 -33
q0 -2 -0.5 -5.5t-1.5 -8.5l-2 -10h-43v-71h-68v71h-159v49zM652 129v148l-97 -148h97z" />
    <glyph glyph-name="onehalf" unicode="&#xbd;" horiz-adv-x="810" 
d="M498 643q10 18 24.5 28.5t39.5 10.5q18 0 27 -4l7 -3l-373 -675h-82zM136 596l-92 -47q-7 9 -14.5 23t-7.5 22q0 15 20 26l88 49q11 6 21 10.5t20 4.5q22 0 35 -10v-368h-70v290zM511 54q24 20 53 49t52 56q24 28 39.5 53.5t15.5 53.5q0 26 -15.5 39t-43.5 13
q-27 0 -46.5 -13t-30.5 -26h-11q-11 11 -17 20t-6 19q0 8 3.5 13t9.5 10q5 4 15 10.5t24 12.5t31 10t36 4q54 0 87 -26t33 -84q0 -40 -21.5 -75.5t-49.5 -67.5q-15 -17 -29.5 -32t-29.5 -29h102q8 0 16 -1t14 -5t10 -12t4 -22q0 -4 -0.5 -7.5t-0.5 -7.5v-8h-244v53z" />
    <glyph glyph-name="threequarters" unicode="&#xbe;" horiz-adv-x="810" 
d="M560 643q10 18 24.5 28.5t39.5 10.5q18 0 27 -4l7 -3l-373 -675h-82zM141 530h33q7 0 17 1.5t19.5 7t16 15t6.5 25.5q0 45 -55 45q-29 0 -48.5 -11.5t-32.5 -24.5h-13q-8 10 -14 19t-6 17t7.5 16.5t19.5 16.5q15 11 38 18.5t55 7.5q63 0 91 -27t28 -70q0 -35 -15 -55
t-31 -29q9 -5 18.5 -12t17.5 -17t13.5 -24.5t5.5 -33.5q0 -51 -33.5 -84t-100.5 -33q-29 0 -54 7.5t-39 17.5q-15 11 -20 18.5t-5 16.5q0 12 9.5 25t16.5 21q14 -16 37 -30.5t52 -14.5q12 0 23.5 2.5t21.5 8.5t16 17.5t6 29.5q0 19 -8.5 30.5t-19.5 16.5t-23 6.5t-18 1.5
h-32v58zM489 121l149 225q8 12 19 22.5t26 10.5q8 0 17 -2.5t16 -7.5v-240h14q33 0 33 -33q0 -2 -0.5 -5.5t-1.5 -8.5l-2 -10h-43v-71h-68v71h-159v49zM648 129v148l-97 -148h97z" />
    <glyph glyph-name="questiondown" unicode="&#xbf;" horiz-adv-x="383" 
d="M367 -90q8 -11 16.5 -25t8.5 -27q0 -15 -17 -27q-7 -6 -21 -15t-35 -17.5t-49 -14.5t-62 -6q-40 0 -75.5 10.5t-62.5 32t-43 54.5t-16 78q0 30 8 54.5t21 45.5t29 38.5t32 32.5q35 30 61 59.5t26 61.5q0 8 -1 19t-3 21q4 1 9.5 1h10.5q27 0 41.5 -16.5t14.5 -45.5
q0 -40 -24.5 -71t-56.5 -60q-30 -28 -54.5 -60.5t-24.5 -76.5q0 -28 9.5 -47.5t26 -32t37.5 -18t45 -5.5q27 0 49 6t39 15t29.5 19t19.5 17h12zM177 370q-16 17 -16 44q0 26 16.5 43.5t42.5 17.5q24 0 40.5 -17.5t16.5 -43.5t-16.5 -44t-40.5 -18q-27 0 -43 18z" />
    <glyph glyph-name="Agrave" unicode="&#xc0;" horiz-adv-x="625" 
d="M264 663q7 3 21 6t28 3q19 0 34.5 -8.5t24.5 -32.5l231 -631h-91l-67 180h-270l-65 -180h-88zM422 251l-112 319l-113 -319h225zM153 819q9 15 25.5 27t33.5 12q14 0 26.5 -6.5t28.5 -19.5l103 -83q-7 -9 -20.5 -17.5t-27.5 -8.5q-11 0 -22.5 5t-25.5 13z" />
    <glyph glyph-name="Aacute" unicode="&#xc1;" horiz-adv-x="625" 
d="M264 663q7 3 21 6t28 3q19 0 34.5 -8.5t24.5 -32.5l231 -631h-91l-67 180h-270l-65 -180h-88zM422 251l-112 319l-113 -319h225zM355 832q16 13 28.5 19.5t26.5 6.5q17 0 33.5 -12t25.5 -27l-121 -78q-14 -8 -25.5 -13t-22.5 -5q-12 0 -26.5 8.5t-21.5 17.5z" />
    <glyph glyph-name="Acircumflex" unicode="&#xc2;" horiz-adv-x="625" 
d="M264 663q7 3 21 6t28 3q19 0 34.5 -8.5t24.5 -32.5l231 -631h-91l-67 180h-270l-65 -180h-88zM422 251l-112 319l-113 -319h225zM261 835q24 29 50 29q25 0 48 -27l87 -103q-8 -5 -18 -9t-19 -4q-12 0 -22.5 5.5t-23.5 16.5l-54 47l-53 -48q-9 -9 -19 -15t-24 -6
q-9 0 -19 4.5t-18 11.5z" />
    <glyph glyph-name="Atilde" unicode="&#xc3;" horiz-adv-x="625" 
d="M264 663q7 3 21 6t28 3q19 0 34.5 -8.5t24.5 -32.5l231 -631h-91l-67 180h-270l-65 -180h-88zM422 251l-112 319l-113 -319h225zM176 728l-19 18q-9 10 -9 22q0 10 7 19.5t18 17.5q17 14 37 21.5t39 7.5q18 0 32.5 -5t27.5 -11q14 -7 28 -12t31 -5q20 0 34.5 12t28.5 34
q11 -7 23 -18.5t12 -23.5q0 -13 -12 -28q-13 -16 -33.5 -27.5t-47.5 -11.5q-20 0 -37 5.5t-33 12.5q-14 6 -27.5 10.5t-28.5 4.5q-20 0 -37.5 -12t-33.5 -31z" />
    <glyph glyph-name="Adieresis" unicode="&#xc4;" horiz-adv-x="625" 
d="M264 663q7 3 21 6t28 3q19 0 34.5 -8.5t24.5 -32.5l231 -631h-91l-67 180h-270l-65 -180h-88zM422 251l-112 319l-113 -319h225zM185 746q-14 16 -14 38q0 23 14.5 38.5t36.5 15.5t36.5 -15.5t14.5 -38.5t-14 -38t-37 -15q-24 0 -37 15zM364 746q-14 16 -14 38
q0 23 14.5 38.5t36.5 15.5t36.5 -15.5t14.5 -38.5t-14 -38t-37 -15q-24 0 -37 15z" />
    <glyph glyph-name="Aring" unicode="&#xc5;" horiz-adv-x="625" 
d="M259 650q-14 8 -24 19q-13 15 -20.5 34.5t-7.5 41.5q0 46 28.5 78t77.5 32t77.5 -30t28.5 -79q0 -46 -29 -77q-11 -14 -27 -21q2 -4 4.5 -8t4.5 -9l231 -631h-91l-67 180h-270l-65 -180h-88zM422 251l-112 319l-113 -319h225zM313 686q26 0 40 17.5t14 41.5
q0 23 -11.5 42.5t-43.5 19.5q-27 0 -39.5 -19t-12.5 -42q0 -24 13.5 -42t39.5 -18z" />
    <glyph glyph-name="AE" unicode="&#xc6;" horiz-adv-x="879" 
d="M356 585q20 35 40.5 59.5t54.5 24.5h383q2 -6 2 -10.5v-10.5q0 -23 -13 -38.5t-48 -15.5h-240v-206h227v-77h-227v-236h254q33 0 47.5 -15.5t14.5 -38.5q0 -4 -0.5 -7.5t-0.5 -6.5v-7h-402v178h-234l-100 -178h-97zM448 251v342l-197 -342h197z" />
    <glyph glyph-name="Ccedilla" unicode="&#xc7;" horiz-adv-x="596" 
d="M512 534q-11 12 -25.5 25t-33.5 23t-42.5 16.5t-53.5 6.5q-60 0 -99.5 -23.5t-63 -62t-33.5 -87t-10 -99.5q0 -52 10.5 -101t35.5 -87.5t66 -61.5t102 -23q33 0 60 9.5t47 22.5t32.5 25t17.5 18q11 -9 23.5 -25.5t12.5 -28.5q0 -16 -14 -30q-8 -8 -35 -26.5t-78 -30.5
q-29 -8 -64 -9q-7 -8 -7 -20q0 -10 5 -17t13 -14q9 -9 17.5 -21t8.5 -34t-8.5 -39t-22 -28.5t-30.5 -17.5t-34 -6q-35 0 -35 31q0 5 1 14t4 19q7 -3 13.5 -4t12.5 -1q36 0 36 25q0 12 -6 20t-14 16t-14 16.5t-6 22.5q0 18 11 37l2 3q-50 4 -91 24q-84 39 -123 123t-39 198
q0 75 17.5 139.5t54 111t92 73t132.5 26.5q39 0 75 -9t63.5 -23t44 -31t16.5 -32q0 -13 -8.5 -27.5t-17.5 -25.5h-18z" />
    <glyph glyph-name="Egrave" unicode="&#xc8;" horiz-adv-x="509" 
d="M78 669h386q1 -4 1.5 -8.5t0.5 -12.5q0 -23 -13 -38.5t-48 -15.5h-240v-206h227v-77h-227v-236h254q32 0 47 -15.5t15 -38.5v-8.5t-1 -12.5h-402v669zM111 819q9 15 25.5 27t33.5 12q14 0 26.5 -6.5t28.5 -19.5l103 -83q-7 -9 -20.5 -17.5t-27.5 -8.5q-11 0 -22.5 5
t-25.5 13z" />
    <glyph glyph-name="Eacute" unicode="&#xc9;" horiz-adv-x="509" 
d="M78 669h386q1 -4 1.5 -8.5t0.5 -12.5q0 -23 -13 -38.5t-48 -15.5h-240v-206h227v-77h-227v-236h254q32 0 47 -15.5t15 -38.5v-8.5t-1 -12.5h-402v669zM300 832q16 13 28.5 19.5t26.5 6.5q17 0 33.5 -12t25.5 -27l-121 -78q-14 -8 -25.5 -13t-22.5 -5q-12 0 -26.5 8.5
t-21.5 17.5z" />
    <glyph glyph-name="Ecircumflex" unicode="&#xca;" horiz-adv-x="509" 
d="M78 669h386q1 -4 1.5 -8.5t0.5 -12.5q0 -23 -13 -38.5t-48 -15.5h-240v-206h227v-77h-227v-236h254q32 0 47 -15.5t15 -38.5v-8.5t-1 -12.5h-402v669zM223 835q24 29 50 29q25 0 48 -27l87 -103q-8 -5 -18 -9t-19 -4q-12 0 -22.5 5.5t-23.5 16.5l-54 47l-53 -48
q-9 -9 -19 -15t-24 -6q-9 0 -19 4.5t-18 11.5z" />
    <glyph glyph-name="Edieresis" unicode="&#xcb;" horiz-adv-x="509" 
d="M78 669h386q1 -4 1.5 -8.5t0.5 -12.5q0 -23 -13 -38.5t-48 -15.5h-240v-206h227v-77h-227v-236h254q32 0 47 -15.5t15 -38.5v-8.5t-1 -12.5h-402v669zM145 774q-14 16 -14 38q0 23 14.5 38.5t36.5 15.5t36.5 -15.5t14.5 -38.5t-14 -38t-37 -15q-24 0 -37 15zM324 774
q-14 16 -14 38q0 23 14.5 38.5t36.5 15.5t36.5 -15.5t14.5 -38.5t-14 -38t-37 -15q-24 0 -37 15z" />
    <glyph glyph-name="Igrave" unicode="&#xcc;" horiz-adv-x="240" 
d="M76 670q6 1 13 1.5t12 0.5q10 0 20.5 -2t20 -9t15.5 -19t7 -33v-609h-88v670zM-45 819q9 15 25.5 27t33.5 12q14 0 26.5 -6.5t28.5 -19.5l103 -83q-7 -9 -20.5 -17.5t-27.5 -8.5q-11 0 -22.5 5t-25.5 13z" />
    <glyph glyph-name="Iacute" unicode="&#xcd;" horiz-adv-x="240" 
d="M76 670q6 1 13 1.5t12 0.5q10 0 20.5 -2t20 -9t15.5 -19t7 -33v-609h-88v670zM153 832q16 13 28.5 19.5t26.5 6.5q17 0 33.5 -12t25.5 -27l-121 -78q-14 -8 -25.5 -13t-22.5 -5q-12 0 -26.5 8.5t-21.5 17.5z" />
    <glyph glyph-name="Icircumflex" unicode="&#xce;" horiz-adv-x="240" 
d="M76 670q6 1 13 1.5t12 0.5q10 0 20.5 -2t20 -9t15.5 -19t7 -33v-609h-88v670zM67 835q24 29 50 29q25 0 48 -27l87 -103q-8 -5 -18 -9t-19 -4q-12 0 -22.5 5.5t-23.5 16.5l-54 47l-53 -48q-9 -9 -19 -15t-24 -6q-9 0 -19 4.5t-18 11.5z" />
    <glyph glyph-name="Idieresis" unicode="&#xcf;" horiz-adv-x="240" 
d="M76 670q6 1 13 1.5t12 0.5q10 0 20.5 -2t20 -9t15.5 -19t7 -33v-609h-88v670zM-4 746q-14 16 -14 38q0 23 14.5 38.5t36.5 15.5t36.5 -15.5t14.5 -38.5t-14 -38t-37 -15q-24 0 -37 15zM175 746q-14 16 -14 38q0 23 14.5 38.5t36.5 15.5t36.5 -15.5t14.5 -38.5t-14 -38
t-37 -15q-24 0 -37 15z" />
    <glyph glyph-name="Eth" unicode="&#xd0;" horiz-adv-x="638" 
d="M83 316h-66v67h66v283q54 6 94.5 8t75.5 2q96 0 160 -26t102.5 -71t54.5 -105t16 -128q0 -71 -17 -133.5t-53.5 -110t-93.5 -75t-136 -27.5h-203v316zM171 74h79q14 0 28 1q70 2 113 27.5t66 63.5t31 84.5t8 90.5q0 56 -11.5 103.5t-39 82t-74 53.5t-116.5 19
q-20 0 -42 -1t-42 -4v-211h198v-67h-198v-242z" />
    <glyph glyph-name="Ntilde" unicode="&#xd1;" horiz-adv-x="660" 
d="M79 667q6 2 17 3.5t22 1.5q22 0 34.5 -7.5t23.5 -25.5l324 -506v537q6 1 12.5 1.5t11.5 0.5q9 0 19 -2.5t18.5 -9t14 -19t5.5 -32.5v-609h-81l-340 519v-519h-81v667zM203 728l-19 18q-9 10 -9 22q0 10 7 19.5t18 17.5q17 14 37 21.5t39 7.5q18 0 32.5 -5t27.5 -11
q14 -7 28 -12t31 -5q20 0 34.5 12t28.5 34q11 -7 23 -18.5t12 -23.5q0 -13 -12 -28q-13 -16 -33.5 -27.5t-47.5 -11.5q-20 0 -37 5.5t-33 12.5q-14 6 -27.5 10.5t-28.5 4.5q-20 0 -37.5 -12t-33.5 -31z" />
    <glyph glyph-name="Ograve" unicode="&#xd2;" horiz-adv-x="699" 
d="M638 338q0 -72 -16.5 -136t-51.5 -112t-90.5 -76.5t-133.5 -28.5t-132.5 29.5t-88.5 78t-49 112t-15 132.5t17 131.5t53 110t91.5 75.5t132.5 28q75 0 128.5 -27t88 -73.5t50.5 -109.5t16 -134zM547 337q0 55 -10 103.5t-32.5 85t-60 58t-91.5 21.5q-57 0 -95 -21.5
t-61.5 -58t-33.5 -85t-10 -103.5q0 -54 10 -103.5t33 -87.5t60.5 -61t93.5 -23q55 0 93 23t61 61t33 87.5t10 103.5zM209 819q9 15 25.5 27t33.5 12q14 0 26.5 -6.5t28.5 -19.5l103 -83q-7 -9 -20.5 -17.5t-27.5 -8.5q-11 0 -22.5 5t-25.5 13z" />
    <glyph glyph-name="Oacute" unicode="&#xd3;" horiz-adv-x="699" 
d="M638 338q0 -72 -16.5 -136t-51.5 -112t-90.5 -76.5t-133.5 -28.5t-132.5 29.5t-88.5 78t-49 112t-15 132.5t17 131.5t53 110t91.5 75.5t132.5 28q75 0 128.5 -27t88 -73.5t50.5 -109.5t16 -134zM547 337q0 55 -10 103.5t-32.5 85t-60 58t-91.5 21.5q-57 0 -95 -21.5
t-61.5 -58t-33.5 -85t-10 -103.5q0 -54 10 -103.5t33 -87.5t60.5 -61t93.5 -23q55 0 93 23t61 61t33 87.5t10 103.5zM405 832q16 13 28.5 19.5t26.5 6.5q17 0 33.5 -12t25.5 -27l-121 -78q-14 -8 -25.5 -13t-22.5 -5q-12 0 -26.5 8.5t-21.5 17.5z" />
    <glyph glyph-name="Ocircumflex" unicode="&#xd4;" horiz-adv-x="699" 
d="M638 338q0 -72 -16.5 -136t-51.5 -112t-90.5 -76.5t-133.5 -28.5t-132.5 29.5t-88.5 78t-49 112t-15 132.5t17 131.5t53 110t91.5 75.5t132.5 28q75 0 128.5 -27t88 -73.5t50.5 -109.5t16 -134zM547 337q0 55 -10 103.5t-32.5 85t-60 58t-91.5 21.5q-57 0 -95 -21.5
t-61.5 -58t-33.5 -85t-10 -103.5q0 -54 10 -103.5t33 -87.5t60.5 -61t93.5 -23q55 0 93 23t61 61t33 87.5t10 103.5zM309 835q24 29 50 29q25 0 48 -27l87 -103q-8 -5 -18 -9t-19 -4q-12 0 -22.5 5.5t-23.5 16.5l-54 47l-53 -48q-9 -9 -19 -15t-24 -6q-9 0 -19 4.5t-18 11.5
z" />
    <glyph glyph-name="Otilde" unicode="&#xd5;" horiz-adv-x="699" 
d="M638 338q0 -72 -16.5 -136t-51.5 -112t-90.5 -76.5t-133.5 -28.5t-132.5 29.5t-88.5 78t-49 112t-15 132.5t17 131.5t53 110t91.5 75.5t132.5 28q75 0 128.5 -27t88 -73.5t50.5 -109.5t16 -134zM547 337q0 55 -10 103.5t-32.5 85t-60 58t-91.5 21.5q-57 0 -95 -21.5
t-61.5 -58t-33.5 -85t-10 -103.5q0 -54 10 -103.5t33 -87.5t60.5 -61t93.5 -23q55 0 93 23t61 61t33 87.5t10 103.5zM231 728l-19 18q-9 10 -9 22q0 10 7 19.5t18 17.5q17 14 37 21.5t39 7.5q18 0 32.5 -5t27.5 -11q14 -7 28 -12t31 -5q20 0 34.5 12t28.5 34q11 -7 23 -18.5
t12 -23.5q0 -13 -12 -28q-13 -16 -33.5 -27.5t-47.5 -11.5q-20 0 -37 5.5t-33 12.5q-14 6 -27.5 10.5t-28.5 4.5q-20 0 -37.5 -12t-33.5 -31z" />
    <glyph glyph-name="Odieresis" unicode="&#xd6;" horiz-adv-x="699" 
d="M638 338q0 -72 -16.5 -136t-51.5 -112t-90.5 -76.5t-133.5 -28.5t-132.5 29.5t-88.5 78t-49 112t-15 132.5t17 131.5t53 110t91.5 75.5t132.5 28q75 0 128.5 -27t88 -73.5t50.5 -109.5t16 -134zM547 337q0 55 -10 103.5t-32.5 85t-60 58t-91.5 21.5q-57 0 -95 -21.5
t-61.5 -58t-33.5 -85t-10 -103.5q0 -54 10 -103.5t33 -87.5t60.5 -61t93.5 -23q55 0 93 23t61 61t33 87.5t10 103.5zM228 746q-14 16 -14 38q0 23 14.5 38.5t36.5 15.5t36.5 -15.5t14.5 -38.5t-14 -38t-37 -15q-24 0 -37 15zM407 746q-14 16 -14 38q0 23 14.5 38.5
t36.5 15.5t36.5 -15.5t14.5 -38.5t-14 -38t-37 -15q-24 0 -37 15z" />
    <glyph glyph-name="multiply" unicode="&#xd7;" horiz-adv-x="549" 
d="M87 207l132 131l-134 133l58 58l133 -134l131 133l56 -57l-132 -133l133 -131l-57 -58l-132 133l-132 -132z" />
    <glyph glyph-name="Oslash" unicode="&#xd8;" horiz-adv-x="699" 
d="M159 53q-52 51 -75 125t-23 159q0 69 17 131.5t53 110t91.5 75.5t132.5 28q39 0 72 -8t61 -22l43 76l68 -34l-49 -89q45 -48 66.5 -117t21.5 -150q0 -72 -16.5 -136t-51.5 -112t-90.5 -76.5t-133.5 -28.5q-36 0 -66.5 6.5t-56.5 17.5l-57 -95l-67 33zM448 579
q-41 23 -95 23q-57 0 -95 -21t-61.5 -57.5t-33.5 -84.5t-10 -102q0 -60 11.5 -112t38.5 -91zM262 81q19 -9 40.5 -14t47.5 -5q55 0 93 22.5t61 61t33 88t10 103.5t-9.5 101.5t-32.5 83.5z" />
    <glyph glyph-name="Ugrave" unicode="&#xd9;" horiz-adv-x="637" 
d="M74 670q6 1 13 1.5t12 0.5q10 0 21 -2.5t20 -9t15 -19t6 -32.5v-355q0 -42 7.5 -77t25 -60.5t47 -39.5t74.5 -14q69 0 106.5 26t48.5 86q6 33 6 79v416q6 1 13 1.5t12 0.5q10 0 21 -2.5t20 -9t15 -19t6 -32.5v-343q0 -20 -0.5 -41t-2.5 -40q-4 -42 -19.5 -78.5
t-45.5 -63.5t-74.5 -42.5t-107.5 -15.5q-108 0 -162.5 48t-70.5 133q-4 21 -5 46t-1 51v407zM157 819q9 15 25.5 27t33.5 12q14 0 26.5 -6.5t28.5 -19.5l103 -83q-7 -9 -20.5 -17.5t-27.5 -8.5q-11 0 -22.5 5t-25.5 13z" />
    <glyph glyph-name="Uacute" unicode="&#xda;" horiz-adv-x="637" 
d="M74 670q6 1 13 1.5t12 0.5q10 0 21 -2.5t20 -9t15 -19t6 -32.5v-355q0 -42 7.5 -77t25 -60.5t47 -39.5t74.5 -14q69 0 106.5 26t48.5 86q6 33 6 79v416q6 1 13 1.5t12 0.5q10 0 21 -2.5t20 -9t15 -19t6 -32.5v-343q0 -20 -0.5 -41t-2.5 -40q-4 -42 -19.5 -78.5
t-45.5 -63.5t-74.5 -42.5t-107.5 -15.5q-108 0 -162.5 48t-70.5 133q-4 21 -5 46t-1 51v407zM358 832q16 13 28.5 19.5t26.5 6.5q17 0 33.5 -12t25.5 -27l-121 -78q-14 -8 -25.5 -13t-22.5 -5q-12 0 -26.5 8.5t-21.5 17.5z" />
    <glyph glyph-name="Ucircumflex" unicode="&#xdb;" horiz-adv-x="637" 
d="M74 670q6 1 13 1.5t12 0.5q10 0 21 -2.5t20 -9t15 -19t6 -32.5v-355q0 -42 7.5 -77t25 -60.5t47 -39.5t74.5 -14q69 0 106.5 26t48.5 86q6 33 6 79v416q6 1 13 1.5t12 0.5q10 0 21 -2.5t20 -9t15 -19t6 -32.5v-343q0 -20 -0.5 -41t-2.5 -40q-4 -42 -19.5 -78.5
t-45.5 -63.5t-74.5 -42.5t-107.5 -15.5q-108 0 -162.5 48t-70.5 133q-4 21 -5 46t-1 51v407zM273 835q24 29 50 29q25 0 48 -27l87 -103q-8 -5 -18 -9t-19 -4q-12 0 -22.5 5.5t-23.5 16.5l-54 47l-53 -48q-9 -9 -19 -15t-24 -6q-9 0 -19 4.5t-18 11.5z" />
    <glyph glyph-name="Udieresis" unicode="&#xdc;" horiz-adv-x="637" 
d="M74 670q6 1 13 1.5t12 0.5q10 0 21 -2.5t20 -9t15 -19t6 -32.5v-355q0 -42 7.5 -77t25 -60.5t47 -39.5t74.5 -14q69 0 106.5 26t48.5 86q6 33 6 79v416q6 1 13 1.5t12 0.5q10 0 21 -2.5t20 -9t15 -19t6 -32.5v-343q0 -20 -0.5 -41t-2.5 -40q-4 -42 -19.5 -78.5
t-45.5 -63.5t-74.5 -42.5t-107.5 -15.5q-108 0 -162.5 48t-70.5 133q-4 21 -5 46t-1 51v407zM194 746q-14 16 -14 38q0 23 14.5 38.5t36.5 15.5t36.5 -15.5t14.5 -38.5t-14 -38t-37 -15q-24 0 -37 15zM373 746q-14 16 -14 38q0 23 14.5 38.5t36.5 15.5t36.5 -15.5
t14.5 -38.5t-14 -38t-37 -15q-24 0 -37 15z" />
    <glyph glyph-name="Yacute" unicode="&#xdd;" horiz-adv-x="524" 
d="M218 275l-215 387q9 5 23 8t29 3q24 0 38 -10t25 -31l145 -275l145 267q11 20 26.5 34t40.5 14q11 0 22 -2t24 -6l-215 -387v-277h-88v275zM303 832q16 13 28.5 19.5t26.5 6.5q17 0 33.5 -12t25.5 -27l-121 -78q-14 -8 -25.5 -13t-22.5 -5q-12 0 -26.5 8.5t-21.5 17.5z
" />
    <glyph glyph-name="Thorn" unicode="&#xde;" horiz-adv-x="547" 
d="M78 670q5 0 8 1q4 0 8 0.5t9 0.5q9 0 19.5 -2.5t20 -9t16 -19t6.5 -32.5v-52q20 2 36 2.5t35 0.5q138 0 201.5 -49t63.5 -146q0 -65 -21.5 -108t-58.5 -69t-85 -37t-100 -11h-71v-140h-87v670zM204 214q49 0 87.5 6t65 21.5t40.5 44t14 73.5q0 37 -13 62t-35.5 39
t-53.5 20t-66 6q-26 0 -45 -1t-36 -3h2v-268h40z" />
    <glyph glyph-name="germandbls" unicode="&#xdf;" horiz-adv-x="569" 
d="M74 516q0 17 1.5 35t3.5 31q7 33 24.5 58.5t43 42.5t57.5 25.5t68 8.5q41 0 77 -10t62.5 -29t41.5 -47t15 -64q0 -23 -6.5 -41.5t-17 -34.5t-23 -30t-25.5 -27q-20 -20 -35 -38.5t-15 -39.5q0 -14 4.5 -25t13.5 -20t23.5 -17.5t34.5 -18.5q21 -11 40.5 -23t34.5 -27.5
t24 -37.5t9 -52q0 -64 -42.5 -106.5t-128.5 -42.5q-39 0 -70.5 8t-48.5 16q-38 20 -38 41q0 13 8.5 26.5t21.5 30.5q7 -6 18.5 -15t27.5 -17t36 -14t44 -6q38 0 64 15.5t26 55.5q0 33 -21 50t-54 32q-20 9 -40 20t-36.5 26t-27 34.5t-10.5 46.5q0 21 6 38.5t15.5 32t21.5 27
t24 24.5q21 21 38 43.5t17 54.5q0 42 -27.5 64.5t-81.5 22.5q-60 0 -86.5 -30t-26.5 -90v-523h-85v516z" />
    <glyph glyph-name="agrave" unicode="&#xe0;" horiz-adv-x="504" 
d="M91 365q-8 13 -13.5 28t-5.5 24q0 13 16 24.5t41.5 20.5t56.5 14t61 5q51 0 85 -11t55 -33t29.5 -55t8.5 -76v-197q0 -24 2 -37.5t7.5 -20t15 -8.5t24.5 -2v-40q-9 -3 -22 -5t-27 -2q-31 0 -54 12.5t-27 44.5q-25 -25 -60 -42.5t-92 -17.5q-26 0 -52.5 6t-48 22t-35.5 43
t-14 69q0 52 26.5 85t65.5 52t83.5 26t81.5 8h21t21 -1v15q0 45 -21.5 68.5t-82.5 23.5q-45 0 -76 -11.5t-60 -31.5h-10zM342 237h-29q-32 0 -65 -4t-60 -15t-44 -31t-17 -51q0 -30 18 -53t67 -23q26 0 49.5 7.5t41.5 18.5t28.5 24t10.5 25v102zM104 675q11 9 27 16.5
t30 7.5q19 0 30.5 -10t22.5 -25l84 -110q-8 -6 -19.5 -11t-22.5 -5q-15 0 -27.5 7.5t-23.5 20.5z" />
    <glyph glyph-name="aacute" unicode="&#xe1;" horiz-adv-x="504" 
d="M91 365q-8 13 -13.5 28t-5.5 24q0 13 16 24.5t41.5 20.5t56.5 14t61 5q51 0 85 -11t55 -33t29.5 -55t8.5 -76v-197q0 -24 2 -37.5t7.5 -20t15 -8.5t24.5 -2v-40q-9 -3 -22 -5t-27 -2q-31 0 -54 12.5t-27 44.5q-25 -25 -60 -42.5t-92 -17.5q-26 0 -52.5 6t-48 22t-35.5 43
t-14 69q0 52 26.5 85t65.5 52t83.5 26t81.5 8h21t21 -1v15q0 45 -21.5 68.5t-82.5 23.5q-45 0 -76 -11.5t-60 -31.5h-10zM342 237h-29q-32 0 -65 -4t-60 -15t-44 -31t-17 -51q0 -30 18 -53t67 -23q26 0 49.5 7.5t41.5 18.5t28.5 24t10.5 25v102zM274 664q11 15 22.5 25
t30.5 10q14 0 30 -7.5t27 -16.5l-101 -109q-11 -13 -23.5 -20.5t-27.5 -7.5q-11 0 -22.5 5t-19.5 11z" />
    <glyph glyph-name="acircumflex" unicode="&#xe2;" horiz-adv-x="504" 
d="M91 365q-8 13 -13.5 28t-5.5 24q0 13 16 24.5t41.5 20.5t56.5 14t61 5q51 0 85 -11t55 -33t29.5 -55t8.5 -76v-197q0 -24 2 -37.5t7.5 -20t15 -8.5t24.5 -2v-40q-9 -3 -22 -5t-27 -2q-31 0 -54 12.5t-27 44.5q-25 -25 -60 -42.5t-92 -17.5q-26 0 -52.5 6t-48 22t-35.5 43
t-14 69q0 52 26.5 85t65.5 52t83.5 26t81.5 8h21t21 -1v15q0 45 -21.5 68.5t-82.5 23.5q-45 0 -76 -11.5t-60 -31.5h-10zM342 237h-29q-32 0 -65 -4t-60 -15t-44 -31t-17 -51q0 -30 18 -53t67 -23q26 0 49.5 7.5t41.5 18.5t28.5 24t10.5 25v102zM193 666q10 13 22 20.5
t28 7.5t26.5 -6.5t21.5 -20.5l92 -120q-8 -5 -17 -8.5t-20 -3.5q-24 0 -45 22l-59 64l-59 -66q-17 -20 -42 -20q-9 0 -18.5 3.5t-17.5 11.5z" />
    <glyph glyph-name="atilde" unicode="&#xe3;" horiz-adv-x="504" 
d="M91 365q-8 13 -13.5 28t-5.5 24q0 13 16 24.5t41.5 20.5t56.5 14t61 5q51 0 85 -11t55 -33t29.5 -55t8.5 -76v-197q0 -24 2 -37.5t7.5 -20t15 -8.5t24.5 -2v-40q-9 -3 -22 -5t-27 -2q-31 0 -54 12.5t-27 44.5q-25 -25 -60 -42.5t-92 -17.5q-26 0 -52.5 6t-48 22t-35.5 43
t-14 69q0 52 26.5 85t65.5 52t83.5 26t81.5 8h21t21 -1v15q0 45 -21.5 68.5t-82.5 23.5q-45 0 -76 -11.5t-60 -31.5h-10zM342 237h-29q-32 0 -65 -4t-60 -15t-44 -31t-17 -51q0 -30 18 -53t67 -23q26 0 49.5 7.5t41.5 18.5t28.5 24t10.5 25v102zM97 561q-9 10 -9 22
q0 10 7 19.5t18 17.5q17 14 37 21.5t39 7.5q18 0 32.5 -5t27.5 -11q14 -7 28 -12t31 -5q20 0 34.5 12t28.5 34q11 -7 23 -18.5t12 -23.5q0 -13 -12 -28q-13 -16 -33.5 -27.5t-47.5 -11.5q-20 0 -37 5.5t-33 12.5q-14 6 -27.5 10.5t-28.5 4.5q-20 0 -37.5 -12t-33.5 -31z" />
    <glyph glyph-name="adieresis" unicode="&#xe4;" horiz-adv-x="504" 
d="M91 365q-8 13 -13.5 28t-5.5 24q0 13 16 24.5t41.5 20.5t56.5 14t61 5q51 0 85 -11t55 -33t29.5 -55t8.5 -76v-197q0 -24 2 -37.5t7.5 -20t15 -8.5t24.5 -2v-40q-9 -3 -22 -5t-27 -2q-31 0 -54 12.5t-27 44.5q-25 -25 -60 -42.5t-92 -17.5q-26 0 -52.5 6t-48 22t-35.5 43
t-14 69q0 52 26.5 85t65.5 52t83.5 26t81.5 8h21t21 -1v15q0 45 -21.5 68.5t-82.5 23.5q-45 0 -76 -11.5t-60 -31.5h-10zM342 237h-29q-32 0 -65 -4t-60 -15t-44 -31t-17 -51q0 -30 18 -53t67 -23q26 0 49.5 7.5t41.5 18.5t28.5 24t10.5 25v102zM123 570q-14 16 -14 38
q0 23 14.5 38.5t36.5 15.5t36.5 -15.5t14.5 -38.5t-14 -38t-37 -15q-24 0 -37 15zM302 570q-14 16 -14 38q0 23 14.5 38.5t36.5 15.5t36.5 -15.5t14.5 -38.5t-14 -38t-37 -15q-24 0 -37 15z" />
    <glyph glyph-name="aring" unicode="&#xe5;" horiz-adv-x="504" 
d="M91 365q-8 13 -13.5 28t-5.5 24q0 13 16 24.5t41.5 20.5t56.5 14t61 5q51 0 85 -11t55 -33t29.5 -55t8.5 -76v-197q0 -24 2 -37.5t7.5 -20t15 -8.5t24.5 -2v-40q-9 -3 -22 -5t-27 -2q-31 0 -54 12.5t-27 44.5q-25 -25 -60 -42.5t-92 -17.5q-26 0 -52.5 6t-48 22t-35.5 43
t-14 69q0 52 26.5 85t65.5 52t83.5 26t81.5 8h21t21 -1v15q0 45 -21.5 68.5t-82.5 23.5q-45 0 -76 -11.5t-60 -31.5h-10zM342 237h-29q-32 0 -65 -4t-60 -15t-44 -31t-17 -51q0 -30 18 -53t67 -23q26 0 49.5 7.5t41.5 18.5t28.5 24t10.5 25v102zM166 565q-13 15 -20.5 34.5
t-7.5 41.5q0 46 28.5 78t77.5 32t77.5 -30t28.5 -79q0 -45 -28.5 -77t-77.5 -32q-48 0 -78 32zM244 582q26 0 40 17.5t14 41.5q0 23 -11.5 42.5t-43.5 19.5q-27 0 -39.5 -19t-12.5 -42q0 -24 13.5 -42t39.5 -18z" />
    <glyph glyph-name="ae" unicode="&#xe6;" horiz-adv-x="787" 
d="M89 365q-8 13 -13.5 28t-5.5 24q0 13 16 24.5t41.5 20.5t57 14t61.5 5q66 0 102 -18.5t55 -56.5q27 38 65.5 56.5t86.5 18.5q49 0 85 -16t59 -43t34 -63t11 -76q0 -14 -0.5 -31.5t-2.5 -31.5h-316q2 -74 37 -119t110 -45q29 0 50.5 6t37.5 15t26.5 18.5t17.5 17.5
q11 -13 19.5 -27t8.5 -27q0 -8 -7.5 -18t-20.5 -19q-21 -16 -56.5 -26.5t-83.5 -10.5q-60 0 -105.5 21.5t-74.5 60.5q-75 -79 -183 -79q-29 0 -57.5 6.5t-51 22.5t-36.5 43t-14 68q0 49 26.5 80.5t65.5 49t84 24t82 6.5h40v22q0 44 -22 70.5t-82 26.5q-48 0 -77.5 -11
t-59.5 -31h-10zM319 226q-34 0 -68.5 -3.5t-62 -14t-45 -29.5t-17.5 -49q0 -14 4 -26.5t14 -22.5t27.5 -16t43.5 -6q27 0 50 7t41 17.5t30.5 21.5t18.5 20q-9 23 -12 49t-4 52h-20zM661 284q-1 28 -7 51.5t-19.5 40.5t-35 26.5t-52.5 9.5q-52 0 -85 -35t-37 -93h236z" />
    <glyph glyph-name="ccedilla" unicode="&#xe7;" horiz-adv-x="463" 
d="M396 352q-17 20 -44 37.5t-73 17.5q-38 0 -65 -13t-44.5 -36.5t-25.5 -55t-8 -67.5q0 -37 8 -69.5t25.5 -56.5t45.5 -38t67 -14q27 0 48.5 8.5t36.5 19.5q20 13 32 28q4 -4 9.5 -10.5t11 -14t9 -15.5t3.5 -15q0 -14 -21 -32t-55 -29q-32 -11 -75 -12q-7 -8 -7 -20
q0 -10 5 -17t13 -14q9 -9 17.5 -21t8.5 -34t-8.5 -39t-22 -28.5t-30.5 -17.5t-34 -6q-35 0 -35 31q0 5 1 14t4 19q7 -3 13.5 -4t12.5 -1q36 0 36 25q0 12 -6 20t-14 16t-14 16.5t-6 22.5q0 18 11 37l3 4l-30 6q-27 6 -54 22.5t-48.5 45t-35 71t-13.5 101.5q0 74 24 122
t59 75.5t74.5 38.5t69.5 11q36 0 64.5 -7.5t49 -19t31.5 -24.5t11 -25t-8 -27t-16 -26h-11z" />
    <glyph glyph-name="egrave" unicode="&#xe8;" horiz-adv-x="498" 
d="M136 219q3 -73 38.5 -117.5t109.5 -44.5q28 0 50 6t38 14.5t26.5 18.5t17.5 18q11 -14 19.5 -30t8.5 -25q0 -8 -5 -16.5t-17 -17.5q-23 -17 -59 -28.5t-87 -11.5q-47 0 -88.5 13.5t-72.5 43.5t-49 78.5t-18 118.5q0 63 18.5 109t48.5 75.5t68.5 43.5t79.5 14
q51 0 87.5 -17t59.5 -45.5t34 -66t11 -77.5q0 -14 -0.5 -28.5t-2.5 -27.5h-316zM370 283q0 27 -5.5 50t-18.5 40.5t-34.5 27.5t-52.5 10q-52 0 -85.5 -34t-37.5 -94h234zM128 675q11 9 27 16.5t30 7.5q19 0 30.5 -10t22.5 -25l84 -110q-8 -6 -19.5 -11t-22.5 -5
q-15 0 -27.5 7.5t-23.5 20.5z" />
    <glyph glyph-name="eacute" unicode="&#xe9;" horiz-adv-x="498" 
d="M136 219q3 -73 38.5 -117.5t109.5 -44.5q28 0 50 6t38 14.5t26.5 18.5t17.5 18q11 -14 19.5 -30t8.5 -25q0 -8 -5 -16.5t-17 -17.5q-23 -17 -59 -28.5t-87 -11.5q-47 0 -88.5 13.5t-72.5 43.5t-49 78.5t-18 118.5q0 63 18.5 109t48.5 75.5t68.5 43.5t79.5 14
q51 0 87.5 -17t59.5 -45.5t34 -66t11 -77.5q0 -14 -0.5 -28.5t-2.5 -27.5h-316zM370 283q0 27 -5.5 50t-18.5 40.5t-34.5 27.5t-52.5 10q-52 0 -85.5 -34t-37.5 -94h234zM274 664q11 15 22.5 25t30.5 10q14 0 30 -7.5t27 -16.5l-101 -109q-11 -13 -23.5 -20.5t-27.5 -7.5
q-11 0 -22.5 5t-19.5 11z" />
    <glyph glyph-name="ecircumflex" unicode="&#xea;" horiz-adv-x="498" 
d="M136 219q3 -73 38.5 -117.5t109.5 -44.5q28 0 50 6t38 14.5t26.5 18.5t17.5 18q11 -14 19.5 -30t8.5 -25q0 -8 -5 -16.5t-17 -17.5q-23 -17 -59 -28.5t-87 -11.5q-47 0 -88.5 13.5t-72.5 43.5t-49 78.5t-18 118.5q0 63 18.5 109t48.5 75.5t68.5 43.5t79.5 14
q51 0 87.5 -17t59.5 -45.5t34 -66t11 -77.5q0 -14 -0.5 -28.5t-2.5 -27.5h-316zM370 283q0 27 -5.5 50t-18.5 40.5t-34.5 27.5t-52.5 10q-52 0 -85.5 -34t-37.5 -94h234zM210 666q10 13 22 20.5t28 7.5t26.5 -6.5t21.5 -20.5l92 -120q-8 -5 -17 -8.5t-20 -3.5q-24 0 -45 22
l-59 64l-59 -66q-17 -20 -42 -20q-9 0 -18.5 3.5t-17.5 11.5z" />
    <glyph glyph-name="edieresis" unicode="&#xeb;" horiz-adv-x="498" 
d="M136 219q3 -73 38.5 -117.5t109.5 -44.5q28 0 50 6t38 14.5t26.5 18.5t17.5 18q11 -14 19.5 -30t8.5 -25q0 -8 -5 -16.5t-17 -17.5q-23 -17 -59 -28.5t-87 -11.5q-47 0 -88.5 13.5t-72.5 43.5t-49 78.5t-18 118.5q0 63 18.5 109t48.5 75.5t68.5 43.5t79.5 14
q51 0 87.5 -17t59.5 -45.5t34 -66t11 -77.5q0 -14 -0.5 -28.5t-2.5 -27.5h-316zM370 283q0 27 -5.5 50t-18.5 40.5t-34.5 27.5t-52.5 10q-52 0 -85.5 -34t-37.5 -94h234zM141 570q-14 16 -14 38q0 23 14.5 38.5t36.5 15.5t36.5 -15.5t14.5 -38.5t-14 -38t-37 -15
q-24 0 -37 15zM320 570q-14 16 -14 38q0 23 14.5 38.5t36.5 15.5t36.5 -15.5t14.5 -38.5t-14 -38t-37 -15q-24 0 -37 15z" />
    <glyph glyph-name="igrave" unicode="&#xec;" horiz-adv-x="241" 
d="M73 475h6q2 0 5.5 0.5t6.5 0.5q28 0 47.5 -14.5t19.5 -52.5v-319q0 -29 8.5 -41t39.5 -12v-36q-9 -3 -24.5 -5t-30.5 -2q-29 0 -44.5 9t-23 24t-9 33.5t-1.5 36.5v378zM-42 675q11 9 27 16.5t30 7.5q19 0 30.5 -10t22.5 -25l84 -110q-8 -6 -19.5 -11t-22.5 -5
q-15 0 -27.5 7.5t-23.5 20.5z" />
    <glyph glyph-name="iacute" unicode="&#xed;" horiz-adv-x="241" 
d="M73 475h6q2 0 5.5 0.5t6.5 0.5q28 0 47.5 -14.5t19.5 -52.5v-319q0 -29 8.5 -41t39.5 -12v-36q-9 -3 -24.5 -5t-30.5 -2q-29 0 -44.5 9t-23 24t-9 33.5t-1.5 36.5v378zM147 664q11 15 22.5 25t30.5 10q14 0 30 -7.5t27 -16.5l-101 -109q-11 -13 -23.5 -20.5t-27.5 -7.5
q-11 0 -22.5 5t-19.5 11z" />
    <glyph glyph-name="icircumflex" unicode="&#xee;" horiz-adv-x="241" 
d="M73 475h6q2 0 5.5 0.5t6.5 0.5q28 0 47.5 -14.5t19.5 -52.5v-319q0 -29 8.5 -41t39.5 -12v-36q-9 -3 -24.5 -5t-30.5 -2q-29 0 -44.5 9t-23 24t-9 33.5t-1.5 36.5v378zM64 666q10 13 22 20.5t28 7.5t26.5 -6.5t21.5 -20.5l92 -120q-8 -5 -17 -8.5t-20 -3.5q-24 0 -45 22
l-59 64l-59 -66q-17 -20 -42 -20q-9 0 -18.5 3.5t-17.5 11.5z" />
    <glyph glyph-name="idieresis" unicode="&#xef;" horiz-adv-x="241" 
d="M73 475h6q2 0 5.5 0.5t6.5 0.5q28 0 47.5 -14.5t19.5 -52.5v-319q0 -29 8.5 -41t39.5 -12v-36q-9 -3 -24.5 -5t-30.5 -2q-29 0 -44.5 9t-23 24t-9 33.5t-1.5 36.5v378zM-9 570q-14 16 -14 38q0 23 14.5 38.5t36.5 15.5t36.5 -15.5t14.5 -38.5t-14 -38t-37 -15
q-24 0 -37 15zM170 570q-14 16 -14 38q0 23 14.5 38.5t36.5 15.5t36.5 -15.5t14.5 -38.5t-14 -38t-37 -15q-24 0 -37 15z" />
    <glyph glyph-name="eth" unicode="&#xf0;" horiz-adv-x="551" 
d="M172 550l64 35q-31 14 -64.5 21.5t-63.5 7.5v23q0 19 8.5 33.5t33.5 14.5q27 0 71.5 -11.5t95.5 -41.5l104 57l39 -53l-86 -48q60 -52 89.5 -134.5t29.5 -185.5q0 -140 -61.5 -211.5t-163.5 -71.5q-48 0 -88 15.5t-68.5 45.5t-44 75t-15.5 104q0 60 17.5 104t47 72
t67.5 41.5t80 13.5t73.5 -12.5t51.5 -29.5q-11 38 -36 73.5t-54 58.5l-89 -49zM342 371q-33 13 -68 13q-29 0 -53 -8.5t-41.5 -27.5t-27.5 -49.5t-10 -74.5q0 -84 36.5 -124.5t94.5 -40.5q28 0 52.5 11.5t42 35.5t27.5 62t10 91q0 26 -1 43.5t-6 34.5q-22 22 -56 34z" />
    <glyph glyph-name="ntilde" unicode="&#xf1;" horiz-adv-x="543" 
d="M74 472q7 1 11 1h6q23 0 41.5 -11.5t22.5 -39.5q23 23 62.5 41t93.5 18q68 0 104 -30t47 -75q5 -20 6 -44.5t1 -47.5v-284h-85v281q0 19 -0.5 36.5t-5.5 32.5q-8 26 -29.5 40t-64.5 14q-29 0 -52 -6t-39 -16t-25 -23t-9 -26v-333h-85v472zM128 561q-9 10 -9 22
q0 10 7 19.5t18 17.5q17 14 37 21.5t39 7.5q18 0 32.5 -5t27.5 -11q14 -7 28 -12t31 -5q20 0 34.5 12t28.5 34q11 -7 23 -18.5t12 -23.5q0 -13 -12 -28q-13 -16 -33.5 -27.5t-47.5 -11.5q-20 0 -37 5.5t-33 12.5q-14 6 -27.5 10.5t-28.5 4.5q-20 0 -37.5 -12t-33.5 -31z" />
    <glyph glyph-name="ograve" unicode="&#xf2;" horiz-adv-x="536" 
d="M488 237q0 -49 -12 -94.5t-38.5 -80.5t-68.5 -56t-102 -21q-59 0 -101 20t-68 53.5t-38 79t-12 96.5q0 50 14 95t42 78.5t69.5 53.5t97.5 20q58 0 99.5 -20t67.5 -53.5t38 -77.5t12 -93zM398 236q0 31 -5.5 61.5t-19.5 55t-39 39.5t-65 15q-38 0 -63.5 -15t-40.5 -39.5
t-21.5 -55t-6.5 -61.5t5.5 -62.5t20.5 -57.5t40 -42.5t64 -16.5q40 0 66 16.5t40 42t19.5 57.5t5.5 63zM139 675q11 9 27 16.5t30 7.5q19 0 30.5 -10t22.5 -25l84 -110q-8 -6 -19.5 -11t-22.5 -5q-15 0 -27.5 7.5t-23.5 20.5z" />
    <glyph glyph-name="oacute" unicode="&#xf3;" horiz-adv-x="536" 
d="M488 237q0 -49 -12 -94.5t-38.5 -80.5t-68.5 -56t-102 -21q-59 0 -101 20t-68 53.5t-38 79t-12 96.5q0 50 14 95t42 78.5t69.5 53.5t97.5 20q58 0 99.5 -20t67.5 -53.5t38 -77.5t12 -93zM398 236q0 31 -5.5 61.5t-19.5 55t-39 39.5t-65 15q-38 0 -63.5 -15t-40.5 -39.5
t-21.5 -55t-6.5 -61.5t5.5 -62.5t20.5 -57.5t40 -42.5t64 -16.5q40 0 66 16.5t40 42t19.5 57.5t5.5 63zM300 664q11 15 22.5 25t30.5 10q14 0 30 -7.5t27 -16.5l-101 -109q-11 -13 -23.5 -20.5t-27.5 -7.5q-11 0 -22.5 5t-19.5 11z" />
    <glyph glyph-name="ocircumflex" unicode="&#xf4;" horiz-adv-x="536" 
d="M488 237q0 -49 -12 -94.5t-38.5 -80.5t-68.5 -56t-102 -21q-59 0 -101 20t-68 53.5t-38 79t-12 96.5q0 50 14 95t42 78.5t69.5 53.5t97.5 20q58 0 99.5 -20t67.5 -53.5t38 -77.5t12 -93zM398 236q0 31 -5.5 61.5t-19.5 55t-39 39.5t-65 15q-38 0 -63.5 -15t-40.5 -39.5
t-21.5 -55t-6.5 -61.5t5.5 -62.5t20.5 -57.5t40 -42.5t64 -16.5q40 0 66 16.5t40 42t19.5 57.5t5.5 63zM227 666q10 13 22 20.5t28 7.5t26.5 -6.5t21.5 -20.5l92 -120q-8 -5 -17 -8.5t-20 -3.5q-24 0 -45 22l-59 64l-59 -66q-17 -20 -42 -20q-9 0 -18.5 3.5t-17.5 11.5z" />
    <glyph glyph-name="otilde" unicode="&#xf5;" horiz-adv-x="536" 
d="M488 237q0 -49 -12 -94.5t-38.5 -80.5t-68.5 -56t-102 -21q-59 0 -101 20t-68 53.5t-38 79t-12 96.5q0 50 14 95t42 78.5t69.5 53.5t97.5 20q58 0 99.5 -20t67.5 -53.5t38 -77.5t12 -93zM398 236q0 31 -5.5 61.5t-19.5 55t-39 39.5t-65 15q-38 0 -63.5 -15t-40.5 -39.5
t-21.5 -55t-6.5 -61.5t5.5 -62.5t20.5 -57.5t40 -42.5t64 -16.5q40 0 66 16.5t40 42t19.5 57.5t5.5 63zM122 561q-9 10 -9 22q0 10 7 19.5t18 17.5q17 14 37 21.5t39 7.5q18 0 32.5 -5t27.5 -11q14 -7 28 -12t31 -5q20 0 34.5 12t28.5 34q11 -7 23 -18.5t12 -23.5
q0 -13 -12 -28q-13 -16 -33.5 -27.5t-47.5 -11.5q-20 0 -37 5.5t-33 12.5q-14 6 -27.5 10.5t-28.5 4.5q-20 0 -37.5 -12t-33.5 -31z" />
    <glyph glyph-name="odieresis" unicode="&#xf6;" horiz-adv-x="536" 
d="M488 237q0 -49 -12 -94.5t-38.5 -80.5t-68.5 -56t-102 -21q-59 0 -101 20t-68 53.5t-38 79t-12 96.5q0 50 14 95t42 78.5t69.5 53.5t97.5 20q58 0 99.5 -20t67.5 -53.5t38 -77.5t12 -93zM398 236q0 31 -5.5 61.5t-19.5 55t-39 39.5t-65 15q-38 0 -63.5 -15t-40.5 -39.5
t-21.5 -55t-6.5 -61.5t5.5 -62.5t20.5 -57.5t40 -42.5t64 -16.5q40 0 66 16.5t40 42t19.5 57.5t5.5 63zM149 570q-14 16 -14 38q0 23 14.5 38.5t36.5 15.5t36.5 -15.5t14.5 -38.5t-14 -38t-37 -15q-24 0 -37 15zM328 570q-14 16 -14 38q0 23 14.5 38.5t36.5 15.5t36.5 -15.5
t14.5 -38.5t-14 -38t-37 -15q-24 0 -37 15z" />
    <glyph glyph-name="divide" unicode="&#xf7;" horiz-adv-x="547" 
d="M76 378h390v-80h-390v80zM232 444q-15 16 -15 41q0 24 15 41t38 17t38.5 -17t15.5 -41t-15 -41t-38 -17q-22 0 -39 17zM232 148q-15 16 -15 41q0 23 15 40t38 17t38.5 -17t15.5 -40q0 -24 -15 -41t-38 -17q-22 0 -39 17z" />
    <glyph glyph-name="oslash" unicode="&#xf8;" horiz-adv-x="536" 
d="M102 54q-29 35 -41.5 80.5t-12.5 99.5q0 50 14 95t42 78.5t69.5 53.5t97.5 20q33 0 60.5 -7t50.5 -19l43 60l59 -35l-49 -68q28 -34 40.5 -79t12.5 -96q0 -49 -12 -94.5t-38.5 -80.5t-68.5 -56t-102 -21q-34 0 -61.5 7t-50.5 18l-50 -71l-58 35zM337 390q-29 17 -68 17
q-38 0 -63.5 -15t-40.5 -39.5t-21.5 -55t-6.5 -61.5q0 -27 4 -54.5t14 -51.5zM200 75q27 -18 67 -18t66 16.5t40 42t19.5 57.5t5.5 63q0 26 -3.5 51.5t-12.5 47.5z" />
    <glyph glyph-name="ugrave" unicode="&#xf9;" horiz-adv-x="537" 
d="M70 475q7 1 11.5 1h6.5q30 0 48.5 -15t18.5 -53v-233q0 -39 5.5 -62t22.5 -35q15 -11 32.5 -15t40.5 -4q27 0 49.5 7.5t38.5 18.5t25 23.5t9 22.5v344q7 1 11.5 1h6.5q30 0 48.5 -15t18.5 -53v-408h-85v44q-20 -23 -56 -41t-93 -18q-58 0 -90 18t-47.5 46t-18.5 61.5
t-3 64.5v300zM129 675q11 9 27 16.5t30 7.5q19 0 30.5 -10t22.5 -25l84 -110q-8 -6 -19.5 -11t-22.5 -5q-15 0 -27.5 7.5t-23.5 20.5z" />
    <glyph glyph-name="uacute" unicode="&#xfa;" horiz-adv-x="537" 
d="M70 475q7 1 11.5 1h6.5q30 0 48.5 -15t18.5 -53v-233q0 -39 5.5 -62t22.5 -35q15 -11 32.5 -15t40.5 -4q27 0 49.5 7.5t38.5 18.5t25 23.5t9 22.5v344q7 1 11.5 1h6.5q30 0 48.5 -15t18.5 -53v-408h-85v44q-20 -23 -56 -41t-93 -18q-58 0 -90 18t-47.5 46t-18.5 61.5
t-3 64.5v300zM296 664q11 15 22.5 25t30.5 10q14 0 30 -7.5t27 -16.5l-101 -109q-11 -13 -23.5 -20.5t-27.5 -7.5q-11 0 -22.5 5t-19.5 11z" />
    <glyph glyph-name="ucircumflex" unicode="&#xfb;" horiz-adv-x="537" 
d="M70 475q7 1 11.5 1h6.5q30 0 48.5 -15t18.5 -53v-233q0 -39 5.5 -62t22.5 -35q15 -11 32.5 -15t40.5 -4q27 0 49.5 7.5t38.5 18.5t25 23.5t9 22.5v344q7 1 11.5 1h6.5q30 0 48.5 -15t18.5 -53v-408h-85v44q-20 -23 -56 -41t-93 -18q-58 0 -90 18t-47.5 46t-18.5 61.5
t-3 64.5v300zM214 666q10 13 22 20.5t28 7.5t26.5 -6.5t21.5 -20.5l92 -120q-8 -5 -17 -8.5t-20 -3.5q-24 0 -45 22l-59 64l-59 -66q-17 -20 -42 -20q-9 0 -18.5 3.5t-17.5 11.5z" />
    <glyph glyph-name="udieresis" unicode="&#xfc;" horiz-adv-x="537" 
d="M70 475q7 1 11.5 1h6.5q30 0 48.5 -15t18.5 -53v-233q0 -39 5.5 -62t22.5 -35q15 -11 32.5 -15t40.5 -4q27 0 49.5 7.5t38.5 18.5t25 23.5t9 22.5v344q7 1 11.5 1h6.5q30 0 48.5 -15t18.5 -53v-408h-85v44q-20 -23 -56 -41t-93 -18q-58 0 -90 18t-47.5 46t-18.5 61.5
t-3 64.5v300zM138 570q-14 16 -14 38q0 23 14.5 38.5t36.5 15.5t36.5 -15.5t14.5 -38.5t-14 -38t-37 -15q-24 0 -37 15zM317 570q-14 16 -14 38q0 23 14.5 38.5t36.5 15.5t36.5 -15.5t14.5 -38.5t-14 -38t-37 -15q-24 0 -37 15z" />
    <glyph glyph-name="yacute" unicode="&#xfd;" horiz-adv-x="466" 
d="M209 1h-34l-162 464q22 8 44 8q26 0 42 -16t24 -41l110 -341l110 332q3 11 8 22.5t13.5 21.5t20.5 16t29 6q20 0 37 -9l-182 -529q-11 -32 -24 -61t-32 -50.5t-46.5 -34.5t-66.5 -13q-38 0 -63.5 11t-25.5 34q0 14 7.5 29t15.5 26q8 -7 24.5 -16.5t41.5 -9.5
q35 0 56.5 26t38.5 80zM260 664q11 15 22.5 25t30.5 10q14 0 30 -7.5t27 -16.5l-101 -109q-11 -13 -23.5 -20.5t-27.5 -7.5q-11 0 -22.5 5t-19.5 11z" />
    <glyph glyph-name="thorn" unicode="&#xfe;" horiz-adv-x="539" 
d="M74 709h6q2 0 5.5 0.5t6.5 0.5q28 0 47 -14.5t19 -52.5v-218q19 23 53 39.5t85 16.5q39 0 73.5 -13t61 -41.5t42 -74t15.5 -111.5q0 -75 -18.5 -124.5t-48 -78.5t-65.5 -41t-70 -12q-54 0 -85 18.5t-42 33.5v-253h-85v925zM159 113q6 -8 16 -17.5t24.5 -17.5t33 -14
t39.5 -6q63 0 94 45.5t31 132.5q0 36 -6.5 68t-21 55t-39 36.5t-60.5 13.5q-48 0 -79.5 -20t-31.5 -48v-228z" />
    <glyph glyph-name="ydieresis" unicode="&#xff;" horiz-adv-x="466" 
d="M209 1h-34l-162 464q22 8 44 8q26 0 42 -16t24 -41l110 -341l110 332q3 11 8 22.5t13.5 21.5t20.5 16t29 6q20 0 37 -9l-182 -529q-11 -32 -24 -61t-32 -50.5t-46.5 -34.5t-66.5 -13q-38 0 -63.5 11t-25.5 34q0 14 7.5 29t15.5 26q8 -7 24.5 -16.5t41.5 -9.5
q35 0 56.5 26t38.5 80zM111 570q-14 16 -14 38q0 23 14.5 38.5t36.5 15.5t36.5 -15.5t14.5 -38.5t-14 -38t-37 -15q-24 0 -37 15zM290 570q-14 16 -14 38q0 23 14.5 38.5t36.5 15.5t36.5 -15.5t14.5 -38.5t-14 -38t-37 -15q-24 0 -37 15z" />
    <glyph glyph-name="Amacron" unicode="&#x100;" horiz-adv-x="625" 
d="M264 663q7 3 21 6t28 3q19 0 34.5 -8.5t24.5 -32.5l231 -631h-91l-67 180h-270l-65 -180h-88zM422 251l-112 319l-113 -319h225zM409 814q23 0 38 -8t15 -34q0 -9 -0.5 -15t-1.5 -11h-253q-26 0 -37 9t-11 32q0 14 4 27h246z" />
    <glyph glyph-name="amacron" unicode="&#x101;" horiz-adv-x="504" 
d="M91 365q-8 13 -13.5 28t-5.5 24q0 13 16 24.5t41.5 20.5t56.5 14t61 5q51 0 85 -11t55 -33t29.5 -55t8.5 -76v-197q0 -24 2 -37.5t7.5 -20t15 -8.5t24.5 -2v-40q-9 -3 -22 -5t-27 -2q-31 0 -54 12.5t-27 44.5q-25 -25 -60 -42.5t-92 -17.5q-26 0 -52.5 6t-48 22t-35.5 43
t-14 69q0 52 26.5 85t65.5 52t83.5 26t81.5 8h21t21 -1v15q0 45 -21.5 68.5t-82.5 23.5q-45 0 -76 -11.5t-60 -31.5h-10zM342 237h-29q-32 0 -65 -4t-60 -15t-44 -31t-17 -51q0 -30 18 -53t67 -23q26 0 49.5 7.5t41.5 18.5t28.5 24t10.5 25v102zM348 640q23 0 37.5 -8
t14.5 -35q0 -8 -0.5 -14t-1.5 -11h-255q-24 0 -35 9t-11 32q0 14 4 27h247z" />
    <glyph glyph-name="Abreve" unicode="&#x102;" horiz-adv-x="625" 
d="M264 663q7 3 21 6t28 3q19 0 34.5 -8.5t24.5 -32.5l231 -631h-91l-67 180h-270l-65 -180h-88zM422 251l-112 319l-113 -319h225zM168 880q12 3 20 3q12 0 20.5 -6.5t14.5 -23.5q13 -35 32 -48.5t51 -13.5q33 0 50.5 13t31.5 48q13 31 37 31q8 0 18 -3t17 -8
q-14 -63 -51 -101.5t-103 -38.5q-67 0 -104 36t-52 105q5 4 18 7z" />
    <glyph glyph-name="abreve" unicode="&#x103;" horiz-adv-x="504" 
d="M91 365q-8 13 -13.5 28t-5.5 24q0 13 16 24.5t41.5 20.5t56.5 14t61 5q51 0 85 -11t55 -33t29.5 -55t8.5 -76v-197q0 -24 2 -37.5t7.5 -20t15 -8.5t24.5 -2v-40q-9 -3 -22 -5t-27 -2q-31 0 -54 12.5t-27 44.5q-25 -25 -60 -42.5t-92 -17.5q-26 0 -52.5 6t-48 22t-35.5 43
t-14 69q0 52 26.5 85t65.5 52t83.5 26t81.5 8h21t21 -1v15q0 45 -21.5 68.5t-82.5 23.5q-45 0 -76 -11.5t-60 -31.5h-10zM342 237h-29q-32 0 -65 -4t-60 -15t-44 -31t-17 -51q0 -30 18 -53t67 -23q26 0 49.5 7.5t41.5 18.5t28.5 24t10.5 25v102zM109 681q12 3 20 3
q12 0 20.5 -6.5t14.5 -23.5q13 -35 32 -48.5t51 -13.5q33 0 50.5 13t31.5 48q13 31 37 31q8 0 18 -3t17 -8q-14 -63 -51 -101.5t-103 -38.5q-67 0 -104 36t-52 105q5 4 18 7z" />
    <glyph glyph-name="Aogonek" unicode="&#x104;" horiz-adv-x="625" 
d="M264 663q7 3 21 6t28 3q19 0 34.5 -8.5t24.5 -32.5l231 -631h-4q-14 -11 -27.5 -25.5t-24.5 -30t-18 -31.5t-7 -31q0 -35 31 -35q17 0 28.5 7.5t19.5 15.5q8 -8 14 -18.5t6 -21.5t-7 -18.5t-17.5 -13t-24 -8t-26.5 -2.5q-39 0 -64 20.5t-25 65.5q0 36 19 69t41 53l5 4
h-10l-67 180h-270l-65 -180h-88zM422 251l-112 319l-113 -319h225z" />
    <glyph glyph-name="aogonek" unicode="&#x105;" horiz-adv-x="504" 
d="M91 365q-8 13 -13.5 28t-5.5 24q0 13 16 24.5t41.5 20.5t56.5 14t61 5q51 0 85 -11t55 -33t29.5 -55t8.5 -76v-197q0 -24 2 -37.5t7.5 -20t15 -8.5t24.5 -2v-41q-14 -11 -27.5 -25.5t-24.5 -30t-18 -31.5t-7 -31q0 -35 31 -35q17 0 28.5 7.5t19.5 15.5q8 -8 14 -18.5
t6 -21.5t-7 -18.5t-17.5 -13t-24 -8t-26.5 -2.5q-39 0 -64 20.5t-25 65.5q0 37 19 69t43 55q-11 1 -23 8q-23 13 -27 45q-25 -25 -60 -42.5t-92 -17.5q-26 0 -52.5 6t-48 22t-35.5 43t-14 69q0 52 26.5 85t65.5 52t83.5 26t81.5 8h32q5 0 10 -1v15q0 45 -21.5 68.5
t-82.5 23.5q-45 0 -76 -11.5t-60 -31.5h-10zM342 237h-29q-32 0 -65 -4t-60 -15t-44 -31t-17 -51q0 -30 18 -53t67 -23q26 0 49.5 7.5t41.5 18.5t28.5 24t10.5 25v102z" />
    <glyph glyph-name="Cacute" unicode="&#x106;" horiz-adv-x="596" 
d="M512 534q-11 12 -25.5 25t-33.5 23t-42.5 16.5t-53.5 6.5q-60 0 -99.5 -23.5t-63 -62t-33.5 -87t-10 -99.5q0 -52 10.5 -101t35.5 -87.5t66 -61.5t102 -23q33 0 60 9.5t47 22.5t32.5 25t17.5 18q11 -9 23.5 -25.5t12.5 -28.5q0 -16 -14 -30q-5 -5 -19 -16t-37 -22
t-56 -19.5t-76 -8.5q-77 0 -133 26t-92 72t-53 110t-17 139t17.5 139.5t54 111t92 73t132.5 26.5q39 0 75 -9t63.5 -23t44 -31t16.5 -32q0 -13 -8.5 -27.5t-17.5 -25.5h-18zM380 832q16 13 28.5 19.5t26.5 6.5q17 0 33.5 -12t25.5 -27l-121 -78q-14 -8 -25.5 -13t-22.5 -5
q-12 0 -26.5 8.5t-21.5 17.5z" />
    <glyph glyph-name="cacute" unicode="&#x107;" horiz-adv-x="463" 
d="M396 352q-17 20 -44 37.5t-73 17.5q-38 0 -65 -13t-44.5 -36.5t-25.5 -55t-8 -67.5q0 -37 8 -69.5t25.5 -56.5t45.5 -38t67 -14q27 0 48.5 8.5t36.5 19.5q20 13 32 28q4 -4 9.5 -10.5t11 -14t9 -15.5t3.5 -15q0 -14 -21 -32q-19 -17 -54.5 -29t-86.5 -12q-32 0 -70.5 9
t-72 36t-56.5 75.5t-23 128.5q0 74 24 122t59 75.5t74.5 38.5t69.5 11q36 0 64.5 -7.5t49 -19t31.5 -24.5t11 -25t-8 -27t-16 -26h-11zM289 664q11 15 22.5 25t30.5 10q14 0 30 -7.5t27 -16.5l-101 -109q-11 -13 -23.5 -20.5t-27.5 -7.5q-11 0 -22.5 5t-19.5 11z" />
    <glyph glyph-name="Ccircumflex" unicode="&#x108;" horiz-adv-x="596" 
d="M512 534q-11 12 -25.5 25t-33.5 23t-42.5 16.5t-53.5 6.5q-60 0 -99.5 -23.5t-63 -62t-33.5 -87t-10 -99.5q0 -52 10.5 -101t35.5 -87.5t66 -61.5t102 -23q33 0 60 9.5t47 22.5t32.5 25t17.5 18q11 -9 23.5 -25.5t12.5 -28.5q0 -16 -14 -30q-5 -5 -19 -16t-37 -22
t-56 -19.5t-76 -8.5q-77 0 -133 26t-92 72t-53 110t-17 139t17.5 139.5t54 111t92 73t132.5 26.5q39 0 75 -9t63.5 -23t44 -31t16.5 -32q0 -13 -8.5 -27.5t-17.5 -25.5h-18zM302 835q24 29 50 29q25 0 48 -27l87 -103q-8 -5 -18 -9t-19 -4q-12 0 -22.5 5.5t-23.5 16.5
l-54 47l-53 -48q-9 -9 -19 -15t-24 -6q-9 0 -19 4.5t-18 11.5z" />
    <glyph glyph-name="ccircumflex" unicode="&#x109;" horiz-adv-x="463" 
d="M396 352q-17 20 -44 37.5t-73 17.5q-38 0 -65 -13t-44.5 -36.5t-25.5 -55t-8 -67.5q0 -37 8 -69.5t25.5 -56.5t45.5 -38t67 -14q27 0 48.5 8.5t36.5 19.5q20 13 32 28q4 -4 9.5 -10.5t11 -14t9 -15.5t3.5 -15q0 -14 -21 -32q-19 -17 -54.5 -29t-86.5 -12q-32 0 -70.5 9
t-72 36t-56.5 75.5t-23 128.5q0 74 24 122t59 75.5t74.5 38.5t69.5 11q36 0 64.5 -7.5t49 -19t31.5 -24.5t11 -25t-8 -27t-16 -26h-11zM223 666q10 13 22 20.5t28 7.5t26.5 -6.5t21.5 -20.5l92 -120q-8 -5 -17 -8.5t-20 -3.5q-24 0 -45 22l-59 64l-59 -66q-17 -20 -42 -20
q-9 0 -18.5 3.5t-17.5 11.5z" />
    <glyph glyph-name="Cdotaccent" unicode="&#x10a;" horiz-adv-x="596" 
d="M512 534q-11 12 -25.5 25t-33.5 23t-42.5 16.5t-53.5 6.5q-60 0 -99.5 -23.5t-63 -62t-33.5 -87t-10 -99.5q0 -52 10.5 -101t35.5 -87.5t66 -61.5t102 -23q33 0 60 9.5t47 22.5t32.5 25t17.5 18q11 -9 23.5 -25.5t12.5 -28.5q0 -16 -14 -30q-5 -5 -19 -16t-37 -22
t-56 -19.5t-76 -8.5q-77 0 -133 26t-92 72t-53 110t-17 139t17.5 139.5t54 111t92 73t132.5 26.5q39 0 75 -9t63.5 -23t44 -31t16.5 -32q0 -13 -8.5 -27.5t-17.5 -25.5h-18zM312 746q-15 18 -15 42q0 26 15.5 43.5t38.5 17.5t39 -17.5t16 -43.5q0 -24 -16 -41.5t-39 -17.5
q-22 0 -39 17z" />
    <glyph glyph-name="cdotaccent" unicode="&#x10b;" horiz-adv-x="463" 
d="M396 352q-17 20 -44 37.5t-73 17.5q-38 0 -65 -13t-44.5 -36.5t-25.5 -55t-8 -67.5q0 -37 8 -69.5t25.5 -56.5t45.5 -38t67 -14q27 0 48.5 8.5t36.5 19.5q20 13 32 28q4 -4 9.5 -10.5t11 -14t9 -15.5t3.5 -15q0 -14 -21 -32q-19 -17 -54.5 -29t-86.5 -12q-32 0 -70.5 9
t-72 36t-56.5 75.5t-23 128.5q0 74 24 122t59 75.5t74.5 38.5t69.5 11q36 0 64.5 -7.5t49 -19t31.5 -24.5t11 -25t-8 -27t-16 -26h-11zM233 560q-15 16 -15 42t15.5 43.5t38.5 17.5t39 -17.5t16 -43.5q0 -25 -16 -42t-39 -17q-22 0 -39 17z" />
    <glyph glyph-name="Ccaron" unicode="&#x10c;" horiz-adv-x="596" 
d="M512 534q-11 12 -25.5 25t-33.5 23t-42.5 16.5t-53.5 6.5q-60 0 -99.5 -23.5t-63 -62t-33.5 -87t-10 -99.5q0 -52 10.5 -101t35.5 -87.5t66 -61.5t102 -23q33 0 60 9.5t47 22.5t32.5 25t17.5 18q11 -9 23.5 -25.5t12.5 -28.5q0 -16 -14 -30q-5 -5 -19 -16t-37 -22
t-56 -19.5t-76 -8.5q-77 0 -133 26t-92 72t-53 110t-17 139t17.5 139.5t54 111t92 73t132.5 26.5q39 0 75 -9t63.5 -23t44 -31t16.5 -32q0 -13 -8.5 -27.5t-17.5 -25.5h-18zM221 848q8 7 18 11.5t19 4.5q14 0 24 -6t19 -15l53 -48l54 47q13 11 23.5 16.5t22.5 5.5q9 0 19 -4
t18 -9l-87 -103q-23 -27 -48 -27q-26 0 -50 29z" />
    <glyph glyph-name="ccaron" unicode="&#x10d;" horiz-adv-x="463" 
d="M396 352q-17 20 -44 37.5t-73 17.5q-38 0 -65 -13t-44.5 -36.5t-25.5 -55t-8 -67.5q0 -37 8 -69.5t25.5 -56.5t45.5 -38t67 -14q27 0 48.5 8.5t36.5 19.5q20 13 32 28q4 -4 9.5 -10.5t11 -14t9 -15.5t3.5 -15q0 -14 -21 -32q-19 -17 -54.5 -29t-86.5 -12q-32 0 -70.5 9
t-72 36t-56.5 75.5t-23 128.5q0 74 24 122t59 75.5t74.5 38.5t69.5 11q36 0 64.5 -7.5t49 -19t31.5 -24.5t11 -25t-8 -27t-16 -26h-11zM136 672q8 8 17.5 11.5t18.5 3.5q25 0 42 -20l59 -66l59 64q21 22 45 22q11 0 20 -3.5t17 -8.5l-92 -120q-11 -14 -21.5 -20.5
t-26.5 -6.5t-28 7.5t-22 20.5z" />
    <glyph glyph-name="Dcaron" unicode="&#x10e;" horiz-adv-x="633" 
d="M79 666q54 6 94 8t75 2q96 0 160 -26t102.5 -71t54.5 -105t16 -128q0 -91 -30 -166t-94 -123q-39 -28 -94 -42.5t-128 -14.5h-156v666zM249 74q67 0 113.5 21t75 57t41 84.5t12.5 104.5t-11 103.5t-39 82t-74.5 53.5t-116.5 19q-20 0 -41.5 -1t-42.5 -4v-520h83zM134 848
q8 7 18 11.5t19 4.5q14 0 24 -6t19 -15l53 -48l54 47q13 11 23.5 16.5t22.5 5.5q9 0 19 -4t18 -9l-87 -103q-23 -27 -48 -27q-26 0 -50 29z" />
    <glyph glyph-name="dcaron" unicode="&#x10f;" horiz-adv-x="564" 
d="M381 40q-8 -8 -20 -18t-28.5 -18t-37.5 -13.5t-46 -5.5q-39 0 -75 13t-63.5 41.5t-43.5 75t-16 113.5q0 66 16.5 114t44 78.5t64 45.5t75.5 15q45 0 76.5 -15t51.5 -34v277q7 1 11.5 1h6.5q30 0 48.5 -15t18.5 -53v-642h-83v40zM379 357h1q-6 6 -15.5 14.5t-24 17
t-33.5 14t-43 5.5q-57 0 -90 -42.5t-33 -127.5q0 -39 6 -72t21 -57.5t39.5 -38t60.5 -13.5q24 0 44.5 6t35.5 15t23 21t8 24v234zM536 636q0 15 2 28.5t8 23.5t17.5 16t29.5 6q5 0 10 -0.5t10 -1.5l-11 -152q-2 -29 -13.5 -45.5t-41.5 -16.5h-11v142z" />
    <glyph glyph-name="Dcroat" unicode="&#x110;" horiz-adv-x="638" 
d="M83 316h-66v67h66v283q54 6 94.5 8t75.5 2q96 0 160 -26t102.5 -71t54.5 -105t16 -128q0 -71 -17 -133.5t-53.5 -110t-93.5 -75t-136 -27.5h-203v316zM171 74h79q14 0 28 1q70 2 113 27.5t66 63.5t31 84.5t8 90.5q0 56 -11.5 103.5t-39 82t-74 53.5t-116.5 19
q-20 0 -42 -1t-42 -4v-211h198v-67h-198v-242z" />
    <glyph glyph-name="dcroat" unicode="&#x111;" horiz-adv-x="538" 
d="M381 40q-8 -8 -20 -18t-28.5 -18t-37.5 -13.5t-46 -5.5q-39 0 -75 13t-63.5 41.5t-43.5 73.5t-16 110q0 66 16.5 113t44 77t64 44t75.5 14q45 0 76.5 -15t51.5 -34v126h-173v66h173v95h6q2 0 5.5 0.5t6.5 0.5q28 0 47.5 -14t19.5 -52v-30h93v-66h-93v-548h-83v40z
M379 347q-6 6 -16 15t-23.5 17t-32.5 13.5t-43 5.5q-57 0 -90 -40t-33 -125q0 -38 6 -70t21 -55.5t39.5 -37t60.5 -13.5q24 0 44.5 6t35.5 15t23 21t8 24v224z" />
    <glyph glyph-name="Emacron" unicode="&#x112;" horiz-adv-x="509" 
d="M78 669h386q1 -4 1.5 -8.5t0.5 -12.5q0 -23 -13 -38.5t-48 -15.5h-240v-206h227v-77h-227v-236h254q32 0 47 -15.5t15 -38.5v-8.5t-1 -12.5h-402v669zM360 814q23 0 38 -8t15 -34q0 -9 -0.5 -15t-1.5 -11h-253q-26 0 -37 9t-11 32q0 14 4 27h246z" />
    <glyph glyph-name="emacron" unicode="&#x113;" horiz-adv-x="498" 
d="M136 219q3 -73 38.5 -117.5t109.5 -44.5q28 0 50 6t38 14.5t26.5 18.5t17.5 18q11 -14 19.5 -30t8.5 -25q0 -8 -5 -16.5t-17 -17.5q-23 -17 -59 -28.5t-87 -11.5q-47 0 -88.5 13.5t-72.5 43.5t-49 78.5t-18 118.5q0 63 18.5 109t48.5 75.5t68.5 43.5t79.5 14
q51 0 87.5 -17t59.5 -45.5t34 -66t11 -77.5q0 -14 -0.5 -28.5t-2.5 -27.5h-316zM370 283q0 27 -5.5 50t-18.5 40.5t-34.5 27.5t-52.5 10q-52 0 -85.5 -34t-37.5 -94h234zM363 640q23 0 37.5 -8t14.5 -35q0 -8 -0.5 -14t-1.5 -11h-255q-24 0 -35 9t-11 32q0 14 4 27h247z" />
    <glyph glyph-name="Ebreve" unicode="&#x114;" horiz-adv-x="509" 
d="M78 669h386q1 -4 1.5 -8.5t0.5 -12.5q0 -23 -13 -38.5t-48 -15.5h-240v-206h227v-77h-227v-236h254q32 0 47 -15.5t15 -38.5v-8.5t-1 -12.5h-402v669zM126 880q12 3 20 3q12 0 20.5 -6.5t14.5 -23.5q13 -35 32 -48.5t51 -13.5q33 0 50.5 13t31.5 48q13 31 37 31
q8 0 18 -3t17 -8q-14 -63 -51 -101.5t-103 -38.5q-67 0 -104 36t-52 105q5 4 18 7z" />
    <glyph glyph-name="ebreve" unicode="&#x115;" horiz-adv-x="498" 
d="M136 219q3 -73 38.5 -117.5t109.5 -44.5q28 0 50 6t38 14.5t26.5 18.5t17.5 18q11 -14 19.5 -30t8.5 -25q0 -8 -5 -16.5t-17 -17.5q-23 -17 -59 -28.5t-87 -11.5q-47 0 -88.5 13.5t-72.5 43.5t-49 78.5t-18 118.5q0 63 18.5 109t48.5 75.5t68.5 43.5t79.5 14
q51 0 87.5 -17t59.5 -45.5t34 -66t11 -77.5q0 -14 -0.5 -28.5t-2.5 -27.5h-316zM370 283q0 27 -5.5 50t-18.5 40.5t-34.5 27.5t-52.5 10q-52 0 -85.5 -34t-37.5 -94h234zM128 681q12 3 20 3q12 0 20.5 -6.5t14.5 -23.5q13 -35 32 -48.5t51 -13.5q33 0 50.5 13t31.5 48
q13 31 37 31q8 0 18 -3t17 -8q-14 -63 -51 -101.5t-103 -38.5q-67 0 -104 36t-52 105q5 4 18 7z" />
    <glyph glyph-name="Edotaccent" unicode="&#x116;" horiz-adv-x="509" 
d="M78 669h386q1 -4 1.5 -8.5t0.5 -12.5q0 -23 -13 -38.5t-48 -15.5h-240v-206h227v-77h-227v-236h254q32 0 47 -15.5t15 -38.5v-8.5t-1 -12.5h-402v669zM223 746q-15 18 -15 42q0 26 15.5 43.5t38.5 17.5t39 -17.5t16 -43.5q0 -24 -16 -41.5t-39 -17.5q-22 0 -39 17z" />
    <glyph glyph-name="edotaccent" unicode="&#x117;" horiz-adv-x="498" 
d="M136 219q3 -73 38.5 -117.5t109.5 -44.5q28 0 50 6t38 14.5t26.5 18.5t17.5 18q11 -14 19.5 -30t8.5 -25q0 -8 -5 -16.5t-17 -17.5q-23 -17 -59 -28.5t-87 -11.5q-47 0 -88.5 13.5t-72.5 43.5t-49 78.5t-18 118.5q0 63 18.5 109t48.5 75.5t68.5 43.5t79.5 14
q51 0 87.5 -17t59.5 -45.5t34 -66t11 -77.5q0 -14 -0.5 -28.5t-2.5 -27.5h-316zM370 283q0 27 -5.5 50t-18.5 40.5t-34.5 27.5t-52.5 10q-52 0 -85.5 -34t-37.5 -94h234zM227 560q-15 16 -15 42t15.5 43.5t38.5 17.5t39 -17.5t16 -43.5q0 -25 -16 -42t-39 -17q-22 0 -39 17z
" />
    <glyph glyph-name="Eogonek" unicode="&#x118;" horiz-adv-x="509" 
d="M78 669h386q1 -4 1.5 -8.5t0.5 -12.5q0 -23 -13 -38.5t-48 -15.5h-240v-206h227v-77h-227v-236h254q32 0 47 -15.5t15 -38.5q0 -16 -1 -21q-14 -11 -27.5 -25.5t-24.5 -30t-18 -31.5t-7 -31q0 -35 31 -35q17 0 28.5 7.5t19.5 15.5q8 -8 14 -18.5t6 -21.5t-7 -18.5
t-17.5 -13t-24 -8t-26.5 -2.5q-39 0 -64 20.5t-25 65.5q0 36 19 69t41 53l5 4h-325v669z" />
    <glyph glyph-name="eogonek" unicode="&#x119;" horiz-adv-x="498" 
d="M276 -15q-47 0 -88.5 13.5t-72.5 43.5t-49 78.5t-18 118.5q0 63 18.5 109t48.5 75.5t68.5 43.5t79.5 14q51 0 87.5 -17t59.5 -45.5t34 -66t11 -77.5q0 -14 -0.5 -28.5t-2.5 -27.5h-316q3 -73 38.5 -117.5t109.5 -44.5q28 0 50 6t38 14.5t26.5 18.5t17.5 18
q11 -14 19.5 -30t8.5 -25q0 -8 -5 -16.5t-17 -17.5q-10 -7 -21 -13.5t-25 -11.5q-14 -11 -27.5 -25.5t-24.5 -30t-18 -31.5t-7 -31q0 -35 31 -35q17 0 28.5 7.5t19.5 15.5q8 -8 14 -18.5t6 -21.5t-7 -18.5t-17.5 -13t-24 -8t-26.5 -2.5q-39 0 -64 20.5t-25 65.5q0 24 9 47
t22 42l18 22h-7zM370 283q0 27 -5.5 50t-18.5 40.5t-34.5 27.5t-52.5 10q-52 0 -85.5 -34t-37.5 -94h234z" />
    <glyph glyph-name="Ecaron" unicode="&#x11a;" horiz-adv-x="509" 
d="M78 669h386q1 -4 1.5 -8.5t0.5 -12.5q0 -23 -13 -38.5t-48 -15.5h-240v-206h227v-77h-227v-236h254q32 0 47 -15.5t15 -38.5v-8.5t-1 -12.5h-402v669zM130 848q8 7 18 11.5t19 4.5q14 0 24 -6t19 -15l53 -48l54 47q13 11 23.5 16.5t22.5 5.5q9 0 19 -4t18 -9l-87 -103
q-23 -27 -48 -27q-26 0 -50 29z" />
    <glyph glyph-name="ecaron" unicode="&#x11b;" horiz-adv-x="498" 
d="M136 219q3 -73 38.5 -117.5t109.5 -44.5q28 0 50 6t38 14.5t26.5 18.5t17.5 18q11 -14 19.5 -30t8.5 -25q0 -8 -5 -16.5t-17 -17.5q-23 -17 -59 -28.5t-87 -11.5q-47 0 -88.5 13.5t-72.5 43.5t-49 78.5t-18 118.5q0 63 18.5 109t48.5 75.5t68.5 43.5t79.5 14
q51 0 87.5 -17t59.5 -45.5t34 -66t11 -77.5q0 -14 -0.5 -28.5t-2.5 -27.5h-316zM370 283q0 27 -5.5 50t-18.5 40.5t-34.5 27.5t-52.5 10q-52 0 -85.5 -34t-37.5 -94h234zM123 672q8 8 17.5 11.5t18.5 3.5q25 0 42 -20l59 -66l59 64q21 22 45 22q11 0 20 -3.5t17 -8.5
l-92 -120q-11 -14 -21.5 -20.5t-26.5 -6.5t-28 7.5t-22 20.5z" />
    <glyph glyph-name="Gcircumflex" unicode="&#x11c;" horiz-adv-x="651" 
d="M507 279h-140v71h223v-283q-7 -9 -25.5 -22.5t-48 -27t-69.5 -23t-89 -9.5q-77 0 -133 26t-92.5 73t-54 111.5t-17.5 141.5q0 75 18 138.5t55 109t94.5 71.5t135.5 26q36 0 71 -8.5t62 -22t44 -30t17 -31.5q0 -12 -8 -27t-18 -27h-17q-9 11 -23.5 23.5t-34.5 22.5
t-45 16.5t-54 6.5q-61 0 -101 -23t-64 -60.5t-33.5 -85.5t-9.5 -99q0 -53 10.5 -103t36 -89t67 -63t103.5 -24q28 0 51.5 5t41.5 12t29.5 14.5t17.5 13.5v176zM304 835q24 29 50 29q25 0 48 -27l87 -103q-8 -5 -18 -9t-19 -4q-12 0 -22.5 5.5t-23.5 16.5l-54 47l-53 -48
q-9 -9 -19 -15t-24 -6q-9 0 -19 4.5t-18 11.5z" />
    <glyph glyph-name="gcircumflex" unicode="&#x11d;" horiz-adv-x="538" 
d="M381 40q-8 -8 -20 -18t-28.5 -18t-37.5 -13.5t-46 -5.5q-39 0 -75 13t-63.5 41.5t-43.5 75t-16 113.5q0 66 16 114t43 78.5t63 45.5t76 15q48 0 79.5 -14.5t52.5 -36.5q5 22 23 32.5t35 10.5h11t14 -2v-438q0 -61 -10.5 -108.5t-36.5 -80.5t-70 -50.5t-111 -17.5
q-48 0 -82.5 9t-57.5 22q-18 11 -25.5 21t-7.5 21q0 13 11.5 29t20.5 26q2 -3 13 -11.5t29.5 -18.5t43.5 -17.5t55 -7.5q48 0 76.5 13.5t44 38t20 58t4.5 74.5v7zM379 357h1q-6 6 -15.5 14.5t-24 17t-33.5 14t-43 5.5q-57 0 -90 -42.5t-33 -127.5q0 -39 6 -72t21 -57.5
t39.5 -38t60.5 -13.5q24 0 44.5 6t35.5 15t23 21t8 24v234zM211 666q10 13 22 20.5t28 7.5t26.5 -6.5t21.5 -20.5l92 -120q-8 -5 -17 -8.5t-20 -3.5q-24 0 -45 22l-59 64l-59 -66q-17 -20 -42 -20q-9 0 -18.5 3.5t-17.5 11.5z" />
    <glyph glyph-name="Gbreve" unicode="&#x11e;" horiz-adv-x="651" 
d="M507 279h-140v71h223v-283q-7 -9 -25.5 -22.5t-48 -27t-69.5 -23t-89 -9.5q-77 0 -133 26t-92.5 73t-54 111.5t-17.5 141.5q0 75 18 138.5t55 109t94.5 71.5t135.5 26q36 0 71 -8.5t62 -22t44 -30t17 -31.5q0 -12 -8 -27t-18 -27h-17q-9 11 -23.5 23.5t-34.5 22.5
t-45 16.5t-54 6.5q-61 0 -101 -23t-64 -60.5t-33.5 -85.5t-9.5 -99q0 -53 10.5 -103t36 -89t67 -63t103.5 -24q28 0 51.5 5t41.5 12t29.5 14.5t17.5 13.5v176zM215 880q12 3 20 3q12 0 20.5 -6.5t14.5 -23.5q13 -35 32 -48.5t51 -13.5q33 0 50.5 13t31.5 48q13 31 37 31
q8 0 18 -3t17 -8q-14 -63 -51 -101.5t-103 -38.5q-67 0 -104 36t-52 105q5 4 18 7z" />
    <glyph glyph-name="gbreve" unicode="&#x11f;" horiz-adv-x="538" 
d="M381 40q-8 -8 -20 -18t-28.5 -18t-37.5 -13.5t-46 -5.5q-39 0 -75 13t-63.5 41.5t-43.5 75t-16 113.5q0 66 16 114t43 78.5t63 45.5t76 15q48 0 79.5 -14.5t52.5 -36.5q5 22 23 32.5t35 10.5h11t14 -2v-438q0 -61 -10.5 -108.5t-36.5 -80.5t-70 -50.5t-111 -17.5
q-48 0 -82.5 9t-57.5 22q-18 11 -25.5 21t-7.5 21q0 13 11.5 29t20.5 26q2 -3 13 -11.5t29.5 -18.5t43.5 -17.5t55 -7.5q48 0 76.5 13.5t44 38t20 58t4.5 74.5v7zM379 357h1q-6 6 -15.5 14.5t-24 17t-33.5 14t-43 5.5q-57 0 -90 -42.5t-33 -127.5q0 -39 6 -72t21 -57.5
t39.5 -38t60.5 -13.5q24 0 44.5 6t35.5 15t23 21t8 24v234zM127 681q12 3 20 3q12 0 20.5 -6.5t14.5 -23.5q13 -35 32 -48.5t51 -13.5q33 0 50.5 13t31.5 48q13 31 37 31q8 0 18 -3t17 -8q-14 -63 -51 -101.5t-103 -38.5q-67 0 -104 36t-52 105q5 4 18 7z" />
    <glyph glyph-name="Gdotaccent" unicode="&#x120;" horiz-adv-x="651" 
d="M507 279h-140v71h223v-283q-7 -9 -25.5 -22.5t-48 -27t-69.5 -23t-89 -9.5q-77 0 -133 26t-92.5 73t-54 111.5t-17.5 141.5q0 75 18 138.5t55 109t94.5 71.5t135.5 26q36 0 71 -8.5t62 -22t44 -30t17 -31.5q0 -12 -8 -27t-18 -27h-17q-9 11 -23.5 23.5t-34.5 22.5
t-45 16.5t-54 6.5q-61 0 -101 -23t-64 -60.5t-33.5 -85.5t-9.5 -99q0 -53 10.5 -103t36 -89t67 -63t103.5 -24q28 0 51.5 5t41.5 12t29.5 14.5t17.5 13.5v176zM308 746q-15 18 -15 42q0 26 15.5 43.5t38.5 17.5t39 -17.5t16 -43.5q0 -24 -16 -41.5t-39 -17.5q-22 0 -39 17z
" />
    <glyph glyph-name="gdotaccent" unicode="&#x121;" horiz-adv-x="538" 
d="M381 40q-8 -8 -20 -18t-28.5 -18t-37.5 -13.5t-46 -5.5q-39 0 -75 13t-63.5 41.5t-43.5 75t-16 113.5q0 66 16 114t43 78.5t63 45.5t76 15q48 0 79.5 -14.5t52.5 -36.5q5 22 23 32.5t35 10.5h11t14 -2v-438q0 -61 -10.5 -108.5t-36.5 -80.5t-70 -50.5t-111 -17.5
q-48 0 -82.5 9t-57.5 22q-18 11 -25.5 21t-7.5 21q0 13 11.5 29t20.5 26q2 -3 13 -11.5t29.5 -18.5t43.5 -17.5t55 -7.5q48 0 76.5 13.5t44 38t20 58t4.5 74.5v7zM379 357h1q-6 6 -15.5 14.5t-24 17t-33.5 14t-43 5.5q-57 0 -90 -42.5t-33 -127.5q0 -39 6 -72t21 -57.5
t39.5 -38t60.5 -13.5q24 0 44.5 6t35.5 15t23 21t8 24v234zM223 560q-15 16 -15 42t15.5 43.5t38.5 17.5t39 -17.5t16 -43.5q0 -25 -16 -42t-39 -17q-22 0 -39 17z" />
    <glyph glyph-name="Gcommaaccent" unicode="&#x122;" horiz-adv-x="651" 
d="M507 279h-140v71h223v-283q-7 -9 -25.5 -22.5t-48 -27t-69.5 -23t-89 -9.5q-77 0 -133 26t-92.5 73t-54 111.5t-17.5 141.5q0 75 18 138.5t55 109t94.5 71.5t135.5 26q36 0 71 -8.5t62 -22t44 -30t17 -31.5q0 -12 -8 -27t-18 -27h-17q-9 11 -23.5 23.5t-34.5 22.5
t-45 16.5t-54 6.5q-61 0 -101 -23t-64 -60.5t-33.5 -85.5t-9.5 -99q0 -53 10.5 -103t36 -89t67 -63t103.5 -24q28 0 51.5 5t41.5 12t29.5 14.5t17.5 13.5v176zM296 -104q8 20 20 33t36 13q11 0 23 -3t20 -7l-68 -126q-7 -12 -18.5 -20t-28.5 -8q-6 0 -15.5 2t-14.5 5z" />
    <glyph glyph-name="gcommaaccent" unicode="&#x123;" horiz-adv-x="538" 
d="M383 40q-8 -8 -20 -18t-28.5 -18t-37.5 -13.5t-46 -5.5q-39 0 -75 13t-63.5 41.5t-43.5 75t-16 113.5q0 66 16 114t43 78.5t63 45.5t76 15q48 0 79.5 -14.5t52.5 -36.5q5 22 23 32.5t35 10.5q5 0 9 -0.5t8 -0.5q3 -1 8 -1v-438q0 -61 -10.5 -108.5t-36.5 -80.5t-70 -50.5
t-111 -17.5q-48 0 -82.5 9t-57.5 22q-18 11 -25.5 21t-7.5 21q0 13 11.5 29t20.5 26q2 -3 13 -11.5t29.5 -18.5t43.5 -17.5t55 -7.5q48 0 76.5 13.5t44 38t20 58t4.5 74.5v7zM383 357q-7 6 -17 14.5t-24 17t-32.5 14t-43.5 5.5q-57 0 -90 -42.5t-33 -127.5q0 -39 6 -72
t21 -57.5t39.5 -38t60.5 -13.5q51 0 80 21t33 45v234zM299 675q16 28 45 28q7 0 17.5 -2.5t15.5 -5.5l-47 -111q-8 -18 -20.5 -32t-35.5 -14q-10 0 -22.5 3t-20.5 8z" />
    <glyph glyph-name="Hcircumflex" unicode="&#x124;" horiz-adv-x="650" 
d="M79 670q6 1 13 1.5t12 0.5q10 0 21 -2.5t20 -9t15 -19t6 -32.5v-223h318v284q6 1 13 1.5t12 0.5q10 0 21 -2.5t20 -9t15 -19t6 -32.5v-609h-87v310h-318v-310h-87v670zM276 835q24 29 50 29q25 0 48 -27l87 -103q-8 -5 -18 -9t-19 -4q-12 0 -22.5 5.5t-23.5 16.5l-54 47
l-53 -48q-9 -9 -19 -15t-24 -6q-9 0 -19 4.5t-18 11.5z" />
    <glyph glyph-name="hcircumflex" unicode="&#x125;" horiz-adv-x="544" 
d="M74 709q7 1 11.5 1h6.5q30 0 48 -15t18 -53v-220q26 29 66 44t85 15q70 0 107 -31.5t47 -73.5q5 -20 6 -44.5t1 -47.5v-284h-85v281q0 19 -0.5 36.5t-5.5 32.5q-7 26 -29 40t-65 14q-29 0 -52 -6.5t-39.5 -16.5t-25.5 -23t-9 -26v-332h-85v709zM155 870q24 29 50 29
q25 0 48 -27l87 -103q-8 -5 -18 -9t-19 -4q-12 0 -22.5 5.5t-23.5 16.5l-54 47l-53 -48q-9 -9 -19 -15t-24 -6q-9 0 -19 4.5t-18 11.5z" />
    <glyph glyph-name="Hbar" unicode="&#x126;" horiz-adv-x="650" 
d="M79 499h-73v66h73v105q5 0 8 1q4 0 8 0.5t9 0.5q10 0 21 -2.5t20 -9t15 -19t6 -32.5v-44h318v105q5 0 8 1q4 0 8 0.5t9 0.5q9 0 19.5 -2.5t20 -9t16 -19t6.5 -32.5v-44h74v-66h-74v-499h-87v310h-318v-310h-87v499zM484 386v113h-318v-113h318z" />
    <glyph glyph-name="hbar" unicode="&#x127;" horiz-adv-x="544" 
d="M74 548h-74v66h74v95h5q2 0 5.5 0.5t6.5 0.5q28 0 47.5 -14t19.5 -52v-30h204v-66h-204v-146q26 29 66 44t85 15q70 0 107 -31.5t47 -73.5q5 -20 6 -44.5t1 -47.5v-264h-85v261q0 19 -0.5 36.5t-5.5 32.5q-7 26 -29 40t-65 14q-29 0 -52 -6.5t-39.5 -16.5t-25.5 -23
t-9 -26v-312h-85v548z" />
    <glyph glyph-name="Itilde" unicode="&#x128;" horiz-adv-x="240" 
d="M76 670q6 1 13 1.5t12 0.5q10 0 20.5 -2t20 -9t15.5 -19t7 -33v-609h-88v670zM-7 728l-19 18q-9 10 -9 22q0 10 7 19.5t18 17.5q17 14 37 21.5t39 7.5q18 0 32.5 -5t27.5 -11q14 -7 28 -12t31 -5q20 0 34.5 12t28.5 34q11 -7 23 -18.5t12 -23.5q0 -13 -12 -28
q-13 -16 -33.5 -27.5t-47.5 -11.5q-20 0 -37 5.5t-33 12.5q-14 6 -27.5 10.5t-28.5 4.5q-20 0 -37.5 -12t-33.5 -31z" />
    <glyph glyph-name="itilde" unicode="&#x129;" horiz-adv-x="241" 
d="M73 475h6q2 0 5.5 0.5t6.5 0.5q28 0 47.5 -14.5t19.5 -52.5v-319q0 -29 8.5 -41t39.5 -12v-36q-9 -3 -24.5 -5t-30.5 -2q-29 0 -44.5 9t-23 24t-9 33.5t-1.5 36.5v378zM-29 561q-9 10 -9 22q0 10 7 19.5t18 17.5q17 14 37 21.5t39 7.5q18 0 32.5 -5t27.5 -11
q14 -7 28 -12t31 -5q20 0 34.5 12t28.5 34q11 -7 23 -18.5t12 -23.5q0 -13 -12 -28q-13 -16 -33.5 -27.5t-47.5 -11.5q-20 0 -37 5.5t-33 12.5q-14 6 -27.5 10.5t-28.5 4.5q-20 0 -37.5 -12t-33.5 -31z" />
    <glyph glyph-name="Imacron" unicode="&#x12a;" horiz-adv-x="240" 
d="M76 670q6 1 13 1.5t12 0.5q10 0 20.5 -2t20 -9t15.5 -19t7 -33v-609h-88v670zM212 814q23 0 38 -8t15 -34q0 -9 -0.5 -15t-1.5 -11h-253q-26 0 -37 9t-11 32q0 14 4 27h246z" />
    <glyph glyph-name="imacron" unicode="&#x12b;" horiz-adv-x="241" 
d="M73 475h6q2 0 5.5 0.5t6.5 0.5q28 0 47.5 -14.5t19.5 -52.5v-319q0 -29 8.5 -41t39.5 -12v-36q-9 -3 -24.5 -5t-30.5 -2q-29 0 -44.5 9t-23 24t-9 33.5t-1.5 36.5v378zM205 640q23 0 37.5 -8t14.5 -35q0 -8 -0.5 -14t-1.5 -11h-255q-24 0 -35 9t-11 32q0 14 4 27h247z
" />
    <glyph glyph-name="Ibreve" unicode="&#x12c;" horiz-adv-x="240" 
d="M76 670q6 1 13 1.5t12 0.5q10 0 20.5 -2t20 -9t15.5 -19t7 -33v-609h-88v670zM-25 880q12 3 20 3q12 0 20.5 -6.5t14.5 -23.5q13 -35 32 -48.5t51 -13.5q33 0 50.5 13t31.5 48q13 31 37 31q8 0 18 -3t17 -8q-14 -63 -51 -101.5t-103 -38.5q-67 0 -104 36t-52 105
q5 4 18 7z" />
    <glyph glyph-name="ibreve" unicode="&#x12d;" horiz-adv-x="241" 
d="M73 475h6q2 0 5.5 0.5t6.5 0.5q28 0 47.5 -14.5t19.5 -52.5v-319q0 -29 8.5 -41t39.5 -12v-36q-9 -3 -24.5 -5t-30.5 -2q-29 0 -44.5 9t-23 24t-9 33.5t-1.5 36.5v378zM-24 681q12 3 20 3q12 0 20.5 -6.5t14.5 -23.5q13 -35 32 -48.5t51 -13.5q33 0 50.5 13t31.5 48
q13 31 37 31q8 0 18 -3t17 -8q-14 -63 -51 -101.5t-103 -38.5q-67 0 -104 36t-52 105q5 4 18 7z" />
    <glyph glyph-name="Iogonek" unicode="&#x12e;" horiz-adv-x="240" 
d="M76 670q6 1 13 1.5t12 0.5q10 0 20.5 -2t20 -9t15.5 -19t7 -33v-609q-14 -11 -27.5 -25.5t-24.5 -30t-18 -31.5t-7 -31q0 -35 31 -35q17 0 28.5 7.5t19.5 15.5q8 -8 14 -18.5t6 -21.5t-7 -18.5t-17.5 -13t-24 -8t-26.5 -2.5q-39 0 -64 20.5t-25 65.5q0 36 19 69t41 53
l5 4h-11v670z" />
    <glyph glyph-name="iogonek" unicode="&#x12f;" horiz-adv-x="241" 
d="M73 475q7 1 11.5 1h6.5q30 0 48.5 -15t18.5 -53v-318q0 -29 8.5 -41t39.5 -12v-37q-14 -11 -27.5 -25.5t-24.5 -30t-18 -31.5t-7 -31q0 -35 31 -35q17 0 28.5 7.5t19.5 15.5q8 -8 14 -18.5t6 -21.5t-7 -18.5t-17.5 -13t-24 -8t-26.5 -2.5q-39 0 -64 20.5t-25 65.5
q0 36 19 69t41 53q-12 3 -18 7q-23 14 -28 40t-5 54v378zM58 624q0 25 15.5 41t38.5 16t38.5 -16t15.5 -41q0 -23 -15.5 -38.5t-38.5 -15.5t-38.5 15.5t-15.5 38.5z" />
    <glyph glyph-name="Idotaccent" unicode="&#x130;" horiz-adv-x="240" 
d="M76 670q6 1 13 1.5t12 0.5q10 0 20.5 -2t20 -9t15.5 -19t7 -33v-609h-88v670zM78 746q-15 18 -15 42q0 26 15.5 43.5t38.5 17.5t39 -17.5t16 -43.5q0 -24 -16 -41.5t-39 -17.5q-22 0 -39 17z" />
    <glyph glyph-name="dotlessi" unicode="&#x131;" horiz-adv-x="241" 
d="M73 475h6q2 0 5.5 0.5t6.5 0.5q28 0 47.5 -14.5t19.5 -52.5v-319q0 -29 8.5 -41t39.5 -12v-36q-9 -3 -24.5 -5t-30.5 -2q-29 0 -44.5 9t-23 24t-9 33.5t-1.5 36.5v378z" />
    <glyph glyph-name="IJ" unicode="&#x132;" horiz-adv-x="495" 
d="M76 670q6 1 13 1.5t12 0.5q10 0 20.5 -2t20 -9t15.5 -19t7 -33v-609h-88v670zM331 670q6 1 13 1.5t12 0.5q10 0 21 -2.5t20 -9t15 -19t6 -32.5v-540q0 -21 -1 -43t-3 -45q-3 -29 -13.5 -57.5t-30 -51t-48.5 -36.5t-69 -14q-32 0 -42.5 14t-10.5 35v12.5t1 11.5
q73 0 101.5 29t28.5 97v649z" />
    <glyph glyph-name="ij" unicode="&#x133;" horiz-adv-x="460" 
d="M58 624q0 25 15.5 41t38.5 16t38.5 -16t15.5 -41q0 -23 -15.5 -38.5t-38.5 -15.5t-38.5 15.5t-15.5 38.5zM73 475q7 1 11.5 1h6.5q30 0 48.5 -15t18.5 -53v-318q0 -29 8.5 -41t39.5 -12v-36q-9 -3 -24.5 -5t-30.5 -2q-29 0 -44.5 9t-23 24t-9 33.5t-1.5 36.5v378z
M293 624q0 25 15.5 41t38.5 16t38.5 -16t15.5 -41q0 -23 -15.5 -38.5t-38.5 -15.5t-38.5 15.5t-15.5 38.5zM306 475q7 1 11.5 1h6.5q30 0 48.5 -15t18.5 -53v-455q0 -60 -15.5 -95t-37 -53.5t-44.5 -23.5t-39 -5q-17 0 -27 5.5t-15 14.5t-6.5 21t-1.5 25q60 2 80.5 29
t20.5 81v523z" />
    <glyph glyph-name="Jcircumflex" unicode="&#x134;" horiz-adv-x="248" 
d="M84 670q6 1 13 1.5t12 0.5q10 0 21 -2.5t20 -9t15 -19t6 -32.5v-540q0 -21 -1 -43t-3 -45q-3 -29 -13.5 -57.5t-30 -51t-48.5 -36.5t-69 -14q-32 0 -42.5 14t-10.5 35v12.5t1 11.5q73 0 101.5 29t28.5 97v649zM65 835q24 29 50 29q25 0 48 -27l87 -103q-8 -5 -18 -9
t-19 -4q-12 0 -22.5 5.5t-23.5 16.5l-54 47l-53 -48q-9 -9 -19 -15t-24 -6q-9 0 -19 4.5t-18 11.5z" />
    <glyph glyph-name="jcircumflex" unicode="&#x135;" horiz-adv-x="234" 
d="M82 475h7q2 0 4.5 0.5t4.5 0.5q29 0 48 -14.5t19 -53.5v-455q0 -60 -15.5 -95t-37 -53.5t-45 -23.5t-39.5 -5q-17 0 -27 6t-15 15.5t-6 22t-1 25.5q60 2 80.5 27.5t20.5 79.5zM68 666q10 13 22 20.5t28 7.5t26.5 -6.5t21.5 -20.5l92 -120q-8 -5 -17 -8.5t-20 -3.5
q-24 0 -45 22l-59 64l-59 -66q-17 -20 -42 -20q-9 0 -18.5 3.5t-17.5 11.5z" />
    <glyph glyph-name="Kcommaaccent" unicode="&#x136;" horiz-adv-x="562" 
d="M184 340v32l239 267q16 17 28.5 24t27.5 7t30.5 -6.5t27.5 -14.5l-259 -289l278 -356q-12 -5 -27.5 -8.5t-27.5 -3.5q-26 0 -42.5 9t-31.5 28zM79 670q5 1 10.5 1.5t13.5 0.5q9 0 19.5 -2.5t20.5 -9t16.5 -19t6.5 -32.5v-609h-87v670zM249 -104q8 20 20 33t36 13
q11 0 23 -3t20 -7l-68 -126q-7 -12 -18.5 -20t-28.5 -8q-6 0 -15.5 2t-14.5 5z" />
    <glyph glyph-name="kcommaaccent" unicode="&#x137;" horiz-adv-x="492" 
d="M182 246v33l172 171q29 26 57 26q17 0 29 -6t22 -15l-192 -189l222 -265q-24 -9 -50 -9q-20 0 -39.5 8.5t-35.5 27.5zM74 709q7 1 11.5 1h6.5q30 0 48.5 -15t18.5 -53v-642h-85v709zM202 -104q8 20 20 33t36 13q11 0 23 -3t20 -7l-68 -126q-7 -12 -18.5 -20t-28.5 -8
q-6 0 -15.5 2t-14.5 5z" />
    <glyph glyph-name="kgreenlandic" unicode="&#x138;" horiz-adv-x="483" 
d="M74 472h6q2 0 5.5 0.5t6.5 0.5q28 0 47.5 -14.5t19.5 -52.5v-406h-85v472zM182 236v33l150 166q13 14 26.5 22.5t34.5 8.5q11 0 20.5 -3.5t16.5 -7.5q4 -2 7.5 -4.5t7.5 -5.5l-174 -191l204 -253q-24 -9 -50 -9q-47 0 -77 37z" />
    <glyph glyph-name="Lacute" unicode="&#x139;" horiz-adv-x="479" 
d="M78 670q6 1 13 1.5t12 0.5q10 0 21 -2.5t20 -9t15 -19t6 -32.5v-533h232q32 0 46 -15.5t14 -37.5v-9.5t-1 -13.5h-378v670zM173 832q16 13 28.5 19.5t26.5 6.5q17 0 33.5 -12t25.5 -27l-121 -78q-14 -8 -25.5 -13t-22.5 -5q-12 0 -26.5 8.5t-21.5 17.5z" />
    <glyph glyph-name="lacute" unicode="&#x13a;" horiz-adv-x="241" 
d="M73 709q7 1 11.5 1h6.5q30 0 48.5 -15t18.5 -53v-548q0 -15 1 -25.5t5.5 -17.5t14 -10.5t27.5 -3.5v-36q-9 -3 -24.5 -5t-30.5 -2q-29 0 -44.5 9t-23 24t-9 33.5t-1.5 36.5v612zM170 872q16 13 28.5 19.5t26.5 6.5q17 0 33.5 -12t25.5 -27l-121 -78q-14 -8 -25.5 -13
t-22.5 -5q-12 0 -26.5 8.5t-21.5 17.5z" />
    <glyph glyph-name="Lcommaaccent" unicode="&#x13b;" horiz-adv-x="479" 
d="M78 670q6 1 13 1.5t12 0.5q10 0 21 -2.5t20 -9t15 -19t6 -32.5v-533h232q32 0 46 -15.5t14 -37.5v-9.5t-1 -13.5h-378v670zM217 -104q8 20 20 33t36 13q11 0 23 -3t20 -7l-68 -126q-7 -12 -18.5 -20t-28.5 -8q-6 0 -15.5 2t-14.5 5z" />
    <glyph glyph-name="lcommaaccent" unicode="&#x13c;" horiz-adv-x="241" 
d="M73 709q7 1 11.5 1h6.5q30 0 48.5 -15t18.5 -53v-548q0 -15 1 -25.5t5.5 -17.5t14 -10.5t27.5 -3.5v-36q-9 -3 -24.5 -5t-30.5 -2q-29 0 -44.5 9t-23 24t-9 33.5t-1.5 36.5v612zM84 -104q8 20 20 33t36 13q11 0 23 -3t20 -7l-68 -126q-7 -12 -18.5 -20t-28.5 -8
q-6 0 -15.5 2t-14.5 5z" />
    <glyph glyph-name="Lcaron" unicode="&#x13d;" horiz-adv-x="479" 
d="M78 670q6 1 13 1.5t12 0.5q10 0 21 -2.5t20 -9t15 -19t6 -32.5v-533h232q32 0 46 -15.5t14 -37.5v-9.5t-1 -13.5h-378v670zM244 598q0 15 2 28.5t8 23.5t17.5 16t29.5 6q5 0 10 -0.5t10 -1.5l-11 -152q-2 -29 -13.5 -45.5t-41.5 -16.5h-11v142z" />
    <glyph glyph-name="lcaron" unicode="&#x13e;" horiz-adv-x="257" 
d="M73 709q7 1 11.5 1h6.5q30 0 48.5 -15t18.5 -53v-548q0 -15 1 -25.5t5.5 -17.5t14 -10.5t27.5 -3.5v-36q-9 -3 -24.5 -5t-30.5 -2q-29 0 -44.5 9t-23 24t-9 33.5t-1.5 36.5v612zM229 636q0 15 2 28.5t8 23.5t17.5 16t29.5 6q5 0 10 -0.5t10 -1.5l-11 -152
q-2 -29 -13.5 -45.5t-41.5 -16.5h-11v142z" />
    <glyph glyph-name="Ldot" unicode="&#x13f;" horiz-adv-x="479" 
d="M78 670q6 1 13 1.5t12 0.5q10 0 21 -2.5t20 -9t15 -19t6 -32.5v-533h232q32 0 46 -15.5t14 -37.5v-9.5t-1 -13.5h-378v670zM329 314q-15 18 -15 42q0 26 15.5 43.5t38.5 17.5t39 -17.5t16 -43.5q0 -24 -16 -41.5t-39 -17.5q-22 0 -39 17z" />
    <glyph glyph-name="ldot" unicode="&#x140;" horiz-adv-x="290" 
d="M73 709q7 1 11.5 1h6.5q30 0 48.5 -15t18.5 -53v-548q0 -15 1 -25.5t5.5 -17.5t14 -10.5t27.5 -3.5v-36q-9 -3 -24.5 -5t-30.5 -2q-29 0 -44.5 9t-23 24t-9 33.5t-1.5 36.5v612zM226 340q-15 16 -15 42t15.5 43.5t38.5 17.5t39 -17.5t16 -43.5q0 -25 -16 -42t-39 -17
q-22 0 -39 17z" />
    <glyph glyph-name="Lslash" unicode="&#x141;" horiz-adv-x="493" 
d="M91 281l-80 -32l-24 62l104 43v316q5 0 8 1q4 0 8 0.5t9 0.5q9 0 19.5 -2.5t20 -9t16 -19t6.5 -32.5v-222l185 75l27 -63l-212 -88v-235h232q32 0 46 -15.5t14 -37.5q0 -5 -0.5 -9t-0.5 -7v-7h-378v281z" />
    <glyph glyph-name="lslash" unicode="&#x142;" horiz-adv-x="303" 
d="M105 325l-56 -32l-31 61l87 49v310h6q2 0 5.5 0.5t6.5 0.5q28 0 47.5 -14.5t19.5 -52.5v-204l71 40l34 -60l-105 -59v-266q0 -15 1 -25.5t5.5 -17.5t14 -10.5t27.5 -3.5v-36q-9 -3 -24.5 -5t-30.5 -2q-29 0 -44.5 9t-23 24t-9 33.5t-1.5 36.5v224z" />
    <glyph glyph-name="Nacute" unicode="&#x143;" horiz-adv-x="660" 
d="M79 667q6 2 17 3.5t22 1.5q22 0 34.5 -7.5t23.5 -25.5l324 -506v537q6 1 12.5 1.5t11.5 0.5q9 0 19 -2.5t18.5 -9t14 -19t5.5 -32.5v-609h-81l-340 519v-519h-81v667zM368 832q16 13 28.5 19.5t26.5 6.5q17 0 33.5 -12t25.5 -27l-121 -78q-14 -8 -25.5 -13t-22.5 -5
q-12 0 -26.5 8.5t-21.5 17.5z" />
    <glyph glyph-name="nacute" unicode="&#x144;" horiz-adv-x="543" 
d="M74 472q7 1 11 1h6q23 0 41.5 -11.5t22.5 -39.5q23 23 62.5 41t93.5 18q68 0 104 -30t47 -75q5 -20 6 -44.5t1 -47.5v-284h-85v281q0 19 -0.5 36.5t-5.5 32.5q-8 26 -29.5 40t-64.5 14q-29 0 -52 -6t-39 -16t-25 -23t-9 -26v-333h-85v472zM312 664q11 15 22.5 25t30.5 10
q14 0 30 -7.5t27 -16.5l-101 -109q-11 -13 -23.5 -20.5t-27.5 -7.5q-11 0 -22.5 5t-19.5 11z" />
    <glyph glyph-name="Ncommaaccent" unicode="&#x145;" horiz-adv-x="660" 
d="M79 667q6 2 17 3.5t22 1.5q22 0 34.5 -7.5t23.5 -25.5l324 -506v537q6 1 12.5 1.5t11.5 0.5q9 0 19 -2.5t18.5 -9t14 -19t5.5 -32.5v-609h-81l-340 519v-519h-81v667zM291 -104q8 20 20 33t36 13q11 0 23 -3t20 -7l-68 -126q-7 -12 -18.5 -20t-28.5 -8q-6 0 -15.5 2
t-14.5 5z" />
    <glyph glyph-name="ncommaaccent" unicode="&#x146;" horiz-adv-x="543" 
d="M74 472q7 1 11 1h6q23 0 41.5 -11.5t22.5 -39.5q23 23 62.5 41t93.5 18q68 0 104 -30t47 -75q5 -20 6 -44.5t1 -47.5v-284h-85v281q0 19 -0.5 36.5t-5.5 32.5q-8 26 -29.5 40t-64.5 14q-29 0 -52 -6t-39 -16t-25 -23t-9 -26v-333h-85v472zM220 -104q8 20 20 33t36 13
q11 0 23 -3t20 -7l-68 -126q-7 -12 -18.5 -20t-28.5 -8q-6 0 -15.5 2t-14.5 5z" />
    <glyph glyph-name="Ncaron" unicode="&#x147;" horiz-adv-x="660" 
d="M79 667q6 2 17 3.5t22 1.5q22 0 34.5 -7.5t23.5 -25.5l324 -506v537q6 1 12.5 1.5t11.5 0.5q9 0 19 -2.5t18.5 -9t14 -19t5.5 -32.5v-609h-81l-340 519v-519h-81v667zM197 848q8 7 18 11.5t19 4.5q14 0 24 -6t19 -15l53 -48l54 47q13 11 23.5 16.5t22.5 5.5q9 0 19 -4
t18 -9l-87 -103q-23 -27 -48 -27q-26 0 -50 29z" />
    <glyph glyph-name="ncaron" unicode="&#x148;" horiz-adv-x="543" 
d="M74 472q7 1 11 1h6q23 0 41.5 -11.5t22.5 -39.5q23 23 62.5 41t93.5 18q68 0 104 -30t47 -75q5 -20 6 -44.5t1 -47.5v-284h-85v281q0 19 -0.5 36.5t-5.5 32.5q-8 26 -29.5 40t-64.5 14q-29 0 -52 -6t-39 -16t-25 -23t-9 -26v-333h-85v472zM144 672q8 8 17.5 11.5
t18.5 3.5q25 0 42 -20l59 -66l59 64q21 22 45 22q11 0 20 -3.5t17 -8.5l-92 -120q-11 -14 -21.5 -20.5t-26.5 -6.5t-28 7.5t-22 20.5z" />
    <glyph glyph-name="napostrophe" unicode="&#x149;" horiz-adv-x="543" 
d="M74 472q7 1 11 1h6q23 0 41.5 -11.5t22.5 -39.5q23 23 62.5 41t93.5 18q68 0 104 -30t47 -75q5 -20 6 -44.5t1 -47.5v-284h-85v281q0 19 -0.5 36.5t-5.5 32.5q-8 26 -29.5 40t-64.5 14q-29 0 -52 -6t-39 -16t-25 -23t-9 -26v-333h-85v472zM81 511q-26 0 -36 27
q18 8 37 26t24 39q-10 7 -23.5 20.5t-13.5 33.5t13.5 35.5t37.5 15.5q27 0 40.5 -18t13.5 -44q0 -20 -5 -39t-14 -35.5t-21 -30t-25 -22.5q-14 -8 -28 -8z" />
    <glyph glyph-name="Eng" unicode="&#x14a;" horiz-adv-x="660" 
d="M79 667q6 2 17 3.5t22 1.5q22 0 34.5 -7.5t23.5 -25.5l324 -507v538q4 0 7 1q3 0 7.5 0.5t9.5 0.5q9 0 19 -2.5t18.5 -9t14 -19t5.5 -32.5v-540q0 -21 -1 -43t-3 -45q-3 -29 -13.5 -57.5t-30 -51t-48.5 -36.5t-69 -14q-32 0 -42 14t-10 35v12.5t1 11.5q69 0 98 28.5
t31 85.5l-334 512v-521h-81v667z" />
    <glyph glyph-name="eng" unicode="&#x14b;" horiz-adv-x="543" 
d="M74 472q5 1 9.5 1h7.5q23 0 41.5 -11.5t22.5 -39.5q23 23 62.5 41t93.5 18q68 0 104 -30t47 -75q5 -20 6 -44.5t1 -47.5v-331q0 -60 -15 -95t-36.5 -53.5t-45 -23.5t-39.5 -5q-17 0 -27 6t-15 15.5t-6 22t-1 25.5q60 2 80 27.5t20 79.5v329q0 19 -0.5 36.5t-5.5 32.5
q-8 26 -29.5 40t-64.5 14q-29 0 -52 -6t-39 -16t-25 -23t-9 -26v-333h-85v472z" />
    <glyph glyph-name="Omacron" unicode="&#x14c;" horiz-adv-x="699" 
d="M638 338q0 -72 -16.5 -136t-51.5 -112t-90.5 -76.5t-133.5 -28.5t-132.5 29.5t-88.5 78t-49 112t-15 132.5t17 131.5t53 110t91.5 75.5t132.5 28q75 0 128.5 -27t88 -73.5t50.5 -109.5t16 -134zM547 337q0 55 -10 103.5t-32.5 85t-60 58t-91.5 21.5q-57 0 -95 -21.5
t-61.5 -58t-33.5 -85t-10 -103.5q0 -54 10 -103.5t33 -87.5t60.5 -61t93.5 -23q55 0 93 23t61 61t33 87.5t10 103.5zM453 814q23 0 38 -8t15 -34q0 -9 -0.5 -15t-1.5 -11h-253q-26 0 -37 9t-11 32q0 14 4 27h246z" />
    <glyph glyph-name="omacron" unicode="&#x14d;" horiz-adv-x="536" 
d="M488 237q0 -49 -12 -94.5t-38.5 -80.5t-68.5 -56t-102 -21q-59 0 -101 20t-68 53.5t-38 79t-12 96.5q0 50 14 95t42 78.5t69.5 53.5t97.5 20q58 0 99.5 -20t67.5 -53.5t38 -77.5t12 -93zM398 236q0 31 -5.5 61.5t-19.5 55t-39 39.5t-65 15q-38 0 -63.5 -15t-40.5 -39.5
t-21.5 -55t-6.5 -61.5t5.5 -62.5t20.5 -57.5t40 -42.5t64 -16.5q40 0 66 16.5t40 42t19.5 57.5t5.5 63zM370 640q23 0 37.5 -8t14.5 -35q0 -8 -0.5 -14t-1.5 -11h-255q-24 0 -35 9t-11 32q0 14 4 27h247z" />
    <glyph glyph-name="Obreve" unicode="&#x14e;" horiz-adv-x="699" 
d="M638 338q0 -72 -16.5 -136t-51.5 -112t-90.5 -76.5t-133.5 -28.5t-132.5 29.5t-88.5 78t-49 112t-15 132.5t17 131.5t53 110t91.5 75.5t132.5 28q75 0 128.5 -27t88 -73.5t50.5 -109.5t16 -134zM547 337q0 55 -10 103.5t-32.5 85t-60 58t-91.5 21.5q-57 0 -95 -21.5
t-61.5 -58t-33.5 -85t-10 -103.5q0 -54 10 -103.5t33 -87.5t60.5 -61t93.5 -23q55 0 93 23t61 61t33 87.5t10 103.5zM218 880q12 3 20 3q12 0 20.5 -6.5t14.5 -23.5q13 -35 32 -48.5t51 -13.5q33 0 50.5 13t31.5 48q13 31 37 31q8 0 18 -3t17 -8q-14 -63 -51 -101.5
t-103 -38.5q-67 0 -104 36t-52 105q5 4 18 7z" />
    <glyph glyph-name="obreve" unicode="&#x14f;" horiz-adv-x="536" 
d="M488 237q0 -49 -12 -94.5t-38.5 -80.5t-68.5 -56t-102 -21q-59 0 -101 20t-68 53.5t-38 79t-12 96.5q0 50 14 95t42 78.5t69.5 53.5t97.5 20q58 0 99.5 -20t67.5 -53.5t38 -77.5t12 -93zM398 236q0 31 -5.5 61.5t-19.5 55t-39 39.5t-65 15q-38 0 -63.5 -15t-40.5 -39.5
t-21.5 -55t-6.5 -61.5t5.5 -62.5t20.5 -57.5t40 -42.5t64 -16.5q40 0 66 16.5t40 42t19.5 57.5t5.5 63zM139 681q12 3 20 3q12 0 20.5 -6.5t14.5 -23.5q13 -35 32 -48.5t51 -13.5q33 0 50.5 13t31.5 48q13 31 37 31q8 0 18 -3t17 -8q-14 -63 -51 -101.5t-103 -38.5
q-67 0 -104 36t-52 105q5 4 18 7z" />
    <glyph glyph-name="Ohungarumlaut" unicode="&#x150;" horiz-adv-x="699" 
d="M638 338q0 -72 -16.5 -136t-51.5 -112t-90.5 -76.5t-133.5 -28.5t-132.5 29.5t-88.5 78t-49 112t-15 132.5t17 131.5t53 110t91.5 75.5t132.5 28q75 0 128.5 -27t88 -73.5t50.5 -109.5t16 -134zM547 337q0 55 -10 103.5t-32.5 85t-60 58t-91.5 21.5q-57 0 -95 -21.5
t-61.5 -58t-33.5 -85t-10 -103.5q0 -54 10 -103.5t33 -87.5t60.5 -61t93.5 -23q55 0 93 23t61 61t33 87.5t10 103.5zM354 844q20 14 34 14q15 0 28 -12.5t23 -26.5l-122 -78q-11 -7 -24 -13.5t-24 -6.5t-23.5 7.5t-19.5 18.5zM529 844q19 14 34 14t28 -12.5t23 -26.5
l-122 -78q-11 -7 -24 -13.5t-24 -6.5t-23.5 7.5t-19.5 18.5z" />
    <glyph glyph-name="ohungarumlaut" unicode="&#x151;" horiz-adv-x="536" 
d="M488 237q0 -49 -12 -94.5t-38.5 -80.5t-68.5 -56t-102 -21q-59 0 -101 20t-68 53.5t-38 79t-12 96.5q0 50 14 95t42 78.5t69.5 53.5t97.5 20q58 0 99.5 -20t67.5 -53.5t38 -77.5t12 -93zM398 236q0 31 -5.5 61.5t-19.5 55t-39 39.5t-65 15q-38 0 -63.5 -15t-40.5 -39.5
t-21.5 -55t-6.5 -61.5t5.5 -62.5t20.5 -57.5t40 -42.5t64 -16.5q40 0 66 16.5t40 42t19.5 57.5t5.5 63zM241 664q11 15 22.5 24.5t29.5 9.5q14 0 28 -7t25 -16l-99 -106q-12 -13 -25.5 -22t-28.5 -9q-11 0 -19.5 5t-16.5 11zM399 664q11 15 22.5 24.5t30.5 9.5q14 0 27.5 -7
t24.5 -16l-99 -109q-11 -12 -23.5 -20t-29.5 -8q-11 0 -20 4.5t-17 10.5z" />
    <glyph glyph-name="OE" unicode="&#x152;" horiz-adv-x="904" 
d="M814 75q33 0 47.5 -15.5t14.5 -38.5q0 -4 -0.5 -7.5t-0.5 -6.5v-7h-512q-77 0 -133.5 26.5t-94 73t-56 108.5t-18.5 133q0 68 19.5 128t58.5 104.5t97 70t135 25.5h488q2 -6 2 -10.5v-10.5q0 -23 -13 -38.5t-48 -15.5h-240v-206h227v-77h-227v-236h254zM473 71v527h-99
q-59 0 -101.5 -20t-69.5 -55t-39.5 -81.5t-12.5 -100.5t12.5 -103t39 -86t68 -59t99.5 -22h103z" />
    <glyph glyph-name="oe" unicode="&#x153;" horiz-adv-x="846" 
d="M484 219q2 -33 11.5 -62.5t27.5 -51.5t44.5 -35t63.5 -13q29 0 51 6t38 14.5t27 18.5t18 18q11 -14 19.5 -30t8.5 -27t-12.5 -23.5t-34 -23t-52 -18t-66.5 -7.5q-64 0 -113 27.5t-74 78.5q-11 -21 -27 -40t-38.5 -33.5t-51.5 -23.5t-65 -9q-56 0 -96 20.5t-65.5 54.5
t-37.5 79t-12 94q0 50 14 95t41.5 79t69 54t96.5 20q67 0 109.5 -30t62.5 -72q24 49 69.5 75.5t102.5 26.5q50 0 86 -17t59 -45.5t34 -66t11 -77.5q0 -14 -0.5 -28.5t-2.5 -27.5h-316zM203 74q25 -16 64 -16q40 0 66 16.5t40 42.5t19.5 58t5.5 63t-6 61t-20.5 54t-39.5 39
t-63 15t-63 -15t-40.5 -39.5t-22 -55t-6.5 -61.5q0 -48 14 -92t52 -70zM720 283q-1 28 -7 51.5t-19.5 40.5t-35 26.5t-52.5 9.5q-51 0 -84 -34t-38 -94h236z" />
    <glyph glyph-name="Racute" unicode="&#x154;" horiz-adv-x="556" 
d="M79 667q36 5 77.5 7t79.5 2q137 0 197 -46.5t60 -144.5q0 -42 -12 -75t-32 -57.5t-46.5 -40t-56.5 -22.5l183 -290q-10 -5 -23 -7t-24 -2q-46 0 -71 39l-156 244h-89v-274h-87v667zM237 348q37 0 67 7t52 23t34 41t12 61q0 37 -11.5 61t-33 37.5t-52 18.5t-67.5 5
q-23 0 -40.5 -1t-31.5 -3v-250h71zM287 832q16 13 28.5 19.5t26.5 6.5q17 0 33.5 -12t25.5 -27l-121 -78q-14 -8 -25.5 -13t-22.5 -5q-12 0 -26.5 8.5t-21.5 17.5z" />
    <glyph glyph-name="racute" unicode="&#x155;" horiz-adv-x="348" 
d="M74 472q8 1 12.5 1h5.5q23 0 41.5 -11.5t22.5 -38.5q14 21 42 39.5t65 18.5q11 0 23.5 -2t23.5 -6.5t18 -12.5t7 -21q0 -16 -8 -34.5t-16 -30.5q-13 12 -28 18.5t-38 6.5q-17 0 -32.5 -5.5t-27.5 -15t-19 -21.5t-7 -25v-332h-85v472zM236 664q11 15 22.5 25t30.5 10
q14 0 30 -7.5t27 -16.5l-101 -109q-11 -13 -23.5 -20.5t-27.5 -7.5q-11 0 -22.5 5t-19.5 11z" />
    <glyph glyph-name="Rcommaaccent" unicode="&#x156;" horiz-adv-x="556" 
d="M79 667q36 5 77.5 7t79.5 2q137 0 197 -46.5t60 -144.5q0 -42 -12 -75t-32 -57.5t-46.5 -40t-56.5 -22.5l183 -290q-10 -5 -23 -7t-24 -2q-46 0 -71 39l-156 244h-89v-274h-87v667zM237 348q37 0 67 7t52 23t34 41t12 61q0 37 -11.5 61t-33 37.5t-52 18.5t-67.5 5
q-23 0 -40.5 -1t-31.5 -3v-250h71zM233 -104q8 20 20 33t36 13q11 0 23 -3t20 -7l-68 -126q-7 -12 -18.5 -20t-28.5 -8q-6 0 -15.5 2t-14.5 5z" />
    <glyph glyph-name="rcommaaccent" unicode="&#x157;" horiz-adv-x="348" 
d="M74 472q8 1 12.5 1h5.5q23 0 41.5 -11.5t22.5 -38.5q14 21 42 39.5t65 18.5q11 0 23.5 -2t23.5 -6.5t18 -12.5t7 -21q0 -16 -8 -34.5t-16 -30.5q-13 12 -28 18.5t-38 6.5q-17 0 -32.5 -5.5t-27.5 -15t-19 -21.5t-7 -25v-332h-85v472zM46 -104q8 20 20 33t36 13
q11 0 23 -3t20 -7l-68 -126q-7 -12 -18.5 -20t-28.5 -8q-6 0 -15.5 2t-14.5 5z" />
    <glyph glyph-name="Rcaron" unicode="&#x158;" horiz-adv-x="556" 
d="M79 667q36 5 77.5 7t79.5 2q137 0 197 -46.5t60 -144.5q0 -42 -12 -75t-32 -57.5t-46.5 -40t-56.5 -22.5l183 -290q-10 -5 -23 -7t-24 -2q-46 0 -71 39l-156 244h-89v-274h-87v667zM237 348q37 0 67 7t52 23t34 41t12 61q0 37 -11.5 61t-33 37.5t-52 18.5t-67.5 5
q-23 0 -40.5 -1t-31.5 -3v-250h71zM118 848q8 7 18 11.5t19 4.5q14 0 24 -6t19 -15l53 -48l54 47q13 11 23.5 16.5t22.5 5.5q9 0 19 -4t18 -9l-87 -103q-23 -27 -48 -27q-26 0 -50 29z" />
    <glyph glyph-name="rcaron" unicode="&#x159;" horiz-adv-x="348" 
d="M74 472q8 1 12.5 1h5.5q23 0 41.5 -11.5t22.5 -38.5q14 21 42 39.5t65 18.5q11 0 23.5 -2t23.5 -6.5t18 -12.5t7 -21q0 -16 -8 -34.5t-16 -30.5q-13 12 -28 18.5t-38 6.5q-17 0 -32.5 -5.5t-27.5 -15t-19 -21.5t-7 -25v-332h-85v472zM72 672q8 8 17.5 11.5t18.5 3.5
q25 0 42 -20l59 -66l59 64q21 22 45 22q11 0 20 -3.5t17 -8.5l-92 -120q-11 -14 -21.5 -20.5t-26.5 -6.5t-28 7.5t-22 20.5z" />
    <glyph glyph-name="Sacute" unicode="&#x15a;" horiz-adv-x="496" 
d="M392 561q-20 16 -55 30t-80 14q-35 0 -58.5 -8.5t-38 -22t-21 -32t-6.5 -37.5q0 -25 10 -43t29 -31.5t46 -24.5t62 -22q34 -11 66 -26.5t56 -38.5t38.5 -55t14.5 -75q0 -50 -16.5 -88t-46.5 -64t-71.5 -39t-91.5 -13q-55 0 -102.5 12t-74.5 32q-25 16 -25 37q0 11 9 28
t21 32q32 -26 76.5 -45.5t95.5 -19.5q39 0 65 10t41.5 26t22.5 36.5t7 42.5q0 29 -8.5 49.5t-25 35.5t-41.5 26.5t-57 21.5q-37 11 -71 24.5t-60.5 35t-42.5 52.5t-16 77q0 45 16.5 79.5t45 57.5t67.5 35t85 12q37 0 79.5 -9.5t72.5 -27.5q16 -10 27 -21.5t11 -26.5
q0 -12 -9.5 -26t-23.5 -28q-4 4 -9.5 8.5t-12.5 9.5zM297 832q16 13 28.5 19.5t26.5 6.5q17 0 33.5 -12t25.5 -27l-121 -78q-14 -8 -25.5 -13t-22.5 -5q-12 0 -26.5 8.5t-21.5 17.5z" />
    <glyph glyph-name="sacute" unicode="&#x15b;" horiz-adv-x="419" 
d="M331 360q-17 21 -49.5 36.5t-69.5 15.5q-13 0 -28.5 -2.5t-29 -9t-22.5 -18.5t-9 -30q0 -16 7.5 -27t21 -19t31.5 -13.5t39 -10.5q30 -7 58 -17.5t49.5 -27t34 -41.5t12.5 -62t-15 -64.5t-40 -46t-58.5 -28t-69.5 -9.5q-35 0 -63 5.5t-47 13.5q-25 10 -35 20.5t-10 21.5
q0 13 7 27t18 32q7 -6 19.5 -14.5t30 -17t38.5 -14t45 -5.5q18 0 35 3.5t30.5 11.5t22 22t8.5 35t-9 34.5t-24 22.5t-33.5 14.5t-37.5 9.5q-29 6 -55.5 15.5t-47 25.5t-33 39.5t-12.5 58.5q0 33 14 58.5t38 42t54.5 25t63.5 8.5q38 0 69.5 -8t50.5 -19q20 -11 27 -20.5
t7 -18.5q0 -11 -5.5 -25.5t-13.5 -28.5zM238 664q11 15 22.5 25t30.5 10q14 0 30 -7.5t27 -16.5l-101 -109q-11 -13 -23.5 -20.5t-27.5 -7.5q-11 0 -22.5 5t-19.5 11z" />
    <glyph glyph-name="Scircumflex" unicode="&#x15c;" horiz-adv-x="496" 
d="M392 561q-20 16 -55 30t-80 14q-35 0 -58.5 -8.5t-38 -22t-21 -32t-6.5 -37.5q0 -25 10 -43t29 -31.5t46 -24.5t62 -22q34 -11 66 -26.5t56 -38.5t38.5 -55t14.5 -75q0 -50 -16.5 -88t-46.5 -64t-71.5 -39t-91.5 -13q-55 0 -102.5 12t-74.5 32q-25 16 -25 37q0 11 9 28
t21 32q32 -26 76.5 -45.5t95.5 -19.5q39 0 65 10t41.5 26t22.5 36.5t7 42.5q0 29 -8.5 49.5t-25 35.5t-41.5 26.5t-57 21.5q-37 11 -71 24.5t-60.5 35t-42.5 52.5t-16 77q0 45 16.5 79.5t45 57.5t67.5 35t85 12q37 0 79.5 -9.5t72.5 -27.5q16 -10 27 -21.5t11 -26.5
q0 -12 -9.5 -26t-23.5 -28q-4 4 -9.5 8.5t-12.5 9.5zM204 835q24 29 50 29q25 0 48 -27l87 -103q-8 -5 -18 -9t-19 -4q-12 0 -22.5 5.5t-23.5 16.5l-54 47l-53 -48q-9 -9 -19 -15t-24 -6q-9 0 -19 4.5t-18 11.5z" />
    <glyph glyph-name="scircumflex" unicode="&#x15d;" horiz-adv-x="419" 
d="M331 360q-17 21 -49.5 36.5t-69.5 15.5q-13 0 -28.5 -2.5t-29 -9t-22.5 -18.5t-9 -30q0 -16 7.5 -27t21 -19t31.5 -13.5t39 -10.5q30 -7 58 -17.5t49.5 -27t34 -41.5t12.5 -62t-15 -64.5t-40 -46t-58.5 -28t-69.5 -9.5q-35 0 -63 5.5t-47 13.5q-25 10 -35 20.5t-10 21.5
q0 13 7 27t18 32q7 -6 19.5 -14.5t30 -17t38.5 -14t45 -5.5q18 0 35 3.5t30.5 11.5t22 22t8.5 35t-9 34.5t-24 22.5t-33.5 14.5t-37.5 9.5q-29 6 -55.5 15.5t-47 25.5t-33 39.5t-12.5 58.5q0 33 14 58.5t38 42t54.5 25t63.5 8.5q38 0 69.5 -8t50.5 -19q20 -11 27 -20.5
t7 -18.5q0 -11 -5.5 -25.5t-13.5 -28.5zM160 666q10 13 22 20.5t28 7.5t26.5 -6.5t21.5 -20.5l92 -120q-8 -5 -17 -8.5t-20 -3.5q-24 0 -45 22l-59 64l-59 -66q-17 -20 -42 -20q-9 0 -18.5 3.5t-17.5 11.5z" />
    <glyph glyph-name="Scedilla" unicode="&#x15e;" horiz-adv-x="496" 
d="M162 -148q7 -3 13.5 -4t12.5 -1q36 0 36 25q0 12 -6 20t-14 16t-14 16.5t-6 22.5q0 18 11 37l2 2q-19 2 -36.5 4.5t-34.5 6.5q-46 12 -74 32q-25 16 -25 37q0 11 9 28t21 32q32 -26 76.5 -45.5t95.5 -19.5q39 0 65 10t41.5 26t22.5 36.5t7 42.5q0 29 -8.5 49.5t-25 35.5
t-41.5 26.5t-57 21.5q-37 11 -71 24.5t-60.5 35t-42.5 52.5t-16 77q0 45 16.5 79.5t45 57.5t67.5 35t85 12q37 0 79.5 -9.5t72.5 -27.5q16 -10 27 -21.5t11 -26.5q0 -12 -9.5 -26t-23.5 -28q-8 7 -22.5 17.5t-34 20.5t-45 17t-55.5 7q-35 0 -58.5 -8.5t-38 -22t-21 -32
t-6.5 -37.5q0 -25 10 -43t29 -31.5t46 -24.5t62 -22q34 -11 66 -26.5t56 -38.5t38.5 -55t14.5 -75q0 -75 -36 -123t-99 -68q-31 -10 -70 -12q-7 -10 -7 -21q0 -10 5 -17t13 -14q9 -9 17.5 -21t8.5 -34t-8.5 -39t-22 -28.5t-30.5 -17.5t-34 -6q-35 0 -35 31q0 5 1 14t4 19z
" />
    <glyph glyph-name="scedilla" unicode="&#x15f;" horiz-adv-x="419" 
d="M226 -14q-7 -10 -7 -21q0 -10 5 -17t13 -14q9 -9 17.5 -21t8.5 -34t-8.5 -39t-22 -28.5t-30.5 -17.5t-34 -6q-35 0 -35 31q0 5 1 14t4 19q7 -3 13.5 -4t12.5 -1q36 0 36 25q0 12 -6 20t-14 16t-14 16.5t-6 22.5q0 18 11 37l2 3l-22 2t-21 3q-14 2 -25.5 5.5t-21.5 7.5
q-25 10 -35 20.5t-10 21.5q0 13 7 27t18 32q7 -6 19.5 -14.5t30 -17t38.5 -14t45 -5.5q18 0 35 3.5t30.5 11.5t22 22t8.5 35t-9 34.5t-24 22.5t-33.5 14.5t-37.5 9.5q-29 6 -55.5 15.5t-47 25.5t-33 39.5t-12.5 58.5q0 33 14 58.5t38 42t54.5 25t63.5 8.5q38 0 69.5 -8
t50.5 -19q20 -11 27 -20.5t7 -18.5q0 -11 -5.5 -25.5t-13.5 -28.5l-14 -1q-17 21 -49.5 36.5t-69.5 15.5q-13 0 -28.5 -2.5t-29 -9t-22.5 -18.5t-9 -30q0 -16 7.5 -27t21 -19t31.5 -13.5t39 -10.5q30 -7 58 -17.5t49.5 -27t34 -41.5t12.5 -62q0 -55 -32 -89.5t-82 -48.5
q-8 -2 -16.5 -4t-17.5 -3z" />
    <glyph glyph-name="Scaron" unicode="&#x160;" horiz-adv-x="496" 
d="M392 561q-20 16 -55 30t-80 14q-35 0 -58.5 -8.5t-38 -22t-21 -32t-6.5 -37.5q0 -25 10 -43t29 -31.5t46 -24.5t62 -22q34 -11 66 -26.5t56 -38.5t38.5 -55t14.5 -75q0 -50 -16.5 -88t-46.5 -64t-71.5 -39t-91.5 -13q-55 0 -102.5 12t-74.5 32q-25 16 -25 37q0 11 9 28
t21 32q32 -26 76.5 -45.5t95.5 -19.5q39 0 65 10t41.5 26t22.5 36.5t7 42.5q0 29 -8.5 49.5t-25 35.5t-41.5 26.5t-57 21.5q-37 11 -71 24.5t-60.5 35t-42.5 52.5t-16 77q0 45 16.5 79.5t45 57.5t67.5 35t85 12q37 0 79.5 -9.5t72.5 -27.5q16 -10 27 -21.5t11 -26.5
q0 -12 -9.5 -26t-23.5 -28q-4 4 -9.5 8.5t-12.5 9.5zM113 848q8 7 18 11.5t19 4.5q14 0 24 -6t19 -15l53 -48l54 47q13 11 23.5 16.5t22.5 5.5q9 0 19 -4t18 -9l-87 -103q-23 -27 -48 -27q-26 0 -50 29z" />
    <glyph glyph-name="scaron" unicode="&#x161;" horiz-adv-x="419" 
d="M331 360q-17 21 -49.5 36.5t-69.5 15.5q-13 0 -28.5 -2.5t-29 -9t-22.5 -18.5t-9 -30q0 -16 7.5 -27t21 -19t31.5 -13.5t39 -10.5q30 -7 58 -17.5t49.5 -27t34 -41.5t12.5 -62t-15 -64.5t-40 -46t-58.5 -28t-69.5 -9.5q-35 0 -63 5.5t-47 13.5q-25 10 -35 20.5t-10 21.5
q0 13 7 27t18 32q7 -6 19.5 -14.5t30 -17t38.5 -14t45 -5.5q18 0 35 3.5t30.5 11.5t22 22t8.5 35t-9 34.5t-24 22.5t-33.5 14.5t-37.5 9.5q-29 6 -55.5 15.5t-47 25.5t-33 39.5t-12.5 58.5q0 33 14 58.5t38 42t54.5 25t63.5 8.5q38 0 69.5 -8t50.5 -19q20 -11 27 -20.5
t7 -18.5q0 -11 -5.5 -25.5t-13.5 -28.5zM71 672q8 8 17.5 11.5t18.5 3.5q25 0 42 -20l59 -66l59 64q21 22 45 22q11 0 20 -3.5t17 -8.5l-92 -120q-11 -14 -21.5 -20.5t-26.5 -6.5t-28 7.5t-22 20.5z" />
    <glyph glyph-name="uni0162" unicode="&#x162;" horiz-adv-x="540" 
d="M223 593h-212q-3 13 -3 28q0 19 15.5 33.5t45.5 14.5h459q1 -5 1.5 -12.5t0.5 -10.5q0 -22 -15 -37.5t-46 -15.5h-158v-593q-20 -19 -20 -35q0 -10 5 -17t13 -14q9 -9 17.5 -21t8.5 -34t-8.5 -39t-22 -28.5t-30.5 -17.5t-34 -6q-35 0 -35 31q0 5 1 14t4 19q7 -3 13.5 -4
t12.5 -1q36 0 36 25q0 12 -6 20t-14 16t-14 16.5t-6 22.5q0 15 7.5 29t14.5 24h-31v593z" />
    <glyph glyph-name="uni0163" unicode="&#x163;" horiz-adv-x="356" 
d="M72 614q7 1 11 1h7q30 0 48.5 -15t18.5 -53v-77h149v-72h-149v-258q0 -82 65 -82q16 0 30 5.5t25.5 13t18.5 14.5t9 10q12 -15 20.5 -29t8.5 -27q0 -9 -9 -19.5t-25 -19.5t-40 -15q-19 -5 -40 -6q-7 -9 -7 -20q0 -10 5 -17t13 -14q9 -9 17.5 -21t8.5 -34t-8.5 -39
t-22 -28.5t-30.5 -17.5t-34 -6q-35 0 -35 31q0 5 1 14t4 19q7 -3 13.5 -4t12.5 -1q36 0 36 25q0 12 -6 20t-14 16t-14 16.5t-6 22.5q0 19 11 37l3 5q-24 5 -42 16q-31 20 -44 55q-7 19 -8.5 41.5t-1.5 44.5v468z" />
    <glyph glyph-name="Tcaron" unicode="&#x164;" horiz-adv-x="540" 
d="M223 593h-212q-3 13 -3 28q0 19 15.5 33.5t45.5 14.5h459q1 -5 1.5 -12.5t0.5 -10.5q0 -22 -15 -37.5t-46 -15.5h-158v-593h-88v593zM134 848q8 7 18 11.5t19 4.5q14 0 24 -6t19 -15l53 -48l54 47q13 11 23.5 16.5t22.5 5.5q9 0 19 -4t18 -9l-87 -103q-23 -27 -48 -27
q-26 0 -50 29z" />
    <glyph glyph-name="tcaron" unicode="&#x165;" horiz-adv-x="356" 
d="M72 614q7 1 11.5 1h6.5q30 0 48.5 -15t18.5 -53v-77h149v-72h-149v-258q0 -82 65 -82q16 0 30 5.5t25.5 13t18.5 14.5t9 10q12 -15 20.5 -29t8.5 -27q0 -9 -9 -19.5t-25 -19.5t-39.5 -15t-51.5 -6q-52 0 -83 20t-44 55q-7 19 -8.5 41.5t-1.5 44.5v468zM226 665
q0 14 2 26.5t8 22t17.5 15t29.5 5.5q5 0 10 -0.5t10 -1.5l-11 -142q-2 -27 -13.5 -42t-41.5 -15h-11v132z" />
    <glyph glyph-name="Tbar" unicode="&#x166;" horiz-adv-x="540" 
d="M223 271h-156v66h156v256h-212l-2 9q-1 4 -1 9v10q0 19 15 33.5t46 14.5h459q0 -6 1 -9q0 -4 0.5 -7.5t0.5 -6.5q0 -22 -15 -37.5t-46 -15.5h-158v-256h165v-66h-165v-271h-88v271z" />
    <glyph glyph-name="tbar" unicode="&#x167;" horiz-adv-x="356" 
d="M72 614h6q2 0 5.5 0.5t6.5 0.5q27 0 47 -14t20 -51v-80h149v-72h-149v-110h149v-72h-149v-76q0 -82 65 -82q16 0 30 5.5t25.5 13t18.5 14.5t9 10q12 -15 20.5 -29t8.5 -27q0 -9 -9 -19.5t-25 -19.5t-39.5 -15t-51.5 -6q-52 0 -83 20t-44 55q-7 19 -8.5 41.5t-1.5 44.5
v468z" />
    <glyph glyph-name="Utilde" unicode="&#x168;" horiz-adv-x="637" 
d="M74 670q6 1 13 1.5t12 0.5q10 0 21 -2.5t20 -9t15 -19t6 -32.5v-355q0 -42 7.5 -77t25 -60.5t47 -39.5t74.5 -14q69 0 106.5 26t48.5 86q6 33 6 79v416q6 1 13 1.5t12 0.5q10 0 21 -2.5t20 -9t15 -19t6 -32.5v-343q0 -20 -0.5 -41t-2.5 -40q-4 -42 -19.5 -78.5
t-45.5 -63.5t-74.5 -42.5t-107.5 -15.5q-108 0 -162.5 48t-70.5 133q-4 21 -5 46t-1 51v407zM196 728l-19 18q-9 10 -9 22q0 10 7 19.5t18 17.5q17 14 37 21.5t39 7.5q18 0 32.5 -5t27.5 -11q14 -7 28 -12t31 -5q20 0 34.5 12t28.5 34q11 -7 23 -18.5t12 -23.5
q0 -13 -12 -28q-13 -16 -33.5 -27.5t-47.5 -11.5q-20 0 -37 5.5t-33 12.5q-14 6 -27.5 10.5t-28.5 4.5q-20 0 -37.5 -12t-33.5 -31z" />
    <glyph glyph-name="utilde" unicode="&#x169;" horiz-adv-x="537" 
d="M70 475q7 1 11.5 1h6.5q30 0 48.5 -15t18.5 -53v-233q0 -39 5.5 -62t22.5 -35q15 -11 32.5 -15t40.5 -4q27 0 49.5 7.5t38.5 18.5t25 23.5t9 22.5v344q7 1 11.5 1h6.5q30 0 48.5 -15t18.5 -53v-408h-85v44q-20 -23 -56 -41t-93 -18q-58 0 -90 18t-47.5 46t-18.5 61.5
t-3 64.5v300zM112 561q-9 10 -9 22q0 10 7 19.5t18 17.5q17 14 37 21.5t39 7.5q18 0 32.5 -5t27.5 -11q14 -7 28 -12t31 -5q20 0 34.5 12t28.5 34q11 -7 23 -18.5t12 -23.5q0 -13 -12 -28q-13 -16 -33.5 -27.5t-47.5 -11.5q-20 0 -37 5.5t-33 12.5q-14 6 -27.5 10.5
t-28.5 4.5q-20 0 -37.5 -12t-33.5 -31z" />
    <glyph glyph-name="Umacron" unicode="&#x16a;" horiz-adv-x="637" 
d="M74 670q6 1 13 1.5t12 0.5q10 0 21 -2.5t20 -9t15 -19t6 -32.5v-355q0 -42 7.5 -77t25 -60.5t47 -39.5t74.5 -14q69 0 106.5 26t48.5 86q6 33 6 79v416q6 1 13 1.5t12 0.5q10 0 21 -2.5t20 -9t15 -19t6 -32.5v-343q0 -20 -0.5 -41t-2.5 -40q-4 -42 -19.5 -78.5
t-45.5 -63.5t-74.5 -42.5t-107.5 -15.5q-108 0 -162.5 48t-70.5 133q-4 21 -5 46t-1 51v407zM406 814q23 0 38 -8t15 -34q0 -9 -0.5 -15t-1.5 -11h-253q-26 0 -37 9t-11 32q0 14 4 27h246z" />
    <glyph glyph-name="umacron" unicode="&#x16b;" horiz-adv-x="537" 
d="M70 475q7 1 11.5 1h6.5q30 0 48.5 -15t18.5 -53v-233q0 -39 5.5 -62t22.5 -35q15 -11 32.5 -15t40.5 -4q27 0 49.5 7.5t38.5 18.5t25 23.5t9 22.5v344q7 1 11.5 1h6.5q30 0 48.5 -15t18.5 -53v-408h-85v44q-20 -23 -56 -41t-93 -18q-58 0 -90 18t-47.5 46t-18.5 61.5
t-3 64.5v300zM354 640q23 0 37.5 -8t14.5 -35q0 -8 -0.5 -14t-1.5 -11h-255q-24 0 -35 9t-11 32q0 14 4 27h247z" />
    <glyph glyph-name="Ubreve" unicode="&#x16c;" horiz-adv-x="637" 
d="M74 670q6 1 13 1.5t12 0.5q10 0 21 -2.5t20 -9t15 -19t6 -32.5v-355q0 -42 7.5 -77t25 -60.5t47 -39.5t74.5 -14q69 0 106.5 26t48.5 86q6 33 6 79v416q6 1 13 1.5t12 0.5q10 0 21 -2.5t20 -9t15 -19t6 -32.5v-343q0 -20 -0.5 -41t-2.5 -40q-4 -42 -19.5 -78.5
t-45.5 -63.5t-74.5 -42.5t-107.5 -15.5q-108 0 -162.5 48t-70.5 133q-4 21 -5 46t-1 51v407zM179 880q12 3 20 3q12 0 20.5 -6.5t14.5 -23.5q13 -35 32 -48.5t51 -13.5q33 0 50.5 13t31.5 48q13 31 37 31q8 0 18 -3t17 -8q-14 -63 -51 -101.5t-103 -38.5q-67 0 -104 36
t-52 105q5 4 18 7z" />
    <glyph glyph-name="ubreve" unicode="&#x16d;" horiz-adv-x="537" 
d="M70 475q7 1 11.5 1h6.5q30 0 48.5 -15t18.5 -53v-233q0 -39 5.5 -62t22.5 -35q15 -11 32.5 -15t40.5 -4q27 0 49.5 7.5t38.5 18.5t25 23.5t9 22.5v344q7 1 11.5 1h6.5q30 0 48.5 -15t18.5 -53v-408h-85v44q-20 -23 -56 -41t-93 -18q-58 0 -90 18t-47.5 46t-18.5 61.5
t-3 64.5v300zM129 681q12 3 20 3q12 0 20.5 -6.5t14.5 -23.5q13 -35 32 -48.5t51 -13.5q33 0 50.5 13t31.5 48q13 31 37 31q8 0 18 -3t17 -8q-14 -63 -51 -101.5t-103 -38.5q-67 0 -104 36t-52 105q5 4 18 7z" />
    <glyph glyph-name="Uring" unicode="&#x16e;" horiz-adv-x="637" 
d="M74 670q6 1 13 1.5t12 0.5q10 0 21 -2.5t20 -9t15 -19t6 -32.5v-355q0 -42 7.5 -77t25 -60.5t47 -39.5t74.5 -14q69 0 106.5 26t48.5 86q6 33 6 79v416q6 1 13 1.5t12 0.5q10 0 21 -2.5t20 -9t15 -19t6 -32.5v-343q0 -20 -0.5 -41t-2.5 -40q-4 -42 -19.5 -78.5
t-45.5 -63.5t-74.5 -42.5t-107.5 -15.5q-108 0 -162.5 48t-70.5 133q-4 21 -5 46t-1 51v407zM244 728q-13 15 -20.5 34.5t-7.5 41.5q0 46 28.5 78t77.5 32t77.5 -30t28.5 -79q0 -45 -28.5 -77t-77.5 -32q-48 0 -78 32zM322 745q26 0 40 17.5t14 41.5q0 23 -11.5 42.5
t-43.5 19.5q-27 0 -39.5 -19t-12.5 -42q0 -24 13.5 -42t39.5 -18z" />
    <glyph glyph-name="uring" unicode="&#x16f;" horiz-adv-x="537" 
d="M70 475q7 1 11.5 1h6.5q30 0 48.5 -15t18.5 -53v-233q0 -39 5.5 -62t22.5 -35q15 -11 32.5 -15t40.5 -4q27 0 49.5 7.5t38.5 18.5t25 23.5t9 22.5v344q7 1 11.5 1h6.5q30 0 48.5 -15t18.5 -53v-408h-85v44q-20 -23 -56 -41t-93 -18q-58 0 -90 18t-47.5 46t-18.5 61.5
t-3 64.5v300zM187 565q-13 15 -20.5 34.5t-7.5 41.5q0 46 28.5 78t77.5 32t77.5 -30t28.5 -79q0 -45 -28.5 -77t-77.5 -32q-48 0 -78 32zM265 582q26 0 40 17.5t14 41.5q0 23 -11.5 42.5t-43.5 19.5q-27 0 -39.5 -19t-12.5 -42q0 -24 13.5 -42t39.5 -18z" />
    <glyph glyph-name="Uhungarumlaut" unicode="&#x170;" horiz-adv-x="637" 
d="M74 670q6 1 13 1.5t12 0.5q10 0 21 -2.5t20 -9t15 -19t6 -32.5v-355q0 -42 7.5 -77t25 -60.5t47 -39.5t74.5 -14q69 0 106.5 26t48.5 86q6 33 6 79v416q6 1 13 1.5t12 0.5q10 0 21 -2.5t20 -9t15 -19t6 -32.5v-343q0 -20 -0.5 -41t-2.5 -40q-4 -42 -19.5 -78.5
t-45.5 -63.5t-74.5 -42.5t-107.5 -15.5q-108 0 -162.5 48t-70.5 133q-4 21 -5 46t-1 51v407zM307 844q20 14 34 14q15 0 28 -12.5t23 -26.5l-122 -78q-11 -7 -24 -13.5t-24 -6.5t-23.5 7.5t-19.5 18.5zM482 844q19 14 34 14t28 -12.5t23 -26.5l-122 -78q-11 -7 -24 -13.5
t-24 -6.5t-23.5 7.5t-19.5 18.5z" />
    <glyph glyph-name="uhungarumlaut" unicode="&#x171;" horiz-adv-x="537" 
d="M70 475q7 1 11.5 1h6.5q30 0 48.5 -15t18.5 -53v-233q0 -39 5.5 -62t22.5 -35q15 -11 32.5 -15t40.5 -4q27 0 49.5 7.5t38.5 18.5t25 23.5t9 22.5v344q7 1 11.5 1h6.5q30 0 48.5 -15t18.5 -53v-408h-85v44q-20 -23 -56 -41t-93 -18q-58 0 -90 18t-47.5 46t-18.5 61.5
t-3 64.5v300zM244 664q11 15 22.5 24.5t29.5 9.5q14 0 28 -7t25 -16l-99 -106q-12 -13 -25.5 -22t-28.5 -9q-11 0 -19.5 5t-16.5 11zM402 664q11 15 22.5 24.5t30.5 9.5q14 0 27.5 -7t24.5 -16l-99 -109q-11 -12 -23.5 -20t-29.5 -8q-11 0 -20 4.5t-17 10.5z" />
    <glyph glyph-name="Uogonek" unicode="&#x172;" horiz-adv-x="637" 
d="M313 -15q-108 0 -162.5 48t-70.5 133q-4 21 -5 46t-1 51v407q6 1 13 1.5t12 0.5q10 0 21 -2.5t20 -9t15 -19t6 -32.5v-355q0 -42 7.5 -77t25 -60.5t47 -39.5t74.5 -14q69 0 106.5 26t48.5 86q6 33 6 79v416q6 1 13 1.5t12 0.5q10 0 21 -2.5t20 -9t15 -19t6 -32.5v-343
q0 -20 -0.5 -41t-2.5 -40q-6 -64 -39 -112.5t-99 -71.5v-1q-14 -11 -27.5 -25.5t-24.5 -30t-18 -31.5t-7 -31q0 -35 31 -35q17 0 28.5 7.5t19.5 15.5q8 -8 14 -18.5t6 -21.5t-7 -18.5t-17.5 -13t-24 -8t-26.5 -2.5q-39 0 -64 20.5t-25 65.5q0 24 9 47t22 42l18 22h-16z" />
    <glyph glyph-name="uogonek" unicode="&#x173;" horiz-adv-x="537" 
d="M70 475q7 1 11.5 1h6.5q30 0 48.5 -15t18.5 -53v-233q0 -39 5.5 -62t22.5 -35q15 -11 32.5 -15t40.5 -4q27 0 49.5 7.5t38.5 18.5t25 23.5t9 22.5v344q7 1 11.5 1h6.5q30 0 48.5 -15t18.5 -53v-408q-14 -11 -27.5 -25.5t-24.5 -30t-18 -31.5t-7 -31q0 -35 31 -35
q17 0 28.5 7.5t19.5 15.5q8 -8 14 -18.5t6 -21.5t-7 -18.5t-17.5 -13t-24 -8t-26.5 -2.5q-39 0 -64 20.5t-25 65.5q0 36 19 69t41 53l5 4h-8v44q-20 -23 -56 -41t-93 -18q-58 0 -90 18t-47.5 46t-18.5 61.5t-3 64.5v300z" />
    <glyph glyph-name="Wcircumflex" unicode="&#x174;" horiz-adv-x="878" 
d="M11 666q7 2 19 4t25 2q27 0 42 -14.5t23 -40.5l161 -519l123 413l-43 156q10 2 20 3.5t21 1.5q46 0 63 -56l146 -514l153 513q8 27 22.5 42t40.5 15q18 0 40 -5l-213 -672h-87l-124 405l-123 -405h-87zM378 835q24 29 50 29q25 0 48 -27l87 -103q-8 -5 -18 -9t-19 -4
q-12 0 -22.5 5.5t-23.5 16.5l-54 47l-53 -48q-9 -9 -19 -15t-24 -6q-9 0 -19 4.5t-18 11.5z" />
    <glyph glyph-name="wcircumflex" unicode="&#x175;" horiz-adv-x="694" 
d="M15 466q11 3 21.5 5t22.5 2q47 0 63 -52l103 -330l96 235l-51 141q19 6 40 6q45 0 62 -48l120 -335l82 317q7 27 21 46.5t43 19.5q19 0 41 -8l-143 -469h-85l-94 243l-103 -243h-76zM287 666q10 13 22 20.5t28 7.5t26.5 -6.5t21.5 -20.5l92 -120q-8 -5 -17 -8.5t-20 -3.5
q-24 0 -45 22l-59 64l-59 -66q-17 -20 -42 -20q-9 0 -18.5 3.5t-17.5 11.5z" />
    <glyph glyph-name="Ycircumflex" unicode="&#x176;" horiz-adv-x="524" 
d="M218 275l-215 387q9 5 23 8t29 3q24 0 38 -10t25 -31l145 -275l145 267q11 20 26.5 34t40.5 14q11 0 22 -2t24 -6l-215 -387v-277h-88v275zM215 835q24 29 50 29q25 0 48 -27l87 -103q-8 -5 -18 -9t-19 -4q-12 0 -22.5 5.5t-23.5 16.5l-54 47l-53 -48q-9 -9 -19 -15
t-24 -6q-9 0 -19 4.5t-18 11.5z" />
    <glyph glyph-name="ycircumflex" unicode="&#x177;" horiz-adv-x="466" 
d="M209 1h-34l-162 464q22 8 44 8q26 0 42 -16t24 -41l110 -341l110 332q3 11 8 22.5t13.5 21.5t20.5 16t29 6q20 0 37 -9l-182 -529q-11 -32 -24 -61t-32 -50.5t-46.5 -34.5t-66.5 -13q-38 0 -63.5 11t-25.5 34q0 14 7.5 29t15.5 26q8 -7 24.5 -16.5t41.5 -9.5
q35 0 56.5 26t38.5 80zM187 666q10 13 22 20.5t28 7.5t26.5 -6.5t21.5 -20.5l92 -120q-8 -5 -17 -8.5t-20 -3.5q-24 0 -45 22l-59 64l-59 -66q-17 -20 -42 -20q-9 0 -18.5 3.5t-17.5 11.5z" />
    <glyph glyph-name="Ydieresis" unicode="&#x178;" horiz-adv-x="524" 
d="M218 275l-215 387q9 5 23 8t29 3q24 0 38 -10t25 -31l145 -275l145 267q11 20 26.5 34t40.5 14q11 0 22 -2t24 -6l-215 -387v-277h-88v275zM136 746q-14 16 -14 38q0 23 14.5 38.5t36.5 15.5t36.5 -15.5t14.5 -38.5t-14 -38t-37 -15q-24 0 -37 15zM315 746q-14 16 -14 38
q0 23 14.5 38.5t36.5 15.5t36.5 -15.5t14.5 -38.5t-14 -38t-37 -15q-24 0 -37 15z" />
    <glyph glyph-name="Zacute" unicode="&#x179;" horiz-adv-x="521" 
d="M15 64l370 530h-341q-3 13 -3 28q0 19 15 33t46 14h358q17 0 26.5 -7.5t9.5 -26.5v-28l-376 -532h320q31 0 46 -15.5t15 -37.5q0 -13 -3 -22h-483v64zM302 832q16 13 28.5 19.5t26.5 6.5q17 0 33.5 -12t25.5 -27l-121 -78q-14 -8 -25.5 -13t-22.5 -5q-12 0 -26.5 8.5
t-21.5 17.5z" />
    <glyph glyph-name="zacute" unicode="&#x17a;" horiz-adv-x="428" 
d="M30 62l259 337h-255q0 37 15.5 55.5t50.5 18.5h254q42 0 42 -35v-24l-264 -340h207q34 0 50 -16t16 -58h-375v62zM250 664q11 15 22.5 25t30.5 10q14 0 30 -7.5t27 -16.5l-101 -109q-11 -13 -23.5 -20.5t-27.5 -7.5q-11 0 -22.5 5t-19.5 11z" />
    <glyph glyph-name="Zdotaccent" unicode="&#x17b;" horiz-adv-x="521" 
d="M15 64l370 530h-341q-3 13 -3 28q0 19 15 33t46 14h358q17 0 26.5 -7.5t9.5 -26.5v-28l-376 -532h320q31 0 46 -15.5t15 -37.5q0 -13 -3 -22h-483v64zM240 746q-15 18 -15 42q0 26 15.5 43.5t38.5 17.5t39 -17.5t16 -43.5q0 -24 -16 -41.5t-39 -17.5q-22 0 -39 17z" />
    <glyph glyph-name="zdotaccent" unicode="&#x17c;" horiz-adv-x="428" 
d="M30 62l259 337h-255q0 37 15.5 55.5t50.5 18.5h254q42 0 42 -35v-24l-264 -340h207q34 0 50 -16t16 -58h-375v62zM190 560q-15 16 -15 42t15.5 43.5t38.5 17.5t39 -17.5t16 -43.5q0 -25 -16 -42t-39 -17q-22 0 -39 17z" />
    <glyph glyph-name="Zcaron" unicode="&#x17d;" horiz-adv-x="521" 
d="M15 64l370 530h-341q-3 13 -3 28q0 19 15 33t46 14h358q17 0 26.5 -7.5t9.5 -26.5v-28l-376 -532h320q31 0 46 -15.5t15 -37.5q0 -13 -3 -22h-483v64zM146 848q8 7 18 11.5t19 4.5q14 0 24 -6t19 -15l53 -48l54 47q13 11 23.5 16.5t22.5 5.5q9 0 19 -4t18 -9l-87 -103
q-23 -27 -48 -27q-26 0 -50 29z" />
    <glyph glyph-name="zcaron" unicode="&#x17e;" horiz-adv-x="428" 
d="M30 62l259 337h-255q0 37 15.5 55.5t50.5 18.5h254q42 0 42 -35v-24l-264 -340h207q34 0 50 -16t16 -58h-375v62zM94 672q8 8 17.5 11.5t18.5 3.5q25 0 42 -20l59 -66l59 64q21 22 45 22q11 0 20 -3.5t17 -8.5l-92 -120q-11 -14 -21.5 -20.5t-26.5 -6.5t-28 7.5t-22 20.5
z" />
    <glyph glyph-name="longs" unicode="&#x17f;" horiz-adv-x="297" 
d="M73 522q0 97 45 146t130 49q31 0 57 -7t44.5 -17t28.5 -21.5t10 -21.5q0 -14 -8 -27.5t-17 -24.5h-13q-17 21 -41.5 33.5t-55.5 12.5q-45 0 -70 -24.5t-25 -84.5v-535h-85v522z" />
    <glyph glyph-name="florin" unicode="&#x192;" horiz-adv-x="549" 
d="M214 368h-100v71h117l19 77q12 46 33 78t48 51.5t57 28t60 8.5q18 0 31 -5t13 -25q0 -8 -1.5 -20t-6.5 -23q-37 -1 -63 -7t-44.5 -20t-30.5 -37.5t-20 -59.5l-10 -46h158v-71l-174 3l-67 -308q-19 -85 -69.5 -130.5t-129.5 -45.5q-18 0 -30.5 6.5t-12.5 26.5q0 8 1.5 18
t6.5 22q63 0 102 27t53 95z" />
    <glyph glyph-name="Scommaaccent" unicode="&#x218;" horiz-adv-x="496" 
d="M392 561q-20 16 -55 30t-80 14q-35 0 -58.5 -8.5t-38 -22t-21 -32t-6.5 -37.5q0 -25 10 -43t29 -31.5t46 -24.5t62 -22q34 -11 66 -26.5t56 -38.5t38.5 -55t14.5 -75q0 -50 -16.5 -88t-46.5 -64t-71.5 -39t-91.5 -13q-55 0 -102.5 12t-74.5 32q-25 16 -25 37q0 11 9 28
t21 32q32 -26 76.5 -45.5t95.5 -19.5q39 0 65 10t41.5 26t22.5 36.5t7 42.5q0 29 -8.5 49.5t-25 35.5t-41.5 26.5t-57 21.5q-37 11 -71 24.5t-60.5 35t-42.5 52.5t-16 77q0 45 16.5 79.5t45 57.5t67.5 35t85 12q37 0 79.5 -9.5t72.5 -27.5q16 -10 27 -21.5t11 -26.5
q0 -12 -9.5 -26t-23.5 -28q-4 4 -9.5 8.5t-12.5 9.5zM180 -104q8 20 20 33t36 13q11 0 23 -3t20 -7l-68 -126q-7 -12 -18.5 -20t-28.5 -8q-6 0 -15.5 2t-14.5 5z" />
    <glyph glyph-name="scommaaccent" unicode="&#x219;" horiz-adv-x="419" 
d="M331 360q-17 21 -49.5 36.5t-69.5 15.5q-13 0 -28.5 -2.5t-29 -9t-22.5 -18.5t-9 -30q0 -16 7.5 -27t21 -19t31.5 -13.5t39 -10.5q30 -7 58 -17.5t49.5 -27t34 -41.5t12.5 -62t-15 -64.5t-40 -46t-58.5 -28t-69.5 -9.5q-35 0 -63 5.5t-47 13.5q-25 10 -35 20.5t-10 21.5
q0 13 7 27t18 32q7 -6 19.5 -14.5t30 -17t38.5 -14t45 -5.5q18 0 35 3.5t30.5 11.5t22 22t8.5 35t-9 34.5t-24 22.5t-33.5 14.5t-37.5 9.5q-29 6 -55.5 15.5t-47 25.5t-33 39.5t-12.5 58.5q0 33 14 58.5t38 42t54.5 25t63.5 8.5q38 0 69.5 -8t50.5 -19q20 -11 27 -20.5
t7 -18.5q0 -11 -5.5 -25.5t-13.5 -28.5zM142 -104q8 20 20 33t36 13q11 0 23 -3t20 -7l-68 -126q-7 -12 -18.5 -20t-28.5 -8q-6 0 -15.5 2t-14.5 5z" />
    <glyph glyph-name="uni021A" unicode="&#x21a;" horiz-adv-x="540" 
d="M223 593h-212q-3 13 -3 28q0 19 15.5 33.5t45.5 14.5h459q1 -5 1.5 -12.5t0.5 -10.5q0 -22 -15 -37.5t-46 -15.5h-158v-593h-88v593zM202 -104q8 20 20 33t36 13q11 0 23 -3t20 -7l-68 -126q-7 -12 -18.5 -20t-28.5 -8q-6 0 -15.5 2t-14.5 5z" />
    <glyph glyph-name="uni021B" unicode="&#x21b;" horiz-adv-x="356" 
d="M72 614q7 1 11.5 1h6.5q30 0 48.5 -15t18.5 -53v-77h149v-72h-149v-258q0 -82 65 -82q16 0 30 5.5t25.5 13t18.5 14.5t9 10q12 -15 20.5 -29t8.5 -27q0 -9 -9 -19.5t-25 -19.5t-39.5 -15t-51.5 -6q-52 0 -83 20t-44 55q-7 19 -8.5 41.5t-1.5 44.5v468zM143 -104
q8 20 20 33t36 13q11 0 23 -3t20 -7l-68 -126q-7 -12 -18.5 -20t-28.5 -8q-6 0 -15.5 2t-14.5 5z" />
    <glyph glyph-name="dotlessj" unicode="&#x237;" horiz-adv-x="234" 
d="M82 475h7q2 0 4.5 0.5t4.5 0.5q29 0 48 -14.5t19 -53.5v-455q0 -60 -15.5 -95t-37 -53.5t-45 -23.5t-39.5 -5q-17 0 -27 6t-15 15.5t-6 22t-1 25.5q60 2 80.5 27.5t20.5 79.5z" />
    <glyph glyph-name="apostrophe" unicode="&#x2bc;" horiz-adv-x="210" 
d="M56 499q-26 0 -36 27q18 8 37 26t24 39q-10 7 -23.5 20.5t-13.5 33.5t13.5 35.5t37.5 15.5q27 0 40.5 -18t13.5 -44q0 -20 -5 -39t-14 -35.5t-21 -30t-25 -22.5q-14 -8 -28 -8z" />
    <glyph glyph-name="circumflex" unicode="&#x2c6;" horiz-adv-x="377" 
d="M139 666q10 13 22 20.5t28 7.5t26.5 -6.5t21.5 -20.5l92 -120q-8 -5 -17 -8.5t-20 -3.5q-24 0 -45 22l-59 64l-59 -66q-17 -20 -42 -20q-9 0 -18.5 3.5t-17.5 11.5z" />
    <glyph glyph-name="caron" unicode="&#x2c7;" horiz-adv-x="377" 
d="M51 672q8 8 17.5 11.5t18.5 3.5q25 0 42 -20l59 -66l59 64q21 22 45 22q11 0 20 -3.5t17 -8.5l-92 -120q-11 -14 -21.5 -20.5t-26.5 -6.5t-28 7.5t-22 20.5z" />
    <glyph glyph-name="uni02C9" unicode="&#x2c9;" horiz-adv-x="369" 
d="M281 640q23 0 37.5 -8t14.5 -35q0 -8 -0.5 -14t-1.5 -11h-255q-24 0 -35 9t-11 32q0 14 4 27h247z" />
    <glyph glyph-name="breve" unicode="&#x2d8;" horiz-adv-x="373" 
d="M48 681q12 3 20 3q12 0 20.5 -6.5t14.5 -23.5q13 -35 32 -48.5t51 -13.5q33 0 50.5 13t31.5 48q13 31 37 31q8 0 18 -3t17 -8q-14 -63 -51 -101.5t-103 -38.5q-67 0 -104 36t-52 105q5 4 18 7z" />
    <glyph glyph-name="dotaccent" unicode="&#x2d9;" horiz-adv-x="359" 
d="M140 560q-15 16 -15 42t15.5 43.5t38.5 17.5t39 -17.5t16 -43.5q0 -25 -16 -42t-39 -17q-22 0 -39 17z" />
    <glyph glyph-name="ring" unicode="&#x2da;" horiz-adv-x="361" 
d="M102 565q-13 15 -20.5 34.5t-7.5 41.5q0 46 28.5 78t77.5 32t77.5 -30t28.5 -79q0 -45 -28.5 -77t-77.5 -32q-48 0 -78 32zM180 582q26 0 40 17.5t14 41.5q0 23 -11.5 42.5t-43.5 19.5q-27 0 -39.5 -19t-12.5 -42q0 -24 13.5 -42t39.5 -18z" />
    <glyph glyph-name="ogonek" unicode="&#x2db;" horiz-adv-x="365" 
d="M242 13v-13q-14 -11 -27.5 -25.5t-24.5 -30t-18 -31.5t-7 -31q0 -35 31 -35q17 0 28.5 7.5t19.5 15.5q8 -8 14 -18.5t6 -21.5t-7 -18.5t-17.5 -13t-24 -8t-26.5 -2.5q-39 0 -64 20.5t-25 65.5q0 25 9 47.5t22.5 41t29 33t27.5 22.5z" />
    <glyph glyph-name="tilde" unicode="&#x2dc;" horiz-adv-x="383" 
d="M41 561q-9 10 -9 22q0 10 7 19.5t18 17.5q17 14 37 21.5t39 7.5q18 0 32.5 -5t27.5 -11q14 -7 28 -12t31 -5q20 0 34.5 12t28.5 34q11 -7 23 -18.5t12 -23.5q0 -13 -12 -28q-13 -16 -33.5 -27.5t-47.5 -11.5q-20 0 -37 5.5t-33 12.5q-14 6 -27.5 10.5t-28.5 4.5
q-20 0 -37.5 -12t-33.5 -31z" />
    <glyph glyph-name="hungarumlaut" unicode="&#x2dd;" horiz-adv-x="390" 
d="M122 664q11 15 22.5 24.5t29.5 9.5q14 0 28 -7t25 -16l-99 -106q-12 -13 -25.5 -22t-28.5 -9q-11 0 -19.5 5t-16.5 11zM280 664q11 15 22.5 24.5t30.5 9.5q14 0 27.5 -7t24.5 -16l-99 -109q-11 -12 -23.5 -20t-29.5 -8q-11 0 -20 4.5t-17 10.5z" />
    <glyph glyph-name="uni0394" unicode="&#x394;" horiz-adv-x="617" 
d="M304 570l-175 -495h352zM602 0h-588l245 664q8 4 21.5 7t27.5 3q16 0 32.5 -8t25.5 -34z" />
    <glyph glyph-name="Omega" unicode="&#x3a9;" horiz-adv-x="706" 
d="M411 0v72q64 45 102.5 115.5t38.5 167.5q0 56 -12.5 102t-37.5 79t-62.5 51t-87.5 18q-48 0 -85.5 -18.5t-63 -51.5t-39 -79t-13.5 -102q0 -97 39.5 -166.5t102.5 -115.5v-72h-185q-33 0 -47 16t-14 39q0 5 0.5 10t1.5 11h138q-24 20 -47 47.5t-40.5 62.5t-28.5 77.5
t-11 93.5q0 69 20 128.5t58 103t92 68.5t123 25q70 0 124 -24t91 -67t56 -102t19 -129q0 -51 -10.5 -94t-28 -78t-40.5 -63t-48 -49h80q33 0 47 -16t14 -39q0 -5 -0.5 -10t-1.5 -11h-244z" />
    <glyph glyph-name="uni03BC" unicode="&#x3bc;" horiz-adv-x="539" 
d="M74 475q7 1 11.5 1h6.5q30 0 48.5 -15t18.5 -53v-224q0 -60 23 -91.5t85 -31.5q23 0 44 6.5t36.5 16.5t25 21.5t9.5 20.5v349q7 1 11.5 1h6.5q30 0 48.5 -15t18.5 -53v-287q0 -24 2.5 -40t9.5 -25.5t20 -13.5t34 -4v-32q-13 -5 -27.5 -8.5t-29.5 -3.5q-36 0 -58 16.5
t-29 41.5q-20 -25 -51.5 -43t-76.5 -18q-34 0 -61 9t-45 31v-249h-81v693z" />
    <glyph glyph-name="pi" unicode="&#x3c0;" horiz-adv-x="562" 
d="M373 398h-189v-398h-85v398h-87v72h534v-72h-88v-277q0 -24 3 -40t11.5 -25.5t24 -13.5t40.5 -4v-32q-16 -6 -33 -9t-38 -3q-29 0 -47 8t-28.5 23t-14 36t-3.5 46v291z" />
    <glyph glyph-name="Wgrave" unicode="&#x1e80;" horiz-adv-x="878" 
d="M11 666q7 2 19 4t25 2q27 0 42 -14.5t23 -40.5l161 -519l123 413l-43 156q10 2 20 3.5t21 1.5q46 0 63 -56l146 -514l153 513q8 27 22.5 42t40.5 15q18 0 40 -5l-213 -672h-87l-124 405l-123 -405h-87zM268 819q9 15 25.5 27t33.5 12q14 0 26.5 -6.5t28.5 -19.5l103 -83
q-7 -9 -20.5 -17.5t-27.5 -8.5q-11 0 -22.5 5t-25.5 13z" />
    <glyph glyph-name="wgrave" unicode="&#x1e81;" horiz-adv-x="694" 
d="M15 466q11 3 21.5 5t22.5 2q47 0 63 -52l103 -330l96 235l-51 141q19 6 40 6q45 0 62 -48l120 -335l82 317q7 27 21 46.5t43 19.5q19 0 41 -8l-143 -469h-85l-94 243l-103 -243h-76zM197 675q11 9 27 16.5t30 7.5q19 0 30.5 -10t22.5 -25l84 -110q-8 -6 -19.5 -11
t-22.5 -5q-15 0 -27.5 7.5t-23.5 20.5z" />
    <glyph glyph-name="Wacute" unicode="&#x1e82;" horiz-adv-x="878" 
d="M11 666q7 2 19 4t25 2q27 0 42 -14.5t23 -40.5l161 -519l123 413l-43 156q10 2 20 3.5t21 1.5q46 0 63 -56l146 -514l153 513q8 27 22.5 42t40.5 15q18 0 40 -5l-213 -672h-87l-124 405l-123 -405h-87zM437 832q16 13 28.5 19.5t26.5 6.5q17 0 33.5 -12t25.5 -27
l-121 -78q-14 -8 -25.5 -13t-22.5 -5q-12 0 -26.5 8.5t-21.5 17.5z" />
    <glyph glyph-name="wacute" unicode="&#x1e83;" horiz-adv-x="694" 
d="M15 466q11 3 21.5 5t22.5 2q47 0 63 -52l103 -330l96 235l-51 141q19 6 40 6q45 0 62 -48l120 -335l82 317q7 27 21 46.5t43 19.5q19 0 41 -8l-143 -469h-85l-94 243l-103 -243h-76zM325 664q11 15 22.5 25t30.5 10q14 0 30 -7.5t27 -16.5l-101 -109q-11 -13 -23.5 -20.5
t-27.5 -7.5q-11 0 -22.5 5t-19.5 11z" />
    <glyph glyph-name="Wdieresis" unicode="&#x1e84;" horiz-adv-x="878" 
d="M11 666q7 2 19 4t25 2q27 0 42 -14.5t23 -40.5l161 -519l123 413l-43 156q10 2 20 3.5t21 1.5q46 0 63 -56l146 -514l153 513q8 27 22.5 42t40.5 15q18 0 40 -5l-213 -672h-87l-124 405l-123 -405h-87zM310 746q-14 16 -14 38q0 23 14.5 38.5t36.5 15.5t36.5 -15.5
t14.5 -38.5t-14 -38t-37 -15q-24 0 -37 15zM489 746q-14 16 -14 38q0 23 14.5 38.5t36.5 15.5t36.5 -15.5t14.5 -38.5t-14 -38t-37 -15q-24 0 -37 15z" />
    <glyph glyph-name="wdieresis" unicode="&#x1e85;" horiz-adv-x="694" 
d="M15 466q11 3 21.5 5t22.5 2q47 0 63 -52l103 -330l96 235l-51 141q19 6 40 6q45 0 62 -48l120 -335l82 317q7 27 21 46.5t43 19.5q19 0 41 -8l-143 -469h-85l-94 243l-103 -243h-76zM218 570q-14 16 -14 38q0 23 14.5 38.5t36.5 15.5t36.5 -15.5t14.5 -38.5t-14 -38
t-37 -15q-24 0 -37 15zM397 570q-14 16 -14 38q0 23 14.5 38.5t36.5 15.5t36.5 -15.5t14.5 -38.5t-14 -38t-37 -15q-24 0 -37 15z" />
    <glyph glyph-name="Ygrave" unicode="&#x1ef2;" horiz-adv-x="524" 
d="M218 275l-215 387q9 5 23 8t29 3q24 0 38 -10t25 -31l145 -275l145 267q11 20 26.5 34t40.5 14q11 0 22 -2t24 -6l-215 -387v-277h-88v275zM117 819q9 15 25.5 27t33.5 12q14 0 26.5 -6.5t28.5 -19.5l103 -83q-7 -9 -20.5 -17.5t-27.5 -8.5q-11 0 -22.5 5t-25.5 13z" />
    <glyph glyph-name="ygrave" unicode="&#x1ef3;" horiz-adv-x="466" 
d="M209 1h-34l-162 464q22 8 44 8q26 0 42 -16t24 -41l110 -341l110 332q3 11 8 22.5t13.5 21.5t20.5 16t29 6q20 0 37 -9l-182 -529q-11 -32 -24 -61t-32 -50.5t-46.5 -34.5t-66.5 -13q-38 0 -63.5 11t-25.5 34q0 14 7.5 29t15.5 26q8 -7 24.5 -16.5t41.5 -9.5
q35 0 56.5 26t38.5 80zM104 675q11 9 27 16.5t30 7.5q19 0 30.5 -10t22.5 -25l84 -110q-8 -6 -19.5 -11t-22.5 -5q-15 0 -27.5 7.5t-23.5 20.5z" />
    <glyph glyph-name="endash" unicode="&#x2013;" horiz-adv-x="500" 
d="M444 311q9 0 18.5 -0.5t17.5 -5t13.5 -14t5.5 -27.5q0 -5 -0.5 -10.5t-0.5 -9.5q-1 -3 -1 -9h-445q-20 0 -35.5 9.5t-15.5 38.5v10.5t1 9.5q0 5 1 8h441z" />
    <glyph glyph-name="emdash" unicode="&#x2014;" horiz-adv-x="1000" 
d="M941 311q9 0 18.5 -0.5t17.5 -5t13.5 -14t5.5 -27.5q0 -11 -0.5 -17.5t-1.5 -11.5h-939q-21 0 -36 9.5t-15 38.5q0 11 0.5 19.5t1.5 8.5h935z" />
    <glyph glyph-name="quoteleft" unicode="&#x2018;" horiz-adv-x="241" 
d="M152 637q-21 -21 -25 -44q11 -8 25 -23t14 -38t-14 -40t-40 -17q-29 0 -43 20.5t-14 49.5q0 22 5.5 44t14.5 41t21.5 33.5t27.5 23.5q16 10 32 10q25 0 35 -31q-19 -7 -39 -29z" />
    <glyph glyph-name="quoteright" unicode="&#x2019;" horiz-adv-x="241" 
d="M85 474q-25 0 -35 30q9 4 19.5 11.5t19.5 17.5t15.5 21t9.5 23q-11 8 -25 23.5t-14 38.5t14 40t40 17q29 0 43 -20.5t14 -49.5q0 -23 -5.5 -45t-14.5 -41t-21.5 -34t-27.5 -23q-8 -4 -16 -6.5t-16 -2.5z" />
    <glyph glyph-name="quotesinglbase" unicode="&#x201a;" horiz-adv-x="226" 
d="M70 -117q-25 0 -35 31q9 4 19.5 11.5t19.5 17.5t15.5 21t9.5 23q-12 8 -25.5 23t-13.5 38t14 40.5t40 17.5q29 0 43 -20.5t14 -49.5q0 -23 -5.5 -45t-14.5 -41t-21.5 -33.5t-27.5 -23.5q-16 -10 -32 -10z" />
    <glyph glyph-name="quotedblleft" unicode="&#x201c;" horiz-adv-x="415" 
d="M326 637q-21 -21 -25 -44q11 -8 25 -23t14 -38t-14 -40t-40 -17q-29 0 -43 20.5t-14 49.5q0 22 5.5 44t14.5 41t21.5 33.5t27.5 23.5q16 10 32 10q25 0 35 -31q-19 -7 -39 -29zM152 637q-21 -21 -25 -44q11 -8 25 -23t14 -38t-14 -40t-40 -17q-29 0 -43 20.5t-14 49.5
q0 22 5.5 44t14.5 41t21.5 33.5t27.5 23.5q16 10 32 10q25 0 35 -31q-19 -7 -39 -29z" />
    <glyph glyph-name="quotedblright" unicode="&#x201d;" horiz-adv-x="415" 
d="M259 474q-25 0 -35 30q9 4 19.5 11.5t19.5 17.5t15.5 21t9.5 23q-11 8 -25 23.5t-14 38.5t14 40t40 17q29 0 43 -20.5t14 -49.5q0 -23 -5.5 -45t-14.5 -41t-21.5 -34t-27.5 -23q-8 -4 -16 -6.5t-16 -2.5zM85 474q-25 0 -35 30q9 4 19.5 11.5t19.5 17.5t15.5 21t9.5 23
q-11 8 -25 23.5t-14 38.5t14 40t40 17q29 0 43 -20.5t14 -49.5q0 -23 -5.5 -45t-14.5 -41t-21.5 -34t-27.5 -23q-8 -4 -16 -6.5t-16 -2.5z" />
    <glyph glyph-name="quotedblbase" unicode="&#x201e;" horiz-adv-x="400" 
d="M244 -117q-25 0 -35 31q9 4 19.5 11.5t19.5 17.5t15.5 21t9.5 23q-12 8 -25.5 23t-13.5 38t14 40.5t40 17.5q29 0 43 -20.5t14 -49.5q0 -23 -5.5 -45t-14.5 -41t-21.5 -33.5t-27.5 -23.5q-16 -10 -32 -10zM70 -117q-25 0 -35 31q9 4 19.5 11.5t19.5 17.5t15.5 21t9.5 23
q-12 8 -25.5 23t-13.5 38t14 40.5t40 17.5q29 0 43 -20.5t14 -49.5q0 -23 -5.5 -45t-14.5 -41t-21.5 -33.5t-27.5 -23.5q-16 -10 -32 -10z" />
    <glyph glyph-name="dagger" unicode="&#x2020;" horiz-adv-x="449" 
d="M179 400h-90q-19 0 -30 5t-17 12.5t-8 16t-2 14.5v7t1 10l2 13h144v192q4 0 7 1q3 0 6.5 0.5t7.5 0.5q8 0 18.5 -2t19.5 -8.5t15 -18.5t6 -31v-134h98q35 0 47.5 -15t12.5 -35q0 -2 -0.5 -6.5t-1.5 -9.5q-1 -3 -1 -12h-155v-518h-80v518z" />
    <glyph glyph-name="daggerdbl" unicode="&#x2021;" horiz-adv-x="449" 
d="M179 87h-90q-19 0 -30 6t-17 14.5t-8 17.5t-2 16q0 5 0.5 11.5t1.5 12.5h145v237h-90q-19 0 -30 6t-17 14.5t-8 18t-2 16.5q0 6 0.5 12t1.5 12h145v189q4 0 7 1q3 0 6.5 0.5t7.5 0.5q8 0 18 -2t18.5 -8.5t14.5 -18.5t6 -31v-131h99q36 0 48.5 -14.5t12.5 -32.5
q0 -11 -1 -19t-2 -13h-157v-237h99q21 0 33.5 -6t18.5 -14t7.5 -17t1.5 -16q0 -6 -1 -13.5t-2 -11.5h-157v-204h-78v204z" />
    <glyph glyph-name="bullet" unicode="&#x2022;" horiz-adv-x="383" 
d="M98 258q-35 37 -35 92q0 27 9 51t26 41.5t40.5 28t52.5 10.5q28 0 52 -10.5t41 -28t26.5 -41.5t9.5 -51t-9.5 -50.5t-27 -41t-41 -28t-51.5 -10.5q-29 0 -52.5 10.5t-40.5 27.5z" />
    <glyph glyph-name="ellipsis" unicode="&#x2026;" horiz-adv-x="595" 
d="M258 3q-16 17 -16 44q0 26 16.5 44t40.5 18q25 0 41.5 -18t16.5 -44t-16 -44t-42 -18q-25 0 -41 18zM451 3q-16 17 -16 44q0 26 16.5 44t40.5 18q25 0 41.5 -18t16.5 -44t-16 -44t-42 -18q-25 0 -41 18zM62 3q-16 17 -16 44q0 26 16.5 44t40.5 18q25 0 41.5 -18t16.5 -44
t-16 -44t-42 -18q-25 0 -41 18z" />
    <glyph glyph-name="perthousand" unicode="&#x2030;" horiz-adv-x="1182" 
d="M863 30q-40 44 -40 132q0 43 11.5 76t31.5 55t47.5 33.5t60.5 11.5q70 0 110.5 -44t40.5 -132t-41.5 -132.5t-108.5 -44.5q-72 0 -112 45zM974 48q44 0 61 31.5t17 83.5q0 51 -16.5 81.5t-61.5 30.5q-43 0 -60 -31t-17 -82t17.5 -82.5t59.5 -31.5zM88 374q-40 46 -40 132
q0 88 42.5 132t108.5 44q152 0 152 -176q0 -87 -42 -132t-109 -45q-72 0 -112 45zM508 30q-40 44 -40 132q0 43 11.5 76t31.5 55t47.5 33.5t60.5 11.5q70 0 110.5 -44t40.5 -132t-41.5 -132.5t-108.5 -44.5q-72 0 -112 45zM619 48q44 0 61 31.5t17 83.5q0 51 -16.5 81.5
t-61.5 30.5q-43 0 -60 -31t-17 -82t17.5 -82.5t59.5 -31.5zM199 393q44 0 61 31t17 83q0 51 -16.5 81.5t-61.5 30.5q-42 0 -59 -31t-17 -82t17 -82t59 -31zM570 644q9 14 24 26.5t40 12.5q10 0 18.5 -1t13.5 -3l11 -3l-451 -676h-86z" />
    <glyph glyph-name="guilsinglleft" unicode="&#x2039;" horiz-adv-x="295" 
d="M87 214q-14 13 -23 28t-9 33q0 17 10.5 32.5t24.5 28.5l129 121q9 -10 15 -23t6 -24q0 -24 -15 -42l-82 -93l79 -93q10 -12 13.5 -23t3.5 -22t-5 -24t-12 -22z" />
    <glyph glyph-name="guilsinglright" unicode="&#x203a;" horiz-adv-x="295" 
d="M73 91q-7 9 -12 22t-5 24t3.5 22t13.5 23l79 93l-82 93q-15 18 -15 42q0 11 6 24t15 23l129 -121q14 -13 24.5 -28.5t10.5 -32.5q0 -18 -9 -33t-23 -28z" />
    <glyph glyph-name="fraction" unicode="&#x2044;" horiz-adv-x="117" 
d="M184 643q10 18 24.5 28.5t39.5 10.5q18 0 27 -4l7 -3l-373 -675h-82z" />
    <glyph glyph-name="zerosuperior" unicode="&#x2070;" 
d="M54 347q-38 50 -38 139q0 97 41.5 146.5t107.5 49.5q72 0 111.5 -48t39.5 -148q0 -93 -41 -140.5t-110 -47.5q-72 0 -111 49zM129 370q13 -10 35 -10q44 0 61.5 36t17.5 91q0 58 -17 95.5t-61 37.5q-21 0 -35.5 -10.5t-23 -28.5t-12.5 -42.5t-4 -52.5q0 -40 9 -70.5
t30 -45.5z" />
    <glyph glyph-name="foursuperior" unicode="&#x2074;" 
d="M34 426l149 225q8 12 19 22.5t26 10.5q8 0 17 -2.5t16 -7.5v-240h14q33 0 33 -33q0 -2 -0.5 -5.5t-1.5 -8.5l-2 -10h-43v-71h-68v71h-159v49zM193 434v148l-97 -148h97z" />
    <glyph glyph-name="fivesuperior" unicode="&#x2075;" 
d="M73 679h204v-7q0 -3 0.5 -6.5t0.5 -5.5q0 -23 -11 -31.5t-34 -8.5h-109l-6 -72q7 2 20 4t27 2q24 0 46.5 -6.5t40 -21t28 -37.5t10.5 -56q0 -57 -33 -95.5t-102 -38.5q-32 0 -56.5 7.5t-38.5 15.5q-16 10 -19.5 17t-3.5 16q0 10 7 22.5t17 25.5q12 -13 36 -28.5t57 -15.5
q12 0 24 3t21.5 11t15.5 21.5t6 34.5q0 22 -7 35.5t-17.5 21.5t-24 11t-26.5 3q-20 0 -36.5 -4.5t-31.5 -9.5l-21 10z" />
    <glyph glyph-name="sixsuperior" unicode="&#x2076;" 
d="M234 626q-26 0 -47 -7.5t-37 -20t-26 -28t-15 -31.5q30 24 74 24q29 0 50 -10.5t35 -28t20.5 -41t6.5 -48.5q0 -66 -35.5 -101.5t-92.5 -35.5q-66 0 -100 43.5t-34 118.5q0 51 14.5 89.5t38 65.5t53 43t58.5 22q8 2 16.5 2.5t13.5 0.5q20 0 26.5 -9t6.5 -22
q0 -6 -1.5 -15t-2.5 -11h-22zM99 453q0 -17 3.5 -34.5t11.5 -31.5t21.5 -23t34.5 -9q27 0 43.5 19.5t16.5 57.5q0 36 -14.5 56.5t-46.5 20.5q-20 0 -39.5 -6.5t-28.5 -12.5q-1 -2 -1 -6t-1 -10v-21z" />
    <glyph glyph-name="sevensuperior" unicode="&#x2077;" 
d="M209 613h-174q-1 4 -1 10q-1 4 -1 8v8q0 17 11.5 27.5t31.5 10.5h188q14 0 21.5 -5t7.5 -21v-17l-158 -329h-73z" />
    <glyph glyph-name="eightsuperior" unicode="&#x2078;" 
d="M54 538q-11 20 -11 43q0 26 10 45t26.5 32t38.5 19t46 6t46.5 -5.5t40 -17.5t27.5 -31t10 -45t-12 -45.5t-32 -32.5q25 -14 40.5 -37t15.5 -55q0 -57 -39.5 -86.5t-96.5 -29.5q-60 0 -98 27t-38 85q0 32 17 56.5t42 38.5q-23 13 -33 33zM112 367q19 -16 52 -16
q32 0 51.5 17t19.5 46t-18.5 45t-52.5 16q-33 0 -52 -16.5t-19 -45.5q0 -30 19 -46zM122 544q17 -14 42 -14q26 0 43 14.5t17 35.5q0 26 -17 39t-43 13q-25 0 -42 -13.5t-17 -37.5q0 -23 17 -37z" />
    <glyph glyph-name="ninesuperior" unicode="&#x2079;" 
d="M93 354q24 0 44 7t36 18.5t26.5 26.5t16.5 31q-12 -9 -30 -14.5t-38 -5.5q-28 0 -49.5 10t-35.5 27.5t-21.5 40.5t-7.5 49q0 66 36.5 102.5t91.5 36.5q66 0 99 -43.5t33 -115.5q0 -60 -16.5 -102.5t-42.5 -70t-60 -40.5t-68 -13q-21 0 -30 6.5t-9 22.5v10t1 9q0 6 1 9
q4 -1 11 -1h12zM164 470q30 0 44 7.5t17 12.5q2 5 2.5 18.5t0.5 22.5q0 17 -3.5 34t-11 30.5t-20.5 22t-32 8.5q-30 0 -46 -21t-16 -57q0 -78 65 -78z" />
    <glyph glyph-name="zeroinferior" unicode="&#x2080;" 
d="M54 42q-38 50 -38 139q0 97 41.5 146.5t107.5 49.5q72 0 111.5 -48t39.5 -148q0 -93 -41 -140.5t-110 -47.5q-72 0 -111 49zM129 65q13 -10 35 -10q44 0 61.5 36t17.5 91q0 58 -17 95.5t-61 37.5q-21 0 -35.5 -10.5t-23 -28.5t-12.5 -42.5t-4 -52.5q0 -40 9 -70.5
t30 -45.5z" />
    <glyph glyph-name="oneinferior" unicode="&#x2081;" 
d="M163 291l-92 -47q-7 9 -14.5 23t-7.5 22q0 15 20 26l88 49q11 6 21 10.5t20 4.5q22 0 35 -10v-368h-70v290z" />
    <glyph glyph-name="twoinferior" unicode="&#x2082;" 
d="M51 54q24 20 53 49t52 56q24 28 39.5 53.5t15.5 53.5q0 26 -15.5 39t-43.5 13q-27 0 -46.5 -13t-30.5 -26h-11q-11 11 -17 20t-6 19q0 8 3.5 13t9.5 10q5 4 15 10.5t24 12.5t31 10t36 4q54 0 87 -26t33 -84q0 -40 -21.5 -75.5t-49.5 -67.5q-15 -17 -29.5 -32t-29.5 -29
h102q8 0 16 -1t14 -5t10 -12t4 -22q0 -4 -0.5 -7.5t-0.5 -7.5v-8h-244v53z" />
    <glyph glyph-name="threeinferior" unicode="&#x2083;" 
d="M121 225h33q7 0 17 1.5t19.5 7t16 15t6.5 25.5q0 45 -55 45q-29 0 -48.5 -11.5t-32.5 -24.5h-13q-8 10 -14 19t-6 17t7.5 16.5t19.5 16.5q15 11 38 18.5t55 7.5q63 0 91 -27t28 -70q0 -35 -15 -55t-31 -29q9 -5 18.5 -12t17.5 -17t13.5 -24.5t5.5 -33.5q0 -51 -33.5 -84
t-100.5 -33q-29 0 -54 7.5t-39 17.5q-15 11 -20 18.5t-5 16.5q0 12 9.5 25t16.5 21q14 -16 37 -30.5t52 -14.5q12 0 23.5 2.5t21.5 8.5t16 17.5t6 29.5q0 19 -8.5 30.5t-19.5 16.5t-23 6.5t-18 1.5h-32v58z" />
    <glyph glyph-name="fourinferior" unicode="&#x2084;" 
d="M34 121l149 225q8 12 19 22.5t26 10.5q8 0 17 -2.5t16 -7.5v-240h14q33 0 33 -33q0 -2 -0.5 -5.5t-1.5 -8.5l-2 -10h-43v-71h-68v71h-159v49zM193 129v148l-97 -148h97z" />
    <glyph glyph-name="fiveinferior" unicode="&#x2085;" 
d="M80 374h204v-7q0 -3 0.5 -6.5t0.5 -5.5q0 -23 -11 -31.5t-34 -8.5h-109l-6 -72q7 2 20 4t27 2q24 0 46.5 -6.5t40 -21t28 -37.5t10.5 -56q0 -57 -33 -95.5t-102 -38.5q-32 0 -56.5 7.5t-38.5 15.5q-16 10 -19.5 17t-3.5 16q0 10 7 22.5t17 25.5q12 -13 36 -28.5t57 -15.5
q12 0 24 3t21.5 11t15.5 21.5t6 34.5q0 22 -7 35.5t-17.5 21.5t-24 11t-26.5 3q-20 0 -36.5 -4.5t-31.5 -9.5l-21 10z" />
    <glyph glyph-name="sixinferior" unicode="&#x2086;" 
d="M244 321q-26 0 -47 -7.5t-37 -20t-26 -28t-15 -31.5q30 24 74 24q29 0 50 -10.5t35 -28t20.5 -41t6.5 -48.5q0 -66 -35.5 -101.5t-92.5 -35.5q-66 0 -100 43.5t-34 118.5q0 51 14.5 89.5t38 65.5t53 43t58.5 22q8 2 16.5 2.5t13.5 0.5q20 0 26.5 -9t6.5 -22
q0 -6 -1.5 -15t-2.5 -11h-22zM109 148q0 -17 3.5 -34.5t11.5 -31.5t21.5 -23t34.5 -9q27 0 43.5 19.5t16.5 57.5q0 36 -14.5 56.5t-46.5 20.5q-20 0 -39.5 -6.5t-28.5 -12.5q-1 -2 -1 -6t-1 -10v-21z" />
    <glyph glyph-name="seveninferior" unicode="&#x2087;" 
d="M209 309h-174q-1 4 -1 10q-1 4 -1 8v8q0 17 11.5 27.5t31.5 10.5h188q14 0 21.5 -5t7.5 -21v-17l-158 -329h-73z" />
    <glyph glyph-name="eightinferior" unicode="&#x2088;" 
d="M53 233q-11 20 -11 43q0 26 10 45t26.5 32t38.5 19t46 6t46.5 -5.5t40 -17.5t27.5 -31t10 -45t-12 -45.5t-32 -32.5q25 -14 40.5 -37t15.5 -55q0 -57 -39.5 -86.5t-96.5 -29.5q-60 0 -98 27t-38 85q0 32 17 56.5t42 38.5q-23 13 -33 33zM111 62q19 -16 52 -16
q32 0 51.5 17t19.5 46t-18.5 45t-52.5 16q-33 0 -52 -16.5t-19 -45.5q0 -30 19 -46zM121 239q17 -14 42 -14q26 0 43 14.5t17 35.5q0 26 -17 39t-43 13q-25 0 -42 -13.5t-17 -37.5q0 -23 17 -37z" />
    <glyph glyph-name="nineinferior" unicode="&#x2089;" 
d="M94 49q24 0 44 7t36 18.5t26.5 26.5t16.5 31q-12 -9 -30 -14.5t-38 -5.5q-28 0 -49.5 10t-35.5 27.5t-21.5 40.5t-7.5 49q0 66 36.5 102.5t91.5 36.5q66 0 99 -43.5t33 -115.5q0 -60 -16.5 -102.5t-42.5 -70t-60 -40.5t-68 -13q-21 0 -30 6.5t-9 22.5v10t1 9q0 6 1 9
q4 -1 11 -1h12zM165 165q30 0 44 7.5t17 12.5q2 5 2.5 18.5t0.5 22.5q0 17 -3.5 34t-11 30.5t-20.5 22t-32 8.5q-30 0 -46 -21t-16 -57q0 -78 65 -78z" />
    <glyph glyph-name="Euro" unicode="&#x20ac;" horiz-adv-x="549" 
d="M28 285h70q-1 8 -1 24v42q0 10 1 19h-70v53h76q10 55 32 100t55.5 77.5t77.5 50.5t98 18q37 0 69.5 -8.5t57 -21.5t38.5 -28.5t14 -29.5q0 -10 -9.5 -26t-17.5 -24h-13q-7 8 -18 18.5t-27.5 20.5t-39.5 16.5t-53 6.5q-39 0 -69 -13t-51.5 -35.5t-35 -53t-19.5 -65.5h241
v-56h-249v-60q0 -16 2 -25h247v-57h-240q7 -36 20 -67t34 -54t50 -36t68 -13q55 3 84.5 21.5t54.5 48.5q4 -5 10 -13l12 -16q6 -8 10 -16.5t4 -14.5q0 -18 -30 -42q-23 -17 -62.5 -28.5t-88.5 -11.5q-64 0 -109.5 21t-75.5 55.5t-46.5 78t-23.5 87.5h-77v57z" />
    <glyph glyph-name="afii61289" unicode="&#x2113;" horiz-adv-x="456" 
d="M180 289q54 60 85.5 123.5t31.5 132.5q0 48 -16 67.5t-38 19.5q-26 0 -44.5 -33t-18.5 -109v-201zM180 190q0 -41 6 -66.5t16.5 -39.5t25 -19.5t31.5 -5.5q32 0 61.5 16.5t45.5 39.5l19.5 -19.5t20.5 -18.5q-27 -40 -65.5 -63t-90.5 -23q-70 0 -108 39.5t-38 127.5
q-13 -10 -24.5 -18t-24.5 -17q-5 11 -11.5 22t-13.5 22q19 13 37 27.5t36 30.5v212q0 71 9.5 119.5t28 78t45 42.5t61.5 13q51 0 84 -37.5t33 -106.5q0 -91 -48 -172.5t-136 -163.5v-20z" />
    <glyph glyph-name="trademark" unicode="&#x2122;" horiz-adv-x="787" 
d="M379 662q7 5 16 6.5t17 1.5q13 0 24.5 -7t16.5 -20l93 -225l93 224q7 16 19.5 22t24.5 6q6 0 15 -1.5t16 -6.5l18 -364h-63l-11 244l-83 -187h-61l-80 182l-13 -239h-65zM133 608h-113q-2 7 -2.5 14t-0.5 10q0 14 7 25.5t33 11.5h258q4 -9 4 -23t-8.5 -26t-35.5 -12h-75
v-310h-67v310z" />
    <glyph glyph-name="uni2126" unicode="&#x2126;" horiz-adv-x="706" 
d="M411 0v72q64 45 102.5 115.5t38.5 167.5q0 56 -12.5 102t-37.5 79t-62.5 51t-87.5 18q-48 0 -85.5 -18.5t-63 -51.5t-39 -79t-13.5 -102q0 -97 39.5 -166.5t102.5 -115.5v-72h-185q-33 0 -47 16t-14 39q0 5 0.5 10t1.5 11h138q-24 20 -47 47.5t-40.5 62.5t-28.5 77.5
t-11 93.5q0 69 20 128.5t58 103t92 68.5t123 25q70 0 124 -24t91 -67t56 -102t19 -129q0 -51 -10.5 -94t-28 -78t-40.5 -63t-48 -49h80q33 0 47 -16t14 -39q0 -5 -0.5 -10t-1.5 -11h-244z" />
    <glyph glyph-name="estimated" unicode="&#x212e;" horiz-adv-x="742" 
d="M187 110q75 -75 183 -75q79 0 137.5 35.5t106.5 116.5l44 -26q-29 -45 -59 -77.5t-64 -53.5t-74.5 -30.5t-90.5 -9.5q-75 0 -135 27.5t-102.5 74.5t-65.5 111t-23 137t23 137t65.5 111.5t102.5 74.5t135 27q73 0 133 -26t103 -72.5t67 -111t25 -140.5h-511v-230zM187 386
h368v183q-79 76 -186 76q-109 0 -182 -76v-183z" />
    <glyph glyph-name="onethird" unicode="&#x2153;" horiz-adv-x="810" 
d="M138 596l-92 -47q-7 9 -14.5 23t-7.5 22q0 15 20 26l88 49q11 6 21 10.5t20 4.5q22 0 35 -10v-368h-70v290zM509 643q10 18 24.5 28.5t39.5 10.5q18 0 27 -4l7 -3l-373 -675h-82zM586 224h33q7 0 17 1.5t19.5 7t16 15t6.5 25.5q0 45 -55 45q-29 0 -48.5 -11.5
t-32.5 -24.5h-13q-8 10 -14 19t-6 17t7.5 16.5t19.5 16.5q15 11 38 18.5t55 7.5q63 0 91 -27t28 -70q0 -35 -15 -55t-31 -29q9 -5 18.5 -12t17.5 -17t13.5 -24.5t5.5 -33.5q0 -51 -33.5 -84t-100.5 -33q-29 0 -54 7.5t-39 17.5q-15 11 -20 18.5t-5 16.5q0 12 9.5 25t16.5 21
q14 -16 37 -30.5t52 -14.5q12 0 23.5 2.5t21.5 8.5t16 17.5t6 29.5q0 19 -8.5 30.5t-19.5 16.5t-23 6.5t-18 1.5h-32v58z" />
    <glyph glyph-name="twothirds" unicode="&#x2154;" horiz-adv-x="810" 
d="M63 359q24 20 53 49t52 56q24 28 39.5 53.5t15.5 53.5q0 26 -15.5 39t-43.5 13q-27 0 -46.5 -13t-30.5 -26h-11q-11 11 -17 20t-6 19q0 8 3.5 13t9.5 10q5 4 15 10.5t24 12.5t31 10t36 4q54 0 87 -26t33 -84q0 -40 -21.5 -75.5t-49.5 -67.5q-15 -17 -29.5 -32t-29.5 -29
h102q8 0 16 -1t14 -5t10 -12t4 -22q0 -4 -0.5 -7.5t-0.5 -7.5v-8h-244v53zM595 223h33q7 0 17 1.5t19.5 7t16 15t6.5 25.5q0 45 -55 45q-29 0 -48.5 -11.5t-32.5 -24.5h-13q-8 10 -14 19t-6 17t7.5 16.5t19.5 16.5q15 11 38 18.5t55 7.5q63 0 91 -27t28 -70q0 -35 -15 -55
t-31 -29q9 -5 18.5 -12t17.5 -17t13.5 -24.5t5.5 -33.5q0 -51 -33.5 -84t-100.5 -33q-29 0 -54 7.5t-39 17.5q-15 11 -20 18.5t-5 16.5q0 12 9.5 25t16.5 21q14 -16 37 -30.5t52 -14.5q12 0 23.5 2.5t21.5 8.5t16 17.5t6 29.5q0 19 -8.5 30.5t-19.5 16.5t-23 6.5t-18 1.5
h-32v58zM554 643q10 18 24.5 28.5t39.5 10.5q18 0 27 -4l7 -3l-373 -675h-82z" />
    <glyph glyph-name="onefifth" unicode="&#x2155;" horiz-adv-x="810" 
d="M129 596l-92 -47q-7 9 -14.5 23t-7.5 22q0 15 20 26l88 49q11 6 21 10.5t20 4.5q22 0 35 -10v-368h-70v290zM497 643q10 18 24.5 28.5t39.5 10.5q18 0 27 -4l7 -3l-373 -675h-82zM528 373h204v-7q0 -3 0.5 -6.5t0.5 -5.5q0 -23 -11 -31.5t-34 -8.5h-109l-6 -72q7 2 20 4
t27 2q24 0 46.5 -6.5t40 -21t28 -37.5t10.5 -56q0 -57 -33 -95.5t-102 -38.5q-32 0 -56.5 7.5t-38.5 15.5q-16 10 -19.5 17t-3.5 16q0 10 7 22.5t17 25.5q12 -13 36 -28.5t57 -15.5q12 0 24 3t21.5 11t15.5 21.5t6 34.5q0 22 -7 35.5t-17.5 21.5t-24 11t-26.5 3
q-20 0 -36.5 -4.5t-31.5 -9.5l-21 10z" />
    <glyph glyph-name="twofifths" unicode="&#x2156;" horiz-adv-x="810" 
d="M547 643q10 18 24.5 28.5t39.5 10.5q18 0 27 -4l7 -3l-373 -675h-82zM56 359q24 20 53 49t52 56q24 28 39.5 53.5t15.5 53.5q0 26 -15.5 39t-43.5 13q-27 0 -46.5 -13t-30.5 -26h-11q-11 11 -17 20t-6 19q0 8 3.5 13t9.5 10q5 4 15 10.5t24 12.5t31 10t36 4q54 0 87 -26
t33 -84q0 -40 -21.5 -75.5t-49.5 -67.5q-15 -17 -29.5 -32t-29.5 -29h102q8 0 16 -1t14 -5t10 -12t4 -22q0 -4 -0.5 -7.5t-0.5 -7.5v-8h-244v53zM553 371h204v-7q0 -3 0.5 -6.5t0.5 -5.5q0 -23 -11 -31.5t-34 -8.5h-109l-6 -72q7 2 20 4t27 2q24 0 46.5 -6.5t40 -21
t28 -37.5t10.5 -56q0 -57 -33 -95.5t-102 -38.5q-32 0 -56.5 7.5t-38.5 15.5q-16 10 -19.5 17t-3.5 16q0 10 7 22.5t17 25.5q12 -13 36 -28.5t57 -15.5q12 0 24 3t21.5 11t15.5 21.5t6 34.5q0 22 -7 35.5t-17.5 21.5t-24 11t-26.5 3q-20 0 -36.5 -4.5t-31.5 -9.5l-21 10z
" />
    <glyph glyph-name="threefifths" unicode="&#x2157;" horiz-adv-x="810" 
d="M539 643q10 18 24.5 28.5t39.5 10.5q18 0 27 -4l7 -3l-373 -675h-82zM137 530h33q7 0 17 1.5t19.5 7t16 15t6.5 25.5q0 45 -55 45q-29 0 -48.5 -11.5t-32.5 -24.5h-13q-8 10 -14 19t-6 17t7.5 16.5t19.5 16.5q15 11 38 18.5t55 7.5q63 0 91 -27t28 -70q0 -35 -15 -55
t-31 -29q9 -5 18.5 -12t17.5 -17t13.5 -24.5t5.5 -33.5q0 -51 -33.5 -84t-100.5 -33q-29 0 -54 7.5t-39 17.5q-15 11 -20 18.5t-5 16.5q0 12 9.5 25t16.5 21q14 -16 37 -30.5t52 -14.5q12 0 23.5 2.5t21.5 8.5t16 17.5t6 29.5q0 19 -8.5 30.5t-19.5 16.5t-23 6.5t-18 1.5
h-32v58zM544 372h204v-7q0 -3 0.5 -6.5t0.5 -5.5q0 -23 -11 -31.5t-34 -8.5h-109l-6 -72q7 2 20 4t27 2q24 0 46.5 -6.5t40 -21t28 -37.5t10.5 -56q0 -57 -33 -95.5t-102 -38.5q-32 0 -56.5 7.5t-38.5 15.5q-16 10 -19.5 17t-3.5 16q0 10 7 22.5t17 25.5q12 -13 36 -28.5
t57 -15.5q12 0 24 3t21.5 11t15.5 21.5t6 34.5q0 22 -7 35.5t-17.5 21.5t-24 11t-26.5 3q-20 0 -36.5 -4.5t-31.5 -9.5l-21 10z" />
    <glyph glyph-name="fourfifths" unicode="&#x2158;" horiz-adv-x="810" 
d="M554 643q10 18 24.5 28.5t39.5 10.5q18 0 27 -4l7 -3l-373 -675h-82zM50 426l149 225q8 12 19 22.5t26 10.5q8 0 17 -2.5t16 -7.5v-240h14q33 0 33 -33q0 -2 -0.5 -5.5t-1.5 -8.5l-2 -10h-43v-71h-68v71h-159v49zM209 434v148l-97 -148h97zM560 373h204v-7q0 -3 0.5 -6.5
t0.5 -5.5q0 -23 -11 -31.5t-34 -8.5h-109l-6 -72q7 2 20 4t27 2q24 0 46.5 -6.5t40 -21t28 -37.5t10.5 -56q0 -57 -33 -95.5t-102 -38.5q-32 0 -56.5 7.5t-38.5 15.5q-16 10 -19.5 17t-3.5 16q0 10 7 22.5t17 25.5q12 -13 36 -28.5t57 -15.5q12 0 24 3t21.5 11t15.5 21.5
t6 34.5q0 22 -7 35.5t-17.5 21.5t-24 11t-26.5 3q-20 0 -36.5 -4.5t-31.5 -9.5l-21 10z" />
    <glyph glyph-name="onesixth" unicode="&#x2159;" horiz-adv-x="810" 
d="M517 643q10 18 24.5 28.5t39.5 10.5q18 0 27 -4l7 -3l-373 -675h-82zM151 596l-92 -47q-7 9 -14.5 23t-7.5 22q0 15 20 26l88 49q11 6 21 10.5t20 4.5q22 0 35 -10v-368h-70v290zM691 319q-26 0 -47 -7.5t-37 -20t-26 -28t-15 -31.5q30 24 74 24q29 0 50 -10.5t35 -28
t20.5 -41t6.5 -48.5q0 -66 -35.5 -101.5t-92.5 -35.5q-66 0 -100 43.5t-34 118.5q0 51 14.5 89.5t38 65.5t53 43t58.5 22q8 2 16.5 2.5t13.5 0.5q20 0 26.5 -9t6.5 -22q0 -6 -1.5 -15t-2.5 -11h-22zM556 146q0 -17 3.5 -34.5t11.5 -31.5t21.5 -23t34.5 -9q27 0 43.5 19.5
t16.5 57.5q0 36 -14.5 56.5t-46.5 20.5q-20 0 -39.5 -6.5t-28.5 -12.5q-1 -2 -1 -6t-1 -10v-21z" />
    <glyph glyph-name="fivesixths" unicode="&#x215a;" horiz-adv-x="810" 
d="M103 679h204v-7q0 -3 0.5 -6.5t0.5 -5.5q0 -23 -11 -31.5t-34 -8.5h-109l-6 -72q7 2 20 4t27 2q24 0 46.5 -6.5t40 -21t28 -37.5t10.5 -56q0 -57 -33 -95.5t-102 -38.5q-32 0 -56.5 7.5t-38.5 15.5q-16 10 -19.5 17t-3.5 16q0 10 7 22.5t17 25.5q12 -13 36 -28.5
t57 -15.5q12 0 24 3t21.5 11t15.5 21.5t6 34.5q0 22 -7 35.5t-17.5 21.5t-24 11t-26.5 3q-20 0 -36.5 -4.5t-31.5 -9.5l-21 10zM553 643q10 18 24.5 28.5t39.5 10.5q18 0 27 -4l7 -3l-373 -675h-82zM696 319q-26 0 -47 -7.5t-37 -20t-26 -28t-15 -31.5q30 24 74 24
q29 0 50 -10.5t35 -28t20.5 -41t6.5 -48.5q0 -66 -35.5 -101.5t-92.5 -35.5q-66 0 -100 43.5t-34 118.5q0 51 14.5 89.5t38 65.5t53 43t58.5 22q8 2 16.5 2.5t13.5 0.5q20 0 26.5 -9t6.5 -22q0 -6 -1.5 -15t-2.5 -11h-22zM561 146q0 -17 3.5 -34.5t11.5 -31.5t21.5 -23
t34.5 -9q27 0 43.5 19.5t16.5 57.5q0 36 -14.5 56.5t-46.5 20.5q-20 0 -39.5 -6.5t-28.5 -12.5q-1 -2 -1 -6t-1 -10v-21z" />
    <glyph glyph-name="oneeighth" unicode="&#x215b;" horiz-adv-x="810" 
d="M137 596l-92 -47q-7 9 -14.5 23t-7.5 22q0 15 20 26l88 49q11 6 21 10.5t20 4.5q22 0 35 -10v-368h-70v290zM491 643q10 18 24.5 28.5t39.5 10.5q18 0 27 -4l7 -3l-373 -675h-82zM504 231q-11 20 -11 43q0 26 10 45t26.5 32t38.5 19t46 6t46.5 -5.5t40 -17.5t27.5 -31
t10 -45t-12 -45.5t-32 -32.5q25 -14 40.5 -37t15.5 -55q0 -57 -39.5 -86.5t-96.5 -29.5q-60 0 -98 27t-38 85q0 32 17 56.5t42 38.5q-23 13 -33 33zM562 60q19 -16 52 -16q32 0 51.5 17t19.5 46t-18.5 45t-52.5 16q-33 0 -52 -16.5t-19 -45.5q0 -30 19 -46zM572 237
q17 -14 42 -14q26 0 43 14.5t17 35.5q0 26 -17 39t-43 13q-25 0 -42 -13.5t-17 -37.5q0 -23 17 -37z" />
    <glyph glyph-name="threeeighths" unicode="&#x215c;" horiz-adv-x="810" 
d="M125 530h33q7 0 17 1.5t19.5 7t16 15t6.5 25.5q0 45 -55 45q-29 0 -48.5 -11.5t-32.5 -24.5h-13q-8 10 -14 19t-6 17t7.5 16.5t19.5 16.5q15 11 38 18.5t55 7.5q63 0 91 -27t28 -70q0 -35 -15 -55t-31 -29q9 -5 18.5 -12t17.5 -17t13.5 -24.5t5.5 -33.5q0 -51 -33.5 -84
t-100.5 -33q-29 0 -54 7.5t-39 17.5q-15 11 -20 18.5t-5 16.5q0 12 9.5 25t16.5 21q14 -16 37 -30.5t52 -14.5q12 0 23.5 2.5t21.5 8.5t16 17.5t6 29.5q0 19 -8.5 30.5t-19.5 16.5t-23 6.5t-18 1.5h-32v58zM537 643q10 18 24.5 28.5t39.5 10.5q18 0 27 -4l7 -3l-373 -675
h-82zM521 231q-11 20 -11 43q0 26 10 45t26.5 32t38.5 19t46 6t46.5 -5.5t40 -17.5t27.5 -31t10 -45t-12 -45.5t-32 -32.5q25 -14 40.5 -37t15.5 -55q0 -57 -39.5 -86.5t-96.5 -29.5q-60 0 -98 27t-38 85q0 32 17 56.5t42 38.5q-23 13 -33 33zM579 60q19 -16 52 -16
q32 0 51.5 17t19.5 46t-18.5 45t-52.5 16q-33 0 -52 -16.5t-19 -45.5q0 -30 19 -46zM589 237q17 -14 42 -14q26 0 43 14.5t17 35.5q0 26 -17 39t-43 13q-25 0 -42 -13.5t-17 -37.5q0 -23 17 -37z" />
    <glyph glyph-name="fiveeighths" unicode="&#x215d;" horiz-adv-x="810" 
d="M531 643q10 18 24.5 28.5t39.5 10.5q18 0 27 -4l7 -3l-373 -675h-82zM81 679h204v-7q0 -3 0.5 -6.5t0.5 -5.5q0 -23 -11 -31.5t-34 -8.5h-109l-6 -72q7 2 20 4t27 2q24 0 46.5 -6.5t40 -21t28 -37.5t10.5 -56q0 -57 -33 -95.5t-102 -38.5q-32 0 -56.5 7.5t-38.5 15.5
q-16 10 -19.5 17t-3.5 16q0 10 7 22.5t17 25.5q12 -13 36 -28.5t57 -15.5q12 0 24 3t21.5 11t15.5 21.5t6 34.5q0 22 -7 35.5t-17.5 21.5t-24 11t-26.5 3q-20 0 -36.5 -4.5t-31.5 -9.5l-21 10zM521 230q-11 20 -11 43q0 26 10 45t26.5 32t38.5 19t46 6t46.5 -5.5t40 -17.5
t27.5 -31t10 -45t-12 -45.5t-32 -32.5q25 -14 40.5 -37t15.5 -55q0 -57 -39.5 -86.5t-96.5 -29.5q-60 0 -98 27t-38 85q0 32 17 56.5t42 38.5q-23 13 -33 33zM579 59q19 -16 52 -16q32 0 51.5 17t19.5 46t-18.5 45t-52.5 16q-33 0 -52 -16.5t-19 -45.5q0 -30 19 -46z
M589 236q17 -14 42 -14q26 0 43 14.5t17 35.5q0 26 -17 39t-43 13q-25 0 -42 -13.5t-17 -37.5q0 -23 17 -37z" />
    <glyph glyph-name="seveneighths" unicode="&#x215e;" horiz-adv-x="810" 
d="M482 643q10 18 24.5 28.5t39.5 10.5q18 0 27 -4l7 -3l-373 -675h-82zM229 613h-174q-1 4 -1 10q-1 4 -1 8v8q0 17 11.5 27.5t31.5 10.5h188q14 0 21.5 -5t7.5 -21v-17l-158 -329h-73zM496 231q-11 20 -11 43q0 26 10 45t26.5 32t38.5 19t46 6t46.5 -5.5t40 -17.5
t27.5 -31t10 -45t-12 -45.5t-32 -32.5q25 -14 40.5 -37t15.5 -55q0 -57 -39.5 -86.5t-96.5 -29.5q-60 0 -98 27t-38 85q0 32 17 56.5t42 38.5q-23 13 -33 33zM554 60q19 -16 52 -16q32 0 51.5 17t19.5 46t-18.5 45t-52.5 16q-33 0 -52 -16.5t-19 -45.5q0 -30 19 -46z
M564 237q17 -14 42 -14q26 0 43 14.5t17 35.5q0 26 -17 39t-43 13q-25 0 -42 -13.5t-17 -37.5q0 -23 17 -37z" />
    <glyph glyph-name="partialdiff" unicode="&#x2202;" horiz-adv-x="540" 
d="M118 682q73 -5 140 -31t118 -75t81.5 -123t30.5 -174q0 -72 -16.5 -127t-46 -92.5t-70 -56.5t-87.5 -19q-46 0 -85.5 15.5t-69 47t-46 79t-16.5 111.5q0 58 15.5 104t43.5 78t66.5 49t84.5 17q39 0 65 -7.5t48 -19.5q-16 35 -44 61.5t-63.5 45.5t-77.5 30t-86 16z
M387 384q-25 14 -52 22t-62 8q-60 0 -96.5 -45t-36.5 -133q0 -85 35.5 -130t92.5 -45t95 52.5t38 158.5q0 35 -5 65t-10 47h1z" />
    <glyph glyph-name="Delta" unicode="&#x2206;" horiz-adv-x="617" 
d="M304 570l-175 -495h352zM602 0h-588l245 664q8 4 21.5 7t27.5 3q16 0 32.5 -8t25.5 -34z" />
    <glyph glyph-name="product" unicode="&#x220f;" horiz-adv-x="644" 
d="M101 590h-80v79h602v-79h-80v-712h-88v712h-267v-712h-87v712z" />
    <glyph glyph-name="summation" unicode="&#x2211;" horiz-adv-x="508" 
d="M42 -50l209 338l-207 310v71h427v-77h-322l200 -303l-205 -332h335v-78h-437v71z" />
    <glyph glyph-name="minus" unicode="&#x2212;" horiz-adv-x="549" 
d="M80 378h388v-80h-388v80z" />
    <glyph glyph-name="uni2215" unicode="&#x2215;" horiz-adv-x="381" 
d="M267 630q6 17 20 29.5t37 12.5q16 0 26 -2t17 -5l-269 -665h-86z" />
    <glyph glyph-name="uni2219" unicode="&#x2219;" horiz-adv-x="251" 
d="M93 315q-16 17 -16 44q0 26 16.5 44t40.5 18q25 0 41.5 -18t16.5 -44t-16 -44t-42 -18q-25 0 -41 18z" />
    <glyph glyph-name="radical" unicode="&#x221a;" horiz-adv-x="550" 
d="M122 234h-73v74h120l91 -189l207 606l71 -22l-240 -703h-59z" />
    <glyph glyph-name="infinity" unicode="&#x221e;" horiz-adv-x="598" 
d="M236 213q-35 -23 -67 -23q-33 0 -58 13.5t-41 35.5t-24 51t-8 61q0 78 37 119.5t94 41.5q39 0 71 -22t57 -77q47 98 132 98q27 0 51 -10.5t42 -31t28 -50t10 -68.5q0 -28 -7.5 -56.5t-23.5 -52t-40.5 -38t-58.5 -14.5q-36 0 -69.5 22t-62.5 76q-27 -52 -62 -75zM356 317
q15 -24 33 -41t40 -17q16 0 27.5 8.5t19 21.5t11 29.5t3.5 33.5q0 43 -18.5 67t-44.5 24q-30 0 -50 -27t-37 -65q4 -8 7.5 -17t8.5 -17zM217 416q-20 26 -46 26q-15 0 -26.5 -8t-20 -20.5t-12.5 -29t-4 -33.5q0 -43 18.5 -67.5t43.5 -24.5q17 0 30.5 9.5t24 23.5t18 29.5
t12.5 28.5q-16 39 -38 66z" />
    <glyph glyph-name="integral" unicode="&#x222b;" horiz-adv-x="364" 
d="M0 -116q31 1 55.5 7t41.5 20.5t25.5 39t8.5 62.5v435q0 20 2 40q6 96 59 138.5t156 43.5v-77q-31 0 -55 -6t-40 -20.5t-24.5 -39t-8.5 -61.5v-395q0 -20 -0.5 -40.5t-1.5 -40.5q-5 -97 -60 -139.5t-158 -43.5v77z" />
    <glyph glyph-name="approxequal" unicode="&#x2248;" horiz-adv-x="549" 
d="M38 238q22 14 56 26.5t66 12.5q23 0 55 -6t72 -15q26 -5 50.5 -10.5t47.5 -5.5q27 0 50 8t44 21l33 -61q-20 -15 -54.5 -29t-70.5 -14q-28 0 -56 5.5t-57 13.5t-58.5 13.5t-52.5 5.5q-25 0 -47.5 -8.5t-44.5 -20.5zM38 426q10 7 24.5 14.5t31 13.5t33.5 9.5t33 3.5
q21 0 48 -5t64 -14q30 -8 58.5 -13.5t54.5 -5.5q27 0 50 8t44 21l33 -61q-20 -15 -55 -29t-70 -14q-28 0 -56 5.5t-57 12.5q-35 9 -62.5 14.5t-48.5 5.5q-25 0 -47.5 -8.5t-44.5 -19.5z" />
    <glyph glyph-name="notequal" unicode="&#x2260;" horiz-adv-x="549" 
d="M169 203h-91v79h135l57 102h-192v80h235l64 114l51 -28l-47 -86h89v-80h-133l-57 -102h190v-79l-232 2l-66 -118l-52 27z" />
    <glyph glyph-name="lessequal" unicode="&#x2264;" horiz-adv-x="549" 
d="M81 389l385 169v-88l-270 -120l271 -118v-89l-386 170v76zM81 80h386v-81h-386v81z" />
    <glyph glyph-name="greaterequal" unicode="&#x2265;" horiz-adv-x="549" 
d="M81 232l272 121l-271 112v93l385 -169v-77l-386 -169v89zM81 80h386v-81h-386v81z" />
    <glyph glyph-name="lozenge" unicode="&#x25ca;" horiz-adv-x="542" 
d="M59 357l211 364l213 -364l-213 -375zM403 357l-133 229l-130 -228l133 -244z" />
    <glyph glyph-name="fi" unicode="&#xf001;" horiz-adv-x="532" 
d="M73 519q0 97 48.5 147.5t142.5 50.5q37 0 67.5 -7.5t52 -18.5t33.5 -24t12 -25q0 -11 -8 -25t-16 -25h-15q-16 21 -46.5 36.5t-75.5 15.5q-54 0 -82 -25t-28 -85v-64h291v-372q0 -34 7.5 -47.5t40.5 -13.5v-36q-10 -3 -25.5 -5t-29.5 -2q-29 0 -44.5 9.5t-23 25t-9 35.5
t-1.5 41v292h-206v-397h-85v519z" />
    <glyph glyph-name="fl" unicode="&#xf002;" horiz-adv-x="541" 
d="M73 520q0 17 2 33t4 28q14 68 66 102t126 34q32 0 61 -5t53 -13t42.5 -17t30.5 -18v-561q0 -18 0.5 -30.5t5 -20.5t14.5 -11.5t28 -3.5v-36q-9 -3 -24 -5t-29 -2q-29 0 -45 8.5t-23.5 23.5t-9.5 35.5t-2 43.5v516h1q-18 8 -46.5 15t-57.5 7q-54 0 -82.5 -24t-28.5 -84
v-65h154v-73h-154v-397h-86v520z" />
    <glyph glyph-name="oneseventh" unicode="&#xf506;" horiz-adv-x="810" 
d="M489 643q10 18 24.5 28.5t39.5 10.5q18 0 27 -4l7 -3l-373 -675h-82zM137 596l-92 -47q-7 9 -14.5 23t-7.5 22q0 15 20 26l88 49q11 6 21 10.5t20 4.5q22 0 35 -10v-368h-70v290zM678 309h-174q-1 4 -1 10q-1 4 -1 8v8q0 17 11.5 27.5t31.5 10.5h188q14 0 21.5 -5
t7.5 -21v-17l-158 -329h-73z" />
    <glyph glyph-name="twosevenths" unicode="&#xf507;" horiz-adv-x="810" 
d="M549 643q10 18 24.5 28.5t39.5 10.5q18 0 27 -4l7 -3l-373 -675h-82zM54 359q24 20 53 49t52 56q24 28 39.5 53.5t15.5 53.5q0 26 -15.5 39t-43.5 13q-27 0 -46.5 -13t-30.5 -26h-11q-11 11 -17 20t-6 19q0 8 3.5 13t9.5 10q5 4 15 10.5t24 12.5t31 10t36 4q54 0 87 -26
t33 -84q0 -40 -21.5 -75.5t-49.5 -67.5q-15 -17 -29.5 -32t-29.5 -29h102q8 0 16 -1t14 -5t10 -12t4 -22q0 -4 -0.5 -7.5t-0.5 -7.5v-8h-244v53zM697 309h-174q-1 4 -1 10q-1 4 -1 8v8q0 17 11.5 27.5t31.5 10.5h188q14 0 21.5 -5t7.5 -21v-17l-158 -329h-73z" />
    <glyph glyph-name="threesevenths" unicode="&#xf508;" horiz-adv-x="810" 
d="M524 643q10 18 24.5 28.5t39.5 10.5q18 0 27 -4l7 -3l-373 -675h-82zM126 530h33q7 0 17 1.5t19.5 7t16 15t6.5 25.5q0 45 -55 45q-29 0 -48.5 -11.5t-32.5 -24.5h-13q-8 10 -14 19t-6 17t7.5 16.5t19.5 16.5q15 11 38 18.5t55 7.5q63 0 91 -27t28 -70q0 -35 -15 -55
t-31 -29q9 -5 18.5 -12t17.5 -17t13.5 -24.5t5.5 -33.5q0 -51 -33.5 -84t-100.5 -33q-29 0 -54 7.5t-39 17.5q-15 11 -20 18.5t-5 16.5q0 12 9.5 25t16.5 21q14 -16 37 -30.5t52 -14.5q12 0 23.5 2.5t21.5 8.5t16 17.5t6 29.5q0 19 -8.5 30.5t-19.5 16.5t-23 6.5t-18 1.5
h-32v58zM688 309h-174q-1 4 -1 10q-1 4 -1 8v8q0 17 11.5 27.5t31.5 10.5h188q14 0 21.5 -5t7.5 -21v-17l-158 -329h-73z" />
    <glyph glyph-name="foursevenths" unicode="&#xf509;" horiz-adv-x="810" 
d="M538 643q10 18 24.5 28.5t39.5 10.5q18 0 27 -4l7 -3l-373 -675h-82zM42 426l149 225q8 12 19 22.5t26 10.5q8 0 17 -2.5t16 -7.5v-240h14q33 0 33 -33q0 -2 -0.5 -5.5t-1.5 -8.5l-2 -10h-43v-71h-68v71h-159v49zM201 434v148l-97 -148h97zM696 309h-174q-1 4 -1 10
q-1 4 -1 8v8q0 17 11.5 27.5t31.5 10.5h188q14 0 21.5 -5t7.5 -21v-17l-158 -329h-73z" />
    <glyph glyph-name="fivesevenths" unicode="&#xf50a;" horiz-adv-x="810" 
d="M525 643q10 18 24.5 28.5t39.5 10.5q18 0 27 -4l7 -3l-373 -675h-82zM80 679h204v-7q0 -3 0.5 -6.5t0.5 -5.5q0 -23 -11 -31.5t-34 -8.5h-109l-6 -72q7 2 20 4t27 2q24 0 46.5 -6.5t40 -21t28 -37.5t10.5 -56q0 -57 -33 -95.5t-102 -38.5q-32 0 -56.5 7.5t-38.5 15.5
q-16 10 -19.5 17t-3.5 16q0 10 7 22.5t17 25.5q12 -13 36 -28.5t57 -15.5q12 0 24 3t21.5 11t15.5 21.5t6 34.5q0 22 -7 35.5t-17.5 21.5t-24 11t-26.5 3q-20 0 -36.5 -4.5t-31.5 -9.5l-21 10zM693 309h-174q-1 4 -1 10q-1 4 -1 8v8q0 17 11.5 27.5t31.5 10.5h188
q14 0 21.5 -5t7.5 -21v-17l-158 -329h-73z" />
    <glyph glyph-name="sixsevenths" unicode="&#xf50b;" horiz-adv-x="810" 
d="M527 643q10 18 24.5 28.5t39.5 10.5q18 0 27 -4l7 -3l-373 -675h-82zM244 626q-26 0 -47 -7.5t-37 -20t-26 -28t-15 -31.5q30 24 74 24q29 0 50 -10.5t35 -28t20.5 -41t6.5 -48.5q0 -66 -35.5 -101.5t-92.5 -35.5q-66 0 -100 43.5t-34 118.5q0 51 14.5 89.5t38 65.5
t53 43t58.5 22q8 2 16.5 2.5t13.5 0.5q20 0 26.5 -9t6.5 -22q0 -6 -1.5 -15t-2.5 -11h-22zM109 453q0 -17 3.5 -34.5t11.5 -31.5t21.5 -23t34.5 -9q27 0 43.5 19.5t16.5 57.5q0 36 -14.5 56.5t-46.5 20.5q-20 0 -39.5 -6.5t-28.5 -12.5q-1 -2 -1 -6t-1 -10v-21zM687 309
h-174q-1 4 -1 10q-1 4 -1 8v8q0 17 11.5 27.5t31.5 10.5h188q14 0 21.5 -5t7.5 -21v-17l-158 -329h-73z" />
    <glyph glyph-name="oneninth" unicode="&#xf50c;" horiz-adv-x="810" 
d="M502 643q10 18 24.5 28.5t39.5 10.5q18 0 27 -4l7 -3l-373 -675h-82zM138 596l-92 -47q-7 9 -14.5 23t-7.5 22q0 15 20 26l88 49q11 6 21 10.5t20 4.5q22 0 35 -10v-368h-70v290zM554 43q24 0 44 7t36 18.5t26.5 26.5t16.5 31q-12 -9 -30 -14.5t-38 -5.5q-28 0 -49.5 10
t-35.5 27.5t-21.5 40.5t-7.5 49q0 66 36.5 102.5t91.5 36.5q66 0 99 -43.5t33 -115.5q0 -60 -16.5 -102.5t-42.5 -70t-60 -40.5t-68 -13q-21 0 -30 6.5t-9 22.5v10t1 9q0 6 1 9q4 -1 11 -1h12zM625 159q30 0 44 7.5t17 12.5q2 5 2.5 18.5t0.5 22.5q0 17 -3.5 34t-11 30.5
t-20.5 22t-32 8.5q-30 0 -46 -21t-16 -57q0 -78 65 -78z" />
    <glyph glyph-name="twoninths" unicode="&#xf50d;" horiz-adv-x="810" 
d="M549 643q10 18 24.5 28.5t39.5 10.5q18 0 27 -4l7 -3l-373 -675h-82zM50 359q24 20 53 49t52 56q24 28 39.5 53.5t15.5 53.5q0 26 -15.5 39t-43.5 13q-27 0 -46.5 -13t-30.5 -26h-11q-11 11 -17 20t-6 19q0 8 3.5 13t9.5 10q5 4 15 10.5t24 12.5t31 10t36 4q54 0 87 -26
t33 -84q0 -40 -21.5 -75.5t-49.5 -67.5q-15 -17 -29.5 -32t-29.5 -29h102q8 0 16 -1t14 -5t10 -12t4 -22q0 -4 -0.5 -7.5t-0.5 -7.5v-8h-244v53zM564 43q24 0 44 7t36 18.5t26.5 26.5t16.5 31q-12 -9 -30 -14.5t-38 -5.5q-28 0 -49.5 10t-35.5 27.5t-21.5 40.5t-7.5 49
q0 66 36.5 102.5t91.5 36.5q66 0 99 -43.5t33 -115.5q0 -60 -16.5 -102.5t-42.5 -70t-60 -40.5t-68 -13q-21 0 -30 6.5t-9 22.5v10t1 9q0 6 1 9q4 -1 11 -1h12zM635 159q30 0 44 7.5t17 12.5q2 5 2.5 18.5t0.5 22.5q0 17 -3.5 34t-11 30.5t-20.5 22t-32 8.5q-30 0 -46 -21
t-16 -57q0 -78 65 -78z" />
    <glyph glyph-name="fourninths" unicode="&#xf50e;" horiz-adv-x="810" 
d="M551 643q10 18 24.5 28.5t39.5 10.5q18 0 27 -4l7 -3l-373 -675h-82zM44 426l149 225q8 12 19 22.5t26 10.5q8 0 17 -2.5t16 -7.5v-240h14q33 0 33 -33q0 -2 -0.5 -5.5t-1.5 -8.5l-2 -10h-43v-71h-68v71h-159v49zM203 434v148l-97 -148h97zM575 43q24 0 44 7t36 18.5
t26.5 26.5t16.5 31q-12 -9 -30 -14.5t-38 -5.5q-28 0 -49.5 10t-35.5 27.5t-21.5 40.5t-7.5 49q0 66 36.5 102.5t91.5 36.5q66 0 99 -43.5t33 -115.5q0 -60 -16.5 -102.5t-42.5 -70t-60 -40.5t-68 -13q-21 0 -30 6.5t-9 22.5v10t1 9q0 6 1 9q4 -1 11 -1h12zM646 159
q30 0 44 7.5t17 12.5q2 5 2.5 18.5t0.5 22.5q0 17 -3.5 34t-11 30.5t-20.5 22t-32 8.5q-30 0 -46 -21t-16 -57q0 -78 65 -78z" />
    <glyph glyph-name="fiveninths" unicode="&#xf50f;" horiz-adv-x="810" 
d="M531 643q10 18 24.5 28.5t39.5 10.5q18 0 27 -4l7 -3l-373 -675h-82zM73 679h204v-7q0 -3 0.5 -6.5t0.5 -5.5q0 -23 -11 -31.5t-34 -8.5h-109l-6 -72q7 2 20 4t27 2q24 0 46.5 -6.5t40 -21t28 -37.5t10.5 -56q0 -57 -33 -95.5t-102 -38.5q-32 0 -56.5 7.5t-38.5 15.5
q-16 10 -19.5 17t-3.5 16q0 10 7 22.5t17 25.5q12 -13 36 -28.5t57 -15.5q12 0 24 3t21.5 11t15.5 21.5t6 34.5q0 22 -7 35.5t-17.5 21.5t-24 11t-26.5 3q-20 0 -36.5 -4.5t-31.5 -9.5l-21 10zM570 43q24 0 44 7t36 18.5t26.5 26.5t16.5 31q-12 -9 -30 -14.5t-38 -5.5
q-28 0 -49.5 10t-35.5 27.5t-21.5 40.5t-7.5 49q0 66 36.5 102.5t91.5 36.5q66 0 99 -43.5t33 -115.5q0 -60 -16.5 -102.5t-42.5 -70t-60 -40.5t-68 -13q-21 0 -30 6.5t-9 22.5v10t1 9q0 6 1 9q4 -1 11 -1h12zM641 159q30 0 44 7.5t17 12.5q2 5 2.5 18.5t0.5 22.5
q0 17 -3.5 34t-11 30.5t-20.5 22t-32 8.5q-30 0 -46 -21t-16 -57q0 -78 65 -78z" />
    <glyph glyph-name="sevenninths" unicode="&#xf510;" horiz-adv-x="810" 
d="M497 643q10 18 24.5 28.5t39.5 10.5q18 0 27 -4l7 -3l-373 -675h-82zM231 613h-174q-1 4 -1 10q-1 4 -1 8v8q0 17 11.5 27.5t31.5 10.5h188q14 0 21.5 -5t7.5 -21v-17l-158 -329h-73zM552 43q24 0 44 7t36 18.5t26.5 26.5t16.5 31q-12 -9 -30 -14.5t-38 -5.5
q-28 0 -49.5 10t-35.5 27.5t-21.5 40.5t-7.5 49q0 66 36.5 102.5t91.5 36.5q66 0 99 -43.5t33 -115.5q0 -60 -16.5 -102.5t-42.5 -70t-60 -40.5t-68 -13q-21 0 -30 6.5t-9 22.5v10t1 9q0 6 1 9q4 -1 11 -1h12zM623 159q30 0 44 7.5t17 12.5q2 5 2.5 18.5t0.5 22.5
q0 17 -3.5 34t-11 30.5t-20.5 22t-32 8.5q-30 0 -46 -21t-16 -57q0 -78 65 -78z" />
    <glyph glyph-name="eightninths" unicode="&#xf511;" horiz-adv-x="810" 
d="M545 643q10 18 24.5 28.5t39.5 10.5q18 0 27 -4l7 -3l-373 -675h-82zM76 538q-11 20 -11 43q0 26 10 45t26.5 32t38.5 19t46 6t46.5 -5.5t40 -17.5t27.5 -31t10 -45t-12 -45.5t-32 -32.5q25 -14 40.5 -37t15.5 -55q0 -57 -39.5 -86.5t-96.5 -29.5q-60 0 -98 27t-38 85
q0 32 17 56.5t42 38.5q-23 13 -33 33zM134 367q19 -16 52 -16q32 0 51.5 17t19.5 46t-18.5 45t-52.5 16q-33 0 -52 -16.5t-19 -45.5q0 -30 19 -46zM144 544q17 -14 42 -14q26 0 43 14.5t17 35.5q0 26 -17 39t-43 13q-25 0 -42 -13.5t-17 -37.5q0 -23 17 -37zM571 43
q24 0 44 7t36 18.5t26.5 26.5t16.5 31q-12 -9 -30 -14.5t-38 -5.5q-28 0 -49.5 10t-35.5 27.5t-21.5 40.5t-7.5 49q0 66 36.5 102.5t91.5 36.5q66 0 99 -43.5t33 -115.5q0 -60 -16.5 -102.5t-42.5 -70t-60 -40.5t-68 -13q-21 0 -30 6.5t-9 22.5v10t1 9q0 6 1 9q4 -1 11 -1
h12zM642 159q30 0 44 7.5t17 12.5q2 5 2.5 18.5t0.5 22.5q0 17 -3.5 34t-11 30.5t-20.5 22t-32 8.5q-30 0 -46 -21t-16 -57q0 -78 65 -78z" />
    <glyph glyph-name="zero.alt" unicode="&#xf800;" horiz-adv-x="529" 
d="M89 70q-60 85 -60 256q0 79 15 142.5t45 108t75 68.5t105 24q118 0 174.5 -90t56.5 -253q0 -166 -59.5 -253.5t-174.5 -87.5q-116 0 -177 85zM207 75q28 -14 60 -14q33 0 59 13.5t45 44.5t29 82t10 125q0 75 -10 125.5t-29 81.5t-45 44.5t-59 13.5t-60 -13.5t-46 -44.5
t-29.5 -81.5t-10.5 -125.5q0 -109 22.5 -169.5t63.5 -81.5z" />
    <glyph glyph-name="one.alt" unicode="&#xf801;" horiz-adv-x="375" 
d="M190 557l-140 -73q-8 10 -18 25t-10 28q0 10 6 19t16 14l130 72q19 11 33.5 17t28.5 6q13 0 24 -4.5t16 -9.5v-651h-86v557z" />
    <glyph glyph-name="two.alt" unicode="&#xf802;" horiz-adv-x="500" 
d="M34 70q19 15 45 37t54.5 49t58.5 58t58 64q43 51 69.5 97.5t26.5 100.5q0 33 -9.5 54.5t-26 35t-38 19t-45.5 5.5q-26 0 -49 -8t-41.5 -19.5t-33 -24.5t-24.5 -24h-15q-30 33 -30 51q0 9 5 17t12 14q6 6 22 18t40 24.5t55 21.5t68 9q40 0 76 -10t63 -32t43 -58t16 -88
q0 -77 -37.5 -142t-91.5 -121q-42 -45 -81.5 -82.5t-68.5 -60.5h236q32 0 47 -15.5t15 -37.5q0 -13 -3 -22h-416v70z" />
    <glyph glyph-name="three.alt" unicode="&#xf803;" horiz-adv-x="496" 
d="M177 384h36q13 0 34.5 4t41.5 16t34.5 34t14.5 58q0 96 -114 96q-27 0 -50.5 -7t-42 -17.5t-33 -22.5t-24.5 -22h-13q-15 13 -24 26t-9 23q0 11 10 22.5t23 21.5q28 21 73 37t96 16t88 -12.5t61 -35t35.5 -52.5t11.5 -66q0 -35 -10.5 -60.5t-25.5 -44.5t-32 -30.5
t-29 -17.5q15 -6 34.5 -17t37 -29.5t29.5 -46.5t12 -67q0 -44 -13.5 -81.5t-41.5 -64.5t-70.5 -42.5t-99.5 -15.5q-36 0 -66 5.5t-53 14t-38.5 17t-23.5 14.5q-20 15 -20 33q0 11 10.5 28.5t24.5 36.5q9 -10 24 -23t36 -24t47 -19t57 -8q25 0 49.5 6t44.5 20.5t32.5 39
t12.5 61.5q0 42 -17 66t-40 37t-47 16.5t-37 3.5h-36v73z" />
    <glyph glyph-name="four.alt" unicode="&#xf804;" horiz-adv-x="525" 
d="M41 240l267 373q17 23 33 37t40 14q23 0 37 -10v-409h31q26 0 36.5 -12.5t10.5 -31.5q0 -5 -0.5 -9.5t-1.5 -9.5q-1 -3 -1 -9h-75v-173h-86v173h-291v67zM332 246v288l-209 -288h209z" />
    <glyph glyph-name="five.alt" unicode="&#xf805;" horiz-adv-x="518" 
d="M102 661h330q2 -5 2.5 -10t0.5 -12q0 -36 -17 -46.5t-45 -10.5h-203l-17 -169q13 3 32.5 6.5t45.5 3.5q46 0 87 -11t72.5 -36.5t50 -66.5t18.5 -101q0 -46 -14.5 -86.5t-43 -70.5t-72 -47.5t-100.5 -17.5q-39 0 -69.5 5.5t-52.5 13t-36 15.5t-20 13q-8 6 -14 14.5
t-6 20.5q0 13 9.5 29t23.5 35q9 -10 24.5 -22.5t36.5 -23t48 -18t59 -7.5q25 0 50 8t45 25t32 44t12 65q0 48 -15 76.5t-38.5 44t-51.5 20.5t-54 5q-34 0 -64 -6t-50 -13l-28 13z" />
    <glyph glyph-name="six.alt" unicode="&#xf806;" horiz-adv-x="529" 
d="M174 408q22 14 54 26.5t73 12.5q48 0 82.5 -18.5t57 -49.5t33.5 -71.5t11 -84.5q0 -57 -16 -101.5t-44.5 -75t-67.5 -46t-84 -15.5q-112 0 -166 74t-54 212q0 91 24 160.5t63 118t88 77t99 38.5q15 3 29 4t25 1q44 0 44 -42q0 -20 -3 -33q-8 1 -15 1h-15
q-63 0 -106.5 -24t-71.5 -57.5t-43 -68.5t-20 -56zM139 255q0 -30 5 -64.5t20 -63.5t41.5 -48.5t70.5 -19.5q55 0 87.5 42.5t32.5 115.5q0 33 -6.5 61.5t-20.5 50t-36.5 33.5t-54.5 12q-25 0 -47 -7t-39.5 -16.5t-30.5 -20t-19 -16.5l-3 -28v-31z" />
    <glyph glyph-name="seven.alt" unicode="&#xf807;" horiz-adv-x="468" 
d="M356 580h-333q-1 3 -1 8q-1 4 -1 9v10q0 24 15 39t46 15h338q20 0 29.5 -7t9.5 -27v-24l-286 -603h-94z" />
    <glyph glyph-name="eight.alt" unicode="&#xf808;" horiz-adv-x="548" 
d="M91 408q-24 40 -24 85q0 43 17.5 76t47 55t66.5 33.5t76 11.5q41 0 78.5 -10t66 -31t45.5 -53t17 -76q0 -48 -25.5 -86.5t-70.5 -61.5q27 -9 48.5 -26t37 -39.5t24 -49t8.5 -53.5q0 -51 -18 -88.5t-49 -62t-72.5 -36t-89.5 -11.5q-51 0 -93 11.5t-72.5 35.5t-47 60.5
t-16.5 86.5q0 27 9.5 53.5t25 49t36.5 40t45 27.5q-22 10 -39.5 24.5t-30.5 34.5zM171 88q41 -32 103 -32q63 0 102.5 33.5t39.5 94.5q0 57 -38 92t-104 35q-33 0 -59.5 -10t-45 -27t-28.5 -41t-10 -52q0 -62 40 -93zM187 416q36 -30 87 -30q25 0 47 8.5t38.5 23t26 34
t9.5 42.5q0 25 -9.5 45t-26 33t-38.5 20t-47 7q-51 0 -86.5 -27.5t-35.5 -79.5q0 -23 9.5 -42t25.5 -34z" />
    <glyph glyph-name="nine.alt" unicode="&#xf809;" horiz-adv-x="527" 
d="M138 59q63 0 107 23.5t72 57t42.5 69.5t18.5 61q-9 -8 -21.5 -17.5t-30 -18t-39.5 -14.5t-49 -6q-51 0 -87.5 18.5t-60 49.5t-34.5 70.5t-11 81.5q0 57 16 101t44.5 73.5t67.5 45t85 15.5q55 0 96 -19.5t68.5 -56t41.5 -88t14 -115.5q0 -101 -27 -176.5t-71.5 -126.5
t-102 -76.5t-118.5 -25.5q-25 0 -39 8t-14 33q0 10 0.5 18.5t1.5 15.5q5 -1 15 -1h15zM389 379q1 6 1 12v13q0 28 -5 61t-20 62t-41.5 48.5t-69.5 19.5q-54 0 -87 -41t-33 -113q0 -70 27.5 -113t93.5 -43q25 0 47 7.5t39.5 18.5t29.5 24t17 24q1 5 1 10v10z" />
    <glyph glyph-name="zero.sups" unicode="&#xf80a;" 
d="M54 437q-38 50 -38 139q0 97 41.5 146.5t107.5 49.5q72 0 111.5 -48t39.5 -148q0 -93 -41 -140.5t-110 -47.5q-72 0 -111 49zM129 460q13 -10 35 -10q44 0 61.5 36t17.5 91q0 58 -17 95.5t-61 37.5q-21 0 -35.5 -10.5t-23 -28.5t-12.5 -42.5t-4 -52.5q0 -40 9 -70.5
t30 -45.5z" />
    <glyph glyph-name="one.sups" unicode="&#xf80b;" 
d="M146 686l-92 -47q-7 9 -14.5 23t-7.5 22q0 15 20 26l88 49q11 6 21 10.5t20 4.5q22 0 35 -10v-368h-70v290z" />
    <glyph glyph-name="two.sups" unicode="&#xf80c;" 
d="M48 449q24 20 53 49t52 56q24 28 39.5 53.5t15.5 53.5q0 26 -15.5 39t-43.5 13q-27 0 -46.5 -13t-30.5 -26h-11q-11 11 -17 20t-6 19q0 8 3.5 13t9.5 10q5 4 15 10.5t24 12.5t31 10t36 4q54 0 87 -26t33 -84q0 -40 -21.5 -75.5t-49.5 -67.5q-15 -17 -29.5 -32t-29.5 -29
h102q8 0 16 -1t14 -5t10 -12t4 -22q0 -4 -0.5 -7.5t-0.5 -7.5v-8h-244v53z" />
    <glyph glyph-name="three.sups" unicode="&#xf80d;" 
d="M118 620h33q7 0 17 1.5t19.5 7t16 15t6.5 25.5q0 45 -55 45q-29 0 -48.5 -11.5t-32.5 -24.5h-13q-8 10 -14 19t-6 17t7.5 16.5t19.5 16.5q15 11 38 18.5t55 7.5q63 0 91 -27t28 -70q0 -35 -15 -55t-31 -29q9 -5 18.5 -12t17.5 -17t13.5 -24.5t5.5 -33.5q0 -51 -33.5 -84
t-100.5 -33q-29 0 -54 7.5t-39 17.5q-15 11 -20 18.5t-5 16.5q0 12 9.5 25t16.5 21q14 -16 37 -30.5t52 -14.5q12 0 23.5 2.5t21.5 8.5t16 17.5t6 29.5q0 19 -8.5 30.5t-19.5 16.5t-23 6.5t-18 1.5h-32v58z" />
    <glyph glyph-name="four.sups" unicode="&#xf80e;" 
d="M34 516l149 225q8 12 19 22.5t26 10.5q8 0 17 -2.5t16 -7.5v-240h14q33 0 33 -33q0 -2 -0.5 -5.5t-1.5 -8.5l-2 -10h-43v-71h-68v71h-159v49zM193 524v148l-97 -148h97z" />
    <glyph glyph-name="five.sups" unicode="&#xf80f;" 
d="M73 769h204v-7q0 -3 0.5 -6.5t0.5 -5.5q0 -23 -11 -31.5t-34 -8.5h-109l-6 -72q7 2 20 4t27 2q24 0 46.5 -6.5t40 -21t28 -37.5t10.5 -56q0 -57 -33 -95.5t-102 -38.5q-32 0 -56.5 7.5t-38.5 15.5q-16 10 -19.5 17t-3.5 16q0 10 7 22.5t17 25.5q12 -13 36 -28.5t57 -15.5
q12 0 24 3t21.5 11t15.5 21.5t6 34.5q0 22 -7 35.5t-17.5 21.5t-24 11t-26.5 3q-20 0 -36.5 -4.5t-31.5 -9.5l-21 10z" />
    <glyph glyph-name="six.sups" unicode="&#xf810;" 
d="M234 716q-26 0 -47 -7.5t-37 -20t-26 -28t-15 -31.5q30 24 74 24q29 0 50 -10.5t35 -28t20.5 -41t6.5 -48.5q0 -66 -35.5 -101.5t-92.5 -35.5q-66 0 -100 43.5t-34 118.5q0 51 14.5 89.5t38 65.5t53 43t58.5 22q8 2 16.5 2.5t13.5 0.5q20 0 26.5 -9t6.5 -22
q0 -6 -1.5 -15t-2.5 -11h-22zM99 543q0 -17 3.5 -34.5t11.5 -31.5t21.5 -23t34.5 -9q27 0 43.5 19.5t16.5 57.5q0 36 -14.5 56.5t-46.5 20.5q-20 0 -39.5 -6.5t-28.5 -12.5q-1 -2 -1 -6t-1 -10v-21z" />
    <glyph glyph-name="seven.sups" unicode="&#xf811;" 
d="M209 703h-174q-1 4 -1 10q-1 4 -1 8v8q0 17 11.5 27.5t31.5 10.5h188q14 0 21.5 -5t7.5 -21v-17l-158 -329h-73z" />
    <glyph glyph-name="eight.sups" unicode="&#xf812;" 
d="M54 628q-11 20 -11 43q0 26 10 45t26.5 32t38.5 19t46 6t46.5 -5.5t40 -17.5t27.5 -31t10 -45t-12 -45.5t-32 -32.5q25 -14 40.5 -37t15.5 -55q0 -57 -39.5 -86.5t-96.5 -29.5q-60 0 -98 27t-38 85q0 32 17 56.5t42 38.5q-23 13 -33 33zM112 457q19 -16 52 -16
q32 0 51.5 17t19.5 46t-18.5 45t-52.5 16q-33 0 -52 -16.5t-19 -45.5q0 -30 19 -46zM122 634q17 -14 42 -14q26 0 43 14.5t17 35.5q0 26 -17 39t-43 13q-25 0 -42 -13.5t-17 -37.5q0 -23 17 -37z" />
    <glyph glyph-name="nine.sups" unicode="&#xf813;" 
d="M93 444q24 0 44 7t36 18.5t26.5 26.5t16.5 31q-12 -9 -30 -14.5t-38 -5.5q-28 0 -49.5 10t-35.5 27.5t-21.5 40.5t-7.5 49q0 66 36.5 102.5t91.5 36.5q66 0 99 -43.5t33 -115.5q0 -60 -16.5 -102.5t-42.5 -70t-60 -40.5t-68 -13q-21 0 -30 6.5t-9 22.5v10t1 9q0 6 1 9
q4 -1 11 -1h12zM164 560q30 0 44 7.5t17 12.5q2 5 2.5 18.5t0.5 22.5q0 17 -3.5 34t-11 30.5t-20.5 22t-32 8.5q-30 0 -46 -21t-16 -57q0 -78 65 -78z" />
    <glyph glyph-name="zero.sinf" unicode="&#xf814;" 
d="M54 -10q-38 50 -38 139q0 97 41.5 146.5t107.5 49.5q72 0 111.5 -48t39.5 -148q0 -93 -41 -140.5t-110 -47.5q-72 0 -111 49zM129 13q13 -10 35 -10q44 0 61.5 36t17.5 91q0 58 -17 95.5t-61 37.5q-21 0 -35.5 -10.5t-23 -28.5t-12.5 -42.5t-4 -52.5q0 -40 9 -70.5
t30 -45.5z" />
    <glyph glyph-name="one.sinf" unicode="&#xf815;" 
d="M163 239l-92 -47q-7 9 -14.5 23t-7.5 22q0 15 20 26l88 49q11 6 21 10.5t20 4.5q22 0 35 -10v-368h-70v290z" />
    <glyph glyph-name="two.sinf" unicode="&#xf816;" 
d="M51 2q24 20 53 49t52 56q24 28 39.5 53.5t15.5 53.5q0 26 -15.5 39t-43.5 13q-27 0 -46.5 -13t-30.5 -26h-11q-11 11 -17 20t-6 19q0 8 3.5 13t9.5 10q5 4 15 10.5t24 12.5t31 10t36 4q54 0 87 -26t33 -84q0 -40 -21.5 -75.5t-49.5 -67.5q-15 -17 -29.5 -32t-29.5 -29
h102q8 0 16 -1t14 -5t10 -12t4 -22q0 -4 -0.5 -7.5t-0.5 -7.5v-8h-244v53z" />
    <glyph glyph-name="three.sinf" unicode="&#xf817;" 
d="M121 173h33q7 0 17 1.5t19.5 7t16 15t6.5 25.5q0 45 -55 45q-29 0 -48.5 -11.5t-32.5 -24.5h-13q-8 10 -14 19t-6 17t7.5 16.5t19.5 16.5q15 11 38 18.5t55 7.5q63 0 91 -27t28 -70q0 -35 -15 -55t-31 -29q9 -5 18.5 -12t17.5 -17t13.5 -24.5t5.5 -33.5q0 -51 -33.5 -84
t-100.5 -33q-29 0 -54 7.5t-39 17.5q-15 11 -20 18.5t-5 16.5q0 12 9.5 25t16.5 21q14 -16 37 -30.5t52 -14.5q12 0 23.5 2.5t21.5 8.5t16 17.5t6 29.5q0 19 -8.5 30.5t-19.5 16.5t-23 6.5t-18 1.5h-32v58z" />
    <glyph glyph-name="four.sinf" unicode="&#xf818;" 
d="M34 69l149 225q8 12 19 22.5t26 10.5q8 0 17 -2.5t16 -7.5v-240h14q33 0 33 -33q0 -2 -0.5 -5.5t-1.5 -8.5l-2 -10h-43v-71h-68v71h-159v49zM193 77v148l-97 -148h97z" />
    <glyph glyph-name="five.sinf" unicode="&#xf819;" 
d="M80 322h204v-7q0 -3 0.5 -6.5t0.5 -5.5q0 -23 -11 -31.5t-34 -8.5h-109l-6 -72q7 2 20 4t27 2q24 0 46.5 -6.5t40 -21t28 -37.5t10.5 -56q0 -57 -33 -95.5t-102 -38.5q-32 0 -56.5 7.5t-38.5 15.5q-16 10 -19.5 17t-3.5 16q0 10 7 22.5t17 25.5q12 -13 36 -28.5t57 -15.5
q12 0 24 3t21.5 11t15.5 21.5t6 34.5q0 22 -7 35.5t-17.5 21.5t-24 11t-26.5 3q-20 0 -36.5 -4.5t-31.5 -9.5l-21 10z" />
    <glyph glyph-name="six.sinf" unicode="&#xf81a;" 
d="M244 269q-26 0 -47 -7.5t-37 -20t-26 -28t-15 -31.5q30 24 74 24q29 0 50 -10.5t35 -28t20.5 -41t6.5 -48.5q0 -66 -35.5 -101.5t-92.5 -35.5q-66 0 -100 43.5t-34 118.5q0 51 14.5 89.5t38 65.5t53 43t58.5 22q8 2 16.5 2.5t13.5 0.5q20 0 26.5 -9t6.5 -22
q0 -6 -1.5 -15t-2.5 -11h-22zM109 96q0 -17 3.5 -34.5t11.5 -31.5t21.5 -23t34.5 -9q27 0 43.5 19.5t16.5 57.5q0 36 -14.5 56.5t-46.5 20.5q-20 0 -39.5 -6.5t-28.5 -12.5q-1 -2 -1 -6t-1 -10v-21z" />
    <glyph glyph-name="seven.sinf" unicode="&#xf81b;" 
d="M209 257h-174q-1 4 -1 10q-1 4 -1 8v8q0 17 11.5 27.5t31.5 10.5h188q14 0 21.5 -5t7.5 -21v-17l-158 -329h-73z" />
    <glyph glyph-name="eight.sinf" unicode="&#xf81c;" 
d="M53 181q-11 20 -11 43q0 26 10 45t26.5 32t38.5 19t46 6t46.5 -5.5t40 -17.5t27.5 -31t10 -45t-12 -45.5t-32 -32.5q25 -14 40.5 -37t15.5 -55q0 -57 -39.5 -86.5t-96.5 -29.5q-60 0 -98 27t-38 85q0 32 17 56.5t42 38.5q-23 13 -33 33zM111 10q19 -16 52 -16
q32 0 51.5 17t19.5 46t-18.5 45t-52.5 16q-33 0 -52 -16.5t-19 -45.5q0 -30 19 -46zM121 187q17 -14 42 -14q26 0 43 14.5t17 35.5q0 26 -17 39t-43 13q-25 0 -42 -13.5t-17 -37.5q0 -23 17 -37z" />
    <glyph glyph-name="nine.sinf" unicode="&#xf81d;" 
d="M94 -3q24 0 44 7t36 18.5t26.5 26.5t16.5 31q-12 -9 -30 -14.5t-38 -5.5q-28 0 -49.5 10t-35.5 27.5t-21.5 40.5t-7.5 49q0 66 36.5 102.5t91.5 36.5q66 0 99 -43.5t33 -115.5q0 -60 -16.5 -102.5t-42.5 -70t-60 -40.5t-68 -13q-21 0 -30 6.5t-9 22.5v10t1 9q0 6 1 9
q4 -1 11 -1h12zM165 113q30 0 44 7.5t17 12.5q2 5 2.5 18.5t0.5 22.5q0 17 -3.5 34t-11 30.5t-20.5 22t-32 8.5q-30 0 -46 -21t-16 -57q0 -78 65 -78z" />
    <glyph glyph-name="i.locl" horiz-adv-x="241" 
d="M58 624q0 25 15.5 41t38.5 16t38.5 -16t15.5 -41q0 -23 -15.5 -38.5t-38.5 -15.5t-38.5 15.5t-15.5 38.5zM73 475q7 1 11.5 1h6.5q30 0 48.5 -15t18.5 -53v-318q0 -29 8.5 -41t39.5 -12v-36q-9 -3 -24.5 -5t-30.5 -2q-29 0 -44.5 9t-23 24t-9 33.5t-1.5 36.5v378z" />
    <glyph glyph-name="kgreenlandic.case" horiz-adv-x="768" 
d="M184 340v32l239 267q16 17 28.5 24t27.5 7t30.5 -6.5t27.5 -14.5l-259 -289l278 -356q-12 -5 -27.5 -8.5t-27.5 -3.5q-26 0 -42.5 9t-31.5 28zM79 670q5 1 10.5 1.5t13.5 0.5q9 0 19.5 -2.5t20.5 -9t16.5 -19t6.5 -32.5v-609h-87v670zM682 637q-21 -21 -25 -44
q11 -8 25 -23t14 -38t-14 -40t-40 -17q-29 0 -43 20.5t-14 49.5q0 22 5.5 44t14.5 41t21.5 33.5t27.5 23.5q16 10 32 10q25 0 35 -31q-19 -7 -39 -29z" />
    <glyph glyph-name="napostrophe.case" horiz-adv-x="860" 
d="M85 474q-25 0 -35 30q9 4 19.5 11.5t19.5 17.5t15.5 21t9.5 23q-11 8 -25 23.5t-14 38.5t14 40t40 17q29 0 43 -20.5t14 -49.5q0 -23 -5.5 -45t-14.5 -41t-21.5 -34t-27.5 -23q-8 -4 -16 -6.5t-16 -2.5zM279 667q6 2 17 3.5t22 1.5q22 0 34.5 -7.5t23.5 -25.5l324 -506
v537q6 1 12.5 1.5t11.5 0.5q9 0 19 -2.5t18.5 -9t14 -19t5.5 -32.5v-609h-81l-340 519v-519h-81v667z" />
    <glyph glyph-name="hungarumlaut.cap" horiz-adv-x="396" 
d="M139 640q20 14 34 14q15 0 28 -12.5t23 -26.5l-122 -78q-11 -7 -24 -13.5t-24 -6.5t-23.5 7.5t-19.5 18.5zM314 640q19 14 34 14t28 -12.5t23 -26.5l-122 -78q-11 -7 -24 -13.5t-24 -6.5t-23.5 7.5t-19.5 18.5z" />
    <glyph glyph-name="cedilla.cap" horiz-adv-x="363" 
d="M229 9q-14 -14 -21.5 -23.5t-7.5 -20.5q0 -10 5 -17t13 -14q9 -9 17.5 -21t8.5 -34t-8.5 -39t-22 -28.5t-30.5 -17.5t-34 -6q-35 0 -35 31q0 5 1 14t4 19q7 -3 13.5 -4t12.5 -1q36 0 36 25q0 12 -6 20t-14 16t-14 16.5t-6 22.5q0 19 11.5 36.5t17.5 25.5h59z" />
    <glyph glyph-name="tilde.cap" horiz-adv-x="383" 
d="M60 524l-19 18q-9 10 -9 22q0 10 7 19.5t18 17.5q17 14 37 21.5t39 7.5q18 0 32.5 -5t27.5 -11q14 -7 28 -12t31 -5q20 0 34.5 12t28.5 34q11 -7 23 -18.5t12 -23.5q0 -13 -12 -28q-13 -16 -33.5 -27.5t-47.5 -11.5q-20 0 -37 5.5t-33 12.5q-14 6 -27.5 10.5t-28.5 4.5
q-20 0 -37.5 -12t-33.5 -31z" />
    <glyph glyph-name="ogonek.cap" horiz-adv-x="365" 
d="M242 13v-13q-14 -11 -27.5 -25.5t-24.5 -30t-18 -31.5t-7 -31q0 -35 31 -35q17 0 28.5 7.5t19.5 15.5q8 -8 14 -18.5t6 -21.5t-7 -18.5t-17.5 -13t-24 -8t-26.5 -2.5q-39 0 -64 20.5t-25 65.5q0 25 9 47.5t22.5 41t29 33t27.5 22.5z" />
    <glyph glyph-name="ring.cap" horiz-adv-x="361" 
d="M102 524q-13 15 -20.5 34.5t-7.5 41.5q0 46 28.5 78t77.5 32t77.5 -30t28.5 -79q0 -45 -28.5 -77t-77.5 -32q-48 0 -78 32zM180 541q26 0 40 17.5t14 41.5q0 23 -11.5 42.5t-43.5 19.5q-27 0 -39.5 -19t-12.5 -42q0 -24 13.5 -42t39.5 -18z" />
    <glyph glyph-name="caron.cap" horiz-adv-x="372" 
d="M51 644q8 7 18 11.5t19 4.5q14 0 24 -6t19 -15l53 -48l54 47q13 11 23.5 16.5t22.5 5.5q9 0 19 -4t18 -9l-87 -103q-23 -27 -48 -27q-26 0 -50 29z" />
    <glyph glyph-name="macron.cap" horiz-adv-x="368" 
d="M282 610q23 0 38 -8t15 -34q0 -9 -0.5 -15t-1.5 -11h-253q-26 0 -37 9t-11 32q0 14 4 27h246z" />
    <glyph glyph-name="dieresis.cap" horiz-adv-x="383" 
d="M65 542q-14 16 -14 38q0 23 14.5 38.5t36.5 15.5t36.5 -15.5t14.5 -38.5t-14 -38t-37 -15q-24 0 -37 15zM244 542q-14 16 -14 38q0 23 14.5 38.5t36.5 15.5t36.5 -15.5t14.5 -38.5t-14 -38t-37 -15q-24 0 -37 15z" />
    </font>
</defs>
</svg>
