<?xml version="1.0" standalone="no"?>
<!DOCTYPE svg PUBLIC "-//W3C//DTD SVG 1.1//EN" "http://www.w3.org/Graphics/SVG/1.1/DTD/svg11.dtd" >
<svg>
<metadata>
Created by FontForge 20110222 at Wed Oct  2 13:34:45 2013
 By Orthosie Webhosting
Copyright 2011 Dalton Maag Ltd. Modification of this file requires prior written permission from Dalton Maag Ltd.
</metadata>
<defs>
<font id="FocoLight" horiz-adv-x="320" >
  <font-face 
    font-family="FocoLight"
    font-weight="300"
    font-stretch="normal"
    units-per-em="1000"
    panose-1="2 11 3 4 5 2 2 2 2 3"
    ascent="800"
    descent="-200"
    x-height="467"
    cap-height="671"
    bbox="-184 -227 1120 914"
    underline-thickness="20"
    underline-position="-113"
    unicode-range="U+0008-FB04"
  />
<missing-glyph horiz-adv-x="500" 
d="M50 0v750h400v-750h-400zM400 50v650h-300v-650h300z" />
    <glyph glyph-name="f_f" unicode="ff" horiz-adv-x="629" 
d="M659 618q-19 26 -44 39t-60 13q-42 0 -70 -18.5t-36 -66.5q-3 -20 -3 -42v-76h175v-47h-175v-420h-57v420h-252v-420h-57v526q0 29 3 53q22 138 161 138q40 0 67.5 -10t45.5 -25q11 -9 14.5 -16t3.5 -14q0 -8 -4.5 -16t-11.5 -18h-9q-19 26 -44 39t-60 13
q-42 0 -70 -18.5t-36 -66.5q-3 -20 -3 -42v-76h252v59q0 29 3 53q22 138 161 138q40 0 67.5 -10t45.5 -25q11 -9 14.5 -16t3.5 -14q0 -8 -4.5 -16t-11.5 -18h-9z" />
    <glyph glyph-name="f_i" unicode="fi" horiz-adv-x="517" 
d="M441 -5q-24 0 -38 9t-20.5 23t-8 32.5t-1.5 38.5v322h-236v-420h-57v526q0 29 3 53q11 69 57.5 103.5t116.5 34.5q48 0 84 -15t54 -30q11 -9 14.5 -16t3.5 -14q0 -8 -4.5 -16.5t-11.5 -18.5h-9q-19 26 -52.5 44.5t-79.5 18.5q-42 0 -75 -19.5t-41 -65.5q-3 -20 -3 -42
v-76h294v-372q0 -44 12 -58t39 -16v-21q-11 -3 -21 -4t-20 -1z" />
    <glyph glyph-name="f_l" unicode="fl" horiz-adv-x="527" 
d="M383 642q-20 11 -52 18.5t-67 7.5q-22 0 -42.5 -4.5t-37.5 -14t-28.5 -25.5t-15.5 -39q-3 -20 -3 -42v-76h175v-47h-175v-420h-57v526q0 29 3 53q9 71 59.5 104.5t122.5 33.5q33 0 62 -5.5t52 -13.5t39 -17t23 -17v-572q0 -42 12 -55.5t39 -15.5v-21q-11 -3 -21 -4
t-20 -1q-24 0 -38 9t-20.5 23t-8 32.5t-1.5 38.5v544z" />
    <glyph glyph-name="f_f_i" unicode="ffi" horiz-adv-x="826" 
d="M750 -5q-24 0 -38 9t-20.5 23t-8 32.5t-1.5 38.5v322h-236v-420h-57v420h-252v-420h-57v526q0 29 3 53q22 138 161 138q40 0 67.5 -10t45.5 -25q11 -9 14.5 -16t3.5 -14q0 -8 -4.5 -16t-11.5 -18h-9q-19 26 -44 39t-60 13q-42 0 -70 -18.5t-36 -66.5q-3 -20 -3 -42v-76
h252v59q0 29 3 53q11 69 57.5 103.5t116.5 34.5q48 0 84 -15t54 -30q11 -9 14.5 -16t3.5 -14q0 -8 -4.5 -16.5t-11.5 -18.5h-9q-19 26 -52.5 44.5t-79.5 18.5q-42 0 -75 -19.5t-41 -65.5q-3 -20 -3 -42v-76h294v-372q0 -44 12 -58t39 -16v-21q-11 -3 -21 -4t-20 -1z" />
    <glyph glyph-name="f_f_l" unicode="ffl" horiz-adv-x="833" 
d="M689 642q-20 11 -52 18.5t-67 7.5q-22 0 -42.5 -4.5t-37.5 -14t-28.5 -25.5t-15.5 -39q-3 -20 -3 -42v-76h175v-47h-175v-420h-57v420h-249v-420h-57v526q0 29 3 53q22 138 161 138q40 0 67.5 -10t45.5 -25q11 -9 14.5 -16t3.5 -14q0 -8 -4.5 -16t-11.5 -18h-9
q-19 26 -44 39t-60 13q-42 0 -70 -18.5t-36 -66.5q-3 -20 -3 -42v-76h249v59q0 29 3 53q9 71 59.5 104.5t122.5 33.5q62 0 109 -16.5t67 -36.5v-572q0 -42 12 -55.5t39 -15.5v-21q-11 -3 -21 -4t-20 -1q-24 0 -38 9t-20.5 23t-8 32.5t-1.5 38.5v544z" />
    <glyph glyph-name=".notdef" horiz-adv-x="500" 
d="M50 0v750h400v-750h-400zM400 50v650h-300v-650h300z" />
    <glyph glyph-name=".null" horiz-adv-x="0" 
 />
    <glyph glyph-name=".null" horiz-adv-x="0" 
 />
    <glyph glyph-name=".null" horiz-adv-x="0" 
 />
    <glyph glyph-name="nonmarkingreturn" unicode="&#x9;" horiz-adv-x="200" 
 />
    <glyph glyph-name="nonmarkingreturn" unicode="&#xd;" horiz-adv-x="200" 
 />
    <glyph glyph-name="space" unicode=" " horiz-adv-x="200" 
 />
    <glyph glyph-name="exclam" unicode="!" horiz-adv-x="226" 
d="M144 159q-3 -1 -10 -1q-6 0 -14.5 1.5t-16 7t-13 15.5t-5.5 27v461q4 1 10 1t14.5 -1.5t16 -7t13 -15.5t5.5 -27v-461zM164 36q0 -21 -14 -36t-34 -15t-34 15t-14 36t14 36t34 15t34 -15t14 -36z" />
    <glyph glyph-name="quotedbl" unicode="&#x22;" horiz-adv-x="316" 
d="M253 449h-54v231q5 1 8.5 1h5.5q6 0 14 -1.5t15.5 -7t13 -15.5t5.5 -27zM114 449h-54v231q5 1 8.5 1h5.5q6 0 14 -1.5t15.5 -7t13 -15.5t5.5 -27z" />
    <glyph glyph-name="numbersign" unicode="#" horiz-adv-x="654" 
d="M440 191l-22 -162h-50l22 162h-160l-22 -162h-50l22 162h-145l7 45h145l23 167h-145l7 46h145l22 154h50l-22 -154h160l22 154h50l-22 -154h145l-7 -46h-145l-23 -167h145l-7 -45h-145zM420 403h-160l-23 -167h160z" />
    <glyph glyph-name="dollar" unicode="$" horiz-adv-x="540" 
d="M245 -9h-5q-41 0 -72.5 7.5t-54 17.5t-36.5 20.5t-19 15.5q-5 4 -9 10t-4 13q0 15 23 41q8 -9 22.5 -22t36 -24.5t50 -19.5t64.5 -8h4v274q-35 14 -66 28.5t-55 34.5t-38 49t-14 73q0 37 13 67t36 51t54.5 33.5t69.5 15.5v91h51v-91q34 -3 60 -11.5t45 -18.5t31 -19.5
t17 -13.5q12 -11 12 -23q0 -7 -4 -14.5t-15 -20.5h-11q-5 6 -16 16.5t-28 21t-40 19.5t-51 12v-254q30 -13 59 -28t52 -36t37 -50t14 -71q0 -79 -45 -124t-117 -57v-90h-51v85zM133 505q0 -26 7.5 -45t22 -33t35 -25.5t47.5 -23.5v239q-32 -3 -53 -14.5t-34.5 -27t-19 -34
t-5.5 -36.5zM397 172q0 27 -7 45.5t-20 33t-32 25.5t-42 22v-251q30 6 49.5 18.5t31 29t16 36.5t4.5 41z" />
    <glyph glyph-name="percent" unicode="%" horiz-adv-x="821" 
d="M765 158q0 -85 -40 -129t-106 -44q-69 0 -108 44t-39 129q0 87 41 130.5t105 43.5q69 0 108 -43.5t39 -130.5zM343 507q0 -85 -40 -129t-106 -44q-69 0 -108 44t-39 129q0 87 41 130.5t105 43.5q69 0 108 -43.5t39 -130.5zM206 0h-61l443 645q13 18 22.5 27t26.5 9
q12 0 24 -4l8 -3zM708 159q0 57 -20.5 92t-69.5 35q-48 0 -68 -35.5t-20 -92.5q0 -56 20.5 -91.5t67.5 -35.5q50 0 70 35.5t20 92.5zM286 508q0 57 -20.5 92t-69.5 35q-48 0 -68 -35.5t-20 -92.5q0 -56 20.5 -91.5t67.5 -35.5q50 0 70 35.5t20 92.5z" />
    <glyph glyph-name="ampersand" unicode="&#x26;" horiz-adv-x="680" 
d="M473 106q-43 -54 -92.5 -84.5t-118.5 -30.5q-56 0 -95 16t-64 42.5t-36.5 61t-11.5 72.5q0 43 14 79t37.5 64.5t55 49.5t67.5 34q-27 34 -39.5 61.5t-12.5 65.5q0 34 13.5 60.5t36 45t52.5 28.5t62 10q40 0 67.5 -10t45.5 -25q11 -9 14.5 -16t3.5 -14q0 -8 -4.5 -16
t-11.5 -18h-9q-19 26 -44 39t-60 13q-21 0 -40.5 -5t-34.5 -16.5t-24 -29t-9 -42.5q0 -32 13.5 -58t36.5 -55l181 -226q17 39 26.5 83t9.5 95v24.5t-2 25.5h145v-46h-91v-11q0 -63 -14.5 -117.5t-37.5 -99.5l124 -155q-12 -6 -29 -6q-20 0 -33.5 8t-29.5 28zM259 372
q-64 -24 -106 -69t-42 -116q0 -31 10 -57.5t29.5 -46.5t47 -31.5t63.5 -11.5q57 0 97.5 26.5t80.5 80.5z" />
    <glyph glyph-name="quotesingle" unicode="'" horiz-adv-x="177" 
d="M109 449h-54v231q5 1 8.5 1h5.5q6 0 14 -1.5t15.5 -7t13 -15.5t5.5 -27z" />
    <glyph glyph-name="parenleft" unicode="(" horiz-adv-x="264" 
d="M238 712q-31 -35 -55 -94q-20 -51 -37 -129t-17 -193t17 -193.5t37 -129.5q24 -59 55 -94q-13 -5 -22 -5q-13 0 -24.5 6t-20.5 16q-7 8 -25.5 36t-37.5 77t-33.5 120.5t-14.5 166.5t14.5 166.5t33.5 120t37.5 76.5t25.5 36q9 10 20.5 16t24.5 6q9 0 22 -5z" />
    <glyph glyph-name="parenright" unicode=")" horiz-adv-x="264" 
d="M16 712q13 5 22 5q13 0 24.5 -6t20.5 -16q7 -8 25.5 -36t37.5 -76.5t33.5 -120t14.5 -166.5t-14.5 -166.5t-33.5 -120.5t-37.5 -77t-25.5 -36q-9 -10 -20.5 -16t-24.5 -6q-9 0 -22 5q30 36 54 94q20 50 37.5 129t17.5 194t-17.5 193t-37.5 129q-24 58 -54 94z" />
    <glyph glyph-name="asterisk" unicode="*" horiz-adv-x="389" 
d="M349 607q0 -9 -4.5 -16.5t-12.5 -9.5l-65 -19q-2 -1 -6.5 -2t-7.5 -1q-5 0 -9 4.5t-4 9.5q0 6 4 10l56 56q7 7 16 7q14 0 23.5 -13t9.5 -26zM228 691q0 -4 -1 -9t-2 -8l-17 -69q-3 -10 -13 -10t-13 10l-17 70q-3 9 -3 14q0 11 8 19.5t25 8.5t25 -8t8 -18zM349 468
q0 -12 -5 -21q-9 -18 -28 -18q-5 0 -11 3t-9 7l-52 54q-4 4 -4 10q0 5 3.5 9.5t8.5 4.5q2 0 6 -1t6 -2l67 -20q18 -6 18 -26zM149 573q0 -5 -4 -9.5t-9 -4.5q-3 0 -7.5 1t-6.5 2l-64 20q-8 2 -12.5 9.5t-4.5 16.5q0 13 9.5 26t23.5 13q9 0 16 -7l55 -57q4 -4 4 -10zM227 385
q0 -10 -8.5 -18t-24.5 -8q-15 0 -24 8t-9 19q0 4 3 15l18 70q3 10 13 10q9 0 12 -10l16 -66q2 -5 3 -10.5t1 -9.5zM149 503q0 -6 -4 -10l-56 -56q-7 -7 -16 -7q-14 0 -23.5 13t-9.5 26q0 9 4.5 16.5t12.5 9.5l66 19q2 1 6.5 2t6.5 1q6 0 9.5 -4.5t3.5 -9.5z" />
    <glyph glyph-name="plus" unicode="+" horiz-adv-x="540" 
d="M297 311v-158h-54v157h-157v55h157v158h54v-157h157v-55h-157z" />
    <glyph glyph-name="comma" unicode="," horiz-adv-x="217" 
d="M157 26q0 -33 -12.5 -63.5t-29.5 -50.5q-23 -27 -46 -27q-19 0 -29 21q18 9 38 30.5t23 49.5q-13 5 -24.5 17.5t-11.5 31.5q0 20 12 34t32 14q24 0 36 -16t12 -41z" />
    <glyph glyph-name="hyphen" unicode="-" horiz-adv-x="444" 
d="M121 242q-25 0 -35 9.5t-10 25.5q0 5 0.5 8.5t1.5 8.5h251q22 0 34 -7.5t12 -27.5q0 -7 -2 -17h-252z" />
    <glyph glyph-name="period" unicode="." horiz-adv-x="216" 
d="M156 36q0 -21 -14 -36t-34 -15t-34 15t-14 36t14 36t34 15t34 -15t14 -36z" />
    <glyph glyph-name="slash" unicode="/" horiz-adv-x="376" 
d="M81 0h-61l261 633q9 21 18 30.5t26 9.5q11 0 23 -4l8 -3z" />
    <glyph glyph-name="zero" unicode="0" horiz-adv-x="540" 
d="M498 326q0 -166 -58 -253.5t-170 -87.5t-170 85t-58 256q0 79 14.5 143t43 109t72 69t102.5 24q114 0 169 -91.5t55 -253.5zM436 326q0 81 -12 137.5t-33.5 91t-52 50t-67.5 15.5t-68 -15.5t-53 -50t-34 -91t-12 -137.5q0 -80 12 -135.5t34 -90t53 -49.5t68 -15t67.5 15
t52 49t33.5 89.5t12 136.5z" />
    <glyph glyph-name="one" unicode="1" horiz-adv-x="540" 
d="M281 0v592l-149 -78q-5 6 -11 15.5t-6 17.5q0 15 19 25l153 86q11 7 23 7q9 0 17 -3.5t12 -7.5v-654h-58z" />
    <glyph glyph-name="two" unicode="2" horiz-adv-x="540" 
d="M54 0v50q19 16 46.5 39.5t57.5 51.5t61 59.5t59 64.5q46 54 74.5 107t28.5 114q0 37 -11 62.5t-29.5 41.5t-42 22.5t-48.5 6.5q-32 0 -58 -9t-45.5 -22t-33 -26t-19.5 -22h-11q-20 23 -20 35q0 11 12 25q5 6 19.5 18t37 23.5t53 20.5t68.5 9q40 0 74 -10.5t59 -32.5
t39.5 -57.5t14.5 -84.5q0 -70 -36.5 -135.5t-88.5 -123.5q-26 -30 -53.5 -58t-52.5 -51t-45.5 -40.5t-32.5 -27.5h297q23 0 36 -11.5t13 -29.5q0 -2 -0.5 -3t-0.5 -3v-3h-422z" />
    <glyph glyph-name="three" unicode="3" horiz-adv-x="540" 
d="M451 183q0 -43 -13 -79t-40 -62.5t-68 -41.5t-96 -15q-39 0 -69.5 7t-52.5 17t-36 20t-19 15q-5 4 -9 10t-4 13q0 16 24 43q7 -9 22 -22t36 -24.5t48.5 -19.5t60.5 -8q27 0 54.5 7t50 23.5t37 45t14.5 72.5q0 47 -19.5 75t-45.5 42.5t-52.5 18.5t-40.5 4h-28v49h28
q14 0 38 4.5t47 18.5t39.5 39.5t16.5 68.5q0 55 -33 85.5t-99 30.5q-34 0 -60.5 -9.5t-46 -21.5t-32.5 -25l-18 -18h-11q-20 23 -20 34q0 7 4 13t8 10q5 5 19 16.5t36.5 23t54.5 20t74 8.5q48 0 83 -13t57.5 -35t33.5 -51.5t11 -62.5q0 -42 -15 -71.5t-35 -48.5t-39 -28.5
t-26 -10.5l30 -10q22 -7 44.5 -25t39.5 -49.5t17 -82.5z" />
    <glyph glyph-name="four" unicode="4" horiz-adv-x="540" 
d="M48 182v45l313 418q5 7 12 13.5t18 6.5q18 0 29 -8v-425h34q24 0 34 -10.5t10 -27.5q0 -3 -0.5 -5t-0.5 -4v-3h-77v-182h-58v182h-314zM362 232v330l-249 -330h249z" />
    <glyph glyph-name="five" unicode="5" horiz-adv-x="540" 
d="M171 609l-20 -201q13 3 37.5 6t51.5 3q43 0 83.5 -11.5t71.5 -37t50 -66.5t19 -101q0 -45 -13 -84t-40 -68.5t-68 -46.5t-96 -17q-39 0 -69.5 7t-52.5 17t-36 20t-19 15q-5 4 -9 10t-4 13q0 16 24 43q7 -9 21.5 -22t35 -24.5t48 -19.5t62.5 -8q27 0 54.5 9t50 28t37 49.5
t14.5 73.5q0 55 -18.5 88.5t-45.5 51.5t-58.5 24t-57.5 6q-35 0 -66.5 -5.5t-51.5 -10.5l-15 7l30 306h317q1 -5 1 -9q0 -19 -11 -32t-35 -13h-222z" />
    <glyph glyph-name="six" unicode="6" horiz-adv-x="540" 
d="M482 218q0 -56 -15.5 -99t-43 -73t-65 -45.5t-81.5 -15.5q-108 0 -159.5 71.5t-51.5 208.5q0 104 29 180.5t75 126.5t102.5 74.5t112.5 24.5q21 0 29 -8t8 -23q0 -6 -0.5 -10.5t-1.5 -9.5h-21q-49 0 -87.5 -15t-67.5 -38.5t-49 -52t-33 -56t-19 -51t-7 -35.5q6 7 19 19
t32.5 23t46.5 19.5t60 8.5q50 0 85.5 -19.5t58.5 -51t33.5 -71.5t10.5 -82zM421 211q0 36 -7.5 68.5t-24 57t-43 39t-63.5 14.5q-32 0 -57 -9.5t-44 -23t-32 -28.5t-20 -26q-1 -8 -2 -21t-1 -29q0 -33 5.5 -71.5t22 -71t46.5 -54.5t80 -22q64 0 102 48t38 129z" />
    <glyph glyph-name="seven" unicode="7" horiz-adv-x="540" 
d="M188 0h-63l288 609h-355q-1 5 -1 11q0 19 14 31t38 12h343q14 0 22.5 -5t8.5 -20v-13z" />
    <glyph glyph-name="eight" unicode="8" horiz-adv-x="540" 
d="M492 177q0 -49 -17.5 -85t-47.5 -60t-70.5 -35.5t-86.5 -11.5q-101 0 -161 46.5t-60 142.5q0 31 10 59t27.5 51t42.5 39.5t55 23.5q-57 19 -84.5 60t-27.5 92q0 40 15.5 72t42.5 54.5t63.5 34t77.5 11.5q43 0 79.5 -10.5t63 -31.5t41.5 -53t15 -74q0 -51 -28.5 -91.5
t-85.5 -61.5q33 -6 58 -22t42.5 -39.5t26.5 -52t9 -58.5zM410 501q0 60 -36.5 90.5t-102.5 30.5q-67 0 -103 -32.5t-36 -89.5q0 -27 10.5 -49.5t29.5 -39.5t44 -26.5t55 -9.5q29 0 54.5 10t44 27.5t29.5 40t11 48.5zM430 177q0 63 -41.5 104t-117.5 41t-118.5 -41
t-42.5 -104q0 -69 44.5 -106.5t116.5 -37.5t115.5 37.5t43.5 106.5z" />
    <glyph glyph-name="nine" unicode="9" horiz-adv-x="540" 
d="M59 439q0 55 15.5 98t43 73t65 45.5t81.5 15.5q53 0 92.5 -20t66 -56t39.5 -87t13 -113q0 -105 -29 -182.5t-75 -128t-103 -75t-112 -24.5q-21 0 -29 8t-8 23q0 6 0.5 10.5t1.5 9.5h21q49 0 87.5 15t67.5 39t49 53t33 57t19 51.5t7 36.5q-6 -7 -18.5 -19t-31.5 -23
t-45 -19.5t-59 -8.5q-51 0 -87.5 19t-60 50t-34 70.5t-10.5 81.5zM120 446q0 -36 7.5 -68t24 -56t42.5 -38t64 -14q31 0 56.5 9.5t44.5 23t32 28.5t20 26q1 8 2 21t1 29q0 30 -5.5 67t-22 70t-47 55.5t-79.5 22.5q-64 0 -102 -47.5t-38 -128.5z" />
    <glyph glyph-name="colon" unicode=":" horiz-adv-x="216" 
d="M156 36q0 -21 -14 -36t-34 -15t-34 15t-14 36t14 36t34 15t34 -15t14 -36zM156 414q0 -21 -14 -36t-34 -15t-34 15t-14 36t14 36t34 15t34 -15t14 -36z" />
    <glyph glyph-name="semicolon" unicode=";" horiz-adv-x="229" 
d="M157 26q0 -33 -12.5 -63.5t-29.5 -50.5q-23 -27 -46 -27q-19 0 -29 21q18 9 38 30.5t23 49.5q-13 5 -24.5 17.5t-11.5 31.5q0 20 12 34t32 14q24 0 36 -16t12 -41zM169 414q0 -21 -14 -36t-34 -15t-34 15t-14 36t14 36t34 15t34 -15t14 -36z" />
    <glyph glyph-name="less" unicode="&#x3c;" horiz-adv-x="540" 
d="M94 315v47l350 173v-62l-274 -135l274 -134v-63z" />
    <glyph glyph-name="equal" unicode="=" horiz-adv-x="540" 
d="M84 221v55h372v-55h-372zM84 394v56h372v-55z" />
    <glyph glyph-name="greater" unicode="&#x3e;" horiz-adv-x="540" 
d="M444 362v-47l-350 -174v63l275 134l-275 135v62z" />
    <glyph glyph-name="question" unicode="?" horiz-adv-x="431" 
d="M211 172q-2 -1 -6 -1h-6q-41 0 -41 50q0 20 8.5 38.5t22.5 36t31.5 34.5t34.5 34q29 28 52.5 60t23.5 77q0 34 -11 58t-29.5 40t-43 23.5t-51.5 7.5q-30 0 -54 -7t-41.5 -16.5t-29.5 -20t-18 -16.5h-11q-20 23 -20 34q0 7 4 13t8 10q6 6 18.5 15t33 17.5t49 15t65.5 6.5
q38 0 72.5 -10t61 -31.5t42 -54t15.5 -77.5q0 -30 -7.5 -54.5t-20 -45t-28.5 -37.5t-33 -33q-18 -17 -34.5 -32t-30 -31t-21.5 -33.5t-8 -38.5q0 -7 0.5 -15.5t2.5 -15.5zM236 36q0 -21 -14 -36t-34 -15t-34 15t-14 36t14 36t34 15t34 -15t14 -36z" />
    <glyph glyph-name="at" unicode="@" horiz-adv-x="789" 
d="M710 264q0 -88 -24 -158.5t-69.5 -120t-112 -76.5t-151.5 -27q-69 0 -118.5 14.5t-81.5 41t-47 62t-15 77.5q0 41 15 71t39.5 51t55.5 33.5t62.5 19.5t60.5 9t50 2q15 0 25.5 -0.5t19.5 -1.5q0 23 -4.5 47t-18 43.5t-37.5 32t-63 12.5q-48 0 -80.5 -13.5t-52.5 -29.5h-9
q-14 20 -14 33q0 8 7.5 14.5t18.5 12.5q25 14 61 23t74 9q82 0 129 -43t47 -133v-118q0 -28 4 -44t11 -24.5t17 -11.5t23 -4v-22q-8 -2 -18 -3t-18 -1q-30 0 -53 15.5t-23 54.5v110q-5 1 -13 1h-13q-24 0 -65 -3t-81 -17t-69 -43.5t-29 -81.5q0 -20 7 -45t29.5 -47.5
t64 -37.5t110.5 -15q58 0 110.5 18.5t92 58.5t63 103t23.5 152q0 77 -25 136t-69 98.5t-103 59.5t-128 20q-54 0 -98 -11.5t-76 -26.5t-51.5 -30t-25.5 -22h-11q-20 23 -20 34q0 7 4 13t8 10q6 6 27 20t56 28.5t83.5 25.5t109.5 11q93 0 163.5 -28t118.5 -77.5t72.5 -116.5
t24.5 -144z" />
    <glyph glyph-name="A" unicode="A" horiz-adv-x="610" 
d="M522 0l-69 187h-299l-69 -187h-60l252 665q5 2 12.5 4t16.5 2q12 0 20.5 -6t14.5 -22l244 -643h-63zM303 595l-131 -358h261z" />
    <glyph glyph-name="B" unicode="B" horiz-adv-x="562" 
d="M512 188q0 -56 -18.5 -92t-53.5 -57.5t-84.5 -30t-110.5 -8.5h-160v668q37 4 74.5 6t88.5 2q66 0 110.5 -10.5t71 -31t38 -50.5t11.5 -70q0 -42 -14 -71.5t-33 -49t-38.5 -29.5t-29.5 -13q13 -2 38 -9t49.5 -24.5t42.5 -48.5t18 -81zM417 513q0 37 -13.5 59.5t-38 34.5
t-57.5 16t-72 4q-35 0 -55.5 -1t-37.5 -3v-253h115q34 0 63 9.5t50.5 27.5t33.5 44.5t12 61.5zM450 186q0 40 -16 66.5t-42.5 41.5t-61 21t-70.5 6h-117v-272h73q51 0 94 4t74 18t48.5 41t17.5 74z" />
    <glyph glyph-name="C" unicode="C" horiz-adv-x="596" 
d="M528 113q9 -8 18.5 -18.5t9.5 -18.5q0 -9 -10 -20q-5 -6 -19.5 -17.5t-38.5 -23.5t-57.5 -21t-75.5 -9q-77 0 -131.5 26t-90 72.5t-52 110t-16.5 138.5t17.5 139t53.5 110.5t92 73t133 26.5q40 0 71.5 -8.5t54 -20t36 -22.5t19.5 -17q4 -4 8 -10t4 -13q0 -11 -20 -34h-11
q-6 7 -19 19.5t-33.5 24.5t-48.5 21t-64 9q-68 0 -112.5 -26t-71 -68t-37 -95.5t-10.5 -108.5q0 -57 11.5 -110.5t38.5 -95.5t72 -67t112 -25q39 0 69.5 12t52.5 27q27 19 45 40z" />
    <glyph glyph-name="D" unicode="D" horiz-adv-x="631" 
d="M576 340q0 -91 -26.5 -163.5t-92.5 -120.5q-76 -56 -203 -56h-169v667q48 5 86.5 7t73.5 2q100 0 164.5 -27t101.5 -73t51 -107t14 -129zM514 340q0 60 -12 112t-42.5 90.5t-82 61t-129.5 22.5q-24 0 -50.5 -1t-53.5 -4v-572h114q77 0 126.5 26t78.5 67.5t40 93.5t11 104
z" />
    <glyph glyph-name="E" unicode="E" horiz-adv-x="493" 
d="M85 0v669h371q1 -5 1 -6v-3q0 -19 -11 -30t-35 -11h-267v-242h236v-51h-236v-276h280q24 0 36.5 -11t12.5 -30q0 -5 -1 -9h-387z" />
    <glyph glyph-name="F" unicode="F" horiz-adv-x="467" 
d="M85 0v669h373q0 -23 -12.5 -36.5t-35.5 -13.5h-266v-236h236v-51h-236v-332h-59z" />
    <glyph glyph-name="G" unicode="G" horiz-adv-x="650" 
d="M585 87q-7 -11 -17 -23t-30 -26q-31 -23 -73.5 -38t-109.5 -15q-76 0 -131 26.5t-90 73.5t-52 111.5t-17 141.5q0 75 17.5 138t53.5 108.5t92 71t133 25.5q40 0 71.5 -8.5t54 -20t36 -22.5t19.5 -17q4 -4 8 -10t4 -13q0 -11 -20 -34h-11q-6 7 -19 19.5t-33.5 24.5
t-48.5 21t-64 9q-68 0 -113 -25t-71 -65.5t-36.5 -93.5t-10.5 -108q0 -58 11.5 -112.5t38.5 -97t72 -68.5t112 -26q41 0 70.5 8t49 18.5t31 22t16.5 18.5v191h-154v50h211v-255z" />
    <glyph glyph-name="H" unicode="H" horiz-adv-x="649" 
d="M564 0h-59v325h-361v-325h-59v670q5 1 7 1h4q6 0 14 -1.5t15.5 -7t13 -15.5t5.5 -27v-245h361v295q5 1 7 1h4q6 0 14 -1.5t15.5 -7t13 -15.5t5.5 -27v-620z" />
    <glyph glyph-name="I" unicode="I" horiz-adv-x="229" 
d="M144 0h-59v670q5 1 7 1h4q6 0 14 -1.5t15.5 -7t13 -15.5t5.5 -27v-620z" />
    <glyph glyph-name="J" unicode="J" horiz-adv-x="229" 
d="M144 23q0 -11 -0.5 -23t-1.5 -23q-3 -27 -13 -53t-28 -47t-45 -34t-64 -13q-24 0 -33 7.5t-9 24.5q0 4 0.5 8.5t1.5 9.5q5 -1 9.5 -1h9.5q48 0 72.5 20t35.5 58q4 12 5 27t1 32v654q5 1 7 1h4q6 0 14 -1.5t15.5 -7t13 -15.5t5.5 -27v-597z" />
    <glyph glyph-name="K" unicode="K" horiz-adv-x="535" 
d="M429 646q14 14 26 19.5t23 5.5q8 0 15 -2.5t12 -4.5l10 -6l-279 -295l299 -366q-17 -6 -33 -6q-20 0 -35.5 7t-31.5 26l-263 322v27zM144 0h-59v670q5 1 7 1h4q6 0 14 -1.5t15.5 -7t13 -15.5t5.5 -27v-620z" />
    <glyph glyph-name="L" unicode="L" horiz-adv-x="472" 
d="M144 50h255q24 0 36.5 -11t12.5 -30q0 -2 -0.5 -3t-0.5 -3v-3h-362v670q5 1 7 1h4q6 0 14 -1.5t15.5 -7t13 -15.5t5.5 -27v-570z" />
    <glyph glyph-name="M" unicode="M" horiz-adv-x="790" 
d="M117 667q9 4 28 4q16 0 24.5 -7.5t16.5 -22.5l207 -430l209 428q11 21 23 26.5t23 5.5q8 0 16 -1t13 -3l48 -667h-55l-40 576l-207 -416h-63l-196 401l-42 -561h-57z" />
    <glyph glyph-name="N" unicode="N" horiz-adv-x="661" 
d="M576 0h-61l-375 568v-568h-55v667q9 4 28 4q15 0 24 -5.5t19 -20.5l365 -562v587q5 1 8 1h5q6 0 13.5 -1.5t13.5 -7t10.5 -15.5t4.5 -27v-620z" />
    <glyph glyph-name="O" unicode="O" horiz-adv-x="696" 
d="M631 338q0 -71 -16 -135t-50.5 -112.5t-89 -77t-130.5 -28.5q-77 0 -130 29.5t-86.5 78.5t-48.5 112.5t-15 131.5t16.5 130.5t52 110t90 75.5t130.5 28q74 0 126.5 -27t86 -74t49 -109.5t15.5 -132.5zM568 337q0 59 -11 112t-36 93.5t-66 64t-102 23.5q-64 0 -107 -23.5
t-69 -64t-37 -93.5t-11 -112t11 -113.5t36.5 -96.5t68 -67t104.5 -25t104 25t67.5 67t36.5 96.5t11 113.5z" />
    <glyph glyph-name="P" unicode="P" horiz-adv-x="531" 
d="M491 488q0 -65 -21.5 -106.5t-58 -66t-84.5 -34t-100 -9.5h-83v-272h-59v668q34 3 72 5.5t76 2.5q135 0 196.5 -47t61.5 -141zM429 482q0 43 -15 71t-41 44.5t-61.5 23t-75.5 6.5q-32 0 -52.5 -1t-40.5 -3v-302h94q91 0 141.5 37.5t50.5 123.5z" />
    <glyph glyph-name="Q" unicode="Q" horiz-adv-x="704" 
d="M571 -95q-2 -22 -7.5 -40t-26.5 -18q-34 0 -72 21.5t-72 50.5q-12 11 -21 18.5t-15 15.5q5 7 14.5 10.5t20.5 -0.5q13 -5 29 -14t36.5 -18.5t48 -17t65.5 -8.5zM635 338q0 -71 -16 -135t-50.5 -112.5t-89 -77t-130.5 -28.5q-77 0 -130 29.5t-86.5 78.5t-48.5 112.5
t-15 131.5t16.5 130.5t52 110t90 75.5t130.5 28q74 0 126.5 -27t86 -74t49 -109.5t15.5 -132.5zM572 337q0 59 -11 112t-36 93.5t-66 64t-102 23.5q-64 0 -107 -23.5t-69 -64t-37 -93.5t-11 -112t11 -113.5t36.5 -96.5t68 -67t104.5 -25t104 25t67.5 67t36.5 96.5t11 113.5z
" />
    <glyph glyph-name="R" unicode="R" horiz-adv-x="543" 
d="M481 492q0 -44 -13 -76.5t-35.5 -56t-52 -37.5t-63.5 -21l195 -304q-15 -6 -30 -6q-21 0 -36 12t-28 32l-166 258h-108v-293h-59v668q34 3 72 5.5t76 2.5q133 0 190.5 -45t57.5 -139zM419 489q0 42 -13.5 69t-38.5 42.5t-59.5 21t-77.5 5.5q-28 0 -47.5 -1t-39.5 -3v-281
h86q41 0 76 7.5t60.5 24.5t39.5 45.5t14 69.5z" />
    <glyph glyph-name="S" unicode="S" horiz-adv-x="486" 
d="M53 105q8 -9 22.5 -20.5t36 -22.5t50 -18.5t63.5 -7.5q45 0 74.5 12t47.5 31t25 43t7 49q0 33 -8.5 56t-26 40t-44 29t-62.5 23q-38 12 -73 26.5t-61.5 35.5t-42 51t-15.5 74q0 42 15.5 74.5t42.5 55t64.5 34t82.5 11.5q34 0 61.5 -6t47 -14t32.5 -16t19 -12
q13 -10 13 -25q0 -12 -18 -36h-11q-6 6 -18 16t-30 19.5t-42.5 16t-55.5 6.5q-41 0 -68 -10.5t-43.5 -27t-23.5 -38.5t-7 -44q0 -29 10.5 -50t30 -36.5t48.5 -27.5t66 -23t69.5 -26.5t57 -38t38.5 -54t14 -74.5q0 -47 -16 -83.5t-44.5 -61t-68.5 -37.5t-89 -13
q-40 0 -71 6.5t-53.5 15.5t-36 18.5t-18.5 14.5q-5 4 -9.5 10t-4.5 13q0 16 23 42z" />
    <glyph glyph-name="T" unicode="T" horiz-adv-x="517" 
d="M516 669q1 -5 1 -6.5v-3.5q0 -17 -12.5 -28.5t-36.5 -11.5h-178v-619h-59v619h-230q-1 5 -1 9q0 19 12 30t36 11h468z" />
    <glyph glyph-name="U" unicode="U" horiz-adv-x="638" 
d="M558 263q0 -20 -0.5 -41t-2.5 -39q-4 -42 -20 -78t-45 -63t-71 -42t-99 -15q-112 0 -168 51t-67 147q-2 18 -3.5 39t-1.5 41v407q5 1 7 1h4q6 0 14 -1.5t15.5 -7t13 -15.5t5.5 -27v-371q0 -30 3 -58t11 -51q7 -21 19.5 -40.5t32.5 -34t49 -23.5t68 -9q129 0 164 105
q8 23 10.5 52t2.5 59v421q5 1 7 1h4q6 0 14 -1.5t15.5 -7t13 -15.5t5.5 -27v-357z" />
    <glyph glyph-name="V" unicode="V" horiz-adv-x="563" 
d="M312 -5h-61l-241 673q5 1 11.5 2t14.5 1q41 0 56 -47l191 -570l192 571q8 23 21 34.5t36 11.5q5 0 10.5 -0.5t10.5 -1.5z" />
    <glyph glyph-name="W" unicode="W" horiz-adv-x="863" 
d="M637 -5h-67l-134 435l-136 -435h-68l-222 673q4 1 11 2t15 1q21 0 33 -12.5t20 -35.5l179 -576l142 472l-43 150q5 1 10.5 1.5t13.5 0.5q21 0 33 -12.5t18 -35.5l163 -574l172 571q7 23 20 37t34 14q6 0 11.5 -0.5t10.5 -1.5z" />
    <glyph glyph-name="X" unicode="X" horiz-adv-x="542" 
d="M268 291l-174 -291h-65l206 341l-189 324q15 6 29 6q20 0 34.5 -8.5t26.5 -30.5l136 -244l143 239q13 22 26.5 33t33.5 11q14 0 29 -6l-199 -326l210 -342q-15 -6 -28 -6q-20 0 -34 9t-27 30z" />
    <glyph glyph-name="Y" unicode="Y" horiz-adv-x="499" 
d="M279 288v-288h-59v287l-215 380q5 2 12.5 3.5t19.5 1.5q20 0 30.5 -8t19.5 -25l165 -291l160 288q9 16 21 25.5t33 9.5q9 0 15 -0.5t13 -2.5z" />
    <glyph glyph-name="Z" unicode="Z" horiz-adv-x="510" 
d="M461 669q29 0 29 -26v-15l-403 -578h354q24 0 36.5 -11t12.5 -30q0 -2 -0.5 -3t-0.5 -3v-3h-474v44l397 575h-390q-1 4 -1 9q0 19 12.5 30t36.5 11h391z" />
    <glyph glyph-name="bracketleft" unicode="[" horiz-adv-x="249" 
d="M60 -136v853h164v-48h-105v-757h105v-48h-164z" />
    <glyph glyph-name="backslash" unicode="\" horiz-adv-x="376" 
d="M20 666l9 3q9 4 22 4q17 0 26 -9.5t18 -30.5l261 -633h-61z" />
    <glyph glyph-name="bracketright" unicode="]" horiz-adv-x="249" 
d="M25 -136v48h105v757h-105v48h164v-853h-164z" />
    <glyph glyph-name="asciicircum" unicode="^" horiz-adv-x="540" 
d="M400 310l-130 303l-128 -303h-57l154 350q4 8 12 14.5t20 6.5t19.5 -6.5t11.5 -14.5l154 -350h-56z" />
    <glyph glyph-name="underscore" unicode="_" horiz-adv-x="460" 
d="M41 -144v44h378v-44h-378z" />
    <glyph glyph-name="grave" unicode="`" horiz-adv-x="370" 
d="M96 654q8 6 20 11t25 5q15 0 24.5 -8.5t19.5 -22.5l85 -110q-4 -3 -12.5 -6t-18.5 -3q-20 0 -33 15z" />
    <glyph glyph-name="a" unicode="a" horiz-adv-x="486" 
d="M461 0q-20 -5 -36 -5q-30 0 -52 14.5t-24 48.5q-29 -29 -68.5 -48t-93.5 -19q-23 0 -48.5 5.5t-47.5 20.5t-36.5 41.5t-14.5 68.5q0 51 27 83.5t67 50.5t85.5 24.5t83.5 6.5q12 0 23 -0.5t22 -1.5v24q0 24 -5 44.5t-17.5 35.5t-35 23.5t-58.5 8.5q-48 0 -83 -13t-55 -29
h-9q-14 20 -14 33q0 8 7.5 14.5t18.5 12.5q26 14 65 22.5t75 8.5q49 0 81.5 -11t52 -32.5t27.5 -53t8 -73.5v-200q0 -28 4 -44t11 -24.5t17 -11t23 -3.5v-22zM349 249q-6 1 -12.5 1h-13.5q-39 0 -78.5 -4.5t-72 -18t-52.5 -37t-20 -61.5q0 -17 4.5 -33.5t15.5 -29
t29.5 -20.5t47.5 -8q31 0 58.5 9t48.5 22t33 26.5t12 22.5v131z" />
    <glyph glyph-name="b" unicode="b" horiz-adv-x="530" 
d="M80 0v709q5 1 6.5 1h3.5q6 0 14 -1.5t15.5 -7t12.5 -15.5t5 -26v-243q7 7 20 17t31 19t41 15.5t51 6.5q41 0 76.5 -13t62 -42t41.5 -74.5t15 -109.5q0 -74 -19 -122t-48.5 -77t-65.5 -40.5t-70 -11.5q-32 0 -56 7.5t-40.5 17t-26 18.5t-12.5 12v-40h-57zM414 229
q0 40 -7 76t-24 62.5t-45 42t-69 15.5q-45 0 -77 -15.5t-47 -35.5q-8 -11 -8 -22v-259q6 -7 17 -17t27 -19.5t36.5 -16.5t45.5 -7q72 0 111.5 49.5t39.5 146.5z" />
    <glyph glyph-name="c" unicode="c" horiz-adv-x="455" 
d="M401 91q6 -5 14.5 -14.5t8.5 -18.5q0 -11 -18 -27q-17 -15 -51 -30.5t-85 -15.5q-30 0 -67 8.5t-70 35t-55.5 74.5t-22.5 128q0 50 11 87.5t29 65t41.5 45t47.5 28t47 14.5t41 4q51 0 84 -14t51 -29q11 -9 14.5 -16t3.5 -14q0 -8 -5 -17.5t-11 -19.5h-9
q-20 28 -50.5 44.5t-75.5 16.5q-42 0 -72 -15.5t-49 -41.5t-28 -62t-9 -76q0 -41 9 -77t28.5 -63t49.5 -42.5t73 -15.5q32 0 55 9t39 20t31 29z" />
    <glyph glyph-name="d" unicode="d" horiz-adv-x="531" 
d="M394 709q5 1 6.5 1h3.5q6 0 14 -1.5t15.5 -7t12.5 -15.5t5 -26v-660h-57v45q-6 -8 -17.5 -18.5t-28.5 -19.5t-40 -15.5t-52 -6.5q-41 0 -77 13t-64 42t-44 74.5t-16 111.5q0 72 19.5 119.5t50.5 76.5t67.5 41t71.5 12q31 0 54 -7t38.5 -16.5t25 -18.5t12.5 -12v288z
M117 237q0 -44 8 -81t26 -64t47 -42.5t70 -15.5q27 0 49.5 7.5t39 18.5t26.5 24t11 25v260q-6 7 -16.5 17t-25.5 19t-35 15.5t-45 6.5q-75 0 -115 -48t-40 -142z" />
    <glyph glyph-name="e" unicode="e" horiz-adv-x="497" 
d="M435 57q0 -9 -11.5 -21t-32.5 -23.5t-50.5 -19.5t-65.5 -8q-48 0 -88.5 14t-70 44.5t-45.5 78t-16 113.5q0 63 17.5 108.5t47 74.5t67 43t77.5 14q49 0 84 -17t57 -45t32 -64.5t10 -75.5q0 -24 -3 -51h-328q1 -42 11 -77t29.5 -60t49.5 -38.5t71 -13.5q31 0 54 6.5
t39.5 16t27 19.5t15.5 17q10 -11 16 -20.5t6 -14.5zM390 265q0 33 -6 62.5t-21 51.5t-40.5 35t-63.5 13q-63 0 -101.5 -42t-40.5 -120h273z" />
    <glyph glyph-name="f" unicode="f" 
d="M350 618q-19 26 -44 39t-60 13q-42 0 -70 -18.5t-36 -66.5q-3 -20 -3 -42v-76h175v-47h-175v-420h-57v526q0 29 3 53q22 138 161 138q40 0 67.5 -10t45.5 -25q11 -9 14.5 -16t3.5 -14q0 -8 -4.5 -16t-11.5 -18h-9z" />
    <glyph glyph-name="g" unicode="g" horiz-adv-x="531" 
d="M451 25q0 -32 -2 -60.5t-8 -54.5q-16 -66 -67.5 -101.5t-142.5 -35.5q-54 0 -92.5 12.5t-56.5 28.5q-9 8 -12 14t-3 13q0 9 8.5 19.5t14.5 15.5q12 -15 35 -28q17 -11 43.5 -19t61.5 -8q141 0 158 114q4 25 5 50.5t1 45.5v17q-8 -8 -19 -18t-27.5 -18.5t-38.5 -14.5
t-51 -6q-41 0 -78 13.5t-65 43t-44 74.5t-16 108q0 70 20 117t50.5 75.5t67.5 40.5t71 12q32 0 55.5 -7.5t39 -16.5t24 -18t11.5 -12q0 27 16.5 36.5t28.5 9.5q7 0 12 -1v-441zM117 237q0 -41 8 -76.5t26 -62.5t47 -42.5t70 -15.5q28 0 51 7.5t39.5 18.5t26 24t9.5 25v254
q-6 7 -16.5 17t-25.5 19t-35 15.5t-45 6.5q-75 0 -115 -48t-40 -142z" />
    <glyph glyph-name="h" unicode="h" horiz-adv-x="542" 
d="M137 411q23 24 65 44t103 20q36 0 62 -8.5t44 -23t28.5 -33t14.5 -37.5q5 -21 6.5 -43.5t1.5 -45.5v-284h-58v284q0 20 -2 40t-7 35q-19 64 -109 64q-27 0 -54 -7t-48 -17.5t-34 -23.5t-13 -25v-350h-57v709q5 1 6.5 1h3.5q6 0 14 -1.5t15.5 -7t12.5 -15.5t5 -26v-249z
" />
    <glyph glyph-name="i" unicode="i" horiz-adv-x="224" 
d="M148 -5q-24 0 -37.5 9t-20 23t-8 32.5t-1.5 38.5v369h3q20 0 37 -10.5t17 -41.5v-320q0 -44 12 -58t39 -16v-21q-11 -3 -21 -4t-20 -1zM150 590q0 -19 -12.5 -32.5t-30.5 -13.5t-30.5 13.5t-12.5 32.5t12.5 32.5t30.5 13.5t30.5 -13.5t12.5 -32.5z" />
    <glyph glyph-name="j" unicode="j" horiz-adv-x="218" 
d="M138 -57q0 -23 -2 -46t-9 -43q-9 -28 -24.5 -44t-32 -24.5t-31.5 -10.5t-23 -2q-14 0 -21.5 4.5t-11 11.5t-4 15t-0.5 14q48 0 70 17.5t28 54.5q2 10 3 22t1 21v534h3q20 0 37 -10.5t17 -41.5v-472zM150 590q0 -19 -12.5 -32.5t-30.5 -13.5t-30.5 13.5t-12.5 32.5
t12.5 32.5t30.5 13.5t30.5 -13.5t12.5 -32.5z" />
    <glyph glyph-name="k" unicode="k" horiz-adv-x="472" 
d="M80 0v709q5 1 6.5 1h3.5q6 0 14 -1.5t15.5 -7t13 -15.5t5.5 -27v-659h-58zM171 246v28l166 164q14 14 26.5 21.5t26.5 7.5q8 0 15 -2.5t12 -4.5l11 -7l-197 -191l228 -265q-15 -6 -31 -6q-37 0 -65 34z" />
    <glyph glyph-name="l" unicode="l" horiz-adv-x="224" 
d="M80 709q5 1 6.5 1h3.5q6 0 14 -1.5t15.5 -7t13 -15.5t5.5 -27v-567q0 -42 12 -55.5t39 -15.5v-21q-11 -3 -21 -4t-20 -1q-24 0 -38 9t-20.5 23t-8 32.5t-1.5 38.5v611z" />
    <glyph glyph-name="m" unicode="m" horiz-adv-x="821" 
d="M137 412q23 24 60.5 43.5t96.5 19.5q54 0 85.5 -18.5t46.5 -46.5q25 26 63 45.5t98 19.5q36 0 61.5 -8.5t43 -23t27.5 -33t14 -37.5q5 -21 6.5 -43.5t1.5 -45.5v-284h-58v284q0 20 -2 40t-7 35q-10 33 -35.5 48.5t-73.5 15.5q-41 0 -74.5 -19t-50.5 -37q5 -20 6.5 -40.5
t1.5 -42.5v-284h-58v284q0 20 -2 40t-7 35q-10 33 -35.5 48.5t-73.5 15.5q-42 0 -75 -16.5t-51 -37.5q-8 -10 -8 -25v-344h-58v467h4q21 0 37 -11t16 -44z" />
    <glyph glyph-name="n" unicode="n" horiz-adv-x="543" 
d="M137 412q23 24 66 43.5t103 19.5q36 0 62 -8.5t44 -23t28.5 -33t14.5 -37.5q5 -21 6.5 -43.5t1.5 -45.5v-284h-58v284q0 20 -2 40t-7 35q-19 64 -113 64q-42 0 -80 -16.5t-57 -37.5q-8 -10 -8 -25v-344h-58v467h4q21 0 37 -11t16 -44z" />
    <glyph glyph-name="o" unicode="o" horiz-adv-x="535" 
d="M419 231q0 34 -6 69t-22.5 63t-46 45.5t-75.5 17.5q-44 0 -73.5 -17.5t-47 -45.5t-25 -63t-7.5 -69q0 -35 6.5 -70t23.5 -63.5t46.5 -46.5t74.5 -18q47 0 76.5 18t46.5 46.5t23 63.5t6 70zM480 231q0 -48 -11.5 -92.5t-37 -78.5t-66 -54.5t-98.5 -20.5q-57 0 -97.5 20
t-66 53.5t-37 77.5t-11.5 92q0 49 13.5 94t40.5 79t67.5 54t94.5 20q57 0 97 -20t64.5 -54t36 -78t11.5 -92z" />
    <glyph glyph-name="p" unicode="p" horiz-adv-x="530" 
d="M80 -218v685h4q20 0 36.5 -10t16.5 -40q7 7 20 17t31 19t41 15.5t51 6.5q41 0 76.5 -13t62 -42t41.5 -74.5t15 -109.5q0 -73 -18.5 -121.5t-48 -77t-65.5 -40.5t-71 -12q-32 0 -56 7t-40.5 16t-26 18t-12.5 12v-256h-57zM414 229q0 40 -7 76t-24 62.5t-45 42t-69 15.5
q-45 0 -77 -15.5t-47 -35.5q-8 -11 -8 -22v-261q6 -7 17 -17t27 -19t36.5 -15.5t45.5 -6.5q72 0 111.5 48.5t39.5 147.5z" />
    <glyph glyph-name="q" unicode="q" horiz-adv-x="531" 
d="M451 -218h-57v260q-8 -8 -19 -18t-27.5 -18.5t-38.5 -14.5t-51 -6q-41 0 -78 13.5t-65 42.5t-44 74.5t-16 109.5q0 72 20 120t50.5 77t67.5 41t71 12q32 0 55.5 -7.5t39 -16.5t24 -18t11.5 -12q0 14 5 23t11.5 14t14.5 7t14 2q7 0 12 -1v-684zM117 233q0 -42 8 -78.5
t26 -63t47 -42t70 -15.5q28 0 51 7.5t39.5 18.5t26 24t9.5 25v260q-6 7 -16.5 17t-25.5 19t-35 15.5t-45 6.5q-75 0 -115 -48.5t-40 -145.5z" />
    <glyph glyph-name="r" unicode="r" horiz-adv-x="329" 
d="M137 413q6 9 16 20t24 20.5t31.5 15.5t38.5 6q9 0 21 -1.5t22 -5t17 -10.5t7 -18t-6.5 -23t-12.5 -19q-11 11 -25 17t-37 6q-18 0 -35.5 -6.5t-31 -17.5t-21.5 -25t-8 -29v-343h-57v467h4q20 0 36.5 -12t16.5 -42z" />
    <glyph glyph-name="s" unicode="s" horiz-adv-x="396" 
d="M194 427q-17 0 -34.5 -4t-32.5 -13t-24.5 -23.5t-9.5 -36.5q0 -20 9.5 -34t25.5 -24t36.5 -16.5t42.5 -12.5q25 -8 51 -17t46.5 -24.5t33.5 -39t13 -59.5q0 -33 -13 -59t-35 -43.5t-51.5 -26.5t-63.5 -9q-54 0 -91.5 12t-51.5 22q-15 10 -15 23q0 7 4.5 15t15.5 23
q6 -5 18 -13t30 -16t40 -14t48 -6q21 0 41 5t35 15.5t24 27.5t9 41q0 25 -10 41.5t-27 27t-39 17.5t-45 13q-25 7 -49.5 15.5t-44 23t-31.5 36.5t-12 56q0 31 13.5 54t35 39t49.5 24t58 8q49 0 81.5 -13t49.5 -28q11 -8 15 -15t4 -14q0 -8 -5 -17.5t-10 -20.5h-9
q-20 27 -50 43.5t-75 16.5z" />
    <glyph glyph-name="t" unicode="t" horiz-adv-x="330" 
d="M288 467v-46h-156v-293q0 -46 17.5 -70.5t55.5 -24.5q20 0 36.5 7t27.5 15q12 9 23 22q14 -14 18.5 -21.5t4.5 -12.5q0 -6 -8 -15.5t-23 -19t-36 -16.5t-48 -7q-49 0 -76.5 19t-38.5 51q-6 18 -8 39t-2 44v472q5 1 9 1q6 0 14 -1.5t15.5 -7t13 -15.5t5.5 -27v-93h156z
" />
    <glyph glyph-name="u" unicode="u" horiz-adv-x="543" 
d="M463 0h-58v54q-23 -24 -65.5 -43.5t-102.5 -19.5q-36 0 -62 8.5t-44 23t-28.5 32.5t-14.5 38q-5 21 -6.5 43.5t-1.5 45.5v285h4q21 0 37 -11t16 -43v-231q0 -20 2.5 -40t7.5 -35q19 -64 113 -64q25 0 51 7t47 17.5t34.5 23.5t13.5 25v351h4q21 0 37 -11t16 -44v-412z" />
    <glyph glyph-name="v" unicode="v" horiz-adv-x="444" 
d="M249 -4h-60l-174 466q15 5 27 5q24 0 35.5 -14t19.5 -38l123 -362l131 366q9 24 21 36t32 12q8 0 14 -2t11 -4z" />
    <glyph glyph-name="w" unicode="w" horiz-adv-x="691" 
d="M518 -4h-63l-103 267l-112 -267h-59l-161 466q8 2 13.5 3.5t12.5 1.5q21 0 33 -16t20 -39l116 -360l111 275l-52 136q9 4 23 4q23 0 35.5 -14t20.5 -37l134 -361l114 360q8 24 19.5 38t31.5 14q15 0 24 -4z" />
    <glyph glyph-name="x" unicode="x" horiz-adv-x="418" 
d="M209 274l117 165q11 15 22 21.5t28 6.5q7 0 14.5 -2t12.5 -4l-163 -231l158 -233q-5 -2 -12 -4t-14 -2q-19 0 -31.5 8t-23.5 23l-111 163l-108 -161q-11 -17 -22 -25t-33 -8q-16 0 -28 5l160 235l-155 231q12 5 28 5q23 0 32.5 -7t20.5 -24z" />
    <glyph glyph-name="y" unicode="y" horiz-adv-x="444" 
d="M227 -102q-9 -25 -20.5 -47.5t-28 -40t-40 -27.5t-55.5 -10q-38 0 -60 12q-19 10 -19 24q0 11 6.5 21.5t11.5 17.5q5 -5 21 -16t43 -11q33 0 52 23t40 79l29 77h-28l-164 462q13 5 27 5q25 0 36 -15.5t19 -39.5l123 -365l130 370q8 24 21 37t33 13q8 0 14 -2t11 -4z" />
    <glyph glyph-name="z" unicode="z" horiz-adv-x="408" 
d="M28 0v44l277 373h-273q0 23 10 36.5t36 13.5h270q28 0 28 -26v-18l-280 -372h247q26 0 35.5 -13t9.5 -38h-360z" />
    <glyph glyph-name="braceleft" unicode="{" horiz-adv-x="301" 
d="M172 437q0 -24 -3 -46.5t-11 -41t-22.5 -32.5t-36.5 -23q22 -5 36 -19t22.5 -33.5t11.5 -43.5t3 -49v-151q0 -27 8 -44.5t22 -27t33.5 -13t42.5 -3.5q3 -14 3 -26q0 -13 -9 -17.5t-22 -4.5q-40 0 -66.5 12.5t-42.5 32.5t-22.5 44.5t-6.5 48.5v156q0 51 -18 81.5t-54 30.5
v53q37 0 54.5 30.5t17.5 81.5v146q0 24 6.5 48.5t22.5 44.5t42.5 32.5t66.5 12.5q13 0 22 -4.5t9 -17.5t-3 -26q-23 0 -42.5 -3.5t-33.5 -13t-22 -27t-8 -44.5v-144z" />
    <glyph glyph-name="bar" unicode="|" horiz-adv-x="259" 
d="M96 -188v982h57v-982h-57z" />
    <glyph glyph-name="braceright" unicode="}" horiz-adv-x="301" 
d="M119 581q0 27 -8 44.5t-22 27t-33.5 13t-42.5 3.5q-3 13 -3 26t9 17.5t22 4.5q40 0 66.5 -12.5t42.5 -32.5t22.5 -44.5t6.5 -48.5v-146q0 -51 17.5 -81.5t54.5 -30.5v-53q-36 0 -54 -30.5t-18 -81.5v-156q0 -24 -6.5 -48.5t-22.5 -44.5t-42.5 -32.5t-66.5 -12.5
q-13 0 -22 4.5t-9 17.5q0 12 3 26q23 0 42.5 3.5t33.5 13t22 27t8 44.5v151q0 25 3 49t11.5 43.5t22.5 33.5t36 19q-23 9 -37 23t-22 32.5t-11 41t-3 46.5v144z" />
    <glyph glyph-name="asciitilde" unicode="~" horiz-adv-x="540" 
d="M482 659q-2 -33 -12.5 -56.5t-26.5 -39.5t-36 -23.5t-41 -7.5q-32 0 -56 13.5t-46 30.5q-19 14 -38 24.5t-42 10.5q-32 0 -54 -19t-28 -57h-44q8 60 42.5 91.5t85.5 31.5q42 0 69.5 -16.5t51.5 -35.5q15 -11 29 -19t31 -8q35 0 50 22.5t20 57.5h45z" />
    <glyph glyph-name="uni00A0" unicode="&#xa0;" horiz-adv-x="200" 
 />
    <glyph glyph-name="exclamdown" unicode="&#xa1;" horiz-adv-x="226" 
d="M76 301q5 1 6.5 1h3.5q6 0 14.5 -1.5t16 -7t13 -15.5t5.5 -27v-461q-3 -1 -10 -1q-6 0 -14.5 1.5t-16 7t-13 15.5t-5.5 27v461zM56 424q0 21 14 36t34 15t34 -15t14 -36t-14 -36t-34 -15t-34 15t-14 36z" />
    <glyph glyph-name="cent" unicode="&#xa2;" horiz-adv-x="540" 
d="M434 201q6 -5 14.5 -14.5t8.5 -18.5q0 -11 -18 -27q-15 -14 -43.5 -27.5t-68.5 -17.5v-105h-51v105q-29 3 -62 14t-61 36.5t-46.5 69t-18.5 111.5q0 66 18.5 110.5t47 71.5t61 40t61.5 17v96h51v-94q42 -3 69 -15.5t44 -26.5q11 -9 14.5 -16t3.5 -14q0 -8 -5 -17.5
t-11 -19.5h-9q-17 25 -42.5 41.5t-63.5 19.5v-376q27 2 46.5 11.5t33.5 19.5q16 10 27 26zM149 327q0 -33 7 -63.5t22.5 -55t39.5 -41t58 -22.5v373q-35 -5 -59 -22t-39 -42.5t-22 -58t-7 -68.5z" />
    <glyph glyph-name="sterling" unicode="&#xa3;" horiz-adv-x="540" 
d="M138 0v295h-74v50h73v131q0 52 15.5 89t42 60t61.5 33.5t74 10.5q34 0 60.5 -7.5t46 -17t32 -19.5t18.5 -16q4 -4 8 -10t4 -13q0 -11 -20 -34h-11q-6 7 -16 18.5t-26.5 22t-40 18t-56.5 7.5q-27 0 -51.5 -7t-43 -24.5t-29 -45.5t-10.5 -70v-126h221v-50h-221v-245h272
q24 0 34.5 -8.5t10.5 -27.5v-5.5t-1 -8.5h-373z" />
    <glyph glyph-name="currency" unicode="&#xa4;" horiz-adv-x="526" 
d="M436 120l-51 50q-26 -20 -57.5 -31.5t-66.5 -11.5q-69 0 -122 41l-49 -48l-39 38l49 48q-20 26 -31 59.5t-11 67.5q0 35 11.5 69.5t31.5 60.5l-50 48l39 39l50 -50q26 19 56.5 29.5t64.5 10.5q69 0 123 -42l52 52l39 -39l-52 -51q19 -26 29.5 -59.5t10.5 -67.5
q0 -33 -10 -65.5t-29 -58.5l51 -51zM406 333q0 70 -36.5 114.5t-108.5 44.5t-109 -44.5t-37 -114.5q0 -69 37 -113.5t109 -44.5t108.5 44.5t36.5 113.5z" />
    <glyph glyph-name="yen" unicode="&#xa5;" horiz-adv-x="540" 
d="M39 667q5 2 12.5 3.5t19.5 1.5q20 0 30.5 -7t19.5 -24l151 -293l146 290q8 17 20 25t33 8q9 0 15 -0.5t13 -2.5l-176 -334h125v-47h-149v-88h149v-47h-149v-152h-59v152h-144v47h144v88h-144v47h119z" />
    <glyph glyph-name="brokenbar" unicode="&#xa6;" horiz-adv-x="259" 
d="M96 -188v403h57v-403h-57zM153 419h-57v375h57v-375z" />
    <glyph glyph-name="section" unicode="&#xa7;" horiz-adv-x="503" 
d="M70 307q0 25 9 45.5t22.5 36t28 26t26.5 15.5q-26 19 -42.5 42.5t-16.5 67.5q0 34 13 60.5t35.5 44.5t52 27t62.5 9q51 0 84 -14t51 -29q11 -9 14.5 -16t3.5 -14q0 -8 -5 -17.5t-11 -19.5h-9q-20 28 -50 45t-78 17q-21 0 -39.5 -6.5t-33 -18t-23 -28t-8.5 -36.5
q0 -22 7 -37.5t20 -27t32.5 -21t44.5 -19.5q31 -13 62 -27.5t55.5 -34t40 -45t15.5 -60.5q0 -29 -9.5 -51.5t-23 -38t-28.5 -25.5t-27 -15q26 -20 43 -42t17 -63q0 -36 -13 -62.5t-35.5 -44t-52 -26t-62.5 -8.5q-51 0 -86 13.5t-53 28.5q-11 9 -14.5 16t-3.5 14q0 8 6 18
t14 20h9q20 -28 51.5 -45t76.5 -17t74.5 22.5t29.5 67.5q0 21 -6.5 35t-20 25t-33 20.5t-46.5 21.5q-30 13 -60.5 28t-54.5 34.5t-39.5 46t-15.5 62.5zM130 308q0 -22 10 -39t29 -32t45.5 -28.5t58.5 -28.5l22 -10q8 3 21.5 10t26.5 19t22.5 29t9.5 40q0 24 -12.5 42.5
t-33 33t-46.5 26t-54 22.5l-23 9q-10 -3 -23 -10t-25 -18t-20 -27t-8 -38z" />
    <glyph glyph-name="dieresis" unicode="&#xa8;" horiz-adv-x="370" 
d="M315 585q0 -19 -12 -31.5t-31 -12.5t-31 12.5t-12 31.5t12.5 31.5t30.5 12.5t30.5 -12.5t12.5 -31.5zM141 585q0 -19 -12 -31.5t-31 -12.5q-20 0 -31.5 12.5t-11.5 31.5t12.5 31.5t30.5 12.5t30.5 -12.5t12.5 -31.5z" />
    <glyph glyph-name="copyright" unicode="&#xa9;" horiz-adv-x="796" 
d="M728 335q0 -72 -22.5 -135.5t-65 -111t-104 -75.5t-138.5 -28t-138.5 28t-104 75.5t-65 111t-22.5 135.5q0 71 22.5 134t65 110t104 74.5t138.5 27.5t138.5 -27.5t104 -74.5t65 -110t22.5 -134zM676 335q0 59 -18.5 113t-54 95t-87 65.5t-117.5 24.5t-117.5 -24.5
t-87 -65.5t-54 -95t-18.5 -113t18.5 -113.5t54 -96t87 -66.5t117.5 -25t117.5 25t87 66.5t54 96t18.5 113.5zM551 189q0 -9 -17 -26q-16 -14 -48.5 -28.5t-80.5 -14.5q-27 0 -60.5 9t-63 33t-49.5 67t-20 111q0 67 22 110t53 67.5t64 33.5t55 9q49 0 80.5 -13t48.5 -27
q10 -9 13.5 -15.5t3.5 -13.5t-5 -18t-10 -20h-9q-19 26 -46.5 42.5t-72.5 16.5q-38 0 -64 -14t-43 -38t-24.5 -55t-7.5 -65q0 -35 7.5 -66t24 -54.5t43 -37.5t65.5 -14q30 0 52 8t37 19q19 12 30 28q6 -5 14 -14t8 -20z" />
    <glyph glyph-name="ordfeminine" unicode="&#xaa;" horiz-adv-x="417" 
d="M377 323q-16 -4 -34 -4q-22 0 -39 9.5t-23 29.5q-22 -18 -49.5 -30t-65.5 -12q-18 0 -38 4t-37.5 15.5t-29 31.5t-11.5 52q0 39 21 63.5t51.5 38.5t65.5 19t64 5h14t13 -1q0 20 -3.5 37.5t-13.5 30t-27 19.5t-44 7q-35 0 -59 -10.5t-39 -22.5h-12q-13 19 -13 29
q0 6 6.5 12t16.5 11q19 11 47 17.5t57 6.5q77 0 108.5 -34t31.5 -105v-141q0 -39 11 -49t31 -10v-19zM280 511h-13q-28 0 -56.5 -4t-52 -14t-38.5 -27.5t-15 -45.5q0 -12 3.5 -23.5t11.5 -20.5t21 -15t32 -6q21 0 40.5 6t34.5 14t23.5 17t8.5 15v104z" />
    <glyph glyph-name="guillemotleft" unicode="&#xab;" horiz-adv-x="460" 
d="M294 272l90 -102q14 -17 14 -34q0 -8 -3 -18t-7 -16l-129 118q-13 11 -21 23t-8 29t9.5 29.5t22.5 23.5l126 118q5 -5 8.5 -14.5t3.5 -17.5q0 -21 -13 -34zM124 272l90 -102q14 -17 14 -34q0 -8 -3 -18t-7 -16l-129 118q-13 11 -21 23t-8 29t9.5 29.5t22.5 23.5l126 118
q5 -5 8.5 -14.5t3.5 -17.5q0 -21 -13 -34z" />
    <glyph glyph-name="logicalnot" unicode="&#xac;" horiz-adv-x="540" 
d="M424 185v181h-364v55h419v-236h-55z" />
    <glyph glyph-name="uni00AD" unicode="&#xad;" horiz-adv-x="444" 
d="M121 242q-25 0 -35 9.5t-10 25.5q0 5 0.5 8.5t1.5 8.5h251q22 0 34 -7.5t12 -27.5q0 -7 -2 -17h-252z" />
    <glyph glyph-name="registered" unicode="&#xae;" horiz-adv-x="796" 
d="M553 128q-7 -4 -22 -4q-29 0 -45 27l-91 152h-67v-175h-47v416q29 2 61 3t56 1q79 0 115 -33t36 -85q0 -27 -9 -48.5t-23 -36.5t-33 -24.5t-38 -12.5zM500 428q0 37 -24 57.5t-78 20.5q-28 0 -70 -3v-158h76q96 0 96 83zM728 335q0 -72 -22.5 -135.5t-65 -111t-104 -75.5
t-138.5 -28t-138.5 28t-104 75.5t-65 111t-22.5 135.5q0 71 22.5 134t65 110t104 74.5t138.5 27.5t138.5 -27.5t104 -74.5t65 -110t22.5 -134zM676 335q0 59 -18.5 113t-54 95t-87 65.5t-117.5 24.5t-117.5 -24.5t-87 -65.5t-54 -95t-18.5 -113t18.5 -113.5t54 -96t87 -66.5
t117.5 -25t117.5 25t87 66.5t54 96t18.5 113.5z" />
    <glyph glyph-name="macron" unicode="&#xaf;" horiz-adv-x="370" 
d="M80 558q-25 0 -35 8t-10 24q0 5 0.5 8.5t1.5 8.5h251q22 0 34 -7t12 -25q0 -7 -2 -17h-252z" />
    <glyph glyph-name="degree" unicode="&#xb0;" horiz-adv-x="377" 
d="M317 565q0 -26 -9.5 -49.5t-26.5 -40.5t-41 -27t-52 -10q-30 0 -54 10t-40.5 27t-25.5 40.5t-9 49.5q0 27 9.5 50t26.5 40.5t40.5 27.5t52.5 10q60 0 94.5 -35.5t34.5 -92.5zM268 565q0 35 -22.5 59t-57.5 24q-34 0 -55.5 -24t-21.5 -59q0 -34 21.5 -58t55.5 -24
q35 0 57.5 24t22.5 58z" />
    <glyph glyph-name="plusminus" unicode="&#xb1;" horiz-adv-x="540" 
d="M295 311v-158h-55v157h-158v55h158v159h55v-158h156v-55h-156zM82 -1v56h376v-56h-376z" />
    <glyph glyph-name="twosuperior" unicode="&#xb2;" 
d="M52 314v39q23 20 51 47.5t51 53.5q28 32 44.5 61t16.5 60q0 37 -19.5 50.5t-45.5 13.5q-28 0 -46.5 -12t-26.5 -22h-14q-9 9 -12 15.5t-3 10.5q0 8 11 17q3 3 11 8.5t20.5 11.5t28.5 10t35 4q51 0 80.5 -25t29.5 -79q0 -42 -21 -78t-49 -68q-19 -21 -37.5 -40t-33.5 -33
h121q20 0 29 -11t9 -24v-10h-230z" />
    <glyph glyph-name="threesuperior" unicode="&#xb3;" 
d="M278 417q0 -49 -32.5 -79.5t-93.5 -30.5q-22 0 -39.5 4.5t-30.5 10.5t-21 12t-11 9t-6 7.5t-3 9.5q0 11 23 37q4 -6 12.5 -14t20 -15t25.5 -12t30 -5q13 0 26.5 3t24 10.5t17 20t6.5 32.5q0 23 -9.5 36.5t-22 20t-25 8.5t-18.5 2h-29v42h29q6 0 17.5 2t22 8t18.5 18t8 32
q0 27 -16.5 40t-45.5 13q-31 0 -51.5 -14t-26.5 -21h-15q-16 15 -16 25q0 8 9 17q4 4 12 10t21 12t30.5 10.5t40.5 4.5q55 0 82.5 -25t27.5 -65q0 -18 -6 -32.5t-15 -25.5t-18.5 -18.5t-16.5 -10.5q10 -4 21.5 -11t21 -17.5t16 -25.5t6.5 -35z" />
    <glyph glyph-name="acute" unicode="&#xb4;" horiz-adv-x="370" 
d="M164 535q-14 -15 -33 -15q-8 0 -17.5 3t-13.5 6l85 110q10 14 19.5 22.5t24.5 8.5q13 0 25 -5t20 -11z" />
    <glyph glyph-name="mu" unicode="&#xb5;" horiz-adv-x="546" 
d="M405 54q-23 -24 -63.5 -43.5t-91.5 -19.5q-37 0 -65.5 8.5t-47.5 31.5v-249h-57v685h4q21 0 37 -11t16 -43v-231q0 -31 5.5 -56.5t20 -44t40 -28.5t65.5 -10q23 0 47.5 7t44.5 17.5t33 23.5t13 25v351h4q21 0 37 -11t16 -44v-307q0 -23 2.5 -38t10.5 -23.5t22 -12
t38 -3.5v-23q-12 -5 -25.5 -7.5t-26.5 -2.5q-40 0 -57 18t-22 41z" />
    <glyph glyph-name="paragraph" unicode="&#xb6;" horiz-adv-x="554" 
d="M268 -118v383h-18q-46 0 -82 16t-61 43t-38.5 63t-13.5 77q0 50 16.5 88.5t44.5 65t66 40t82 13.5h158q8 0 16.5 -1t15.5 -6t11.5 -15t4.5 -27v-740h-60v739h-84v-739h-58zM268 621h-18q-27 0 -51.5 -9t-43 -28t-29.5 -48.5t-11 -69.5q0 -32 9.5 -60t27 -48t43 -31.5
t57.5 -11.5h16v306z" />
    <glyph glyph-name="periodcentered" unicode="&#xb7;" horiz-adv-x="246" 
d="M181 348q0 -21 -14 -36t-34 -15t-34 15t-14 36t14 36t34 15t34 -15t14 -36z" />
    <glyph glyph-name="cedilla" unicode="&#xb8;" horiz-adv-x="370" 
d="M239 -124q0 -19 -7.5 -34.5t-19.5 -26.5t-27.5 -17t-31.5 -6q-27 0 -27 23q0 11 3 22q5 -1 10 -1h10q18 0 30 7.5t12 24.5q0 12 -6.5 20t-14 15.5t-14 16.5t-6.5 23q0 18 10.5 34.5t15.5 22.5h43q-6 -7 -14.5 -16t-8.5 -20q0 -10 6.5 -18t15 -17t15 -21.5t6.5 -31.5z" />
    <glyph glyph-name="onesuperior" unicode="&#xb9;" 
d="M162 314v306l-112 -59q-5 5 -9.5 15t-4.5 17q0 11 16 20l115 65q12 5 19 5q17 0 28 -7v-362h-52z" />
    <glyph glyph-name="ordmasculine" unicode="&#xba;" horiz-adv-x="450" 
d="M390 500q0 -37 -9 -71t-28.5 -59.5t-51.5 -41t-77 -15.5t-76 15t-50.5 40.5t-28.5 59t-9 69.5q0 37 10.5 70.5t31 59t52 40t73.5 14.5q44 0 75 -14.5t50.5 -39.5t28.5 -58t9 -69zM332 500q0 25 -4.5 50t-16.5 44.5t-32.5 31.5t-52.5 12q-31 0 -52 -12t-33.5 -31.5
t-18 -44.5t-5.5 -50q0 -26 5 -51t17 -45t32.5 -32.5t52.5 -12.5q33 0 54 12.5t33 32.5t16.5 45t4.5 51z" />
    <glyph glyph-name="guillemotright" unicode="&#xbb;" horiz-adv-x="460" 
d="M243 379q-13 13 -13 34q0 8 3.5 17.5t8.5 14.5l126 -118q13 -11 22.5 -23.5t9.5 -29.5t-8 -29t-21 -23l-129 -118q-4 6 -7 16t-3 18q0 17 14 34l90 102zM73 379q-13 13 -13 34q0 8 3.5 17.5t8.5 14.5l126 -118q13 -11 22.5 -23.5t9.5 -29.5t-8 -29t-21 -23l-129 -118
q-4 6 -7 16t-3 18q0 17 14 34l90 102z" />
    <glyph glyph-name="onequarter" unicode="&#xbc;" horiz-adv-x="810" 
d="M217 0h-57l359 644q11 20 21 28.5t27 8.5q13 0 23 -4l5 -2zM152 314v306l-112 -59q-5 5 -9.5 15t-4.5 17q0 11 16 20l115 65q12 5 19 5q17 0 28 -7v-362h-52zM455 79v39l172 245q5 6 10 10t16 4q14 0 22 -6v-250h16q31 0 31 -27q0 -2 -0.5 -4.5t-0.5 -4.5q-1 -2 -1 -6
h-45v-71h-50v71h-170zM625 121v173l-119 -173h119z" />
    <glyph glyph-name="onehalf" unicode="&#xbd;" horiz-adv-x="810" 
d="M193 0h-57l359 644q11 20 21 28.5t27 8.5q13 0 23 -4l5 -2zM139 314v306l-112 -59q-5 5 -9.5 15t-4.5 17q0 11 16 20l115 65q12 5 19 5q17 0 28 -7v-362h-52zM512 1v39q23 20 51 47.5t51 53.5q28 32 44.5 61t16.5 60q0 37 -19.5 50.5t-45.5 13.5q-28 0 -46.5 -12
t-26.5 -22h-14q-9 9 -12 15.5t-3 10.5q0 8 11 17q3 3 11 8.5t20.5 11.5t28.5 10t35 4q51 0 80.5 -25t29.5 -79q0 -42 -21 -78t-49 -68q-19 -21 -37.5 -40t-33.5 -33h121q20 0 29 -11t9 -24v-10h-230z" />
    <glyph glyph-name="threequarters" unicode="&#xbe;" horiz-adv-x="810" 
d="M245 0h-57l359 644q11 20 21 28.5t27 8.5q13 0 23 -4l5 -2zM287 417q0 -49 -32.5 -79.5t-93.5 -30.5q-22 0 -39.5 4.5t-30.5 10.5t-21 12t-11 9t-6 7.5t-3 9.5q0 11 23 37q4 -6 12.5 -14t20 -15t25.5 -12t30 -5q13 0 26.5 3t24 10.5t17 20t6.5 32.5q0 23 -9.5 36.5
t-22 20t-25 8.5t-18.5 2h-29v42h29q6 0 17.5 2t22 8t18.5 18t8 32q0 27 -16.5 40t-45.5 13q-31 0 -51.5 -14t-26.5 -21h-15q-16 15 -16 25q0 8 9 17q4 4 12 10t21 12t30.5 10.5t40.5 4.5q55 0 82.5 -25t27.5 -65q0 -18 -6 -32.5t-15 -25.5t-18.5 -18.5t-16.5 -10.5
q10 -4 21.5 -11t21 -17.5t16 -25.5t6.5 -35zM455 79v39l172 245q5 6 10 10t16 4q14 0 22 -6v-250h16q31 0 31 -27q0 -2 -0.5 -4.5t-0.5 -4.5q-1 -2 -1 -6h-45v-71h-50v71h-170zM625 121v173l-119 -173h119z" />
    <glyph glyph-name="questiondown" unicode="&#xbf;" horiz-adv-x="431" 
d="M223 288q2 1 6 1h6q41 0 41 -50q0 -20 -8.5 -38.5t-22.5 -36t-31.5 -34.5t-34.5 -34q-29 -28 -52.5 -61t-23.5 -76q0 -34 11 -58.5t29.5 -40t43 -23t51.5 -7.5q30 0 54 7t41.5 16.5t29.5 20t18 16.5h11q20 -23 20 -34q0 -7 -4 -13t-8 -10q-6 -6 -18.5 -15t-33 -17.5
t-49 -15t-65.5 -6.5q-38 0 -73 10t-61 31.5t-41.5 54t-15.5 77.5q0 30 7.5 54.5t20 45t28.5 37.5t33 33q18 16 34.5 31t30 31.5t21.5 34t8 38.5q0 7 -0.5 15.5t-2.5 15.5zM198 424q0 21 14 36t34 15t34 -15t14 -36t-14 -36t-34 -15t-34 15t-14 36z" />
    <glyph glyph-name="Agrave" unicode="&#xc0;" horiz-adv-x="610" 
d="M522 0l-69 187h-299l-69 -187h-60l252 665q5 2 12.5 4t16.5 2q12 0 20.5 -6t14.5 -22l244 -643h-63zM303 595l-131 -358h261zM173 809q8 9 19.5 18.5t25.5 9.5q11 0 21 -5.5t21 -14.5l110 -87q-4 -6 -14.5 -11t-20.5 -5q-12 0 -26 8z" />
    <glyph glyph-name="Aacute" unicode="&#xc1;" horiz-adv-x="610" 
d="M522 0l-69 187h-299l-69 -187h-60l252 665q5 2 12.5 4t16.5 2q12 0 20.5 -6t14.5 -22l244 -643h-63zM303 595l-131 -358h261zM317 722q-14 -8 -26 -8q-10 0 -20.5 5t-14.5 11l110 87q11 9 21 14.5t21 5.5q14 0 25.5 -9.5t19.5 -18.5z" />
    <glyph glyph-name="Acircumflex" unicode="&#xc2;" horiz-adv-x="610" 
d="M522 0l-69 187h-299l-69 -187h-60l252 665q5 2 12.5 4t16.5 2q12 0 20.5 -6t14.5 -22l244 -643h-63zM303 595l-131 -358h261zM304 786l-64 -58q-17 -14 -34 -14q-8 0 -15.5 3t-11.5 6l79 92q11 13 20.5 21t26.5 8t27 -8.5t21 -21.5l78 -91q-4 -3 -11.5 -6t-15.5 -3
q-21 0 -34 13z" />
    <glyph glyph-name="Atilde" unicode="&#xc3;" horiz-adv-x="610" 
d="M522 0l-69 187h-299l-69 -187h-60l252 665q5 2 12.5 4t16.5 2q12 0 20.5 -6t14.5 -22l244 -643h-63zM303 595l-131 -358h261zM365 735q-21 0 -38 6t-31.5 12.5t-28 12.5t-27.5 6q-20 0 -36 -12t-31 -31q-7 4 -12.5 12.5t-5.5 19.5t8.5 21.5t21.5 19t28.5 13.5t30.5 5
q21 0 37.5 -6t30 -13t26.5 -13t27 -6q20 0 35 13.5t31 36.5q6 -2 14 -11.5t8 -23.5q0 -9 -7 -20t-19 -20t-28 -15.5t-34 -6.5z" />
    <glyph glyph-name="Adieresis" unicode="&#xc4;" horiz-adv-x="610" 
d="M522 0l-69 187h-299l-69 -187h-60l252 665q5 2 12.5 4t16.5 2q12 0 20.5 -6t14.5 -22l244 -643h-63zM303 595l-131 -358h261zM435 769q0 -19 -12 -31.5t-31 -12.5t-31 12.5t-12 31.5t12.5 31.5t30.5 12.5t30.5 -12.5t12.5 -31.5zM261 769q0 -19 -12 -31.5t-31 -12.5
q-20 0 -31.5 12.5t-11.5 31.5t12.5 31.5t30.5 12.5t30.5 -12.5t12.5 -31.5z" />
    <glyph glyph-name="Aring" unicode="&#xc5;" horiz-adv-x="610" 
d="M407 750q0 -35 -18.5 -62.5t-50.5 -37.5l3 -7l244 -643h-63l-69 187h-299l-69 -187h-60l246 650q-32 10 -50.5 37t-18.5 62q0 45 27.5 75.5t75.5 30.5t75 -31t27 -74zM303 595l-131 -358h261zM364 750q0 26 -16.5 46t-42.5 20q-27 0 -43.5 -20t-16.5 -46t16 -46.5
t44 -20.5q27 0 43 20t16 46v1z" />
    <glyph glyph-name="AE" unicode="&#xc6;" horiz-adv-x="864" 
d="M506 50h290q26 0 32 -10t6 -24q0 -6 -2 -16h-385v185h-259l-106 -185h-67l370 618q14 23 29 37t44 14h362q2 -10 2 -16q0 -14 -6.5 -24t-32.5 -10h-277v-242h236v-51h-236v-276zM447 237v381l-228 -381h228z" />
    <glyph glyph-name="Ccedilla" unicode="&#xc7;" horiz-adv-x="596" 
d="M399 -124q0 -19 -7.5 -34.5t-19.5 -26.5t-27.5 -17t-31.5 -6q-27 0 -27 23q0 11 3 22q5 -1 10 -1h10q18 0 30 7.5t12 24.5q0 12 -6.5 20t-14 15.5t-14 16.5t-6.5 23q0 12 4.5 23.5t10.5 19.5q-69 5 -118 33t-80.5 74t-46.5 107t-15 132q0 75 17.5 139t53.5 110.5t92 73
t133 26.5q40 0 71.5 -8.5t54 -20t36 -22.5t19.5 -17q4 -4 8 -10t4 -13q0 -11 -20 -34h-11q-6 7 -19 19.5t-33.5 24.5t-48.5 21t-64 9q-68 0 -112.5 -26t-71 -68t-37 -95.5t-10.5 -108.5q0 -57 11.5 -110.5t38.5 -95.5t72 -67t112 -25q39 0 69.5 12t52.5 27q27 19 45 40
q9 -8 18.5 -18.5t9.5 -18.5q0 -9 -10 -20q-5 -6 -19 -17t-36.5 -23t-54 -21t-71.5 -10q-9 -11 -9 -21t6.5 -18t15 -17t15 -21.5t6.5 -31.5z" />
    <glyph glyph-name="Egrave" unicode="&#xc8;" horiz-adv-x="493" 
d="M85 0v669h371q1 -5 1 -6v-3q0 -19 -11 -30t-35 -11h-267v-242h236v-51h-236v-276h280q24 0 36.5 -11t12.5 -30q0 -5 -1 -9h-387zM162 809q8 9 19.5 18.5t25.5 9.5q11 0 21 -5.5t21 -14.5l110 -87q-4 -6 -14.5 -11t-20.5 -5q-12 0 -26 8z" />
    <glyph glyph-name="Eacute" unicode="&#xc9;" horiz-adv-x="493" 
d="M85 0v669h371q1 -5 1 -6v-3q0 -19 -11 -30t-35 -11h-267v-242h236v-51h-236v-276h280q24 0 36.5 -11t12.5 -30q0 -5 -1 -9h-387zM249 722q-14 -8 -26 -8q-10 0 -20.5 5t-14.5 11l110 87q11 9 21 14.5t21 5.5q14 0 25.5 -9.5t19.5 -18.5z" />
    <glyph glyph-name="Ecircumflex" unicode="&#xca;" horiz-adv-x="493" 
d="M85 0v669h371q1 -5 1 -6v-3q0 -19 -11 -30t-35 -11h-267v-242h236v-51h-236v-276h280q24 0 36.5 -11t12.5 -30q0 -5 -1 -9h-387zM275 786l-64 -58q-17 -14 -34 -14q-8 0 -15.5 3t-11.5 6l79 92q11 13 20.5 21t26.5 8t27 -8.5t21 -21.5l78 -91q-4 -3 -11.5 -6t-15.5 -3
q-21 0 -34 13z" />
    <glyph glyph-name="Edieresis" unicode="&#xcb;" horiz-adv-x="493" 
d="M85 0v669h371q1 -5 1 -6v-3q0 -19 -11 -30t-35 -11h-267v-242h236v-51h-236v-276h280q24 0 36.5 -11t12.5 -30q0 -5 -1 -9h-387zM400 789q0 -19 -12 -31.5t-31 -12.5t-31 12.5t-12 31.5t12.5 31.5t30.5 12.5t30.5 -12.5t12.5 -31.5zM226 789q0 -19 -12 -31.5t-31 -12.5
q-20 0 -31.5 12.5t-11.5 31.5t12.5 31.5t30.5 12.5t30.5 -12.5t12.5 -31.5z" />
    <glyph glyph-name="Igrave" unicode="&#xcc;" horiz-adv-x="229" 
d="M144 0h-59v670q5 1 7 1h4q6 0 14 -1.5t15.5 -7t13 -15.5t5.5 -27v-620zM-25 809q8 9 19.5 18.5t25.5 9.5q11 0 21 -5.5t21 -14.5l110 -87q-4 -6 -14.5 -11t-20.5 -5q-12 0 -26 8z" />
    <glyph glyph-name="Iacute" unicode="&#xcd;" horiz-adv-x="229" 
d="M144 0h-59v670q5 1 7 1h4q6 0 14 -1.5t15.5 -7t13 -15.5t5.5 -27v-620zM115 722q-14 -8 -26 -8q-10 0 -20.5 5t-14.5 11l110 87q11 9 21 14.5t21 5.5q14 0 25.5 -9.5t19.5 -18.5z" />
    <glyph glyph-name="Icircumflex" unicode="&#xce;" horiz-adv-x="229" 
d="M144 0h-59v670q5 1 7 1h4q6 0 14 -1.5t15.5 -7t13 -15.5t5.5 -27v-620zM115 786l-64 -58q-17 -14 -34 -14q-8 0 -15.5 3t-11.5 6l79 92q11 13 20.5 21t26.5 8t27 -8.5t21 -21.5l78 -91q-4 -3 -11.5 -6t-15.5 -3q-21 0 -34 13z" />
    <glyph glyph-name="Idieresis" unicode="&#xcf;" horiz-adv-x="229" 
d="M144 0h-59v670q5 1 7 1h4q6 0 14 -1.5t15.5 -7t13 -15.5t5.5 -27v-620zM246 769q0 -19 -12 -31.5t-31 -12.5t-31 12.5t-12 31.5t12.5 31.5t30.5 12.5t30.5 -12.5t12.5 -31.5zM72 769q0 -19 -12 -31.5t-31 -12.5q-20 0 -31.5 12.5t-11.5 31.5t12.5 31.5t30.5 12.5
t30.5 -12.5t12.5 -31.5z" />
    <glyph glyph-name="Eth" unicode="&#xd0;" horiz-adv-x="631" 
d="M19 371h66v296q48 5 86.5 7t73.5 2q100 0 164.5 -27t101.5 -73t51 -107t14 -129q0 -70 -17 -132t-53 -108t-92 -73t-134 -27h-195v323h-66v48zM514 340q0 60 -12 112t-42.5 90.5t-82 61t-129.5 22.5q-24 0 -50.5 -1t-53.5 -4v-250h196v-48h-196v-274h118q81 0 130.5 27
t76.5 69.5t36 94t9 100.5z" />
    <glyph glyph-name="Ntilde" unicode="&#xd1;" horiz-adv-x="661" 
d="M576 0h-61l-375 568v-568h-55v667q9 4 28 4q15 0 24 -5.5t19 -20.5l365 -562v587q5 1 8 1h5q6 0 13.5 -1.5t13.5 -7t10.5 -15.5t4.5 -27v-620zM395 735q-21 0 -38 6t-31.5 12.5t-28 12.5t-27.5 6q-20 0 -36 -12t-31 -31q-7 4 -12.5 12.5t-5.5 19.5t8.5 21.5t21.5 19
t28.5 13.5t30.5 5q21 0 37.5 -6t30 -13t26.5 -13t27 -6q20 0 35 13.5t31 36.5q6 -2 14 -11.5t8 -23.5q0 -9 -7 -20t-19 -20t-28 -15.5t-34 -6.5z" />
    <glyph glyph-name="Ograve" unicode="&#xd2;" horiz-adv-x="696" 
d="M631 338q0 -71 -16 -135t-50.5 -112.5t-89 -77t-130.5 -28.5q-77 0 -130 29.5t-86.5 78.5t-48.5 112.5t-15 131.5t16.5 130.5t52 110t90 75.5t130.5 28q74 0 126.5 -27t86 -74t49 -109.5t15.5 -132.5zM568 337q0 59 -11 112t-36 93.5t-66 64t-102 23.5q-64 0 -107 -23.5
t-69 -64t-37 -93.5t-11 -112t11 -113.5t36.5 -96.5t68 -67t104.5 -25t104 25t67.5 67t36.5 96.5t11 113.5zM229 809q8 9 19.5 18.5t25.5 9.5q11 0 21 -5.5t21 -14.5l110 -87q-4 -6 -14.5 -11t-20.5 -5q-12 0 -26 8z" />
    <glyph glyph-name="Oacute" unicode="&#xd3;" horiz-adv-x="696" 
d="M631 338q0 -71 -16 -135t-50.5 -112.5t-89 -77t-130.5 -28.5q-77 0 -130 29.5t-86.5 78.5t-48.5 112.5t-15 131.5t16.5 130.5t52 110t90 75.5t130.5 28q74 0 126.5 -27t86 -74t49 -109.5t15.5 -132.5zM568 337q0 59 -11 112t-36 93.5t-66 64t-102 23.5q-64 0 -107 -23.5
t-69 -64t-37 -93.5t-11 -112t11 -113.5t36.5 -96.5t68 -67t104.5 -25t104 25t67.5 67t36.5 96.5t11 113.5zM367 722q-14 -8 -26 -8q-10 0 -20.5 5t-14.5 11l110 87q11 9 21 14.5t21 5.5q14 0 25.5 -9.5t19.5 -18.5z" />
    <glyph glyph-name="Ocircumflex" unicode="&#xd4;" horiz-adv-x="696" 
d="M631 338q0 -71 -16 -135t-50.5 -112.5t-89 -77t-130.5 -28.5q-77 0 -130 29.5t-86.5 78.5t-48.5 112.5t-15 131.5t16.5 130.5t52 110t90 75.5t130.5 28q74 0 126.5 -27t86 -74t49 -109.5t15.5 -132.5zM568 337q0 59 -11 112t-36 93.5t-66 64t-102 23.5q-64 0 -107 -23.5
t-69 -64t-37 -93.5t-11 -112t11 -113.5t36.5 -96.5t68 -67t104.5 -25t104 25t67.5 67t36.5 96.5t11 113.5zM347 786l-64 -58q-17 -14 -34 -14q-8 0 -15.5 3t-11.5 6l79 92q11 13 20.5 21t26.5 8t27 -8.5t21 -21.5l78 -91q-4 -3 -11.5 -6t-15.5 -3q-21 0 -34 13z" />
    <glyph glyph-name="Otilde" unicode="&#xd5;" horiz-adv-x="696" 
d="M631 338q0 -71 -16 -135t-50.5 -112.5t-89 -77t-130.5 -28.5q-77 0 -130 29.5t-86.5 78.5t-48.5 112.5t-15 131.5t16.5 130.5t52 110t90 75.5t130.5 28q74 0 126.5 -27t86 -74t49 -109.5t15.5 -132.5zM568 337q0 59 -11 112t-36 93.5t-66 64t-102 23.5q-64 0 -107 -23.5
t-69 -64t-37 -93.5t-11 -112t11 -113.5t36.5 -96.5t68 -67t104.5 -25t104 25t67.5 67t36.5 96.5t11 113.5zM416 735q-21 0 -38 6t-31.5 12.5t-28 12.5t-27.5 6q-20 0 -36 -12t-31 -31q-7 4 -12.5 12.5t-5.5 19.5t8.5 21.5t21.5 19t28.5 13.5t30.5 5q21 0 37.5 -6t30 -13
t26.5 -13t27 -6q20 0 35 13.5t31 36.5q6 -2 14 -11.5t8 -23.5q0 -9 -7 -20t-19 -20t-28 -15.5t-34 -6.5z" />
    <glyph glyph-name="Odieresis" unicode="&#xd6;" horiz-adv-x="696" 
d="M631 338q0 -71 -16 -135t-50.5 -112.5t-89 -77t-130.5 -28.5q-77 0 -130 29.5t-86.5 78.5t-48.5 112.5t-15 131.5t16.5 130.5t52 110t90 75.5t130.5 28q74 0 126.5 -27t86 -74t49 -109.5t15.5 -132.5zM568 337q0 59 -11 112t-36 93.5t-66 64t-102 23.5q-64 0 -107 -23.5
t-69 -64t-37 -93.5t-11 -112t11 -113.5t36.5 -96.5t68 -67t104.5 -25t104 25t67.5 67t36.5 96.5t11 113.5zM478 789q0 -19 -12 -31.5t-31 -12.5t-31 12.5t-12 31.5t12.5 31.5t30.5 12.5t30.5 -12.5t12.5 -31.5zM304 789q0 -19 -12 -31.5t-31 -12.5q-20 0 -31.5 12.5
t-11.5 31.5t12.5 31.5t30.5 12.5t30.5 -12.5t12.5 -31.5z" />
    <glyph glyph-name="multiply" unicode="&#xd7;" horiz-adv-x="540" 
d="M406 164l-136 136l-136 -136l-40 40l136 136l-136 135l40 41l136 -137l135 137l40 -41l-136 -136l136 -135z" />
    <glyph glyph-name="Oslash" unicode="&#xd8;" horiz-adv-x="696" 
d="M631 338q0 -71 -16 -135t-50.5 -112.5t-89 -77t-130.5 -28.5q-75 0 -130 29l-4 3l-49 -89l-42 23l51 93q-24 22 -43 49q-33 49 -48 112t-15 132q0 68 16.5 130.5t52 110t90 75.5t130.5 28q73 0 126 -27l21 -12l43 77l41 -22l-47 -85q8 -8 15 -16t13 -16q34 -48 49.5 -110
t15.5 -132zM455 606q-41 24 -102 24q-64 0 -107 -23.5t-69 -64t-37 -93.5t-11 -112q0 -60 11 -114t36 -96q12 -18 24 -32l274 498q-8 7 -19 13zM568 337q0 60 -11 112.5t-36 92.5l-12 17l-272 -495q2 -1 3.5 -2t3.5 -2q43 -25 105 -25t104 25t67.5 67t36.5 96.5t11 113.5z
" />
    <glyph glyph-name="Ugrave" unicode="&#xd9;" horiz-adv-x="638" 
d="M558 263q0 -20 -0.5 -41t-2.5 -39q-4 -42 -20 -78t-45 -63t-71 -42t-99 -15q-112 0 -168 51t-67 147q-2 18 -3.5 39t-1.5 41v407q5 1 7 1h4q6 0 14 -1.5t15.5 -7t13 -15.5t5.5 -27v-371q0 -30 3 -58t11 -51q7 -21 19.5 -40.5t32.5 -34t49 -23.5t68 -9q129 0 164 105
q8 23 10.5 52t2.5 59v421q5 1 7 1h4q6 0 14 -1.5t15.5 -7t13 -15.5t5.5 -27v-357zM220 809q8 9 19.5 18.5t25.5 9.5q11 0 21 -5.5t21 -14.5l110 -87q-4 -6 -14.5 -11t-20.5 -5q-12 0 -26 8z" />
    <glyph glyph-name="Uacute" unicode="&#xda;" horiz-adv-x="638" 
d="M558 263q0 -20 -0.5 -41t-2.5 -39q-4 -42 -20 -78t-45 -63t-71 -42t-99 -15q-112 0 -168 51t-67 147q-2 18 -3.5 39t-1.5 41v407q5 1 7 1h4q6 0 14 -1.5t15.5 -7t13 -15.5t5.5 -27v-371q0 -30 3 -58t11 -51q7 -21 19.5 -40.5t32.5 -34t49 -23.5t68 -9q129 0 164 105
q8 23 10.5 52t2.5 59v421q5 1 7 1h4q6 0 14 -1.5t15.5 -7t13 -15.5t5.5 -27v-357zM307 722q-14 -8 -26 -8q-10 0 -20.5 5t-14.5 11l110 87q11 9 21 14.5t21 5.5q14 0 25.5 -9.5t19.5 -18.5z" />
    <glyph glyph-name="Ucircumflex" unicode="&#xdb;" horiz-adv-x="638" 
d="M558 263q0 -20 -0.5 -41t-2.5 -39q-4 -42 -20 -78t-45 -63t-71 -42t-99 -15q-112 0 -168 51t-67 147q-2 18 -3.5 39t-1.5 41v407q5 1 7 1h4q6 0 14 -1.5t15.5 -7t13 -15.5t5.5 -27v-371q0 -30 3 -58t11 -51q7 -21 19.5 -40.5t32.5 -34t49 -23.5t68 -9q129 0 164 105
q8 23 10.5 52t2.5 59v421q5 1 7 1h4q6 0 14 -1.5t15.5 -7t13 -15.5t5.5 -27v-357zM324 786l-64 -58q-17 -14 -34 -14q-8 0 -15.5 3t-11.5 6l79 92q11 13 20.5 21t26.5 8t27 -8.5t21 -21.5l78 -91q-4 -3 -11.5 -6t-15.5 -3q-21 0 -34 13z" />
    <glyph glyph-name="Udieresis" unicode="&#xdc;" horiz-adv-x="638" 
d="M558 263q0 -20 -0.5 -41t-2.5 -39q-4 -42 -20 -78t-45 -63t-71 -42t-99 -15q-112 0 -168 51t-67 147q-2 18 -3.5 39t-1.5 41v407q5 1 7 1h4q6 0 14 -1.5t15.5 -7t13 -15.5t5.5 -27v-371q0 -30 3 -58t11 -51q7 -21 19.5 -40.5t32.5 -34t49 -23.5t68 -9q129 0 164 105
q8 23 10.5 52t2.5 59v421q5 1 7 1h4q6 0 14 -1.5t15.5 -7t13 -15.5t5.5 -27v-357zM454 769q0 -19 -12 -31.5t-31 -12.5t-31 12.5t-12 31.5t12.5 31.5t30.5 12.5t30.5 -12.5t12.5 -31.5zM280 769q0 -19 -12 -31.5t-31 -12.5q-20 0 -31.5 12.5t-11.5 31.5t12.5 31.5t30.5 12.5
t30.5 -12.5t12.5 -31.5z" />
    <glyph glyph-name="Yacute" unicode="&#xdd;" horiz-adv-x="499" 
d="M279 288v-288h-59v287l-215 380q5 2 12.5 3.5t19.5 1.5q20 0 30.5 -8t19.5 -25l165 -291l160 288q9 16 21 25.5t33 9.5q9 0 15 -0.5t13 -2.5zM241 722q-14 -8 -26 -8q-10 0 -20.5 5t-14.5 11l110 87q11 9 21 14.5t21 5.5q14 0 25.5 -9.5t19.5 -18.5z" />
    <glyph glyph-name="Thorn" unicode="&#xde;" horiz-adv-x="544" 
d="M432 348q0 43 -15.5 71t-42 45t-62.5 24t-76 7q-32 0 -52.5 -1t-40.5 -3v-309h97q91 0 141.5 38.5t50.5 127.5zM143 540q22 2 44.5 3t45.5 1q135 0 198 -48t63 -142q0 -65 -21.5 -108t-58 -68t-84.5 -35t-100 -10h-86v-133h-59v670q5 1 7 1h4q6 0 14 -1.5t15.5 -7
t12.5 -15.5t5 -27v-80z" />
    <glyph glyph-name="germandbls" unicode="&#xdf;" horiz-adv-x="537" 
d="M258 341q0 21 6 38.5t16.5 32t23 26.5t26.5 24q24 22 42.5 48t18.5 59q0 42 -33 71t-93 29q-51 0 -85 -23.5t-40 -72.5q-3 -20 -3 -42v-531h-57v519q0 14 0.5 31.5t2.5 29.5q5 34 21.5 59.5t41 43t55 26t64.5 8.5q40 0 73.5 -10t58.5 -28.5t39 -46t14 -62.5
q0 -43 -23 -75t-52 -57t-45 -44.5t-16 -46.5q0 -33 25.5 -52t60.5 -32q20 -9 38.5 -20t33 -27t23 -38t8.5 -52q0 -27 -9 -52.5t-28.5 -45t-50 -31.5t-72.5 -12q-54 0 -88.5 12.5t-48.5 23.5t-14 24q0 7 4 14.5t15 22.5q7 -6 19 -14.5t28.5 -16t38.5 -13t49 -5.5q18 0 36.5 5
t32.5 15.5t23 27.5t9 41q0 42 -23 63t-57 35q-21 8 -40.5 17.5t-35 23.5t-24.5 33.5t-9 46.5z" />
    <glyph glyph-name="agrave" unicode="&#xe0;" horiz-adv-x="486" 
d="M461 0q-20 -5 -36 -5q-30 0 -52 14.5t-24 48.5q-29 -29 -68.5 -48t-93.5 -19q-23 0 -48.5 5.5t-47.5 20.5t-36.5 41.5t-14.5 68.5q0 51 27 83.5t67 50.5t85.5 24.5t83.5 6.5q12 0 23 -0.5t22 -1.5v24q0 24 -5 44.5t-17.5 35.5t-35 23.5t-58.5 8.5q-48 0 -83 -13t-55 -29
h-9q-14 20 -14 33q0 8 7.5 14.5t18.5 12.5q26 14 65 22.5t75 8.5q49 0 81.5 -11t52 -32.5t27.5 -53t8 -73.5v-200q0 -28 4 -44t11 -24.5t17 -11t23 -3.5v-22zM349 249q-6 1 -12.5 1h-13.5q-39 0 -78.5 -4.5t-72 -18t-52.5 -37t-20 -61.5q0 -17 4.5 -33.5t15.5 -29
t29.5 -20.5t47.5 -8q31 0 58.5 9t48.5 22t33 26.5t12 22.5v131zM127 654q8 6 20 11t25 5q15 0 24.5 -8.5t19.5 -22.5l85 -110q-4 -3 -12.5 -6t-18.5 -3q-20 0 -33 15z" />
    <glyph glyph-name="aacute" unicode="&#xe1;" horiz-adv-x="486" 
d="M461 0q-20 -5 -36 -5q-30 0 -52 14.5t-24 48.5q-29 -29 -68.5 -48t-93.5 -19q-23 0 -48.5 5.5t-47.5 20.5t-36.5 41.5t-14.5 68.5q0 51 27 83.5t67 50.5t85.5 24.5t83.5 6.5q12 0 23 -0.5t22 -1.5v24q0 24 -5 44.5t-17.5 35.5t-35 23.5t-58.5 8.5q-48 0 -83 -13t-55 -29
h-9q-14 20 -14 33q0 8 7.5 14.5t18.5 12.5q26 14 65 22.5t75 8.5q49 0 81.5 -11t52 -32.5t27.5 -53t8 -73.5v-200q0 -28 4 -44t11 -24.5t17 -11t23 -3.5v-22zM349 249q-6 1 -12.5 1h-13.5q-39 0 -78.5 -4.5t-72 -18t-52.5 -37t-20 -61.5q0 -17 4.5 -33.5t15.5 -29
t29.5 -20.5t47.5 -8q31 0 58.5 9t48.5 22t33 26.5t12 22.5v131zM260 535q-14 -15 -33 -15q-8 0 -17.5 3t-13.5 6l85 110q10 14 19.5 22.5t24.5 8.5q13 0 25 -5t20 -11z" />
    <glyph glyph-name="acircumflex" unicode="&#xe2;" horiz-adv-x="486" 
d="M461 0q-20 -5 -36 -5q-30 0 -52 14.5t-24 48.5q-29 -29 -68.5 -48t-93.5 -19q-23 0 -48.5 5.5t-47.5 20.5t-36.5 41.5t-14.5 68.5q0 51 27 83.5t67 50.5t85.5 24.5t83.5 6.5q12 0 23 -0.5t22 -1.5v24q0 24 -5 44.5t-17.5 35.5t-35 23.5t-58.5 8.5q-48 0 -83 -13t-55 -29
h-9q-14 20 -14 33q0 8 7.5 14.5t18.5 12.5q26 14 65 22.5t75 8.5q49 0 81.5 -11t52 -32.5t27.5 -53t8 -73.5v-200q0 -28 4 -44t11 -24.5t17 -11t23 -3.5v-22zM349 249q-6 1 -12.5 1h-13.5q-39 0 -78.5 -4.5t-72 -18t-52.5 -37t-20 -61.5q0 -17 4.5 -33.5t15.5 -29
t29.5 -20.5t47.5 -8q31 0 58.5 9t48.5 22t33 26.5t12 22.5v131zM234 615l-63 -72q-15 -17 -37 -17q-18 0 -28 10l81 103q11 14 20 22.5t26 8.5t26 -8.5t20 -22.5l83 -106q-5 -3 -12.5 -6t-16.5 -3q-20 0 -36 18z" />
    <glyph glyph-name="atilde" unicode="&#xe3;" horiz-adv-x="486" 
d="M461 0q-20 -5 -36 -5q-30 0 -52 14.5t-24 48.5q-29 -29 -68.5 -48t-93.5 -19q-23 0 -48.5 5.5t-47.5 20.5t-36.5 41.5t-14.5 68.5q0 51 27 83.5t67 50.5t85.5 24.5t83.5 6.5q12 0 23 -0.5t22 -1.5v24q0 24 -5 44.5t-17.5 35.5t-35 23.5t-58.5 8.5q-48 0 -83 -13t-55 -29
h-9q-14 20 -14 33q0 8 7.5 14.5t18.5 12.5q26 14 65 22.5t75 8.5q49 0 81.5 -11t52 -32.5t27.5 -53t8 -73.5v-200q0 -28 4 -44t11 -24.5t17 -11t23 -3.5v-22zM349 249q-6 1 -12.5 1h-13.5q-39 0 -78.5 -4.5t-72 -18t-52.5 -37t-20 -61.5q0 -17 4.5 -33.5t15.5 -29
t29.5 -20.5t47.5 -8q31 0 58.5 9t48.5 22t33 26.5t12 22.5v131zM295 540q-21 0 -38 6t-31.5 12.5t-28 12.5t-27.5 6q-20 0 -36 -12t-31 -31q-7 4 -12.5 12.5t-5.5 19.5t8.5 21.5t21.5 19t28.5 13.5t30.5 5q21 0 37.5 -6t30 -13t26.5 -13t27 -6q20 0 35 13.5t31 36.5
q6 -2 14 -11.5t8 -23.5q0 -9 -7 -20t-19 -20t-28 -15.5t-34 -6.5z" />
    <glyph glyph-name="adieresis" unicode="&#xe4;" horiz-adv-x="486" 
d="M461 0q-20 -5 -36 -5q-30 0 -52 14.5t-24 48.5q-29 -29 -68.5 -48t-93.5 -19q-23 0 -48.5 5.5t-47.5 20.5t-36.5 41.5t-14.5 68.5q0 51 27 83.5t67 50.5t85.5 24.5t83.5 6.5q12 0 23 -0.5t22 -1.5v24q0 24 -5 44.5t-17.5 35.5t-35 23.5t-58.5 8.5q-48 0 -83 -13t-55 -29
h-9q-14 20 -14 33q0 8 7.5 14.5t18.5 12.5q26 14 65 22.5t75 8.5q49 0 81.5 -11t52 -32.5t27.5 -53t8 -73.5v-200q0 -28 4 -44t11 -24.5t17 -11t23 -3.5v-22zM349 249q-6 1 -12.5 1h-13.5q-39 0 -78.5 -4.5t-72 -18t-52.5 -37t-20 -61.5q0 -17 4.5 -33.5t15.5 -29
t29.5 -20.5t47.5 -8q31 0 58.5 9t48.5 22t33 26.5t12 22.5v131zM367 585q0 -19 -12 -31.5t-31 -12.5t-31 12.5t-12 31.5t12.5 31.5t30.5 12.5t30.5 -12.5t12.5 -31.5zM193 585q0 -19 -12 -31.5t-31 -12.5q-20 0 -31.5 12.5t-11.5 31.5t12.5 31.5t30.5 12.5t30.5 -12.5
t12.5 -31.5z" />
    <glyph glyph-name="aring" unicode="&#xe5;" horiz-adv-x="486" 
d="M461 0q-20 -5 -36 -5q-30 0 -52 14.5t-24 48.5q-29 -29 -68.5 -48t-93.5 -19q-23 0 -48.5 5.5t-47.5 20.5t-36.5 41.5t-14.5 68.5q0 51 27 83.5t67 50.5t85.5 24.5t83.5 6.5q12 0 23 -0.5t22 -1.5v24q0 24 -5 44.5t-17.5 35.5t-35 23.5t-58.5 8.5q-48 0 -83 -13t-55 -29
h-9q-14 20 -14 33q0 8 7.5 14.5t18.5 12.5q26 14 65 22.5t75 8.5q49 0 81.5 -11t52 -32.5t27.5 -53t8 -73.5v-200q0 -28 4 -44t11 -24.5t17 -11t23 -3.5v-22zM349 249q-6 1 -12.5 1h-13.5q-39 0 -78.5 -4.5t-72 -18t-52.5 -37t-20 -61.5q0 -17 4.5 -33.5t15.5 -29
t29.5 -20.5t47.5 -8q31 0 58.5 9t48.5 22t33 26.5t12 22.5v131zM344 625q0 -43 -27 -74t-75 -31t-75.5 30.5t-27.5 73.5q0 45 27.5 75.5t75.5 30.5t75 -31t27 -74zM301 625q0 26 -16.5 46t-42.5 20q-27 0 -43.5 -20t-16.5 -46t16 -46.5t44 -20.5q27 0 43 20t16 46v1z" />
    <glyph glyph-name="ae" unicode="&#xe6;" horiz-adv-x="792" 
d="M730 63q0 -9 -11.5 -21t-32.5 -23.5t-50.5 -19.5t-65.5 -8q-119 0 -179 84q-39 -45 -87 -63.5t-100 -18.5q-28 0 -56.5 5t-51 19.5t-37 39.5t-14.5 65q0 49 27 79.5t67 47.5t85.5 23.5t83.5 6.5q12 0 23 -0.5t22 -1.5q0 33 -6 60.5t-21 47t-41 30.5t-66 11
q-48 0 -80.5 -13.5t-52.5 -29.5h-9q-14 20 -14 33q0 8 7.5 14.5t18.5 12.5q26 14 62.5 23t72.5 9q67 0 107.5 -24t59.5 -70q29 48 74.5 71t93.5 23q49 0 84 -15t57 -41.5t32 -61.5t10 -74q0 -24 -3 -51h-328v-8q0 -40 10 -74t30 -58.5t50 -38.5t71 -14q31 0 54 6.5t39.5 16
t27 19.5t15.5 17q10 -11 16 -20.5t6 -14.5zM369 117q-18 48 -18 106v14q-6 1 -11 1h-12q-39 0 -78.5 -4.5t-72 -17t-52.5 -35t-20 -57.5q0 -16 4.5 -31t17 -27t33.5 -19t54 -7q31 0 56.5 8t45.5 20t33.5 25t19.5 24zM685 275q0 33 -6 61t-21 48t-40.5 31.5t-63.5 11.5
q-62 0 -101 -41.5t-41 -110.5h273z" />
    <glyph glyph-name="ccedilla" unicode="&#xe7;" horiz-adv-x="455" 
d="M316 -124q0 -19 -7.5 -34.5t-19.5 -26.5t-27.5 -17t-31.5 -6q-27 0 -27 23q0 11 3 22q5 -1 10 -1h10q18 0 30 7.5t12 24.5q0 12 -6.5 20t-14 15.5t-14 16.5t-6.5 23q0 12 5 23.5t10 20.5q-30 3 -62.5 15t-60.5 39t-46 73t-18 117q0 50 11 87.5t29 65t41.5 45t47.5 28
t47 14.5t41 4q51 0 84 -14t51 -29q11 -9 14.5 -16t3.5 -14q0 -8 -5 -17.5t-11 -19.5h-9q-20 28 -50.5 44.5t-75.5 16.5q-42 0 -72 -15.5t-49 -41.5t-28 -62t-9 -76q0 -41 9 -77t28.5 -63t49.5 -42.5t73 -15.5q32 0 55 9t39 20t31 29q6 -5 14.5 -14.5t8.5 -18.5
q0 -11 -18 -27q-17 -14 -48 -29t-76 -17q-9 -11 -9 -21t6.5 -18t15 -17t15 -21.5t6.5 -31.5z" />
    <glyph glyph-name="egrave" unicode="&#xe8;" horiz-adv-x="497" 
d="M435 57q0 -9 -11.5 -21t-32.5 -23.5t-50.5 -19.5t-65.5 -8q-48 0 -88.5 14t-70 44.5t-45.5 78t-16 113.5q0 63 17.5 108.5t47 74.5t67 43t77.5 14q49 0 84 -17t57 -45t32 -64.5t10 -75.5q0 -24 -3 -51h-328q1 -42 11 -77t29.5 -60t49.5 -38.5t71 -13.5q31 0 54 6.5
t39.5 16t27 19.5t15.5 17q10 -11 16 -20.5t6 -14.5zM390 265q0 33 -6 62.5t-21 51.5t-40.5 35t-63.5 13q-63 0 -101.5 -42t-40.5 -120h273zM148 654q8 6 20 11t25 5q15 0 24.5 -8.5t19.5 -22.5l85 -110q-4 -3 -12.5 -6t-18.5 -3q-20 0 -33 15z" />
    <glyph glyph-name="eacute" unicode="&#xe9;" horiz-adv-x="497" 
d="M435 57q0 -9 -11.5 -21t-32.5 -23.5t-50.5 -19.5t-65.5 -8q-48 0 -88.5 14t-70 44.5t-45.5 78t-16 113.5q0 63 17.5 108.5t47 74.5t67 43t77.5 14q49 0 84 -17t57 -45t32 -64.5t10 -75.5q0 -24 -3 -51h-328q1 -42 11 -77t29.5 -60t49.5 -38.5t71 -13.5q31 0 54 6.5
t39.5 16t27 19.5t15.5 17q10 -11 16 -20.5t6 -14.5zM390 265q0 33 -6 62.5t-21 51.5t-40.5 35t-63.5 13q-63 0 -101.5 -42t-40.5 -120h273zM269 535q-14 -15 -33 -15q-8 0 -17.5 3t-13.5 6l85 110q10 14 19.5 22.5t24.5 8.5q13 0 25 -5t20 -11z" />
    <glyph glyph-name="ecircumflex" unicode="&#xea;" horiz-adv-x="497" 
d="M435 57q0 -9 -11.5 -21t-32.5 -23.5t-50.5 -19.5t-65.5 -8q-48 0 -88.5 14t-70 44.5t-45.5 78t-16 113.5q0 63 17.5 108.5t47 74.5t67 43t77.5 14q49 0 84 -17t57 -45t32 -64.5t10 -75.5q0 -24 -3 -51h-328q1 -42 11 -77t29.5 -60t49.5 -38.5t71 -13.5q31 0 54 6.5
t39.5 16t27 19.5t15.5 17q10 -11 16 -20.5t6 -14.5zM390 265q0 33 -6 62.5t-21 51.5t-40.5 35t-63.5 13q-63 0 -101.5 -42t-40.5 -120h273zM268 615l-63 -72q-15 -17 -37 -17q-18 0 -28 10l81 103q11 14 20 22.5t26 8.5t26 -8.5t20 -22.5l83 -106q-5 -3 -12.5 -6t-16.5 -3
q-20 0 -36 18z" />
    <glyph glyph-name="edieresis" unicode="&#xeb;" horiz-adv-x="497" 
d="M435 57q0 -9 -11.5 -21t-32.5 -23.5t-50.5 -19.5t-65.5 -8q-48 0 -88.5 14t-70 44.5t-45.5 78t-16 113.5q0 63 17.5 108.5t47 74.5t67 43t77.5 14q49 0 84 -17t57 -45t32 -64.5t10 -75.5q0 -24 -3 -51h-328q1 -42 11 -77t29.5 -60t49.5 -38.5t71 -13.5q31 0 54 6.5
t39.5 16t27 19.5t15.5 17q10 -11 16 -20.5t6 -14.5zM390 265q0 33 -6 62.5t-21 51.5t-40.5 35t-63.5 13q-63 0 -101.5 -42t-40.5 -120h273zM394 585q0 -19 -12 -31.5t-31 -12.5t-31 12.5t-12 31.5t12.5 31.5t30.5 12.5t30.5 -12.5t12.5 -31.5zM220 585q0 -19 -12 -31.5
t-31 -12.5q-20 0 -31.5 12.5t-11.5 31.5t12.5 31.5t30.5 12.5t30.5 -12.5t12.5 -31.5z" />
    <glyph glyph-name="igrave" unicode="&#xec;" horiz-adv-x="224" 
d="M138 92q0 -42 12 -55.5t39 -15.5v-21q-11 -3 -21 -4t-20 -1q-24 0 -37.5 9t-20 23t-8 32.5t-1.5 38.5v369h3q20 0 37 -10.5t17 -41.5v-323zM-3 654q8 6 20 11t25 5q15 0 24.5 -8.5t19.5 -22.5l85 -110q-4 -3 -12.5 -6t-18.5 -3q-20 0 -33 15z" />
    <glyph glyph-name="iacute" unicode="&#xed;" horiz-adv-x="224" 
d="M138 92q0 -42 12 -55.5t39 -15.5v-21q-11 -3 -21 -4t-20 -1q-24 0 -37.5 9t-20 23t-8 32.5t-1.5 38.5v369h3q20 0 37 -10.5t17 -41.5v-323zM114 535q-14 -15 -33 -15q-8 0 -17.5 3t-13.5 6l85 110q10 14 19.5 22.5t24.5 8.5q13 0 25 -5t20 -11z" />
    <glyph glyph-name="icircumflex" unicode="&#xee;" horiz-adv-x="224" 
d="M138 92q0 -42 12 -55.5t39 -15.5v-21q-11 -3 -21 -4t-20 -1q-24 0 -37.5 9t-20 23t-8 32.5t-1.5 38.5v369h3q20 0 37 -10.5t17 -41.5v-323zM111 615l-63 -72q-15 -17 -37 -17q-18 0 -28 10l81 103q11 14 20 22.5t26 8.5t26 -8.5t20 -22.5l83 -106q-5 -3 -12.5 -6
t-16.5 -3q-20 0 -36 18z" />
    <glyph glyph-name="idieresis" unicode="&#xef;" horiz-adv-x="224" 
d="M138 92q0 -42 12 -55.5t39 -15.5v-21q-11 -3 -21 -4t-20 -1q-24 0 -37.5 9t-20 23t-8 32.5t-1.5 38.5v369h3q20 0 37 -10.5t17 -41.5v-323zM241 585q0 -19 -12 -31.5t-31 -12.5t-31 12.5t-12 31.5t12.5 31.5t30.5 12.5t30.5 -12.5t12.5 -31.5zM67 585q0 -19 -12 -31.5
t-31 -12.5q-20 0 -31.5 12.5t-11.5 31.5t12.5 31.5t30.5 12.5t30.5 -12.5t12.5 -31.5z" />
    <glyph glyph-name="eth" unicode="&#xf0;" horiz-adv-x="545" 
d="M176 543l92 49q-32 18 -75 29.5t-86 13.5v7q0 17 7 29t29 12q36 0 84.5 -15.5t93.5 -44.5l115 64l24 -40l-100 -55q58 -55 90 -135.5t32 -191.5q0 -138 -57 -206t-156 -68q-46 0 -85 15t-67 45t-44 76t-16 108q0 58 17 101.5t45.5 72t67 42.5t82.5 14q42 0 78 -16t55 -36
q-6 17 -15.5 38.5t-21.5 42.5t-25.5 39.5t-28.5 30.5l-111 -60zM422 259q0 28 -2.5 52t-8.5 44q-24 24 -60 41t-84 17q-69 0 -109 -42t-40 -136q0 -93 43 -143.5t109 -50.5q33 0 60.5 13.5t48 40.5t32 68t11.5 96z" />
    <glyph glyph-name="ntilde" unicode="&#xf1;" horiz-adv-x="543" 
d="M137 412q23 24 66 43.5t103 19.5q36 0 62 -8.5t44 -23t28.5 -33t14.5 -37.5q5 -21 6.5 -43.5t1.5 -45.5v-284h-58v284q0 20 -2 40t-7 35q-19 64 -113 64q-42 0 -80 -16.5t-57 -37.5q-8 -10 -8 -25v-344h-58v467h4q21 0 37 -11t16 -44zM333 540q-21 0 -38 6t-31.5 12.5
t-28 12.5t-27.5 6q-20 0 -36 -12t-31 -31q-7 4 -12.5 12.5t-5.5 19.5t8.5 21.5t21.5 19t28.5 13.5t30.5 5q21 0 37.5 -6t30 -13t26.5 -13t27 -6q20 0 35 13.5t31 36.5q6 -2 14 -11.5t8 -23.5q0 -9 -7 -20t-19 -20t-28 -15.5t-34 -6.5z" />
    <glyph glyph-name="ograve" unicode="&#xf2;" horiz-adv-x="535" 
d="M419 231q0 34 -6 69t-22.5 63t-46 45.5t-75.5 17.5q-44 0 -73.5 -17.5t-47 -45.5t-25 -63t-7.5 -69q0 -35 6.5 -70t23.5 -63.5t46.5 -46.5t74.5 -18q47 0 76.5 18t46.5 46.5t23 63.5t6 70zM480 231q0 -48 -11.5 -92.5t-37 -78.5t-66 -54.5t-98.5 -20.5q-57 0 -97.5 20
t-66 53.5t-37 77.5t-11.5 92q0 49 13.5 94t40.5 79t67.5 54t94.5 20q57 0 97 -20t64.5 -54t36 -78t11.5 -92zM159 654q8 6 20 11t25 5q15 0 24.5 -8.5t19.5 -22.5l85 -110q-4 -3 -12.5 -6t-18.5 -3q-20 0 -33 15z" />
    <glyph glyph-name="oacute" unicode="&#xf3;" horiz-adv-x="535" 
d="M419 231q0 34 -6 69t-22.5 63t-46 45.5t-75.5 17.5q-44 0 -73.5 -17.5t-47 -45.5t-25 -63t-7.5 -69q0 -35 6.5 -70t23.5 -63.5t46.5 -46.5t74.5 -18q47 0 76.5 18t46.5 46.5t23 63.5t6 70zM480 231q0 -48 -11.5 -92.5t-37 -78.5t-66 -54.5t-98.5 -20.5q-57 0 -97.5 20
t-66 53.5t-37 77.5t-11.5 92q0 49 13.5 94t40.5 79t67.5 54t94.5 20q57 0 97 -20t64.5 -54t36 -78t11.5 -92zM295 535q-14 -15 -33 -15q-8 0 -17.5 3t-13.5 6l85 110q10 14 19.5 22.5t24.5 8.5q13 0 25 -5t20 -11z" />
    <glyph glyph-name="ocircumflex" unicode="&#xf4;" horiz-adv-x="535" 
d="M419 231q0 34 -6 69t-22.5 63t-46 45.5t-75.5 17.5q-44 0 -73.5 -17.5t-47 -45.5t-25 -63t-7.5 -69q0 -35 6.5 -70t23.5 -63.5t46.5 -46.5t74.5 -18q47 0 76.5 18t46.5 46.5t23 63.5t6 70zM480 231q0 -48 -11.5 -92.5t-37 -78.5t-66 -54.5t-98.5 -20.5q-57 0 -97.5 20
t-66 53.5t-37 77.5t-11.5 92q0 49 13.5 94t40.5 79t67.5 54t94.5 20q57 0 97 -20t64.5 -54t36 -78t11.5 -92zM275 615l-63 -72q-15 -17 -37 -17q-18 0 -28 10l81 103q11 14 20 22.5t26 8.5t26 -8.5t20 -22.5l83 -106q-5 -3 -12.5 -6t-16.5 -3q-20 0 -36 18z" />
    <glyph glyph-name="otilde" unicode="&#xf5;" horiz-adv-x="535" 
d="M419 231q0 34 -6 69t-22.5 63t-46 45.5t-75.5 17.5q-44 0 -73.5 -17.5t-47 -45.5t-25 -63t-7.5 -69q0 -35 6.5 -70t23.5 -63.5t46.5 -46.5t74.5 -18q47 0 76.5 18t46.5 46.5t23 63.5t6 70zM480 231q0 -48 -11.5 -92.5t-37 -78.5t-66 -54.5t-98.5 -20.5q-57 0 -97.5 20
t-66 53.5t-37 77.5t-11.5 92q0 49 13.5 94t40.5 79t67.5 54t94.5 20q57 0 97 -20t64.5 -54t36 -78t11.5 -92zM336 540q-21 0 -38 6t-31.5 12.5t-28 12.5t-27.5 6q-20 0 -36 -12t-31 -31q-7 4 -12.5 12.5t-5.5 19.5t8.5 21.5t21.5 19t28.5 13.5t30.5 5q21 0 37.5 -6t30 -13
t26.5 -13t27 -6q20 0 35 13.5t31 36.5q6 -2 14 -11.5t8 -23.5q0 -9 -7 -20t-19 -20t-28 -15.5t-34 -6.5z" />
    <glyph glyph-name="odieresis" unicode="&#xf6;" horiz-adv-x="535" 
d="M419 231q0 34 -6 69t-22.5 63t-46 45.5t-75.5 17.5q-44 0 -73.5 -17.5t-47 -45.5t-25 -63t-7.5 -69q0 -35 6.5 -70t23.5 -63.5t46.5 -46.5t74.5 -18q47 0 76.5 18t46.5 46.5t23 63.5t6 70zM480 231q0 -48 -11.5 -92.5t-37 -78.5t-66 -54.5t-98.5 -20.5q-57 0 -97.5 20
t-66 53.5t-37 77.5t-11.5 92q0 49 13.5 94t40.5 79t67.5 54t94.5 20q57 0 97 -20t64.5 -54t36 -78t11.5 -92zM402 585q0 -19 -12 -31.5t-31 -12.5t-31 12.5t-12 31.5t12.5 31.5t30.5 12.5t30.5 -12.5t12.5 -31.5zM228 585q0 -19 -12 -31.5t-31 -12.5q-20 0 -31.5 12.5
t-11.5 31.5t12.5 31.5t30.5 12.5t30.5 -12.5t12.5 -31.5z" />
    <glyph glyph-name="divide" unicode="&#xf7;" horiz-adv-x="540" 
d="M311 476q0 -20 -13 -33.5t-31 -13.5q-19 0 -32 13.5t-13 33.5t13 33.5t31 13.5q19 0 32 -13.5t13 -33.5zM311 200q0 -20 -13 -33.5t-31 -13.5q-19 0 -32 13.5t-13 33.5t13 33.5t31 13.5q19 0 32 -13.5t13 -33.5zM83 311v55h368v-55h-368z" />
    <glyph glyph-name="oslash" unicode="&#xf8;" horiz-adv-x="535" 
d="M480 231q0 -48 -11.5 -92.5t-37 -78.5t-66 -54.5t-98.5 -20.5q-56 0 -98 20l-12 6t-11 7l-48 -68l-36 25l50 72l-9 11q-25 34 -36.5 78t-11.5 92q0 49 13.5 94t40.5 79t67.5 54t94.5 20q55 0 97 -20q13 -6 22 -13l47 66l36 -25l-50 -71l9 -11q25 -34 36.5 -78t11.5 -92z
M419 231q0 34 -6 69t-23 63l-1 1l-213 -302l16 -11q30 -18 75 -18q47 0 76.5 18t46.5 46.5t23 63.5t6 70zM344 408q-29 18 -75 18q-44 0 -73.5 -17.5t-47 -45.5t-25 -63t-7.5 -69q0 -35 6.5 -70t23.5 -64l1 -1l212 302z" />
    <glyph glyph-name="ugrave" unicode="&#xf9;" horiz-adv-x="543" 
d="M463 0h-58v54q-23 -24 -65.5 -43.5t-102.5 -19.5q-36 0 -62 8.5t-44 23t-28.5 32.5t-14.5 38q-5 21 -6.5 43.5t-1.5 45.5v285h4q21 0 37 -11t16 -43v-231q0 -20 2.5 -40t7.5 -35q19 -64 113 -64q25 0 51 7t47 17.5t34.5 23.5t13.5 25v351h4q21 0 37 -11t16 -44v-412z
M150 654q8 6 20 11t25 5q15 0 24.5 -8.5t19.5 -22.5l85 -110q-4 -3 -12.5 -6t-18.5 -3q-20 0 -33 15z" />
    <glyph glyph-name="uacute" unicode="&#xfa;" horiz-adv-x="543" 
d="M463 0h-58v54q-23 -24 -65.5 -43.5t-102.5 -19.5q-36 0 -62 8.5t-44 23t-28.5 32.5t-14.5 38q-5 21 -6.5 43.5t-1.5 45.5v285h4q21 0 37 -11t16 -43v-231q0 -20 2.5 -40t7.5 -35q19 -64 113 -64q25 0 51 7t47 17.5t34.5 23.5t13.5 25v351h4q21 0 37 -11t16 -44v-412z
M292 535q-14 -15 -33 -15q-8 0 -17.5 3t-13.5 6l85 110q10 14 19.5 22.5t24.5 8.5q13 0 25 -5t20 -11z" />
    <glyph glyph-name="ucircumflex" unicode="&#xfb;" horiz-adv-x="543" 
d="M463 0h-58v54q-23 -24 -65.5 -43.5t-102.5 -19.5q-36 0 -62 8.5t-44 23t-28.5 32.5t-14.5 38q-5 21 -6.5 43.5t-1.5 45.5v285h4q21 0 37 -11t16 -43v-231q0 -20 2.5 -40t7.5 -35q19 -64 113 -64q25 0 51 7t47 17.5t34.5 23.5t13.5 25v351h4q21 0 37 -11t16 -44v-412z
M273 615l-63 -72q-15 -17 -37 -17q-18 0 -28 10l81 103q11 14 20 22.5t26 8.5t26 -8.5t20 -22.5l83 -106q-5 -3 -12.5 -6t-16.5 -3q-20 0 -36 18z" />
    <glyph glyph-name="udieresis" unicode="&#xfc;" horiz-adv-x="543" 
d="M463 0h-58v54q-23 -24 -65.5 -43.5t-102.5 -19.5q-36 0 -62 8.5t-44 23t-28.5 32.5t-14.5 38q-5 21 -6.5 43.5t-1.5 45.5v285h4q21 0 37 -11t16 -43v-231q0 -20 2.5 -40t7.5 -35q19 -64 113 -64q25 0 51 7t47 17.5t34.5 23.5t13.5 25v351h4q21 0 37 -11t16 -44v-412z
M405 585q0 -19 -12 -31.5t-31 -12.5t-31 12.5t-12 31.5t12.5 31.5t30.5 12.5t30.5 -12.5t12.5 -31.5zM231 585q0 -19 -12 -31.5t-31 -12.5q-20 0 -31.5 12.5t-11.5 31.5t12.5 31.5t30.5 12.5t30.5 -12.5t12.5 -31.5z" />
    <glyph glyph-name="yacute" unicode="&#xfd;" horiz-adv-x="444" 
d="M227 -102q-9 -25 -20.5 -47.5t-28 -40t-40 -27.5t-55.5 -10q-38 0 -60 12q-19 10 -19 24q0 11 6.5 21.5t11.5 17.5q5 -5 21 -16t43 -11q33 0 52 23t40 79l29 77h-28l-164 462q13 5 27 5q25 0 36 -15.5t19 -39.5l123 -365l130 370q8 24 21 37t33 13q8 0 14 -2t11 -4z
M244 535q-14 -15 -33 -15q-8 0 -17.5 3t-13.5 6l85 110q10 14 19.5 22.5t24.5 8.5q13 0 25 -5t20 -11z" />
    <glyph glyph-name="thorn" unicode="&#xfe;" horiz-adv-x="530" 
d="M80 709q5 1 6.5 1h3.5q6 0 14 -1.5t15.5 -7t13 -15.5t5.5 -26v-243q7 7 19.5 17t30.5 19t41 15.5t51 6.5q41 0 76.5 -13t62 -42t41.5 -74.5t15 -109.5q0 -70 -19 -117t-48.5 -75.5t-65.5 -40.5t-70 -12q-32 0 -56 7t-40.5 16t-26 18t-12.5 12v-262h-57v927zM414 229
q0 40 -7 76t-24 62.5t-45 42t-69 15.5q-45 0 -77 -15.5t-47 -35.5q-8 -11 -8 -22v-255q6 -7 17 -17t27 -19t36.5 -15.5t45.5 -6.5q72 0 111.5 48t39.5 142z" />
    <glyph glyph-name="ydieresis" unicode="&#xff;" horiz-adv-x="444" 
d="M227 -102q-9 -25 -20.5 -47.5t-28 -40t-40 -27.5t-55.5 -10q-38 0 -60 12q-19 10 -19 24q0 11 6.5 21.5t11.5 17.5q5 -5 21 -16t43 -11q33 0 52 23t40 79l29 77h-28l-164 462q13 5 27 5q25 0 36 -15.5t19 -39.5l123 -365l130 370q8 24 21 37t33 13q8 0 14 -2t11 -4z
M353 585q0 -19 -12 -31.5t-31 -12.5t-31 12.5t-12 31.5t12.5 31.5t30.5 12.5t30.5 -12.5t12.5 -31.5zM179 585q0 -19 -12 -31.5t-31 -12.5q-20 0 -31.5 12.5t-11.5 31.5t12.5 31.5t30.5 12.5t30.5 -12.5t12.5 -31.5z" />
    <glyph glyph-name="Amacron" unicode="&#x100;" horiz-adv-x="610" 
d="M522 0l-69 187h-299l-69 -187h-60l252 665q5 2 12.5 4t16.5 2q12 0 20.5 -6t14.5 -22l244 -643h-63zM303 595l-131 -358h261zM200 742q-25 0 -35 8t-10 24q0 5 0.5 8.5t1.5 8.5h251q22 0 34 -7t12 -25q0 -7 -2 -17h-252z" />
    <glyph glyph-name="amacron" unicode="&#x101;" horiz-adv-x="486" 
d="M461 0q-20 -5 -36 -5q-30 0 -52 14.5t-24 48.5q-29 -29 -68.5 -48t-93.5 -19q-23 0 -48.5 5.5t-47.5 20.5t-36.5 41.5t-14.5 68.5q0 51 27 83.5t67 50.5t85.5 24.5t83.5 6.5q12 0 23 -0.5t22 -1.5v24q0 24 -5 44.5t-17.5 35.5t-35 23.5t-58.5 8.5q-48 0 -83 -13t-55 -29
h-9q-14 20 -14 33q0 8 7.5 14.5t18.5 12.5q26 14 65 22.5t75 8.5q49 0 81.5 -11t52 -32.5t27.5 -53t8 -73.5v-200q0 -28 4 -44t11 -24.5t17 -11t23 -3.5v-22zM349 249q-6 1 -12.5 1h-13.5q-39 0 -78.5 -4.5t-72 -18t-52.5 -37t-20 -61.5q0 -17 4.5 -33.5t15.5 -29
t29.5 -20.5t47.5 -8q31 0 58.5 9t48.5 22t33 26.5t12 22.5v131zM124 558q-25 0 -35 8t-10 24q0 5 0.5 8.5t1.5 8.5h251q22 0 34 -7t12 -25q0 -7 -2 -17h-252z" />
    <glyph glyph-name="Abreve" unicode="&#x102;" horiz-adv-x="610" 
d="M522 0l-69 187h-299l-69 -187h-60l252 665q5 2 12.5 4t16.5 2q12 0 20.5 -6t14.5 -22l244 -643h-63zM303 595l-131 -358h261zM229 822q12 -29 30 -42t50 -13q33 0 51 13t29 42q7 17 14.5 24t18.5 7q19 0 27 -5q-4 -17 -6 -24.5t-8 -22.5q-16 -38 -48 -58.5t-78 -20.5
q-49 0 -79.5 19.5t-47.5 56.5q-8 15 -10.5 24t-4.5 26q4 2 13 3.5t17 1.5q11 0 17.5 -6.5t14.5 -24.5z" />
    <glyph glyph-name="abreve" unicode="&#x103;" horiz-adv-x="486" 
d="M461 0q-20 -5 -36 -5q-30 0 -52 14.5t-24 48.5q-29 -29 -68.5 -48t-93.5 -19q-23 0 -48.5 5.5t-47.5 20.5t-36.5 41.5t-14.5 68.5q0 51 27 83.5t67 50.5t85.5 24.5t83.5 6.5q12 0 23 -0.5t22 -1.5v24q0 24 -5 44.5t-17.5 35.5t-35 23.5t-58.5 8.5q-48 0 -83 -13t-55 -29
h-9q-14 20 -14 33q0 8 7.5 14.5t18.5 12.5q26 14 65 22.5t75 8.5q49 0 81.5 -11t52 -32.5t27.5 -53t8 -73.5v-200q0 -28 4 -44t11 -24.5t17 -11t23 -3.5v-22zM349 249q-6 1 -12.5 1h-13.5q-39 0 -78.5 -4.5t-72 -18t-52.5 -37t-20 -61.5q0 -17 4.5 -33.5t15.5 -29
t29.5 -20.5t47.5 -8q31 0 58.5 9t48.5 22t33 26.5t12 22.5v131zM160 630q10 -35 29 -50t51 -15q33 0 51.5 15t28.5 49q5 18 13.5 24.5t19.5 6.5q19 0 27 -5q-4 -17 -6 -27t-7 -25q-16 -43 -48.5 -63t-78.5 -20q-52 0 -81 20t-46 59q-7 16 -9.5 27.5t-5.5 28.5q4 2 13 3.5
t17 1.5q11 0 19 -6t13 -24z" />
    <glyph glyph-name="Aogonek" unicode="&#x104;" horiz-adv-x="610" 
d="M453 187h-299l-69 -187h-60l252 665q5 2 12.5 4t16.5 2q12 0 20.5 -6t14.5 -22l244 -643q-17 -8 -32.5 -21t-28 -29t-20 -34.5t-7.5 -37.5q0 -48 38 -48q17 0 28.5 8.5t18.5 16.5q5 -5 11 -12.5t6 -15.5q0 -10 -12 -20q-10 -8 -25 -12.5t-31 -4.5q-37 0 -59.5 18.5
t-22.5 60.5q0 24 7 44t18 36.5t23.5 29t24.5 21.5zM303 595l-131 -358h261z" />
    <glyph glyph-name="aogonek" unicode="&#x105;" horiz-adv-x="486" 
d="M463 -147q6 -5 12.5 -11.5t6.5 -15.5q0 -10 -11 -19q-10 -8 -25.5 -12.5t-32.5 -4.5q-35 0 -57.5 18.5t-22.5 60.5q0 23 6.5 42.5t16.5 35.5t22.5 28.5t23.5 21.5q-22 5 -36.5 19.5t-16.5 41.5q-29 -29 -68.5 -48t-93.5 -19q-23 0 -48.5 5.5t-47.5 20.5t-36.5 41.5
t-14.5 68.5q0 51 27 83.5t67 50.5t85.5 24.5t83.5 6.5q12 0 23 -0.5t22 -1.5q0 28 -5 53t-19 43.5t-38.5 29t-64.5 10.5q-48 0 -80.5 -13.5t-52.5 -29.5h-9q-14 20 -14 33q0 8 7.5 14.5t18.5 12.5q26 14 62.5 23t72.5 9q98 0 139 -44.5t41 -138.5v-187q0 -28 4 -44t11 -24.5
t17 -11t23 -3.5v-22q-14 -7 -28 -20t-25.5 -29.5t-19 -35.5t-7.5 -38q0 -26 10 -36.5t28 -10.5q17 0 27 7.5t17 15.5zM349 250q-6 1 -12.5 1h-13.5q-39 0 -78.5 -5t-72 -18.5t-52.5 -37.5t-20 -61q0 -17 4.5 -33.5t15.5 -29t29.5 -20.5t47.5 -8q31 0 58.5 8.5t48.5 21
t33 25.5t12 22v135z" />
    <glyph glyph-name="Cacute" unicode="&#x106;" horiz-adv-x="596" 
d="M528 113q9 -8 18.5 -18.5t9.5 -18.5q0 -9 -10 -20q-5 -6 -19.5 -17.5t-38.5 -23.5t-57.5 -21t-75.5 -9q-77 0 -131.5 26t-90 72.5t-52 110t-16.5 138.5t17.5 139t53.5 110.5t92 73t133 26.5q40 0 71.5 -8.5t54 -20t36 -22.5t19.5 -17q4 -4 8 -10t4 -13q0 -11 -20 -34h-11
q-6 7 -19 19.5t-33.5 24.5t-48.5 21t-64 9q-68 0 -112.5 -26t-71 -68t-37 -95.5t-10.5 -108.5q0 -57 11.5 -110.5t38.5 -95.5t72 -67t112 -25q39 0 69.5 12t52.5 27q27 19 45 40zM342 722q-14 -8 -26 -8q-10 0 -20.5 5t-14.5 11l110 87q11 9 21 14.5t21 5.5q14 0 25.5 -9.5
t19.5 -18.5z" />
    <glyph glyph-name="cacute" unicode="&#x107;" horiz-adv-x="455" 
d="M401 91q6 -5 14.5 -14.5t8.5 -18.5q0 -11 -18 -27q-17 -15 -51 -30.5t-85 -15.5q-30 0 -67 8.5t-70 35t-55.5 74.5t-22.5 128q0 50 11 87.5t29 65t41.5 45t47.5 28t47 14.5t41 4q51 0 84 -14t51 -29q11 -9 14.5 -16t3.5 -14q0 -8 -5 -17.5t-11 -19.5h-9
q-20 28 -50.5 44.5t-75.5 16.5q-42 0 -72 -15.5t-49 -41.5t-28 -62t-9 -76q0 -41 9 -77t28.5 -63t49.5 -42.5t73 -15.5q32 0 55 9t39 20t31 29zM284 535q-14 -15 -33 -15q-8 0 -17.5 3t-13.5 6l85 110q10 14 19.5 22.5t24.5 8.5q13 0 25 -5t20 -11z" />
    <glyph glyph-name="Ccircumflex" unicode="&#x108;" horiz-adv-x="596" 
d="M528 113q9 -8 18.5 -18.5t9.5 -18.5q0 -9 -10 -20q-5 -6 -19.5 -17.5t-38.5 -23.5t-57.5 -21t-75.5 -9q-77 0 -131.5 26t-90 72.5t-52 110t-16.5 138.5t17.5 139t53.5 110.5t92 73t133 26.5q40 0 71.5 -8.5t54 -20t36 -22.5t19.5 -17q4 -4 8 -10t4 -13q0 -11 -20 -34h-11
q-6 7 -19 19.5t-33.5 24.5t-48.5 21t-64 9q-68 0 -112.5 -26t-71 -68t-37 -95.5t-10.5 -108.5q0 -57 11.5 -110.5t38.5 -95.5t72 -67t112 -25q39 0 69.5 12t52.5 27q27 19 45 40zM350 786l-64 -58q-17 -14 -34 -14q-8 0 -15.5 3t-11.5 6l79 92q11 13 20.5 21t26.5 8t27 -8.5
t21 -21.5l78 -91q-4 -3 -11.5 -6t-15.5 -3q-21 0 -34 13z" />
    <glyph glyph-name="ccircumflex" unicode="&#x109;" horiz-adv-x="455" 
d="M401 91q6 -5 14.5 -14.5t8.5 -18.5q0 -11 -18 -27q-17 -15 -51 -30.5t-85 -15.5q-30 0 -67 8.5t-70 35t-55.5 74.5t-22.5 128q0 50 11 87.5t29 65t41.5 45t47.5 28t47 14.5t41 4q51 0 84 -14t51 -29q11 -9 14.5 -16t3.5 -14q0 -8 -5 -17.5t-11 -19.5h-9
q-20 28 -50.5 44.5t-75.5 16.5q-42 0 -72 -15.5t-49 -41.5t-28 -62t-9 -76q0 -41 9 -77t28.5 -63t49.5 -42.5t73 -15.5q32 0 55 9t39 20t31 29zM273 615l-63 -72q-15 -17 -37 -17q-18 0 -28 10l81 103q11 14 20 22.5t26 8.5t26 -8.5t20 -22.5l83 -106q-5 -3 -12.5 -6
t-16.5 -3q-20 0 -36 18z" />
    <glyph glyph-name="Cdotaccent" unicode="&#x10a;" horiz-adv-x="596" 
d="M528 113q9 -8 18.5 -18.5t9.5 -18.5q0 -9 -10 -20q-5 -6 -19.5 -17.5t-38.5 -23.5t-57.5 -21t-75.5 -9q-77 0 -131.5 26t-90 72.5t-52 110t-16.5 138.5t17.5 139t53.5 110.5t92 73t133 26.5q40 0 71.5 -8.5t54 -20t36 -22.5t19.5 -17q4 -4 8 -10t4 -13q0 -11 -20 -34h-11
q-6 7 -19 19.5t-33.5 24.5t-48.5 21t-64 9q-68 0 -112.5 -26t-71 -68t-37 -95.5t-10.5 -108.5q0 -57 11.5 -110.5t38.5 -95.5t72 -67t112 -25q39 0 69.5 12t52.5 27q27 19 45 40zM404 774q0 -21 -13.5 -36t-33.5 -15t-33.5 15t-13.5 36t13.5 36t33.5 15t33.5 -15t13.5 -36z
" />
    <glyph glyph-name="cdotaccent" unicode="&#x10b;" horiz-adv-x="455" 
d="M401 91q6 -5 14.5 -14.5t8.5 -18.5q0 -11 -18 -27q-17 -15 -51 -30.5t-85 -15.5q-30 0 -67 8.5t-70 35t-55.5 74.5t-22.5 128q0 50 11 87.5t29 65t41.5 45t47.5 28t47 14.5t41 4q51 0 84 -14t51 -29q11 -9 14.5 -16t3.5 -14q0 -8 -5 -17.5t-11 -19.5h-9
q-20 28 -50.5 44.5t-75.5 16.5q-42 0 -72 -15.5t-49 -41.5t-28 -62t-9 -76q0 -41 9 -77t28.5 -63t49.5 -42.5t73 -15.5q32 0 55 9t39 20t31 29zM316 590q0 -21 -13.5 -36t-33.5 -15t-33.5 15t-13.5 36t13.5 36t33.5 15t33.5 -15t13.5 -36z" />
    <glyph glyph-name="Ccaron" unicode="&#x10c;" horiz-adv-x="596" 
d="M528 113q9 -8 18.5 -18.5t9.5 -18.5q0 -9 -10 -20q-5 -6 -19.5 -17.5t-38.5 -23.5t-57.5 -21t-75.5 -9q-77 0 -131.5 26t-90 72.5t-52 110t-16.5 138.5t17.5 139t53.5 110.5t92 73t133 26.5q40 0 71.5 -8.5t54 -20t36 -22.5t19.5 -17q4 -4 8 -10t4 -13q0 -11 -20 -34h-11
q-6 7 -19 19.5t-33.5 24.5t-48.5 21t-64 9q-68 0 -112.5 -26t-71 -68t-37 -95.5t-10.5 -108.5q0 -57 11.5 -110.5t38.5 -95.5t72 -67t112 -25q39 0 69.5 12t52.5 27q27 19 45 40zM356 781l64 58q17 14 34 14q8 0 15.5 -3t11.5 -6l-79 -92q-11 -13 -20.5 -21t-26.5 -8
t-27 8.5t-21 21.5l-78 91q4 3 11.5 6t15.5 3q21 0 34 -13z" />
    <glyph glyph-name="ccaron" unicode="&#x10d;" horiz-adv-x="455" 
d="M401 91q6 -5 14.5 -14.5t8.5 -18.5q0 -11 -18 -27q-17 -15 -51 -30.5t-85 -15.5q-30 0 -67 8.5t-70 35t-55.5 74.5t-22.5 128q0 50 11 87.5t29 65t41.5 45t47.5 28t47 14.5t41 4q51 0 84 -14t51 -29q11 -9 14.5 -16t3.5 -14q0 -8 -5 -17.5t-11 -19.5h-9
q-20 28 -50.5 44.5t-75.5 16.5q-42 0 -72 -15.5t-49 -41.5t-28 -62t-9 -76q0 -41 9 -77t28.5 -63t49.5 -42.5t73 -15.5q32 0 55 9t39 20t31 29zM337 648q9 11 18 14.5t18 3.5t16.5 -2.5t12.5 -6.5l-83 -106q-11 -14 -20 -22.5t-26 -8.5t-26 8.5t-20 22.5l-81 103
q10 10 28 10q22 0 37 -17l63 -72z" />
    <glyph glyph-name="Dcaron" unicode="&#x10e;" horiz-adv-x="631" 
d="M576 340q0 -91 -26.5 -163.5t-92.5 -120.5q-76 -56 -203 -56h-169v667q48 5 86.5 7t73.5 2q100 0 164.5 -27t101.5 -73t51 -107t14 -129zM514 340q0 60 -12 112t-42.5 90.5t-82 61t-129.5 22.5q-24 0 -50.5 -1t-53.5 -4v-572h114q77 0 126.5 26t78.5 67.5t40 93.5t11 104
zM269 781l64 58q17 14 34 14q8 0 15.5 -3t11.5 -6l-79 -92q-11 -13 -20.5 -21t-26.5 -8t-27 8.5t-21 21.5l-78 91q4 3 11.5 6t15.5 3q21 0 34 -13z" />
    <glyph glyph-name="dcaron" unicode="&#x10f;" horiz-adv-x="531" 
d="M394 709q5 1 6.5 1h3.5q6 0 14 -1.5t15.5 -7t12.5 -15.5t5 -26v-660h-57v45q-6 -8 -17.5 -18.5t-28.5 -19.5t-40 -15.5t-52 -6.5q-41 0 -77 13t-64 42t-44 74.5t-16 111.5q0 72 19.5 119.5t50.5 76.5t67.5 41t71.5 12q31 0 54 -7t38.5 -16.5t25 -18.5t12.5 -12v288z
M117 237q0 -44 8 -81t26 -64t47 -42.5t70 -15.5q27 0 49.5 7.5t39 18.5t26.5 24t11 25v260q-6 7 -16.5 17t-25.5 19t-35 15.5t-45 6.5q-75 0 -115 -48t-40 -142zM571 542q-1 -17 -13 -26t-30 -9h-5v140q0 17 2 30.5t13 23.5q12 9 29 9q2 0 6 -0.5t9 -1.5z" />
    <glyph glyph-name="Dcroat" unicode="&#x110;" horiz-adv-x="631" 
d="M19 371h66v296q48 5 86.5 7t73.5 2q100 0 164.5 -27t101.5 -73t51 -107t14 -129q0 -70 -17 -132t-53 -108t-92 -73t-134 -27h-195v323h-66v48zM514 340q0 60 -12 112t-42.5 90.5t-82 61t-129.5 22.5q-24 0 -50.5 -1t-53.5 -4v-250h196v-48h-196v-274h118q81 0 130.5 27
t76.5 69.5t36 94t9 100.5z" />
    <glyph glyph-name="dcroat" unicode="&#x111;" horiz-adv-x="531" 
d="M394 0v45q-6 -8 -17.5 -18.5t-28.5 -19.5t-40 -15.5t-52 -6.5q-41 0 -77 13t-64 42t-44 74.5t-16 111.5q0 72 19.5 119.5t50.5 76.5t67.5 41t71.5 12q46 0 75 -14.5t43 -27.5l12 -12v145h-220v49h220v94h3q2 0 3.5 0.5t3.5 0.5q6 0 14 -1.5t15.5 -7t12.5 -15.5t5 -26v-45
h65v-49h-65v-566h-57zM117 237q0 -44 8 -81t26 -64t47 -42.5t70 -15.5q27 0 49.5 7.5t39 18.5t26.5 24t11 25v260q-6 7 -16.5 17t-25.5 19t-35 15.5t-45 6.5q-75 0 -115 -48t-40 -142z" />
    <glyph glyph-name="Emacron" unicode="&#x112;" horiz-adv-x="493" 
d="M85 0v669h371q1 -5 1 -6v-3q0 -19 -11 -30t-35 -11h-267v-242h236v-51h-236v-276h280q24 0 36.5 -11t12.5 -30q0 -5 -1 -9h-387zM162 742q-25 0 -35 8t-10 24q0 5 0.5 8.5t1.5 8.5h251q22 0 34 -7t12 -25q0 -7 -2 -17h-252z" />
    <glyph glyph-name="emacron" unicode="&#x113;" horiz-adv-x="497" 
d="M435 57q0 -9 -11.5 -21t-32.5 -23.5t-50.5 -19.5t-65.5 -8q-48 0 -88.5 14t-70 44.5t-45.5 78t-16 113.5q0 63 17.5 108.5t47 74.5t67 43t77.5 14q49 0 84 -17t57 -45t32 -64.5t10 -75.5q0 -24 -3 -51h-328q1 -42 11 -77t29.5 -60t49.5 -38.5t71 -13.5q31 0 54 6.5
t39.5 16t27 19.5t15.5 17q10 -11 16 -20.5t6 -14.5zM390 265q0 33 -6 62.5t-21 51.5t-40.5 35t-63.5 13q-63 0 -101.5 -42t-40.5 -120h273zM161 558q-25 0 -35 8t-10 24q0 5 0.5 8.5t1.5 8.5h251q22 0 34 -7t12 -25q0 -7 -2 -17h-252z" />
    <glyph glyph-name="Ebreve" unicode="&#x114;" horiz-adv-x="493" 
d="M85 0v669h371q1 -5 1 -6v-3q0 -19 -11 -30t-35 -11h-267v-242h236v-51h-236v-276h280q24 0 36.5 -11t12.5 -30q0 -5 -1 -9h-387zM195 822q12 -29 30 -42t50 -13q33 0 51 13t29 42q7 17 14.5 24t18.5 7q19 0 27 -5q-4 -17 -6 -24.5t-8 -22.5q-16 -38 -48 -58.5t-78 -20.5
q-49 0 -79.5 19.5t-47.5 56.5q-8 15 -10.5 24t-4.5 26q4 2 13 3.5t17 1.5q11 0 17.5 -6.5t14.5 -24.5z" />
    <glyph glyph-name="ebreve" unicode="&#x115;" horiz-adv-x="497" 
d="M435 57q0 -9 -11.5 -21t-32.5 -23.5t-50.5 -19.5t-65.5 -8q-48 0 -88.5 14t-70 44.5t-45.5 78t-16 113.5q0 63 17.5 108.5t47 74.5t67 43t77.5 14q49 0 84 -17t57 -45t32 -64.5t10 -75.5q0 -24 -3 -51h-328q1 -42 11 -77t29.5 -60t49.5 -38.5t71 -13.5q31 0 54 6.5
t39.5 16t27 19.5t15.5 17q10 -11 16 -20.5t6 -14.5zM390 265q0 33 -6 62.5t-21 51.5t-40.5 35t-63.5 13q-63 0 -101.5 -42t-40.5 -120h273zM188 630q10 -35 29 -50t51 -15q33 0 51.5 15t28.5 49q5 18 13.5 24.5t19.5 6.5q19 0 27 -5q-4 -17 -6 -27t-7 -25q-16 -43 -48.5 -63
t-78.5 -20q-52 0 -81 20t-46 59q-7 16 -9.5 27.5t-5.5 28.5q4 2 13 3.5t17 1.5q11 0 19 -6t13 -24z" />
    <glyph glyph-name="Edotaccent" unicode="&#x116;" horiz-adv-x="493" 
d="M85 0v669h371q1 -5 1 -6v-3q0 -19 -11 -30t-35 -11h-267v-242h236v-51h-236v-276h280q24 0 36.5 -11t12.5 -30q0 -5 -1 -9h-387zM326 774q0 -21 -13.5 -36t-33.5 -15t-33.5 15t-13.5 36t13.5 36t33.5 15t33.5 -15t13.5 -36z" />
    <glyph glyph-name="edotaccent" unicode="&#x117;" horiz-adv-x="497" 
d="M435 57q0 -9 -11.5 -21t-32.5 -23.5t-50.5 -19.5t-65.5 -8q-48 0 -88.5 14t-70 44.5t-45.5 78t-16 113.5q0 63 17.5 108.5t47 74.5t67 43t77.5 14q49 0 84 -17t57 -45t32 -64.5t10 -75.5q0 -24 -3 -51h-328q1 -42 11 -77t29.5 -60t49.5 -38.5t71 -13.5q31 0 54 6.5
t39.5 16t27 19.5t15.5 17q10 -11 16 -20.5t6 -14.5zM390 265q0 33 -6 62.5t-21 51.5t-40.5 35t-63.5 13q-63 0 -101.5 -42t-40.5 -120h273zM312 590q0 -21 -13.5 -36t-33.5 -15t-33.5 15t-13.5 36t13.5 36t33.5 15t33.5 -15t13.5 -36z" />
    <glyph glyph-name="Eogonek" unicode="&#x118;" horiz-adv-x="493" 
d="M453 -145q5 -5 12 -13.5t7 -15.5q0 -9 -12 -19q-10 -8 -25 -12.5t-31 -4.5q-36 0 -59 18.5t-23 60.5q0 45 23 78.5t55 52.5h-315v669h371q1 -5 1 -6v-3q0 -19 -11 -30t-35 -11h-267v-242h236v-51h-236v-276h280q24 0 36.5 -11t12.5 -30q0 -6 -1 -9q-20 -6 -38.5 -18
t-32.5 -28.5t-22.5 -36t-8.5 -39.5q0 -48 38 -48q17 0 27.5 8.5t17.5 16.5z" />
    <glyph glyph-name="eogonek" unicode="&#x119;" horiz-adv-x="497" 
d="M390 -145q6 -6 12 -13.5t6 -15.5q0 -9 -12 -19q-10 -8 -25 -12.5t-31 -4.5q-38 0 -61.5 18.5t-23.5 60.5q0 38 19.5 70t42.5 50q-17 -4 -42 -4q-48 0 -88.5 14t-70 44.5t-45.5 78t-16 113.5q0 63 17.5 108.5t47 74.5t67 43t77.5 14q49 0 84 -17t57 -45t32 -64.5t10 -75.5
q0 -24 -3 -51h-328q1 -42 11 -77t29.5 -60t49.5 -38.5t71 -13.5q31 0 54 6.5t39.5 16t27 19.5t15.5 17q10 -11 16 -20.5t6 -14.5q0 -15 -44 -47q-11 -8 -26.5 -22t-29 -32t-23 -38.5t-9.5 -42.5q0 -23 11.5 -34t29.5 -11q17 0 28 8.5t18 16.5zM390 265q0 33 -6 62.5
t-21 51.5t-40.5 35t-63.5 13q-63 0 -101.5 -42t-40.5 -120h273z" />
    <glyph glyph-name="Ecaron" unicode="&#x11a;" horiz-adv-x="493" 
d="M85 0v669h371q1 -5 1 -6v-3q0 -19 -11 -30t-35 -11h-267v-242h236v-51h-236v-276h280q24 0 36.5 -11t12.5 -30q0 -5 -1 -9h-387zM275 781l64 58q17 14 34 14q8 0 15.5 -3t11.5 -6l-79 -92q-11 -13 -20.5 -21t-26.5 -8t-27 8.5t-21 21.5l-78 91q4 3 11.5 6t15.5 3
q21 0 34 -13z" />
    <glyph glyph-name="ecaron" unicode="&#x11b;" horiz-adv-x="497" 
d="M435 57q0 -9 -11.5 -21t-32.5 -23.5t-50.5 -19.5t-65.5 -8q-48 0 -88.5 14t-70 44.5t-45.5 78t-16 113.5q0 63 17.5 108.5t47 74.5t67 43t77.5 14q49 0 84 -17t57 -45t32 -64.5t10 -75.5q0 -24 -3 -51h-328q1 -42 11 -77t29.5 -60t49.5 -38.5t71 -13.5q31 0 54 6.5
t39.5 16t27 19.5t15.5 17q10 -11 16 -20.5t6 -14.5zM390 265q0 33 -6 62.5t-21 51.5t-40.5 35t-63.5 13q-63 0 -101.5 -42t-40.5 -120h273zM331 648q9 11 18 14.5t18 3.5t16.5 -2.5t12.5 -6.5l-83 -106q-11 -14 -20 -22.5t-26 -8.5t-26 8.5t-20 22.5l-81 103q10 10 28 10
q22 0 37 -17l63 -72z" />
    <glyph glyph-name="Gcircumflex" unicode="&#x11c;" horiz-adv-x="650" 
d="M585 87q-7 -11 -17 -23t-30 -26q-31 -23 -73.5 -38t-109.5 -15q-76 0 -131 26.5t-90 73.5t-52 111.5t-17 141.5q0 75 17.5 138t53.5 108.5t92 71t133 25.5q40 0 71.5 -8.5t54 -20t36 -22.5t19.5 -17q4 -4 8 -10t4 -13q0 -11 -20 -34h-11q-6 7 -19 19.5t-33.5 24.5
t-48.5 21t-64 9q-68 0 -113 -25t-71 -65.5t-36.5 -93.5t-10.5 -108q0 -58 11.5 -112.5t38.5 -97t72 -68.5t112 -26q41 0 70.5 8t49 18.5t31 22t16.5 18.5v191h-154v50h211v-255zM352 786l-64 -58q-17 -14 -34 -14q-8 0 -15.5 3t-11.5 6l79 92q11 13 20.5 21t26.5 8t27 -8.5
t21 -21.5l78 -91q-4 -3 -11.5 -6t-15.5 -3q-21 0 -34 13z" />
    <glyph glyph-name="gcircumflex" unicode="&#x11d;" horiz-adv-x="531" 
d="M451 25q0 -32 -2 -60.5t-8 -54.5q-16 -66 -67.5 -101.5t-142.5 -35.5q-54 0 -92.5 12.5t-56.5 28.5q-9 8 -12 14t-3 13q0 9 8.5 19.5t14.5 15.5q12 -15 35 -28q17 -11 43.5 -19t61.5 -8q141 0 158 114q4 25 5 50.5t1 45.5v17q-8 -8 -19 -18t-27.5 -18.5t-38.5 -14.5
t-51 -6q-41 0 -78 13.5t-65 43t-44 74.5t-16 108q0 70 20 117t50.5 75.5t67.5 40.5t71 12q32 0 55.5 -7.5t39 -16.5t24 -18t11.5 -12q0 27 16.5 36.5t28.5 9.5q7 0 12 -1v-441zM117 237q0 -41 8 -76.5t26 -62.5t47 -42.5t70 -15.5q28 0 51 7.5t39.5 18.5t26 24t9.5 25v254
q-6 7 -16.5 17t-25.5 19t-35 15.5t-45 6.5q-75 0 -115 -48t-40 -142zM284 615l-63 -72q-15 -17 -37 -17q-18 0 -28 10l81 103q11 14 20 22.5t26 8.5t26 -8.5t20 -22.5l83 -106q-5 -3 -12.5 -6t-16.5 -3q-20 0 -36 18z" />
    <glyph glyph-name="Gbreve" unicode="&#x11e;" horiz-adv-x="650" 
d="M585 87q-7 -11 -17 -23t-30 -26q-31 -23 -73.5 -38t-109.5 -15q-76 0 -131 26.5t-90 73.5t-52 111.5t-17 141.5q0 75 17.5 138t53.5 108.5t92 71t133 25.5q40 0 71.5 -8.5t54 -20t36 -22.5t19.5 -17q4 -4 8 -10t4 -13q0 -11 -20 -34h-11q-6 7 -19 19.5t-33.5 24.5
t-48.5 21t-64 9q-68 0 -113 -25t-71 -65.5t-36.5 -93.5t-10.5 -108q0 -58 11.5 -112.5t38.5 -97t72 -68.5t112 -26q41 0 70.5 8t49 18.5t31 22t16.5 18.5v191h-154v50h211v-255zM276 822q12 -29 30 -42t50 -13q33 0 51 13t29 42q7 17 14.5 24t18.5 7q19 0 27 -5
q-4 -17 -6 -24.5t-8 -22.5q-16 -38 -48 -58.5t-78 -20.5q-49 0 -79.5 19.5t-47.5 56.5q-8 15 -10.5 24t-4.5 26q4 2 13 3.5t17 1.5q11 0 17.5 -6.5t14.5 -24.5z" />
    <glyph glyph-name="gbreve" unicode="&#x11f;" horiz-adv-x="531" 
d="M451 25q0 -32 -2 -60.5t-8 -54.5q-16 -66 -67.5 -101.5t-142.5 -35.5q-54 0 -92.5 12.5t-56.5 28.5q-9 8 -12 14t-3 13q0 9 8.5 19.5t14.5 15.5q12 -15 35 -28q17 -11 43.5 -19t61.5 -8q141 0 158 114q4 25 5 50.5t1 45.5v17q-8 -8 -19 -18t-27.5 -18.5t-38.5 -14.5
t-51 -6q-41 0 -78 13.5t-65 43t-44 74.5t-16 108q0 70 20 117t50.5 75.5t67.5 40.5t71 12q32 0 55.5 -7.5t39 -16.5t24 -18t11.5 -12q0 27 16.5 36.5t28.5 9.5q7 0 12 -1v-441zM117 237q0 -41 8 -76.5t26 -62.5t47 -42.5t70 -15.5q28 0 51 7.5t39.5 18.5t26 24t9.5 25v254
q-6 7 -16.5 17t-25.5 19t-35 15.5t-45 6.5q-75 0 -115 -48t-40 -142zM193 630q10 -35 29 -50t51 -15q33 0 51.5 15t28.5 49q5 18 13.5 24.5t19.5 6.5q19 0 27 -5q-4 -17 -6 -27t-7 -25q-16 -43 -48.5 -63t-78.5 -20q-52 0 -81 20t-46 59q-7 16 -9.5 27.5t-5.5 28.5
q4 2 13 3.5t17 1.5q11 0 19 -6t13 -24z" />
    <glyph glyph-name="Gdotaccent" unicode="&#x120;" horiz-adv-x="650" 
d="M585 87q-7 -11 -17 -23t-30 -26q-31 -23 -73.5 -38t-109.5 -15q-76 0 -131 26.5t-90 73.5t-52 111.5t-17 141.5q0 75 17.5 138t53.5 108.5t92 71t133 25.5q40 0 71.5 -8.5t54 -20t36 -22.5t19.5 -17q4 -4 8 -10t4 -13q0 -11 -20 -34h-11q-6 7 -19 19.5t-33.5 24.5
t-48.5 21t-64 9q-68 0 -113 -25t-71 -65.5t-36.5 -93.5t-10.5 -108q0 -58 11.5 -112.5t38.5 -97t72 -68.5t112 -26q41 0 70.5 8t49 18.5t31 22t16.5 18.5v191h-154v50h211v-255zM400 774q0 -21 -13.5 -36t-33.5 -15t-33.5 15t-13.5 36t13.5 36t33.5 15t33.5 -15t13.5 -36z
" />
    <glyph glyph-name="gdotaccent" unicode="&#x121;" horiz-adv-x="531" 
d="M451 25q0 -32 -2 -60.5t-8 -54.5q-16 -66 -67.5 -101.5t-142.5 -35.5q-54 0 -92.5 12.5t-56.5 28.5q-9 8 -12 14t-3 13q0 9 8.5 19.5t14.5 15.5q12 -15 35 -28q17 -11 43.5 -19t61.5 -8q141 0 158 114q4 25 5 50.5t1 45.5v17q-8 -8 -19 -18t-27.5 -18.5t-38.5 -14.5
t-51 -6q-41 0 -78 13.5t-65 43t-44 74.5t-16 108q0 70 20 117t50.5 75.5t67.5 40.5t71 12q32 0 55.5 -7.5t39 -16.5t24 -18t11.5 -12q0 27 16.5 36.5t28.5 9.5q7 0 12 -1v-441zM117 237q0 -41 8 -76.5t26 -62.5t47 -42.5t70 -15.5q28 0 51 7.5t39.5 18.5t26 24t9.5 25v254
q-6 7 -16.5 17t-25.5 19t-35 15.5t-45 6.5q-75 0 -115 -48t-40 -142zM322 590q0 -21 -13.5 -36t-33.5 -15t-33.5 15t-13.5 36t13.5 36t33.5 15t33.5 -15t13.5 -36z" />
    <glyph glyph-name="Gcommaaccent" unicode="&#x122;" horiz-adv-x="650" 
d="M585 87q-7 -11 -17 -23t-30 -26q-31 -23 -73.5 -38t-109.5 -15q-76 0 -131 26.5t-90 73.5t-52 111.5t-17 141.5q0 75 17.5 138t53.5 108.5t92 71t133 25.5q40 0 71.5 -8.5t54 -20t36 -22.5t19.5 -17q4 -4 8 -10t4 -13q0 -11 -20 -34h-11q-6 7 -19 19.5t-33.5 24.5
t-48.5 21t-64 9q-68 0 -113 -25t-71 -65.5t-36.5 -93.5t-10.5 -108q0 -58 11.5 -112.5t38.5 -97t72 -68.5t112 -26q41 0 70.5 8t49 18.5t31 22t16.5 18.5v191h-154v50h211v-255zM322 -176q-7 -11 -16.5 -18t-23.5 -7q-12 0 -18 3l43 107q8 19 18.5 31.5t30.5 12.5
q8 0 16 -2.5t14 -5.5z" />
    <glyph glyph-name="gcommaaccent" unicode="&#x123;" horiz-adv-x="531" 
d="M451 25q0 -32 -2 -60.5t-8 -54.5q-16 -66 -67.5 -101.5t-142.5 -35.5q-54 0 -92.5 12.5t-56.5 28.5q-9 8 -12 14t-3 13q0 9 8.5 19.5t14.5 15.5q12 -15 35 -28q17 -11 43.5 -19t61.5 -8q141 0 158 114q4 25 5 50.5t1 45.5v17q-8 -8 -19 -18t-27.5 -18.5t-38.5 -14.5
t-51 -6q-41 0 -78 13.5t-65 43t-44 74.5t-16 108q0 70 20 117t50.5 75.5t67.5 40.5t71 12q32 0 55.5 -7.5t39 -16.5t24 -18t11.5 -12q0 27 16.5 36.5t28.5 9.5q7 0 12 -1v-441zM117 237q0 -41 8 -76.5t26 -62.5t47 -42.5t70 -15.5q28 0 51 7.5t39.5 18.5t26 24t9.5 25v254
q-6 7 -16.5 17t-25.5 19t-35 15.5t-45 6.5q-75 0 -115 -48t-40 -142zM296 649q7 11 16.5 18t23.5 7q12 0 18 -3l-43 -107q-8 -19 -18.5 -31.5t-30.5 -12.5q-8 0 -16 2.5t-14 5.5z" />
    <glyph glyph-name="Hcircumflex" unicode="&#x124;" horiz-adv-x="649" 
d="M564 0h-59v325h-361v-325h-59v670q5 1 7 1h4q6 0 14 -1.5t15.5 -7t13 -15.5t5.5 -27v-245h361v295q5 1 7 1h4q6 0 14 -1.5t15.5 -7t13 -15.5t5.5 -27v-620zM335 786l-64 -58q-17 -14 -34 -14q-8 0 -15.5 3t-11.5 6l79 92q11 13 20.5 21t26.5 8t27 -8.5t21 -21.5l78 -91
q-4 -3 -11.5 -6t-15.5 -3q-21 0 -34 13z" />
    <glyph glyph-name="hcircumflex" unicode="&#x125;" horiz-adv-x="542" 
d="M137 411q23 24 65 44t103 20q36 0 62 -8.5t44 -23t28.5 -33t14.5 -37.5q5 -21 6.5 -43.5t1.5 -45.5v-284h-58v284q0 20 -2 40t-7 35q-19 64 -109 64q-27 0 -54 -7t-48 -17.5t-34 -23.5t-13 -25v-350h-57v709q5 1 6.5 1h3.5q6 0 14 -1.5t15.5 -7t12.5 -15.5t5 -26v-249z
M204 821l-64 -58q-17 -14 -34 -14q-8 0 -15.5 3t-11.5 6l79 92q11 13 20.5 21t26.5 8t27 -8.5t21 -21.5l78 -91q-4 -3 -11.5 -6t-15.5 -3q-21 0 -34 13z" />
    <glyph glyph-name="Hbar" unicode="&#x126;" horiz-adv-x="649" 
d="M505 375v134h-361v-134h361zM144 558h361v112q5 1 7 1h4q6 0 14 -1.5t15.5 -7t13 -15.5t5.5 -27v-62h61v-49h-61v-509h-59v325h-361v-325h-59v509h-66v49h66v112q5 1 7 1h4q6 0 14 -1.5t15.5 -7t13 -15.5t5.5 -27v-62z" />
    <glyph glyph-name="hbar" unicode="&#x127;" horiz-adv-x="542" 
d="M137 615h217v-49h-217v-155q23 24 65 44t103 20q36 0 62 -8.5t44 -23t28.5 -33t14.5 -37.5q5 -21 6.5 -43.5t1.5 -45.5v-284h-58v284q0 20 -2 40t-7 35q-19 64 -109 64q-27 0 -54 -7t-48 -17.5t-34 -23.5t-13 -25v-350h-57v566h-64v49h64v94q5 1 6.5 1h3.5q6 0 14 -1.5
t15.5 -7t12.5 -15.5t5 -26v-45z" />
    <glyph glyph-name="Itilde" unicode="&#x128;" horiz-adv-x="229" 
d="M144 0h-59v670q5 1 7 1h4q6 0 14 -1.5t15.5 -7t13 -15.5t5.5 -27v-620zM178 735q-21 0 -38 6t-31.5 12.5t-28 12.5t-27.5 6q-20 0 -36 -12t-31 -31q-7 4 -12.5 12.5t-5.5 19.5t8.5 21.5t21.5 19t28.5 13.5t30.5 5q21 0 37.5 -6t30 -13t26.5 -13t27 -6q20 0 35 13.5
t31 36.5q6 -2 14 -11.5t8 -23.5q0 -9 -7 -20t-19 -20t-28 -15.5t-34 -6.5z" />
    <glyph glyph-name="itilde" unicode="&#x129;" horiz-adv-x="224" 
d="M138 92q0 -42 12 -55.5t39 -15.5v-21q-11 -3 -21 -4t-20 -1q-24 0 -37.5 9t-20 23t-8 32.5t-1.5 38.5v369h3q20 0 37 -10.5t17 -41.5v-323zM175 540q-21 0 -38 6t-31.5 12.5t-28 12.5t-27.5 6q-20 0 -36 -12t-31 -31q-7 4 -12.5 12.5t-5.5 19.5t8.5 21.5t21.5 19
t28.5 13.5t30.5 5q21 0 37.5 -6t30 -13t26.5 -13t27 -6q20 0 35 13.5t31 36.5q6 -2 14 -11.5t8 -23.5q0 -9 -7 -20t-19 -20t-28 -15.5t-34 -6.5z" />
    <glyph glyph-name="Imacron" unicode="&#x12a;" horiz-adv-x="229" 
d="M144 0h-59v670q5 1 7 1h4q6 0 14 -1.5t15.5 -7t13 -15.5t5.5 -27v-620zM10 742q-25 0 -35 8t-10 24q0 5 0.5 8.5t1.5 8.5h251q22 0 34 -7t12 -25q0 -7 -2 -17h-252z" />
    <glyph glyph-name="imacron" unicode="&#x12b;" horiz-adv-x="224" 
d="M138 92q0 -42 12 -55.5t39 -15.5v-21q-11 -3 -21 -4t-20 -1q-24 0 -37.5 9t-20 23t-8 32.5t-1.5 38.5v369h3q20 0 37 -10.5t17 -41.5v-323zM9 558q-25 0 -35 8t-10 24q0 5 0.5 8.5t1.5 8.5h251q22 0 34 -7t12 -25q0 -7 -2 -17h-252z" />
    <glyph glyph-name="Ibreve" unicode="&#x12c;" horiz-adv-x="229" 
d="M144 0h-59v670q5 1 7 1h4q6 0 14 -1.5t15.5 -7t13 -15.5t5.5 -27v-620zM36 822q12 -29 30 -42t50 -13q33 0 51 13t29 42q7 17 14.5 24t18.5 7q19 0 27 -5q-4 -17 -6 -24.5t-8 -22.5q-16 -38 -48 -58.5t-78 -20.5q-49 0 -79.5 19.5t-47.5 56.5q-8 15 -10.5 24t-4.5 26
q4 2 13 3.5t17 1.5q11 0 17.5 -6.5t14.5 -24.5z" />
    <glyph glyph-name="ibreve" unicode="&#x12d;" horiz-adv-x="224" 
d="M138 92q0 -42 12 -55.5t39 -15.5v-21q-11 -3 -21 -4t-20 -1q-24 0 -37.5 9t-20 23t-8 32.5t-1.5 38.5v369h3q20 0 37 -10.5t17 -41.5v-323zM33 630q10 -35 29 -50t51 -15q33 0 51.5 15t28.5 49q5 18 13.5 24.5t19.5 6.5q19 0 27 -5q-4 -17 -6 -27t-7 -25
q-16 -43 -48.5 -63t-78.5 -20q-52 0 -81 20t-46 59q-7 16 -9.5 27.5t-5.5 28.5q4 2 13 3.5t17 1.5q11 0 19 -6t13 -24z" />
    <glyph glyph-name="Iogonek" unicode="&#x12e;" horiz-adv-x="229" 
d="M144 -147q7 -6 12.5 -12.5t5.5 -14.5q0 -9 -12 -19q-10 -8 -25 -12.5t-31 -4.5q-36 0 -59 18.5t-23 60.5q0 22 7 42t18 37t23.5 30t24.5 22v670q5 1 7 1h4q6 0 14 -1.5t15.5 -7t13 -15.5t5.5 -27v-620q-15 -8 -30 -21t-27 -29.5t-19.5 -36t-7.5 -39.5q0 -44 38 -44
q17 0 28 7.5t18 15.5z" />
    <glyph glyph-name="iogonek" unicode="&#x12f;" horiz-adv-x="224" 
d="M138 92q0 -42 12 -55.5t39 -15.5v-21q-14 -7 -28 -20t-26 -30t-19.5 -36.5t-7.5 -38.5q0 -45 38 -45q17 0 28.5 8t18.5 16q6 -5 11.5 -13t5.5 -15q0 -9 -12 -19q-10 -8 -25 -12.5t-31 -4.5q-36 0 -59 18.5t-23 60.5q0 21 6.5 40t16.5 35.5t22.5 30t24.5 22.5
q-18 3 -28 12.5t-14.5 23.5t-5.5 31t-1 34v369h3q20 0 37 -10.5t17 -41.5v-323z" />
    <glyph glyph-name="Idotaccent" unicode="&#x130;" horiz-adv-x="229" 
d="M144 0h-59v670q5 1 7 1h4q6 0 14 -1.5t15.5 -7t13 -15.5t5.5 -27v-620zM163 774q0 -21 -13.5 -36t-33.5 -15t-33.5 15t-13.5 36t13.5 36t33.5 15t33.5 -15t13.5 -36z" />
    <glyph glyph-name="dotlessi" unicode="&#x131;" horiz-adv-x="224" 
d="M138 92q0 -42 12 -55.5t39 -15.5v-21q-11 -3 -21 -4t-20 -1q-24 0 -37.5 9t-20 23t-8 32.5t-1.5 38.5v369h3q20 0 37 -10.5t17 -41.5v-323z" />
    <glyph glyph-name="IJ" unicode="&#x132;" horiz-adv-x="476" 
d="M144 0h-59v670q5 1 7 1h4q6 0 14 -1.5t15.5 -7t13 -15.5t5.5 -27v-620zM391 23q0 -11 -0.5 -23t-1.5 -23q-3 -27 -13 -53t-28 -47t-45 -34t-64 -13q-24 0 -33 7.5t-9 24.5q0 4 0.5 8.5t1.5 9.5q5 -1 9.5 -1h9.5q48 0 72.5 20t35.5 58q4 12 5 27t1 32v654q5 1 7 1h4
q6 0 14 -1.5t15.5 -7t13 -15.5t5.5 -27v-597z" />
    <glyph glyph-name="ij" unicode="&#x133;" horiz-adv-x="434" 
d="M148 -5q-24 0 -37.5 9t-20 23t-8 32.5t-1.5 38.5v369h3q20 0 37 -10.5t17 -41.5v-320q0 -44 12 -58t39 -16v-21q-11 -3 -21 -4t-20 -1zM150 590q0 -19 -12.5 -32.5t-30.5 -13.5t-30.5 13.5t-12.5 32.5t12.5 32.5t30.5 13.5t30.5 -13.5t12.5 -32.5zM354 -57q0 -23 -2 -46
t-9 -43q-9 -28 -24.5 -44t-32 -24.5t-31.5 -10.5t-23 -2q-14 0 -21.5 4.5t-11 11.5t-4 15t-0.5 14q48 0 70 17.5t28 54.5q2 10 3 22t1 21v534h3q20 0 37 -10.5t17 -41.5v-472zM366 590q0 -19 -12.5 -32.5t-30.5 -13.5t-30.5 13.5t-12.5 32.5t12.5 32.5t30.5 13.5t30.5 -13.5
t12.5 -32.5z" />
    <glyph glyph-name="Jcircumflex" unicode="&#x134;" horiz-adv-x="229" 
d="M144 23q0 -11 -0.5 -23t-1.5 -23q-3 -27 -13 -53t-28 -47t-45 -34t-64 -13q-24 0 -33 7.5t-9 24.5q0 4 0.5 8.5t1.5 9.5q5 -1 9.5 -1h9.5q48 0 72.5 20t35.5 58q4 12 5 27t1 32v654q5 1 7 1h4q6 0 14 -1.5t15.5 -7t13 -15.5t5.5 -27v-597zM113 786l-64 -58
q-17 -14 -34 -14q-8 0 -15.5 3t-11.5 6l79 92q11 13 20.5 21t26.5 8t27 -8.5t21 -21.5l78 -91q-4 -3 -11.5 -6t-15.5 -3q-21 0 -34 13z" />
    <glyph glyph-name="jcircumflex" unicode="&#x135;" horiz-adv-x="218" 
d="M138 -57q0 -23 -2 -46t-9 -43q-9 -28 -24.5 -44t-32 -24.5t-31.5 -10.5t-23 -2q-14 0 -21.5 4.5t-11 11.5t-4 15t-0.5 14q48 0 70 17.5t28 54.5q2 10 3 22t1 21v534h3q20 0 37 -10.5t17 -41.5v-472zM112 615l-63 -72q-15 -17 -37 -17q-18 0 -28 10l81 103q11 14 20 22.5
t26 8.5t26 -8.5t20 -22.5l83 -106q-5 -3 -12.5 -6t-16.5 -3q-20 0 -36 18z" />
    <glyph glyph-name="Kcommaaccent" unicode="&#x136;" horiz-adv-x="535" 
d="M429 646q14 14 26 19.5t23 5.5q8 0 15 -2.5t12 -4.5l10 -6l-279 -295l299 -366q-17 -6 -33 -6q-20 0 -35.5 7t-31.5 26l-263 322v27zM144 0h-59v670q5 1 7 1h4q6 0 14 -1.5t15.5 -7t13 -15.5t5.5 -27v-620zM275 -176q-7 -11 -16.5 -18t-23.5 -7q-12 0 -18 3l43 107
q8 19 18.5 31.5t30.5 12.5q8 0 16 -2.5t14 -5.5z" />
    <glyph glyph-name="kcommaaccent" unicode="&#x137;" horiz-adv-x="472" 
d="M80 0v709q5 1 6.5 1h3.5q6 0 14 -1.5t15.5 -7t13 -15.5t5.5 -27v-659h-58zM171 246v28l166 164q14 14 26.5 21.5t26.5 7.5q8 0 15 -2.5t12 -4.5l11 -7l-197 -191l228 -265q-15 -6 -31 -6q-37 0 -65 34zM228 -176q-7 -11 -16.5 -18t-23.5 -7q-12 0 -18 3l43 107
q8 19 18.5 31.5t30.5 12.5q8 0 16 -2.5t14 -5.5z" />
    <glyph glyph-name="kgreenlandic" unicode="&#x138;" horiz-adv-x="462" 
d="M173 227v27l155 178q13 14 25.5 24.5t26.5 10.5q16 0 27 -7l11 -7l-186 -208l218 -248q-15 -6 -32 -6q-20 0 -35 8.5t-29 25.5zM80 0v466q5 1 6.5 1h3.5q6 0 14 -1.5t15.5 -7t13 -15.5t5.5 -27v-416h-58z" />
    <glyph glyph-name="Lacute" unicode="&#x139;" horiz-adv-x="472" 
d="M144 50h255q24 0 36.5 -11t12.5 -30q0 -2 -0.5 -3t-0.5 -3v-3h-362v670q5 1 7 1h4q6 0 14 -1.5t15.5 -7t13 -15.5t5.5 -27v-570zM113 722q-14 -8 -26 -8q-10 0 -20.5 5t-14.5 11l110 87q11 9 21 14.5t21 5.5q14 0 25.5 -9.5t19.5 -18.5z" />
    <glyph glyph-name="lacute" unicode="&#x13a;" horiz-adv-x="224" 
d="M80 709q5 1 6.5 1h3.5q6 0 14 -1.5t15.5 -7t13 -15.5t5.5 -27v-567q0 -42 12 -55.5t39 -15.5v-21q-11 -3 -21 -4t-20 -1q-24 0 -38 9t-20.5 23t-8 32.5t-1.5 38.5v611zM110 762q-14 -8 -26 -8q-10 0 -20.5 5t-14.5 11l110 87q11 9 21 14.5t21 5.5q14 0 25.5 -9.5
t19.5 -18.5z" />
    <glyph glyph-name="Lcommaaccent" unicode="&#x13b;" horiz-adv-x="472" 
d="M144 50h255q24 0 36.5 -11t12.5 -30q0 -2 -0.5 -3t-0.5 -3v-3h-362v670q5 1 7 1h4q6 0 14 -1.5t15.5 -7t13 -15.5t5.5 -27v-570zM243 -176q-7 -11 -16.5 -18t-23.5 -7q-12 0 -18 3l43 107q8 19 18.5 31.5t30.5 12.5q8 0 16 -2.5t14 -5.5z" />
    <glyph glyph-name="lcommaaccent" unicode="&#x13c;" horiz-adv-x="224" 
d="M80 709q5 1 6.5 1h3.5q6 0 14 -1.5t15.5 -7t13 -15.5t5.5 -27v-567q0 -42 12 -55.5t39 -15.5v-21q-11 -3 -21 -4t-20 -1q-24 0 -38 9t-20.5 23t-8 32.5t-1.5 38.5v611zM110 -176q-7 -11 -16.5 -18t-23.5 -7q-12 0 -18 3l43 107q8 19 18.5 31.5t30.5 12.5q8 0 16 -2.5
t14 -5.5z" />
    <glyph glyph-name="Lcaron" unicode="&#x13d;" horiz-adv-x="472" 
d="M144 50h255q24 0 36.5 -11t12.5 -30q0 -2 -0.5 -3t-0.5 -3v-3h-362v670q5 1 7 1h4q6 0 14 -1.5t15.5 -7t13 -15.5t5.5 -27v-570zM301 504q-1 -17 -13 -26t-30 -9h-5v140q0 17 2 30.5t13 23.5q12 9 29 9q2 0 6 -0.5t9 -1.5z" />
    <glyph glyph-name="lcaron" unicode="&#x13e;" horiz-adv-x="224" 
d="M80 709q5 1 6.5 1h3.5q6 0 14 -1.5t15.5 -7t13 -15.5t5.5 -27v-567q0 -42 12 -55.5t39 -15.5v-21q-11 -3 -21 -4t-20 -1q-24 0 -38 9t-20.5 23t-8 32.5t-1.5 38.5v611zM258 542q-1 -17 -13 -26t-30 -9h-5v140q0 17 2 30.5t13 23.5q12 9 29 9q2 0 6 -0.5t9 -1.5z" />
    <glyph glyph-name="Ldot" unicode="&#x13f;" horiz-adv-x="472" 
d="M144 50h255q24 0 36.5 -11t12.5 -30q0 -2 -0.5 -3t-0.5 -3v-3h-362v670q5 1 7 1h4q6 0 14 -1.5t15.5 -7t13 -15.5t5.5 -27v-570zM414 355q0 -21 -13.5 -36t-33.5 -15t-33.5 15t-13.5 36t13.5 36t33.5 15t33.5 -15t13.5 -36z" />
    <glyph glyph-name="ldot" unicode="&#x140;" horiz-adv-x="289" 
d="M80 709q5 1 6.5 1h3.5q6 0 14 -1.5t15.5 -7t13 -15.5t5.5 -27v-567q0 -42 12 -55.5t39 -15.5v-21q-11 -3 -21 -4t-20 -1q-24 0 -38 9t-20.5 23t-8 32.5t-1.5 38.5v611zM304 381q0 -21 -13.5 -36t-33.5 -15t-33.5 15t-13.5 36t13.5 36t33.5 15t33.5 -15t13.5 -36z" />
    <glyph glyph-name="Lslash" unicode="&#x141;" horiz-adv-x="472" 
d="M144 358l211 89l17 -39l-228 -98v-260h257q26 0 36.5 -12.5t10.5 -28.5v-9h-363v289l-63 -27l-17 40l80 35v333q5 1 7 1h4q6 0 14 -1.5t15.5 -7t13 -15.5t5.5 -27v-262z" />
    <glyph glyph-name="lslash" unicode="&#x142;" horiz-adv-x="275" 
d="M110 318l-70 -48l-26 36l96 66v337q5 1 6.5 1h3.5q6 0 14 -1.5t15.5 -7t13 -15.5t5.5 -27v-251l85 62l26 -35l-111 -81v-262q0 -42 12 -55.5t39 -15.5v-21q-11 -3 -21 -4t-20 -1q-24 0 -38 9t-20.5 23t-8 32.5t-1.5 38.5v220z" />
    <glyph glyph-name="Nacute" unicode="&#x143;" horiz-adv-x="661" 
d="M576 0h-61l-375 568v-568h-55v667q9 4 28 4q15 0 24 -5.5t19 -20.5l365 -562v587q5 1 8 1h5q6 0 13.5 -1.5t13.5 -7t10.5 -15.5t4.5 -27v-620zM330 722q-14 -8 -26 -8q-10 0 -20.5 5t-14.5 11l110 87q11 9 21 14.5t21 5.5q14 0 25.5 -9.5t19.5 -18.5z" />
    <glyph glyph-name="nacute" unicode="&#x144;" horiz-adv-x="543" 
d="M137 412q23 24 66 43.5t103 19.5q36 0 62 -8.5t44 -23t28.5 -33t14.5 -37.5q5 -21 6.5 -43.5t1.5 -45.5v-284h-58v284q0 20 -2 40t-7 35q-19 64 -113 64q-42 0 -80 -16.5t-57 -37.5q-8 -10 -8 -25v-344h-58v467h4q21 0 37 -11t16 -44zM290 535q-14 -15 -33 -15
q-8 0 -17.5 3t-13.5 6l85 110q10 14 19.5 22.5t24.5 8.5q13 0 25 -5t20 -11z" />
    <glyph glyph-name="Ncommaaccent" unicode="&#x145;" horiz-adv-x="661" 
d="M576 0h-61l-375 568v-568h-55v667q9 4 28 4q15 0 24 -5.5t19 -20.5l365 -562v587q5 1 8 1h5q6 0 13.5 -1.5t13.5 -7t10.5 -15.5t4.5 -27v-620zM303 -176q-7 -11 -16.5 -18t-23.5 -7q-12 0 -18 3l43 107q8 19 18.5 31.5t30.5 12.5q8 0 16 -2.5t14 -5.5z" />
    <glyph glyph-name="ncommaaccent" unicode="&#x146;" horiz-adv-x="543" 
d="M137 412q23 24 66 43.5t103 19.5q36 0 62 -8.5t44 -23t28.5 -33t14.5 -37.5q5 -21 6.5 -43.5t1.5 -45.5v-284h-58v284q0 20 -2 40t-7 35q-19 64 -113 64q-42 0 -80 -16.5t-57 -37.5q-8 -10 -8 -25v-344h-58v467h4q21 0 37 -11t16 -44zM247 -176q-7 -11 -16.5 -18
t-23.5 -7q-12 0 -18 3l43 107q8 19 18.5 31.5t30.5 12.5q8 0 16 -2.5t14 -5.5z" />
    <glyph glyph-name="Ncaron" unicode="&#x147;" horiz-adv-x="661" 
d="M576 0h-61l-375 568v-568h-55v667q9 4 28 4q15 0 24 -5.5t19 -20.5l365 -562v587q5 1 8 1h5q6 0 13.5 -1.5t13.5 -7t10.5 -15.5t4.5 -27v-620zM340 781l64 58q17 14 34 14q8 0 15.5 -3t11.5 -6l-79 -92q-11 -13 -20.5 -21t-26.5 -8t-27 8.5t-21 21.5l-78 91q4 3 11.5 6
t15.5 3q21 0 34 -13z" />
    <glyph glyph-name="ncaron" unicode="&#x148;" horiz-adv-x="543" 
d="M137 412q23 24 66 43.5t103 19.5q36 0 62 -8.5t44 -23t28.5 -33t14.5 -37.5q5 -21 6.5 -43.5t1.5 -45.5v-284h-58v284q0 20 -2 40t-7 35q-19 64 -113 64q-42 0 -80 -16.5t-57 -37.5q-8 -10 -8 -25v-344h-58v467h4q21 0 37 -11t16 -44zM343 648q9 11 18 14.5t18 3.5
t16.5 -2.5t12.5 -6.5l-83 -106q-11 -14 -20 -22.5t-26 -8.5t-26 8.5t-20 22.5l-81 103q10 10 28 10q22 0 37 -17l63 -72z" />
    <glyph glyph-name="napostrophe" unicode="&#x149;" horiz-adv-x="543" 
d="M137 412q23 24 66 43.5t103 19.5q36 0 62 -8.5t44 -23t28.5 -33t14.5 -37.5q5 -21 6.5 -43.5t1.5 -45.5v-284h-58v284q0 20 -2 40t-7 35q-19 64 -113 64q-42 0 -80 -16.5t-57 -37.5q-8 -10 -8 -25v-344h-58v467h4q21 0 37 -11t16 -44zM155 636q0 -33 -12.5 -60.5
t-29.5 -45.5q-24 -26 -46 -26q-19 0 -28 23q18 9 36 25t22 44q-13 5 -24 17.5t-11 31.5q0 20 12.5 34t32.5 14q24 0 36 -16t12 -41z" />
    <glyph glyph-name="Eng" unicode="&#x14a;" horiz-adv-x="661" 
d="M576 21q0 -14 -1 -27t-2 -19q-3 -27 -13 -53t-28 -46.5t-44.5 -33t-63.5 -12.5q-24 0 -33 7.5t-9 24.5q0 4 0.5 8.5t1.5 9.5q5 -1 9.5 -1h9.5q48 0 72.5 20t35.5 58q4 16 6 42l-379 572v-571h-53v667q9 4 28 4q15 0 24 -5.5t19 -20.5l367 -565v590h3q2 0 4 0.5t4 0.5
q6 0 13.5 -1.5t13.5 -7t10.5 -15.5t4.5 -27v-599z" />
    <glyph glyph-name="eng" unicode="&#x14b;" horiz-adv-x="543" 
d="M137 412q23 24 66 43.5t103 19.5q36 0 62 -8.5t44 -23t28.5 -33t14.5 -37.5q5 -21 6.5 -43.5t1.5 -45.5v-342q0 -22 -2 -45t-9 -43q-9 -28 -24.5 -44t-32 -24.5t-31.5 -10.5t-23 -2q-14 0 -21.5 4.5t-11 11.5t-4 15t-0.5 14q48 0 70 17.5t28 54.5q2 9 2.5 20t0.5 20v354
q0 20 -2 40t-7 35q-19 64 -113 64q-42 0 -80 -16.5t-57 -37.5q-8 -10 -8 -25v-344h-58v467h4q21 0 37 -11t16 -44z" />
    <glyph glyph-name="Omacron" unicode="&#x14c;" horiz-adv-x="696" 
d="M631 338q0 -71 -16 -135t-50.5 -112.5t-89 -77t-130.5 -28.5q-77 0 -130 29.5t-86.5 78.5t-48.5 112.5t-15 131.5t16.5 130.5t52 110t90 75.5t130.5 28q74 0 126.5 -27t86 -74t49 -109.5t15.5 -132.5zM568 337q0 59 -11 112t-36 93.5t-66 64t-102 23.5q-64 0 -107 -23.5
t-69 -64t-37 -93.5t-11 -112t11 -113.5t36.5 -96.5t68 -67t104.5 -25t104 25t67.5 67t36.5 96.5t11 113.5zM249 742q-25 0 -35 8t-10 24q0 5 0.5 8.5t1.5 8.5h251q22 0 34 -7t12 -25q0 -7 -2 -17h-252z" />
    <glyph glyph-name="omacron" unicode="&#x14d;" horiz-adv-x="535" 
d="M419 231q0 34 -6 69t-22.5 63t-46 45.5t-75.5 17.5q-44 0 -73.5 -17.5t-47 -45.5t-25 -63t-7.5 -69q0 -35 6.5 -70t23.5 -63.5t46.5 -46.5t74.5 -18q47 0 76.5 18t46.5 46.5t23 63.5t6 70zM480 231q0 -48 -11.5 -92.5t-37 -78.5t-66 -54.5t-98.5 -20.5q-57 0 -97.5 20
t-66 53.5t-37 77.5t-11.5 92q0 49 13.5 94t40.5 79t67.5 54t94.5 20q57 0 97 -20t64.5 -54t36 -78t11.5 -92zM170 558q-25 0 -35 8t-10 24q0 5 0.5 8.5t1.5 8.5h251q22 0 34 -7t12 -25q0 -7 -2 -17h-252z" />
    <glyph glyph-name="Obreve" unicode="&#x14e;" horiz-adv-x="696" 
d="M631 338q0 -71 -16 -135t-50.5 -112.5t-89 -77t-130.5 -28.5q-77 0 -130 29.5t-86.5 78.5t-48.5 112.5t-15 131.5t16.5 130.5t52 110t90 75.5t130.5 28q74 0 126.5 -27t86 -74t49 -109.5t15.5 -132.5zM568 337q0 59 -11 112t-36 93.5t-66 64t-102 23.5q-64 0 -107 -23.5
t-69 -64t-37 -93.5t-11 -112t11 -113.5t36.5 -96.5t68 -67t104.5 -25t104 25t67.5 67t36.5 96.5t11 113.5zM279 822q12 -29 30 -42t50 -13q33 0 51 13t29 42q7 17 14.5 24t18.5 7q19 0 27 -5q-4 -17 -6 -24.5t-8 -22.5q-16 -38 -48 -58.5t-78 -20.5q-49 0 -79.5 19.5
t-47.5 56.5q-8 15 -10.5 24t-4.5 26q4 2 13 3.5t17 1.5q11 0 17.5 -6.5t14.5 -24.5z" />
    <glyph glyph-name="obreve" unicode="&#x14f;" horiz-adv-x="535" 
d="M419 231q0 34 -6 69t-22.5 63t-46 45.5t-75.5 17.5q-44 0 -73.5 -17.5t-47 -45.5t-25 -63t-7.5 -69q0 -35 6.5 -70t23.5 -63.5t46.5 -46.5t74.5 -18q47 0 76.5 18t46.5 46.5t23 63.5t6 70zM480 231q0 -48 -11.5 -92.5t-37 -78.5t-66 -54.5t-98.5 -20.5q-57 0 -97.5 20
t-66 53.5t-37 77.5t-11.5 92q0 49 13.5 94t40.5 79t67.5 54t94.5 20q57 0 97 -20t64.5 -54t36 -78t11.5 -92zM199 630q10 -35 29 -50t51 -15q33 0 51.5 15t28.5 49q5 18 13.5 24.5t19.5 6.5q19 0 27 -5q-4 -17 -6 -27t-7 -25q-16 -43 -48.5 -63t-78.5 -20q-52 0 -81 20
t-46 59q-7 16 -9.5 27.5t-5.5 28.5q4 2 13 3.5t17 1.5q11 0 19 -6t13 -24z" />
    <glyph glyph-name="Ohungarumlaut" unicode="&#x150;" horiz-adv-x="696" 
d="M631 338q0 -71 -16 -135t-50.5 -112.5t-89 -77t-130.5 -28.5q-77 0 -130 29.5t-86.5 78.5t-48.5 112.5t-15 131.5t16.5 130.5t52 110t90 75.5t130.5 28q74 0 126.5 -27t86 -74t49 -109.5t15.5 -132.5zM568 337q0 59 -11 112t-36 93.5t-66 64t-102 23.5q-64 0 -107 -23.5
t-69 -64t-37 -93.5t-11 -112t11 -113.5t36.5 -96.5t68 -67t104.5 -25t104 25t67.5 67t36.5 96.5t11 113.5zM450 722q-14 -8 -26 -8q-10 0 -20.5 5t-14.5 11l110 87q11 9 21 14.5t21 5.5q14 0 25.5 -9.5t19.5 -18.5zM290 722q-14 -8 -26 -8q-10 0 -20.5 5t-14.5 11l110 87
q11 9 21 14.5t21 5.5q14 0 25.5 -9.5t19.5 -18.5z" />
    <glyph glyph-name="ohungarumlaut" unicode="&#x151;" horiz-adv-x="535" 
d="M419 231q0 34 -6 69t-22.5 63t-46 45.5t-75.5 17.5q-44 0 -73.5 -17.5t-47 -45.5t-25 -63t-7.5 -69q0 -35 6.5 -70t23.5 -63.5t46.5 -46.5t74.5 -18q47 0 76.5 18t46.5 46.5t23 63.5t6 70zM480 231q0 -48 -11.5 -92.5t-37 -78.5t-66 -54.5t-98.5 -20.5q-57 0 -97.5 20
t-66 53.5t-37 77.5t-11.5 92q0 49 13.5 94t40.5 79t67.5 54t94.5 20q57 0 97 -20t64.5 -54t36 -78t11.5 -92zM370 535q-14 -15 -33 -15q-8 0 -15.5 3t-11.5 6l85 110q10 14 19.5 22.5t24.5 8.5q13 0 23 -5t18 -11zM225 535q-14 -15 -33 -15q-8 0 -15.5 3t-11.5 6l85 110
q10 14 19.5 22.5t24.5 8.5q13 0 23 -5t18 -11z" />
    <glyph glyph-name="OE" unicode="&#x152;" horiz-adv-x="903" 
d="M545 50h290q26 0 32 -10t6 -24q0 -6 -2 -16h-508q-76 0 -132 27t-93 73.5t-55 108.5t-18 133q0 68 19.5 127.5t58 104t96 70t133.5 25.5h487q2 -10 2 -16q0 -14 -6.5 -24t-32.5 -10h-277v-242h236v-51h-236v-276zM486 621h-115q-64 0 -110 -21.5t-76 -59t-44 -88.5
t-14 -110t14 -112t43.5 -93.5t75 -64.5t107.5 -24h119v573z" />
    <glyph glyph-name="oe" unicode="&#x153;" horiz-adv-x="858" 
d="M796 63q0 -9 -11.5 -21t-32.5 -23.5t-50.5 -19.5t-65.5 -8q-69 0 -117 28.5t-72 88.5q-9 -23 -25 -44.5t-39 -37.5t-53.5 -25.5t-68.5 -9.5q-55 0 -94 19.5t-64 52.5t-36.5 77t-11.5 92q0 49 13.5 93t40.5 77.5t67.5 53t94.5 19.5q37 0 66 -9.5t51 -25t37 -36.5t23 -44
q23 54 69.5 84.5t107.5 30.5q49 0 84 -17t57 -45t32 -64.5t10 -75.5q0 -24 -3 -51h-328q1 -40 11 -73.5t29.5 -58t49.5 -38t71 -13.5q31 0 54 6.5t39.5 16t27 19.5t15.5 17q10 -11 16 -20.5t6 -14.5zM419 235q0 34 -7 68.5t-24 61.5t-46 44t-73 17t-73.5 -17t-47 -44
t-25 -61.5t-7.5 -68.5q0 -35 6.5 -69.5t23.5 -63t46.5 -46t74.5 -17.5q47 0 76.5 17.5t46.5 46t23 63t6 69.5zM751 265q0 33 -6 62.5t-21 51.5t-40.5 35t-63.5 13q-61 0 -100.5 -42t-41.5 -120h273z" />
    <glyph glyph-name="Racute" unicode="&#x154;" horiz-adv-x="543" 
d="M481 492q0 -44 -13 -76.5t-35.5 -56t-52 -37.5t-63.5 -21l195 -304q-15 -6 -30 -6q-21 0 -36 12t-28 32l-166 258h-108v-293h-59v668q34 3 72 5.5t76 2.5q133 0 190.5 -45t57.5 -139zM419 489q0 42 -13.5 69t-38.5 42.5t-59.5 21t-77.5 5.5q-28 0 -47.5 -1t-39.5 -3v-281
h86q41 0 76 7.5t60.5 24.5t39.5 45.5t14 69.5zM249 722q-14 -8 -26 -8q-10 0 -20.5 5t-14.5 11l110 87q11 9 21 14.5t21 5.5q14 0 25.5 -9.5t19.5 -18.5z" />
    <glyph glyph-name="racute" unicode="&#x155;" horiz-adv-x="329" 
d="M137 413q6 9 16 20t24 20.5t31.5 15.5t38.5 6q9 0 21 -1.5t22 -5t17 -10.5t7 -18t-6.5 -23t-12.5 -19q-11 11 -25 17t-37 6q-18 0 -35.5 -6.5t-31 -17.5t-21.5 -25t-8 -29v-343h-57v467h4q20 0 36.5 -12t16.5 -42zM222 535q-14 -15 -33 -15q-8 0 -17.5 3t-13.5 6l85 110
q10 14 19.5 22.5t24.5 8.5q13 0 25 -5t20 -11z" />
    <glyph glyph-name="Rcommaaccent" unicode="&#x156;" horiz-adv-x="543" 
d="M481 492q0 -44 -13 -76.5t-35.5 -56t-52 -37.5t-63.5 -21l195 -304q-15 -6 -30 -6q-21 0 -36 12t-28 32l-166 258h-108v-293h-59v668q34 3 72 5.5t76 2.5q133 0 190.5 -45t57.5 -139zM419 489q0 42 -13.5 69t-38.5 42.5t-59.5 21t-77.5 5.5q-28 0 -47.5 -1t-39.5 -3v-281
h86q41 0 76 7.5t60.5 24.5t39.5 45.5t14 69.5zM259 -176q-7 -11 -16.5 -18t-23.5 -7q-12 0 -18 3l43 107q8 19 18.5 31.5t30.5 12.5q8 0 16 -2.5t14 -5.5z" />
    <glyph glyph-name="rcommaaccent" unicode="&#x157;" horiz-adv-x="329" 
d="M137 413q6 9 16 20t24 20.5t31.5 15.5t38.5 6q9 0 21 -1.5t22 -5t17 -10.5t7 -18t-6.5 -23t-12.5 -19q-11 11 -25 17t-37 6q-18 0 -35.5 -6.5t-31 -17.5t-21.5 -25t-8 -29v-343h-57v467h4q20 0 36.5 -12t16.5 -42zM71 -176q-7 -11 -16.5 -18t-23.5 -7q-12 0 -18 3l43 107
q8 19 18.5 31.5t30.5 12.5q8 0 16 -2.5t14 -5.5z" />
    <glyph glyph-name="Rcaron" unicode="&#x158;" horiz-adv-x="543" 
d="M481 492q0 -44 -13 -76.5t-35.5 -56t-52 -37.5t-63.5 -21l195 -304q-15 -6 -30 -6q-21 0 -36 12t-28 32l-166 258h-108v-293h-59v668q34 3 72 5.5t76 2.5q133 0 190.5 -45t57.5 -139zM419 489q0 42 -13.5 69t-38.5 42.5t-59.5 21t-77.5 5.5q-28 0 -47.5 -1t-39.5 -3v-281
h86q41 0 76 7.5t60.5 24.5t39.5 45.5t14 69.5zM253 781l64 58q17 14 34 14q8 0 15.5 -3t11.5 -6l-79 -92q-11 -13 -20.5 -21t-26.5 -8t-27 8.5t-21 21.5l-78 91q4 3 11.5 6t15.5 3q21 0 34 -13z" />
    <glyph glyph-name="rcaron" unicode="&#x159;" horiz-adv-x="329" 
d="M137 413q6 9 16 20t24 20.5t31.5 15.5t38.5 6q9 0 21 -1.5t22 -5t17 -10.5t7 -18t-6.5 -23t-12.5 -19q-11 11 -25 17t-37 6q-18 0 -35.5 -6.5t-31 -17.5t-21.5 -25t-8 -29v-343h-57v467h4q20 0 36.5 -12t16.5 -42zM269 648q9 11 18 14.5t18 3.5t16.5 -2.5t12.5 -6.5
l-83 -106q-11 -14 -20 -22.5t-26 -8.5t-26 8.5t-20 22.5l-81 103q10 10 28 10q22 0 37 -17l63 -72z" />
    <glyph glyph-name="Sacute" unicode="&#x15a;" horiz-adv-x="486" 
d="M53 105q8 -9 22.5 -20.5t36 -22.5t50 -18.5t63.5 -7.5q45 0 74.5 12t47.5 31t25 43t7 49q0 33 -8.5 56t-26 40t-44 29t-62.5 23q-38 12 -73 26.5t-61.5 35.5t-42 51t-15.5 74q0 42 15.5 74.5t42.5 55t64.5 34t82.5 11.5q34 0 61.5 -6t47 -14t32.5 -16t19 -12
q13 -10 13 -25q0 -12 -18 -36h-11q-6 6 -18 16t-30 19.5t-42.5 16t-55.5 6.5q-41 0 -68 -10.5t-43.5 -27t-23.5 -38.5t-7 -44q0 -29 10.5 -50t30 -36.5t48.5 -27.5t66 -23t69.5 -26.5t57 -38t38.5 -54t14 -74.5q0 -47 -16 -83.5t-44.5 -61t-68.5 -37.5t-89 -13
q-40 0 -71 6.5t-53.5 15.5t-36 18.5t-18.5 14.5q-5 4 -9.5 10t-4.5 13q0 16 23 42zM240 722q-14 -8 -26 -8q-10 0 -20.5 5t-14.5 11l110 87q11 9 21 14.5t21 5.5q14 0 25.5 -9.5t19.5 -18.5z" />
    <glyph glyph-name="sacute" unicode="&#x15b;" horiz-adv-x="396" 
d="M194 427q-17 0 -34.5 -4t-32.5 -13t-24.5 -23.5t-9.5 -36.5q0 -20 9.5 -34t25.5 -24t36.5 -16.5t42.5 -12.5q25 -8 51 -17t46.5 -24.5t33.5 -39t13 -59.5q0 -33 -13 -59t-35 -43.5t-51.5 -26.5t-63.5 -9q-54 0 -91.5 12t-51.5 22q-15 10 -15 23q0 7 4.5 15t15.5 23
q6 -5 18 -13t30 -16t40 -14t48 -6q21 0 41 5t35 15.5t24 27.5t9 41q0 25 -10 41.5t-27 27t-39 17.5t-45 13q-25 7 -49.5 15.5t-44 23t-31.5 36.5t-12 56q0 31 13.5 54t35 39t49.5 24t58 8q49 0 81.5 -13t49.5 -28q11 -8 15 -15t4 -14q0 -8 -5 -17.5t-10 -20.5h-9
q-20 27 -50 43.5t-75 16.5zM204 535q-14 -15 -33 -15q-8 0 -17.5 3t-13.5 6l85 110q10 14 19.5 22.5t24.5 8.5q13 0 25 -5t20 -11z" />
    <glyph glyph-name="Scircumflex" unicode="&#x15c;" horiz-adv-x="486" 
d="M53 105q8 -9 22.5 -20.5t36 -22.5t50 -18.5t63.5 -7.5q45 0 74.5 12t47.5 31t25 43t7 49q0 33 -8.5 56t-26 40t-44 29t-62.5 23q-38 12 -73 26.5t-61.5 35.5t-42 51t-15.5 74q0 42 15.5 74.5t42.5 55t64.5 34t82.5 11.5q34 0 61.5 -6t47 -14t32.5 -16t19 -12
q13 -10 13 -25q0 -12 -18 -36h-11q-6 6 -18 16t-30 19.5t-42.5 16t-55.5 6.5q-41 0 -68 -10.5t-43.5 -27t-23.5 -38.5t-7 -44q0 -29 10.5 -50t30 -36.5t48.5 -27.5t66 -23t69.5 -26.5t57 -38t38.5 -54t14 -74.5q0 -47 -16 -83.5t-44.5 -61t-68.5 -37.5t-89 -13
q-40 0 -71 6.5t-53.5 15.5t-36 18.5t-18.5 14.5q-5 4 -9.5 10t-4.5 13q0 16 23 42zM252 786l-64 -58q-17 -14 -34 -14q-8 0 -15.5 3t-11.5 6l79 92q11 13 20.5 21t26.5 8t27 -8.5t21 -21.5l78 -91q-4 -3 -11.5 -6t-15.5 -3q-21 0 -34 13z" />
    <glyph glyph-name="scircumflex" unicode="&#x15d;" horiz-adv-x="396" 
d="M194 427q-17 0 -34.5 -4t-32.5 -13t-24.5 -23.5t-9.5 -36.5q0 -20 9.5 -34t25.5 -24t36.5 -16.5t42.5 -12.5q25 -8 51 -17t46.5 -24.5t33.5 -39t13 -59.5q0 -33 -13 -59t-35 -43.5t-51.5 -26.5t-63.5 -9q-54 0 -91.5 12t-51.5 22q-15 10 -15 23q0 7 4.5 15t15.5 23
q6 -5 18 -13t30 -16t40 -14t48 -6q21 0 41 5t35 15.5t24 27.5t9 41q0 25 -10 41.5t-27 27t-39 17.5t-45 13q-25 7 -49.5 15.5t-44 23t-31.5 36.5t-12 56q0 31 13.5 54t35 39t49.5 24t58 8q49 0 81.5 -13t49.5 -28q11 -8 15 -15t4 -14q0 -8 -5 -17.5t-10 -20.5h-9
q-20 27 -50 43.5t-75 16.5zM199 615l-63 -72q-15 -17 -37 -17q-18 0 -28 10l81 103q11 14 20 22.5t26 8.5t26 -8.5t20 -22.5l83 -106q-5 -3 -12.5 -6t-16.5 -3q-20 0 -36 18z" />
    <glyph glyph-name="Scedilla" unicode="&#x15e;" horiz-adv-x="486" 
d="M282 -124q0 -19 -7.5 -34.5t-19.5 -26.5t-27.5 -17t-31.5 -6q-27 0 -27 23q0 11 3 22q5 -1 10 -1h10q18 0 30 7.5t12 24.5q0 12 -6.5 20t-14 15.5t-14 16.5t-6.5 23q0 11 4.5 22.5t9.5 19.5q-36 1 -64.5 8t-48.5 15.5t-32.5 17.5t-17.5 14q-5 4 -9.5 10t-4.5 13
q0 16 23 42q8 -9 22.5 -20.5t36 -22.5t50 -18.5t63.5 -7.5q45 0 74.5 12t47.5 31t25 43t7 49q0 33 -8.5 56t-26 40t-44 29t-62.5 23q-38 12 -73 26.5t-61.5 35.5t-42 51t-15.5 74q0 42 15.5 74.5t42.5 55t64.5 34t82.5 11.5q34 0 61.5 -6t47 -14t32.5 -16t19 -12
q13 -10 13 -25q0 -12 -18 -36h-11q-6 6 -18 16t-30 19.5t-42.5 16t-55.5 6.5q-41 0 -68 -10.5t-43.5 -27t-23.5 -38.5t-7 -44q0 -29 10.5 -50t30 -36.5t48.5 -27.5t66 -23t69.5 -26.5t57 -38t38.5 -54t14 -74.5q0 -88 -53 -137.5t-140 -56.5q-9 -11 -9 -22q0 -10 6.5 -18
t15 -17t15 -21.5t6.5 -31.5z" />
    <glyph glyph-name="scedilla" unicode="&#x15f;" horiz-adv-x="396" 
d="M250 -124q0 -19 -7.5 -34.5t-19.5 -26.5t-27.5 -17t-31.5 -6q-27 0 -27 23q0 11 3 22q5 -1 10 -1h10q18 0 30 7.5t12 24.5q0 12 -6.5 20t-14 15.5t-14 16.5t-6.5 23q0 11 4.5 22.5t9.5 19.5q-49 2 -82.5 13.5t-47.5 20.5q-15 10 -15 23q0 7 4.5 15t15.5 23q6 -5 18 -13
t30 -16t40 -14t48 -6q21 0 41 5t35 15.5t24 27.5t9 41q0 25 -10 41.5t-27 27t-39 17.5t-45 13q-25 7 -49.5 15.5t-44 23t-31.5 36.5t-12 56q0 31 13.5 54t35 39t49.5 24t58 8q49 0 81.5 -13t49.5 -28q11 -8 15 -15t4 -14q0 -8 -5 -17.5t-10 -20.5h-9q-20 27 -50 43.5
t-75 16.5q-17 0 -34.5 -4t-32.5 -13t-24.5 -23.5t-9.5 -36.5q0 -20 9.5 -34t25.5 -24t36.5 -16.5t42.5 -12.5q25 -8 51 -17t46.5 -24.5t33.5 -39t13 -59.5q0 -60 -38.5 -94t-95.5 -42q-4 -5 -7 -10.5t-3 -12.5q0 -10 6.5 -18t15 -17t15 -21.5t6.5 -31.5z" />
    <glyph glyph-name="Scaron" unicode="&#x160;" horiz-adv-x="486" 
d="M53 105q8 -9 22.5 -20.5t36 -22.5t50 -18.5t63.5 -7.5q45 0 74.5 12t47.5 31t25 43t7 49q0 33 -8.5 56t-26 40t-44 29t-62.5 23q-38 12 -73 26.5t-61.5 35.5t-42 51t-15.5 74q0 42 15.5 74.5t42.5 55t64.5 34t82.5 11.5q34 0 61.5 -6t47 -14t32.5 -16t19 -12
q13 -10 13 -25q0 -12 -18 -36h-11q-6 6 -18 16t-30 19.5t-42.5 16t-55.5 6.5q-41 0 -68 -10.5t-43.5 -27t-23.5 -38.5t-7 -44q0 -29 10.5 -50t30 -36.5t48.5 -27.5t66 -23t69.5 -26.5t57 -38t38.5 -54t14 -74.5q0 -47 -16 -83.5t-44.5 -61t-68.5 -37.5t-89 -13
q-40 0 -71 6.5t-53.5 15.5t-36 18.5t-18.5 14.5q-5 4 -9.5 10t-4.5 13q0 16 23 42zM248 781l64 58q17 14 34 14q8 0 15.5 -3t11.5 -6l-79 -92q-11 -13 -20.5 -21t-26.5 -8t-27 8.5t-21 21.5l-78 91q4 3 11.5 6t15.5 3q21 0 34 -13z" />
    <glyph glyph-name="scaron" unicode="&#x161;" horiz-adv-x="396" 
d="M194 427q-17 0 -34.5 -4t-32.5 -13t-24.5 -23.5t-9.5 -36.5q0 -20 9.5 -34t25.5 -24t36.5 -16.5t42.5 -12.5q25 -8 51 -17t46.5 -24.5t33.5 -39t13 -59.5q0 -33 -13 -59t-35 -43.5t-51.5 -26.5t-63.5 -9q-54 0 -91.5 12t-51.5 22q-15 10 -15 23q0 7 4.5 15t15.5 23
q6 -5 18 -13t30 -16t40 -14t48 -6q21 0 41 5t35 15.5t24 27.5t9 41q0 25 -10 41.5t-27 27t-39 17.5t-45 13q-25 7 -49.5 15.5t-44 23t-31.5 36.5t-12 56q0 31 13.5 54t35 39t49.5 24t58 8q49 0 81.5 -13t49.5 -28q11 -8 15 -15t4 -14q0 -8 -5 -17.5t-10 -20.5h-9
q-20 27 -50 43.5t-75 16.5zM261 648q9 11 18 14.5t18 3.5t16.5 -2.5t12.5 -6.5l-83 -106q-11 -14 -20 -22.5t-26 -8.5t-26 8.5t-20 22.5l-81 103q10 10 28 10q22 0 37 -17l63 -72z" />
    <glyph glyph-name="uni0162" unicode="&#x162;" horiz-adv-x="517" 
d="M310 -124q0 -19 -7.5 -34.5t-19.5 -26.5t-27.5 -17t-31.5 -6q-27 0 -27 23q0 11 3 22q5 -1 10 -1h10q18 0 30 7.5t12 24.5q0 12 -6.5 20t-14 15.5t-14 16.5t-6.5 23q0 18 10.5 34.5t15.5 22.5h-16v619h-230q-1 5 -1 9q0 19 12 30t36 11h468q1 -5 1 -6.5v-3.5
q0 -17 -12.5 -28.5t-36.5 -11.5h-178v-619q-6 -7 -14.5 -16t-8.5 -20q0 -10 6.5 -18t15 -17t15 -21.5t6.5 -31.5z" />
    <glyph glyph-name="uni0163" unicode="&#x163;" horiz-adv-x="330" 
d="M242 -124q0 -19 -7.5 -34.5t-19.5 -26.5t-27.5 -17t-31.5 -6q-27 0 -27 23q0 11 3 22q5 -1 10 -1h10q18 0 30 7.5t12 24.5q0 12 -6.5 20t-14 15.5t-14 16.5t-6.5 23q0 12 5 24t11 21q-35 5 -55 22.5t-29 44.5q-6 18 -8 39t-2 44v472q5 1 9 1q6 0 14 -1.5t15.5 -7
t13 -15.5t5.5 -27v-93h156v-46h-156v-293q0 -46 17.5 -70.5t55.5 -24.5q20 0 36.5 7t27.5 15q12 9 23 22q14 -14 18.5 -21.5t4.5 -12.5q0 -6 -7.5 -15t-21.5 -18.5t-33.5 -16.5t-44.5 -8q-9 -11 -9 -21t6.5 -18t15 -17t15 -21.5t6.5 -31.5z" />
    <glyph glyph-name="Tcaron" unicode="&#x164;" horiz-adv-x="517" 
d="M516 669q1 -5 1 -6.5v-3.5q0 -17 -12.5 -28.5t-36.5 -11.5h-178v-619h-59v619h-230q-1 5 -1 9q0 19 12 30t36 11h468zM264 781l64 58q17 14 34 14q8 0 15.5 -3t11.5 -6l-79 -92q-11 -13 -20.5 -21t-26.5 -8t-27 8.5t-21 21.5l-78 91q4 3 11.5 6t15.5 3q21 0 34 -13z" />
    <glyph glyph-name="tcaron" unicode="&#x165;" horiz-adv-x="330" 
d="M253 554q-1 -17 -13 -25t-30 -8h-5v130q0 17 2 29.5t13 21.5q13 8 29 8q2 0 6 -0.5t9 -1.5zM288 467v-46h-156v-293q0 -46 17.5 -70.5t55.5 -24.5q20 0 36.5 7t27.5 15q12 9 23 22q14 -14 18.5 -21.5t4.5 -12.5q0 -6 -8 -15.5t-23 -19t-36 -16.5t-48 -7q-49 0 -76.5 19
t-38.5 51q-6 18 -8 39t-2 44v472q5 1 9 1q6 0 14 -1.5t15.5 -7t13 -15.5t5.5 -27v-93h156z" />
    <glyph glyph-name="Tbar" unicode="&#x166;" horiz-adv-x="517" 
d="M516 669q1 -5 1 -10q0 -17 -12.5 -28.5t-36.5 -11.5h-178v-285h175v-49h-175v-285h-59v285h-170v49h170v285h-230q-1 2 -1 4.5v4.5q0 19 12 30t36 11h468z" />
    <glyph glyph-name="tbar" unicode="&#x167;" horiz-adv-x="330" 
d="M288 467v-46h-156v-140h156v-46h-156v-107q0 -46 17.5 -70.5t55.5 -24.5q20 0 36.5 7t27.5 15q12 9 23 22q14 -14 18.5 -21.5t4.5 -12.5q0 -6 -8 -15.5t-23 -19t-36 -16.5t-48 -7q-49 0 -76.5 19t-38.5 51q-6 18 -8 39t-2 44v472q5 1 6 1h3q6 0 14 -1.5t15.5 -7t13 -15.5
t5.5 -27v-93h156z" />
    <glyph glyph-name="Utilde" unicode="&#x168;" horiz-adv-x="638" 
d="M558 263q0 -20 -0.5 -41t-2.5 -39q-4 -42 -20 -78t-45 -63t-71 -42t-99 -15q-112 0 -168 51t-67 147q-2 18 -3.5 39t-1.5 41v407q5 1 7 1h4q6 0 14 -1.5t15.5 -7t13 -15.5t5.5 -27v-371q0 -30 3 -58t11 -51q7 -21 19.5 -40.5t32.5 -34t49 -23.5t68 -9q129 0 164 105
q8 23 10.5 52t2.5 59v421q5 1 7 1h4q6 0 14 -1.5t15.5 -7t13 -15.5t5.5 -27v-357zM381 735q-21 0 -38 6t-31.5 12.5t-28 12.5t-27.5 6q-20 0 -36 -12t-31 -31q-7 4 -12.5 12.5t-5.5 19.5t8.5 21.5t21.5 19t28.5 13.5t30.5 5q21 0 37.5 -6t30 -13t26.5 -13t27 -6
q20 0 35 13.5t31 36.5q6 -2 14 -11.5t8 -23.5q0 -9 -7 -20t-19 -20t-28 -15.5t-34 -6.5z" />
    <glyph glyph-name="utilde" unicode="&#x169;" horiz-adv-x="543" 
d="M463 0h-58v54q-23 -24 -65.5 -43.5t-102.5 -19.5q-36 0 -62 8.5t-44 23t-28.5 32.5t-14.5 38q-5 21 -6.5 43.5t-1.5 45.5v285h4q21 0 37 -11t16 -43v-231q0 -20 2.5 -40t7.5 -35q19 -64 113 -64q25 0 51 7t47 17.5t34.5 23.5t13.5 25v351h4q21 0 37 -11t16 -44v-412z
M333 540q-21 0 -38 6t-31.5 12.5t-28 12.5t-27.5 6q-20 0 -36 -12t-31 -31q-7 4 -12.5 12.5t-5.5 19.5t8.5 21.5t21.5 19t28.5 13.5t30.5 5q21 0 37.5 -6t30 -13t26.5 -13t27 -6q20 0 35 13.5t31 36.5q6 -2 14 -11.5t8 -23.5q0 -9 -7 -20t-19 -20t-28 -15.5t-34 -6.5z" />
    <glyph glyph-name="Umacron" unicode="&#x16a;" horiz-adv-x="638" 
d="M558 263q0 -20 -0.5 -41t-2.5 -39q-4 -42 -20 -78t-45 -63t-71 -42t-99 -15q-112 0 -168 51t-67 147q-2 18 -3.5 39t-1.5 41v407q5 1 7 1h4q6 0 14 -1.5t15.5 -7t13 -15.5t5.5 -27v-371q0 -30 3 -58t11 -51q7 -21 19.5 -40.5t32.5 -34t49 -23.5t68 -9q129 0 164 105
q8 23 10.5 52t2.5 59v421q5 1 7 1h4q6 0 14 -1.5t15.5 -7t13 -15.5t5.5 -27v-357zM213 742q-25 0 -35 8t-10 24q0 5 0.5 8.5t1.5 8.5h251q22 0 34 -7t12 -25q0 -7 -2 -17h-252z" />
    <glyph glyph-name="umacron" unicode="&#x16b;" horiz-adv-x="543" 
d="M463 0h-58v54q-23 -24 -65.5 -43.5t-102.5 -19.5q-36 0 -62 8.5t-44 23t-28.5 32.5t-14.5 38q-5 21 -6.5 43.5t-1.5 45.5v285h4q21 0 37 -11t16 -43v-231q0 -20 2.5 -40t7.5 -35q19 -64 113 -64q25 0 51 7t47 17.5t34.5 23.5t13.5 25v351h4q21 0 37 -11t16 -44v-412z
M167 558q-25 0 -35 8t-10 24q0 5 0.5 8.5t1.5 8.5h251q22 0 34 -7t12 -25q0 -7 -2 -17h-252z" />
    <glyph glyph-name="Ubreve" unicode="&#x16c;" horiz-adv-x="638" 
d="M558 263q0 -20 -0.5 -41t-2.5 -39q-4 -42 -20 -78t-45 -63t-71 -42t-99 -15q-112 0 -168 51t-67 147q-2 18 -3.5 39t-1.5 41v407q5 1 7 1h4q6 0 14 -1.5t15.5 -7t13 -15.5t5.5 -27v-371q0 -30 3 -58t11 -51q7 -21 19.5 -40.5t32.5 -34t49 -23.5t68 -9q129 0 164 105
q8 23 10.5 52t2.5 59v421q5 1 7 1h4q6 0 14 -1.5t15.5 -7t13 -15.5t5.5 -27v-357zM247 822q12 -29 30 -42t50 -13q33 0 51 13t29 42q7 17 14.5 24t18.5 7q19 0 27 -5q-4 -17 -6 -24.5t-8 -22.5q-16 -38 -48 -58.5t-78 -20.5q-49 0 -79.5 19.5t-47.5 56.5q-8 15 -10.5 24
t-4.5 26q4 2 13 3.5t17 1.5q11 0 17.5 -6.5t14.5 -24.5z" />
    <glyph glyph-name="ubreve" unicode="&#x16d;" horiz-adv-x="543" 
d="M463 0h-58v54q-23 -24 -65.5 -43.5t-102.5 -19.5q-36 0 -62 8.5t-44 23t-28.5 32.5t-14.5 38q-5 21 -6.5 43.5t-1.5 45.5v285h4q21 0 37 -11t16 -43v-231q0 -20 2.5 -40t7.5 -35q19 -64 113 -64q25 0 51 7t47 17.5t34.5 23.5t13.5 25v351h4q21 0 37 -11t16 -44v-412z
M196 630q10 -35 29 -50t51 -15q33 0 51.5 15t28.5 49q5 18 13.5 24.5t19.5 6.5q19 0 27 -5q-4 -17 -6 -27t-7 -25q-16 -43 -48.5 -63t-78.5 -20q-52 0 -81 20t-46 59q-7 16 -9.5 27.5t-5.5 28.5q4 2 13 3.5t17 1.5q11 0 19 -6t13 -24z" />
    <glyph glyph-name="Uring" unicode="&#x16e;" horiz-adv-x="638" 
d="M558 263q0 -20 -0.5 -41t-2.5 -39q-4 -42 -20 -78t-45 -63t-71 -42t-99 -15q-112 0 -168 51t-67 147q-2 18 -3.5 39t-1.5 41v407q5 1 7 1h4q6 0 14 -1.5t15.5 -7t13 -15.5t5.5 -27v-371q0 -30 3 -58t11 -51q7 -21 19.5 -40.5t32.5 -34t49 -23.5t68 -9q129 0 164 105
q8 23 10.5 52t2.5 59v421q5 1 7 1h4q6 0 14 -1.5t15.5 -7t13 -15.5t5.5 -27v-357zM429 809q0 -43 -27 -74t-75 -31t-75.5 30.5t-27.5 73.5q0 45 27.5 75.5t75.5 30.5t75 -31t27 -74zM386 809q0 26 -16.5 46t-42.5 20q-27 0 -43.5 -20t-16.5 -46t16 -46.5t44 -20.5
q27 0 43 20t16 46v1z" />
    <glyph glyph-name="uring" unicode="&#x16f;" horiz-adv-x="543" 
d="M463 0h-58v54q-23 -24 -65.5 -43.5t-102.5 -19.5q-36 0 -62 8.5t-44 23t-28.5 32.5t-14.5 38q-5 21 -6.5 43.5t-1.5 45.5v285h4q21 0 37 -11t16 -43v-231q0 -20 2.5 -40t7.5 -35q19 -64 113 -64q25 0 51 7t47 17.5t34.5 23.5t13.5 25v351h4q21 0 37 -11t16 -44v-412z
M376 625q0 -43 -27 -74t-75 -31t-75.5 30.5t-27.5 73.5q0 45 27.5 75.5t75.5 30.5t75 -31t27 -74zM333 625q0 26 -16.5 46t-42.5 20q-27 0 -43.5 -20t-16.5 -46t16 -46.5t44 -20.5q27 0 43 20t16 46v1z" />
    <glyph glyph-name="Uhungarumlaut" unicode="&#x170;" horiz-adv-x="638" 
d="M558 263q0 -20 -0.5 -41t-2.5 -39q-4 -42 -20 -78t-45 -63t-71 -42t-99 -15q-112 0 -168 51t-67 147q-2 18 -3.5 39t-1.5 41v407q5 1 7 1h4q6 0 14 -1.5t15.5 -7t13 -15.5t5.5 -27v-371q0 -30 3 -58t11 -51q7 -21 19.5 -40.5t32.5 -34t49 -23.5t68 -9q129 0 164 105
q8 23 10.5 52t2.5 59v421q5 1 7 1h4q6 0 14 -1.5t15.5 -7t13 -15.5t5.5 -27v-357zM403 722q-14 -8 -26 -8q-10 0 -20.5 5t-14.5 11l110 87q11 9 21 14.5t21 5.5q14 0 25.5 -9.5t19.5 -18.5zM243 722q-14 -8 -26 -8q-10 0 -20.5 5t-14.5 11l110 87q11 9 21 14.5t21 5.5
q14 0 25.5 -9.5t19.5 -18.5z" />
    <glyph glyph-name="uhungarumlaut" unicode="&#x171;" horiz-adv-x="543" 
d="M463 0h-58v54q-23 -24 -65.5 -43.5t-102.5 -19.5q-36 0 -62 8.5t-44 23t-28.5 32.5t-14.5 38q-5 21 -6.5 43.5t-1.5 45.5v285h4q21 0 37 -11t16 -43v-231q0 -20 2.5 -40t7.5 -35q19 -64 113 -64q25 0 51 7t47 17.5t34.5 23.5t13.5 25v351h4q21 0 37 -11t16 -44v-412z
M374 535q-14 -15 -33 -15q-8 0 -15.5 3t-11.5 6l85 110q10 14 19.5 22.5t24.5 8.5q13 0 23 -5t18 -11zM229 535q-14 -15 -33 -15q-8 0 -15.5 3t-11.5 6l85 110q10 14 19.5 22.5t24.5 8.5q13 0 23 -5t18 -11z" />
    <glyph glyph-name="Uogonek" unicode="&#x172;" horiz-adv-x="638" 
d="M139 249q0 -30 3 -58t11 -51q7 -21 19.5 -40.5t32.5 -34t49 -23.5t68 -9q129 0 164 105q8 23 10.5 52t2.5 59v421q5 1 7 1h4q6 0 14 -1.5t15.5 -7t13 -15.5t5.5 -27v-357q0 -20 -0.5 -41t-2.5 -39q-5 -57 -32.5 -99t-73.5 -71q-13 -8 -29 -22.5t-30.5 -33t-24.5 -39.5
t-10 -43q0 -23 11 -34t29 -11q17 0 28.5 8t18.5 16q6 -6 11.5 -13.5t5.5 -14.5q0 -9 -12 -19q-10 -8 -25 -12.5t-31 -4.5q-36 0 -60 18.5t-24 60.5q0 38 21 69t44 51q-11 -2 -25 -3t-27 -1q-112 0 -168 51t-67 147q-2 18 -3.5 39t-1.5 41v407q5 1 7 1h4q6 0 14 -1.5t15.5 -7
t13 -15.5t5.5 -27v-371z" />
    <glyph glyph-name="uogonek" unicode="&#x173;" horiz-adv-x="543" 
d="M465 -146q6 -6 11.5 -13.5t5.5 -14.5q0 -9 -12 -19q-10 -8 -25 -12.5t-31 -4.5q-36 0 -59 18.5t-23 60.5q0 22 7 42t18 37t24 30t24 22v54q-23 -24 -65.5 -43.5t-102.5 -19.5q-36 0 -62 8.5t-44 23t-28.5 32.5t-14.5 38q-5 21 -6.5 43.5t-1.5 45.5v285h4q21 0 37 -11
t16 -43v-231q0 -20 2.5 -40t7.5 -35q19 -64 113 -64q25 0 51 7t47 17.5t34.5 23.5t13.5 25v351h4q21 0 37 -11t16 -44v-412q-14 -8 -29 -21.5t-27 -30t-19.5 -35.5t-7.5 -38q0 -45 38 -45q17 0 28.5 8t18.5 16z" />
    <glyph glyph-name="Wcircumflex" unicode="&#x174;" horiz-adv-x="863" 
d="M637 -5h-67l-134 435l-136 -435h-68l-222 673q4 1 11 2t15 1q21 0 33 -12.5t20 -35.5l179 -576l142 472l-43 150q5 1 10.5 1.5t13.5 0.5q21 0 33 -12.5t18 -35.5l163 -574l172 571q7 23 20 37t34 14q6 0 11.5 -0.5t10.5 -1.5zM426 786l-64 -58q-17 -14 -34 -14
q-8 0 -15.5 3t-11.5 6l79 92q11 13 20.5 21t26.5 8t27 -8.5t21 -21.5l78 -91q-4 -3 -11.5 -6t-15.5 -3q-21 0 -34 13z" />
    <glyph glyph-name="wcircumflex" unicode="&#x175;" horiz-adv-x="691" 
d="M518 -4h-63l-103 267l-112 -267h-59l-161 466q8 2 13.5 3.5t12.5 1.5q21 0 33 -16t20 -39l116 -360l111 275l-52 136q9 4 23 4q23 0 35.5 -14t20.5 -37l134 -361l114 360q8 24 19.5 38t31.5 14q15 0 24 -4zM344 615l-63 -72q-15 -17 -37 -17q-18 0 -28 10l81 103
q11 14 20 22.5t26 8.5t26 -8.5t20 -22.5l83 -106q-5 -3 -12.5 -6t-16.5 -3q-20 0 -36 18z" />
    <glyph glyph-name="Ycircumflex" unicode="&#x176;" horiz-adv-x="499" 
d="M279 288v-288h-59v287l-215 380q5 2 12.5 3.5t19.5 1.5q20 0 30.5 -8t19.5 -25l165 -291l160 288q9 16 21 25.5t33 9.5q9 0 15 -0.5t13 -2.5zM254 786l-64 -58q-17 -14 -34 -14q-8 0 -15.5 3t-11.5 6l79 92q11 13 20.5 21t26.5 8t27 -8.5t21 -21.5l78 -91q-4 -3 -11.5 -6
t-15.5 -3q-21 0 -34 13z" />
    <glyph glyph-name="ycircumflex" unicode="&#x177;" horiz-adv-x="444" 
d="M227 -102q-9 -25 -20.5 -47.5t-28 -40t-40 -27.5t-55.5 -10q-38 0 -60 12q-19 10 -19 24q0 11 6.5 21.5t11.5 17.5q5 -5 21 -16t43 -11q33 0 52 23t40 79l29 77h-28l-164 462q13 5 27 5q25 0 36 -15.5t19 -39.5l123 -365l130 370q8 24 21 37t33 13q8 0 14 -2t11 -4z
M227 615l-63 -72q-15 -17 -37 -17q-18 0 -28 10l81 103q11 14 20 22.5t26 8.5t26 -8.5t20 -22.5l83 -106q-5 -3 -12.5 -6t-16.5 -3q-20 0 -36 18z" />
    <glyph glyph-name="Ydieresis" unicode="&#x178;" horiz-adv-x="499" 
d="M279 288v-288h-59v287l-215 380q5 2 12.5 3.5t19.5 1.5q20 0 30.5 -8t19.5 -25l165 -291l160 288q9 16 21 25.5t33 9.5q9 0 15 -0.5t13 -2.5zM383 769q0 -19 -12 -31.5t-31 -12.5t-31 12.5t-12 31.5t12.5 31.5t30.5 12.5t30.5 -12.5t12.5 -31.5zM209 769q0 -19 -12 -31.5
t-31 -12.5q-20 0 -31.5 12.5t-11.5 31.5t12.5 31.5t30.5 12.5t30.5 -12.5t12.5 -31.5z" />
    <glyph glyph-name="Zacute" unicode="&#x179;" horiz-adv-x="510" 
d="M461 669q29 0 29 -26v-15l-403 -578h354q24 0 36.5 -11t12.5 -30q0 -2 -0.5 -3t-0.5 -3v-3h-474v44l397 575h-390q-1 4 -1 9q0 19 12.5 30t36.5 11h391zM256 722q-14 -8 -26 -8q-10 0 -20.5 5t-14.5 11l110 87q11 9 21 14.5t21 5.5q14 0 25.5 -9.5t19.5 -18.5z" />
    <glyph glyph-name="zacute" unicode="&#x17a;" horiz-adv-x="408" 
d="M28 0v44l277 373h-273q0 23 10 36.5t36 13.5h270q28 0 28 -26v-18l-280 -372h247q26 0 35.5 -13t9.5 -38h-360zM227 535q-14 -15 -33 -15q-8 0 -17.5 3t-13.5 6l85 110q10 14 19.5 22.5t24.5 8.5q13 0 25 -5t20 -11z" />
    <glyph glyph-name="Zdotaccent" unicode="&#x17b;" horiz-adv-x="510" 
d="M461 669q29 0 29 -26v-15l-403 -578h354q24 0 36.5 -11t12.5 -30q0 -2 -0.5 -3t-0.5 -3v-3h-474v44l397 575h-390q-1 4 -1 9q0 19 12.5 30t36.5 11h391zM311 774q0 -21 -13.5 -36t-33.5 -15t-33.5 15t-13.5 36t13.5 36t33.5 15t33.5 -15t13.5 -36z" />
    <glyph glyph-name="zdotaccent" unicode="&#x17c;" horiz-adv-x="408" 
d="M28 0v44l277 373h-273q0 23 10 36.5t36 13.5h270q28 0 28 -26v-18l-280 -372h247q26 0 35.5 -13t9.5 -38h-360zM263 590q0 -21 -13.5 -36t-33.5 -15t-33.5 15t-13.5 36t13.5 36t33.5 15t33.5 -15t13.5 -36z" />
    <glyph glyph-name="Zcaron" unicode="&#x17d;" horiz-adv-x="510" 
d="M461 669q29 0 29 -26v-15l-403 -578h354q24 0 36.5 -11t12.5 -30q0 -2 -0.5 -3t-0.5 -3v-3h-474v44l397 575h-390q-1 4 -1 9q0 19 12.5 30t36.5 11h391zM270 781l64 58q17 14 34 14q8 0 15.5 -3t11.5 -6l-79 -92q-11 -13 -20.5 -21t-26.5 -8t-27 8.5t-21 21.5l-78 91
q4 3 11.5 6t15.5 3q21 0 34 -13z" />
    <glyph glyph-name="zcaron" unicode="&#x17e;" horiz-adv-x="408" 
d="M28 0v44l277 373h-273q0 23 10 36.5t36 13.5h270q28 0 28 -26v-18l-280 -372h247q26 0 35.5 -13t9.5 -38h-360zM285 648q9 11 18 14.5t18 3.5t16.5 -2.5t12.5 -6.5l-83 -106q-11 -14 -20 -22.5t-26 -8.5t-26 8.5t-20 22.5l-81 103q10 10 28 10q22 0 37 -17l63 -72z" />
    <glyph glyph-name="longs" unicode="&#x17f;" horiz-adv-x="275" 
d="M350 618q-19 26 -44 39t-60 13q-42 0 -70 -18.5t-36 -66.5q-3 -20 -3 -42v-543h-57v526q0 29 3 53q22 138 161 138q40 0 67.5 -10t45.5 -25q11 -9 14.5 -16t3.5 -14q0 -8 -4.5 -16t-11.5 -18h-9z" />
    <glyph glyph-name="florin" unicode="&#x192;" horiz-adv-x="540" 
d="M288 386l-72 -330q-11 -48 -31 -79.5t-46 -50.5t-56.5 -27t-62.5 -8q-14 0 -19 5.5t-5 14.5t5 26q28 0 54.5 6.5t48 22.5t37.5 42t24 64l66 314h-107v46h120l19 86q11 49 31 81t46 50t56.5 25t61.5 7q14 0 19 -5.5t5 -14.5t-5 -26q-28 0 -53 -4.5t-46 -17.5t-36.5 -36.5
t-24.5 -61.5l-20 -83h170v-46h-179z" />
    <glyph glyph-name="Scommaaccent" unicode="&#x218;" horiz-adv-x="486" 
d="M53 105q8 -9 22.5 -20.5t36 -22.5t50 -18.5t63.5 -7.5q45 0 74.5 12t47.5 31t25 43t7 49q0 33 -8.5 56t-26 40t-44 29t-62.5 23q-38 12 -73 26.5t-61.5 35.5t-42 51t-15.5 74q0 42 15.5 74.5t42.5 55t64.5 34t82.5 11.5q34 0 61.5 -6t47 -14t32.5 -16t19 -12
q13 -10 13 -25q0 -12 -18 -36h-11q-6 6 -18 16t-30 19.5t-42.5 16t-55.5 6.5q-41 0 -68 -10.5t-43.5 -27t-23.5 -38.5t-7 -44q0 -29 10.5 -50t30 -36.5t48.5 -27.5t66 -23t69.5 -26.5t57 -38t38.5 -54t14 -74.5q0 -47 -16 -83.5t-44.5 -61t-68.5 -37.5t-89 -13
q-40 0 -71 6.5t-53.5 15.5t-36 18.5t-18.5 14.5q-5 4 -9.5 10t-4.5 13q0 16 23 42zM206 -176q-7 -11 -16.5 -18t-23.5 -7q-12 0 -18 3l43 107q8 19 18.5 31.5t30.5 12.5q8 0 16 -2.5t14 -5.5z" />
    <glyph glyph-name="scommaaccent" unicode="&#x219;" horiz-adv-x="396" 
d="M194 427q-17 0 -34.5 -4t-32.5 -13t-24.5 -23.5t-9.5 -36.5q0 -20 9.5 -34t25.5 -24t36.5 -16.5t42.5 -12.5q25 -8 51 -17t46.5 -24.5t33.5 -39t13 -59.5q0 -33 -13 -59t-35 -43.5t-51.5 -26.5t-63.5 -9q-54 0 -91.5 12t-51.5 22q-15 10 -15 23q0 7 4.5 15t15.5 23
q6 -5 18 -13t30 -16t40 -14t48 -6q21 0 41 5t35 15.5t24 27.5t9 41q0 25 -10 41.5t-27 27t-39 17.5t-45 13q-25 7 -49.5 15.5t-44 23t-31.5 36.5t-12 56q0 31 13.5 54t35 39t49.5 24t58 8q49 0 81.5 -13t49.5 -28q11 -8 15 -15t4 -14q0 -8 -5 -17.5t-10 -20.5h-9
q-20 27 -50 43.5t-75 16.5zM154 -176q-7 -11 -16.5 -18t-23.5 -7q-12 0 -18 3l43 107q8 19 18.5 31.5t30.5 12.5q8 0 16 -2.5t14 -5.5z" />
    <glyph glyph-name="uni021A" unicode="&#x21a;" horiz-adv-x="517" 
d="M516 669q1 -5 1 -6.5v-3.5q0 -17 -12.5 -28.5t-36.5 -11.5h-178v-619h-59v619h-230q-1 5 -1 9q0 19 12 30t36 11h468zM221 -176q-7 -11 -16.5 -18t-23.5 -7q-12 0 -18 3l43 107q8 19 18.5 31.5t30.5 12.5q8 0 16 -2.5t14 -5.5z" />
    <glyph glyph-name="uni021B" unicode="&#x21b;" horiz-adv-x="330" 
d="M288 467v-46h-156v-293q0 -46 17.5 -70.5t55.5 -24.5q20 0 36.5 7t27.5 15q12 9 23 22q14 -14 18.5 -21.5t4.5 -12.5q0 -6 -8 -15.5t-23 -19t-36 -16.5t-48 -7q-49 0 -76.5 19t-38.5 51q-6 18 -8 39t-2 44v472q5 1 9 1q6 0 14 -1.5t15.5 -7t13 -15.5t5.5 -27v-93h156z
M166 -176q-7 -11 -16.5 -18t-23.5 -7q-12 0 -18 3l43 107q8 19 18.5 31.5t30.5 12.5q8 0 16 -2.5t14 -5.5z" />
    <glyph glyph-name="dotlessj" unicode="&#x237;" horiz-adv-x="218" 
d="M138 -57q0 -23 -2 -46t-9 -43q-9 -28 -24.5 -44t-32 -24.5t-31.5 -10.5t-23 -2q-14 0 -21.5 4.5t-11 11.5t-4 15t-0.5 14q48 0 70 17.5t28 54.5q2 10 3 22t1 21v534h3q20 0 37 -10.5t17 -41.5v-472z" />
    <glyph glyph-name="apostrophe" unicode="&#x2bc;" horiz-adv-x="201" 
d="M143 636q0 -33 -12.5 -60.5t-29.5 -45.5q-24 -26 -46 -26q-19 0 -28 23q18 9 36 25t22 44q-13 5 -24 17.5t-11 31.5q0 20 12.5 34t32.5 14q24 0 36 -16t12 -41z" />
    <glyph glyph-name="circumflex" unicode="&#x2c6;" horiz-adv-x="370" 
d="M186 615l-63 -72q-15 -17 -37 -17q-18 0 -28 10l81 103q11 14 20 22.5t26 8.5t26 -8.5t20 -22.5l83 -106q-5 -3 -12.5 -6t-16.5 -3q-20 0 -36 18z" />
    <glyph glyph-name="caron" unicode="&#x2c7;" horiz-adv-x="370" 
d="M249 648q9 11 18 14.5t18 3.5t16.5 -2.5t12.5 -6.5l-83 -106q-11 -14 -20 -22.5t-26 -8.5t-26 8.5t-20 22.5l-81 103q10 10 28 10q22 0 37 -17l63 -72z" />
    <glyph glyph-name="uni02C9" unicode="&#x2c9;" horiz-adv-x="370" 
d="M80 558q-25 0 -35 8t-10 24q0 5 0.5 8.5t1.5 8.5h251q22 0 34 -7t12 -25q0 -7 -2 -17h-252z" />
    <glyph glyph-name="breve" unicode="&#x2d8;" horiz-adv-x="370" 
d="M105 630q10 -35 29 -50t51 -15q33 0 51.5 15t28.5 49q5 18 13.5 24.5t19.5 6.5q19 0 27 -5q-4 -17 -6 -27t-7 -25q-16 -43 -48.5 -63t-78.5 -20q-52 0 -81 20t-46 59q-7 16 -9.5 27.5t-5.5 28.5q4 2 13 3.5t17 1.5q11 0 19 -6t13 -24z" />
    <glyph glyph-name="dotaccent" unicode="&#x2d9;" horiz-adv-x="370" 
d="M232 590q0 -21 -13.5 -36t-33.5 -15t-33.5 15t-13.5 36t13.5 36t33.5 15t33.5 -15t13.5 -36z" />
    <glyph glyph-name="ring" unicode="&#x2da;" horiz-adv-x="370" 
d="M287 625q0 -43 -27 -74t-75 -31t-75.5 30.5t-27.5 73.5q0 45 27.5 75.5t75.5 30.5t75 -31t27 -74zM244 625q0 26 -16.5 46t-42.5 20q-27 0 -43.5 -20t-16.5 -46t16 -46.5t44 -20.5q27 0 43 20t16 46v1z" />
    <glyph glyph-name="ogonek" unicode="&#x2db;" horiz-adv-x="370" 
d="M240 -147q6 -5 12.5 -11.5t6.5 -15.5q0 -10 -11 -19q-10 -8 -25 -12.5t-31 -4.5q-36 0 -59 18.5t-23 60.5q0 24 8.5 46t21.5 40t27.5 31.5t25.5 20.5l44 -7q-13 -8 -27 -21.5t-25.5 -30.5t-19 -36t-7.5 -37q0 -45 38 -45q17 0 27 7.5t17 15.5z" />
    <glyph glyph-name="tilde" unicode="&#x2dc;" horiz-adv-x="370" 
d="M245 540q-21 0 -38 6t-31.5 12.5t-28 12.5t-27.5 6q-20 0 -36 -12t-31 -31q-7 4 -12.5 12.5t-5.5 19.5t8.5 21.5t21.5 19t28.5 13.5t30.5 5q21 0 37.5 -6t30 -13t26.5 -13t27 -6q20 0 35 13.5t31 36.5q6 -2 14 -11.5t8 -23.5q0 -9 -7 -20t-19 -20t-28 -15.5t-34 -6.5z
" />
    <glyph glyph-name="hungarumlaut" unicode="&#x2dd;" horiz-adv-x="370" 
d="M248 535q-14 -15 -33 -15q-8 0 -15.5 3t-11.5 6l85 110q10 14 19.5 22.5t24.5 8.5q13 0 23 -5t18 -11zM103 535q-14 -15 -33 -15q-8 0 -15.5 3t-11.5 6l85 110q10 14 19.5 22.5t24.5 8.5q13 0 23 -5t18 -11z" />
    <glyph glyph-name="uni0394" unicode="&#x394;" horiz-adv-x="609" 
d="M301 593l-199 -543h400zM584 0h-559l249 665q5 2 12.5 4t16.5 2q12 0 20.5 -6t14.5 -22z" />
    <glyph glyph-name="Omega" unicode="&#x3a9;" horiz-adv-x="704" 
d="M417 0v53q33 23 61.5 53.5t49.5 69t33 84t12 97.5q0 60 -13.5 110t-41 86.5t-69 56.5t-96.5 20t-96.5 -20.5t-70 -57t-43 -87t-14.5 -110.5q0 -52 12.5 -97t34 -82.5t50.5 -68.5t62 -54v-53h-184q-24 0 -35 11.5t-11 30.5v3t1 6h156q-28 22 -54 50.5t-46.5 66t-33 84.5
t-12.5 104q0 69 19 128t55.5 103t89.5 69t122 25q68 0 120 -24.5t87.5 -67t53.5 -101t18 -127.5q0 -57 -12 -104.5t-32.5 -86t-47 -68t-54.5 -51.5h110q24 0 35 -11.5t11 -30.5v-3t-1 -6h-226z" />
    <glyph glyph-name="uni03BC" unicode="&#x3bc;" horiz-adv-x="546" 
d="M405 54q-23 -24 -63.5 -43.5t-91.5 -19.5q-37 0 -65.5 8.5t-47.5 31.5v-249h-57v685h4q21 0 37 -11t16 -43v-231q0 -31 5.5 -56.5t20 -44t40 -28.5t65.5 -10q23 0 47.5 7t44.5 17.5t33 23.5t13 25v351h4q21 0 37 -11t16 -44v-307q0 -23 2.5 -38t10.5 -23.5t22 -12
t38 -3.5v-23q-12 -5 -25.5 -7.5t-26.5 -2.5q-40 0 -57 18t-22 41z" />
    <glyph glyph-name="pi" unicode="&#x3c0;" horiz-adv-x="541" 
d="M380 420h-219v-420h-57v420h-89v47h511v-47h-89v-315q0 -23 3 -38t11.5 -23.5t23.5 -12t40 -3.5v-23q-12 -5 -28 -7.5t-29 -2.5q-48 0 -63 26t-15 73v326z" />
    <glyph glyph-name="Wgrave" unicode="&#x1e80;" horiz-adv-x="863" 
d="M637 -5h-67l-134 435l-136 -435h-68l-222 673q4 1 11 2t15 1q21 0 33 -12.5t20 -35.5l179 -576l142 472l-43 150q5 1 10.5 1.5t13.5 0.5q21 0 33 -12.5t18 -35.5l163 -574l172 571q7 23 20 37t34 14q6 0 11.5 -0.5t10.5 -1.5zM288 809q8 9 19.5 18.5t25.5 9.5
q11 0 21 -5.5t21 -14.5l110 -87q-4 -6 -14.5 -11t-20.5 -5q-12 0 -26 8z" />
    <glyph glyph-name="wgrave" unicode="&#x1e81;" horiz-adv-x="691" 
d="M518 -4h-63l-103 267l-112 -267h-59l-161 466q8 2 13.5 3.5t12.5 1.5q21 0 33 -16t20 -39l116 -360l111 275l-52 136q9 4 23 4q23 0 35.5 -14t20.5 -37l134 -361l114 360q8 24 19.5 38t31.5 14q15 0 24 -4zM207 654q8 6 20 11t25 5q15 0 24.5 -8.5t19.5 -22.5l85 -110
q-4 -3 -12.5 -6t-18.5 -3q-20 0 -33 15z" />
    <glyph glyph-name="Wacute" unicode="&#x1e82;" horiz-adv-x="863" 
d="M637 -5h-67l-134 435l-136 -435h-68l-222 673q4 1 11 2t15 1q21 0 33 -12.5t20 -35.5l179 -576l142 472l-43 150q5 1 10.5 1.5t13.5 0.5q21 0 33 -12.5t18 -35.5l163 -574l172 571q7 23 20 37t34 14q6 0 11.5 -0.5t10.5 -1.5zM399 722q-14 -8 -26 -8q-10 0 -20.5 5
t-14.5 11l110 87q11 9 21 14.5t21 5.5q14 0 25.5 -9.5t19.5 -18.5z" />
    <glyph glyph-name="wacute" unicode="&#x1e83;" horiz-adv-x="691" 
d="M518 -4h-63l-103 267l-112 -267h-59l-161 466q8 2 13.5 3.5t12.5 1.5q21 0 33 -16t20 -39l116 -360l111 275l-52 136q9 4 23 4q23 0 35.5 -14t20.5 -37l134 -361l114 360q8 24 19.5 38t31.5 14q15 0 24 -4zM322 535q-14 -15 -33 -15q-8 0 -17.5 3t-13.5 6l85 110
q10 14 19.5 22.5t24.5 8.5q13 0 25 -5t20 -11z" />
    <glyph glyph-name="Wdieresis" unicode="&#x1e84;" horiz-adv-x="863" 
d="M637 -5h-67l-134 435l-136 -435h-68l-222 673q4 1 11 2t15 1q21 0 33 -12.5t20 -35.5l179 -576l142 472l-43 150q5 1 10.5 1.5t13.5 0.5q21 0 33 -12.5t18 -35.5l163 -574l172 571q7 23 20 37t34 14q6 0 11.5 -0.5t10.5 -1.5zM560 769q0 -19 -12 -31.5t-31 -12.5
t-31 12.5t-12 31.5t12.5 31.5t30.5 12.5t30.5 -12.5t12.5 -31.5zM386 769q0 -19 -12 -31.5t-31 -12.5q-20 0 -31.5 12.5t-11.5 31.5t12.5 31.5t30.5 12.5t30.5 -12.5t12.5 -31.5z" />
    <glyph glyph-name="wdieresis" unicode="&#x1e85;" horiz-adv-x="691" 
d="M518 -4h-63l-103 267l-112 -267h-59l-161 466q8 2 13.5 3.5t12.5 1.5q21 0 33 -16t20 -39l116 -360l111 275l-52 136q9 4 23 4q23 0 35.5 -14t20.5 -37l134 -361l114 360q8 24 19.5 38t31.5 14q15 0 24 -4zM473 585q0 -19 -12 -31.5t-31 -12.5t-31 12.5t-12 31.5
t12.5 31.5t30.5 12.5t30.5 -12.5t12.5 -31.5zM299 585q0 -19 -12 -31.5t-31 -12.5q-20 0 -31.5 12.5t-11.5 31.5t12.5 31.5t30.5 12.5t30.5 -12.5t12.5 -31.5z" />
    <glyph glyph-name="Ygrave" unicode="&#x1ef2;" horiz-adv-x="499" 
d="M279 288v-288h-59v287l-215 380q5 2 12.5 3.5t19.5 1.5q20 0 30.5 -8t19.5 -25l165 -291l160 288q9 16 21 25.5t33 9.5q9 0 15 -0.5t13 -2.5zM137 809q8 9 19.5 18.5t25.5 9.5q11 0 21 -5.5t21 -14.5l110 -87q-4 -6 -14.5 -11t-20.5 -5q-12 0 -26 8z" />
    <glyph glyph-name="ygrave" unicode="&#x1ef3;" horiz-adv-x="444" 
d="M227 -102q-9 -25 -20.5 -47.5t-28 -40t-40 -27.5t-55.5 -10q-38 0 -60 12q-19 10 -19 24q0 11 6.5 21.5t11.5 17.5q5 -5 21 -16t43 -11q33 0 52 23t40 79l29 77h-28l-164 462q13 5 27 5q25 0 36 -15.5t19 -39.5l123 -365l130 370q8 24 21 37t33 13q8 0 14 -2t11 -4z
M113 654q8 6 20 11t25 5q15 0 24.5 -8.5t19.5 -22.5l85 -110q-4 -3 -12.5 -6t-18.5 -3q-20 0 -33 15z" />
    <glyph glyph-name="endash" unicode="&#x2013;" horiz-adv-x="500" 
d="M45 242q-25 0 -35 9.5t-10 25.5q0 5 0.5 8.5t1.5 8.5h452q22 0 34 -7.5t12 -27.5q0 -7 -2 -17h-453z" />
    <glyph glyph-name="emdash" unicode="&#x2014;" horiz-adv-x="1000" 
d="M45 242q-25 0 -35 9.5t-10 25.5q0 5 0.5 8.5t1.5 8.5h952q22 0 34 -7.5t12 -27.5q0 -7 -2 -17h-953z" />
    <glyph glyph-name="quoteleft" unicode="&#x2018;" horiz-adv-x="229" 
d="M65 562q0 33 12.5 60.5t29.5 45.5q23 26 46 26q19 0 28 -23q-18 -9 -36 -25t-22 -44q13 -5 24 -17.5t11 -31.5q0 -20 -12.5 -34t-32.5 -14q-24 0 -36 16t-12 41z" />
    <glyph glyph-name="quoteright" unicode="&#x2019;" horiz-adv-x="228" 
d="M173 636q0 -33 -12.5 -60.5t-29.5 -45.5q-24 -26 -46 -26q-19 0 -28 23q18 9 36 25t22 44q-13 5 -24 17.5t-11 31.5q0 20 12.5 34t32.5 14q24 0 36 -16t12 -41z" />
    <glyph glyph-name="quotesinglbase" unicode="&#x201a;" horiz-adv-x="216" 
d="M156 26q0 -33 -12.5 -60.5t-29.5 -45.5q-24 -26 -46 -26q-19 0 -28 23q18 9 36 25t22 44q-13 5 -24 17.5t-11 31.5q0 20 12.5 34t32.5 14q24 0 36 -16t12 -41z" />
    <glyph glyph-name="quotedblleft" unicode="&#x201c;" horiz-adv-x="388" 
d="M224 562q0 33 12.5 60.5t29.5 45.5q23 26 46 26q19 0 28 -23q-18 -9 -36 -25t-22 -44q13 -5 24 -17.5t11 -31.5q0 -20 -12.5 -34t-32.5 -14q-24 0 -36 16t-12 41zM65 562q0 33 12.5 60.5t29.5 45.5q23 26 46 26q19 0 28 -23q-18 -9 -36 -25t-22 -44q13 -5 24 -17.5
t11 -31.5q0 -20 -12.5 -34t-32.5 -14q-24 0 -36 16t-12 41z" />
    <glyph glyph-name="quotedblright" unicode="&#x201d;" horiz-adv-x="387" 
d="M332 636q0 -33 -12.5 -60.5t-29.5 -45.5q-24 -26 -46 -26q-19 0 -28 23q18 9 36 25t22 44q-13 5 -24 17.5t-11 31.5q0 20 12.5 34t32.5 14q24 0 36 -16t12 -41zM173 636q0 -33 -12.5 -60.5t-29.5 -45.5q-24 -26 -46 -26q-19 0 -28 23q18 9 36 25t22 44q-13 5 -24 17.5
t-11 31.5q0 20 12.5 34t32.5 14q24 0 36 -16t12 -41z" />
    <glyph glyph-name="quotedblbase" unicode="&#x201e;" horiz-adv-x="375" 
d="M315 26q0 -33 -12.5 -60.5t-29.5 -45.5q-24 -26 -46 -26q-19 0 -28 23q18 9 36 25t22 44q-13 5 -24 17.5t-11 31.5q0 20 12.5 34t32.5 14q24 0 36 -16t12 -41zM156 26q0 -33 -12.5 -60.5t-29.5 -45.5q-24 -26 -46 -26q-19 0 -28 23q18 9 36 25t22 44q-13 5 -24 17.5
t-11 31.5q0 20 12.5 34t32.5 14q24 0 36 -16t12 -41z" />
    <glyph glyph-name="dagger" unicode="&#x2020;" horiz-adv-x="445" 
d="M245 -119h-59v532h-100q-17 0 -27 5t-15 12t-7 15t-2 14v5.5t1 5.5h150v200q5 1 7 1h4q6 0 14 -1.5t15.5 -7t13 -15.5t5.5 -26v-151h110q16 0 26.5 -5t17 -12t9 -15t2.5 -14t-1 -11h-164v-532z" />
    <glyph glyph-name="daggerdbl" unicode="&#x2021;" horiz-adv-x="445" 
d="M355 156q16 0 26.5 -5t17 -12t9 -15t2.5 -14t-1 -11h-164v-217h-59v217h-100q-17 0 -27 5t-15 12t-7 15t-2 14v5.5t1 5.5h150v257h-100q-17 0 -27 5t-15 12t-7 15t-2 14v5.5t1 5.5h150v200h3q2 0 4 0.5t4 0.5q6 0 14 -1.5t15.5 -7t13 -15.5t5.5 -26v-151h110
q16 0 26.5 -5t17 -12t9 -15t2.5 -14t-1 -11h-164v-257h110z" />
    <glyph glyph-name="bullet" unicode="&#x2022;" horiz-adv-x="389" 
d="M319 350q0 -26 -9.5 -48.5t-26 -39t-39.5 -26.5t-50 -10q-28 0 -51 10t-39 26.5t-25 39t-9 48.5q0 25 9 48t25 40t39 27t51 10t51 -10t39.5 -27t25.5 -40t9 -48z" />
    <glyph glyph-name="ellipsis" unicode="&#x2026;" horiz-adv-x="586" 
d="M343 36q0 -21 -14 -36t-34 -15t-34 15t-14 36t14 36t34 15t34 -15t14 -36zM536 36q0 -21 -14 -36t-34 -15t-34 15t-14 36t14 36t34 15t34 -15t14 -36zM147 36q0 -21 -14 -36t-34 -15t-34 15t-14 36t14 36t34 15t34 -15t14 -36z" />
    <glyph glyph-name="perthousand" unicode="&#x2030;" horiz-adv-x="1177" 
d="M1120 158q0 -85 -40 -129t-106 -44q-69 0 -108 44t-39 129q0 87 41 130.5t105 43.5q69 0 108 -43.5t39 -130.5zM1063 159q0 57 -20.5 92t-69.5 35q-48 0 -68 -35.5t-20 -92.5q0 -56 20.5 -91.5t67.5 -35.5q50 0 70 35.5t20 92.5zM765 158q0 -85 -40 -129t-106 -44
q-69 0 -108 44t-39 129q0 87 41 130.5t105 43.5q69 0 108 -43.5t39 -130.5zM708 159q0 57 -20.5 92t-69.5 35q-48 0 -68 -35.5t-20 -92.5q0 -56 20.5 -91.5t67.5 -35.5q50 0 70 35.5t20 92.5zM343 507q0 -85 -40 -129t-106 -44q-69 0 -108 44t-39 129q0 87 41 130.5
t105 43.5q69 0 108 -43.5t39 -130.5zM286 508q0 57 -20.5 92t-69.5 35q-48 0 -68 -35.5t-20 -92.5q0 -56 20.5 -91.5t67.5 -35.5q50 0 70 35.5t20 92.5zM207 0h-61l442 645q13 18 22.5 27t26.5 9q15 0 24 -4l8 -3z" />
    <glyph glyph-name="guilsinglleft" unicode="&#x2039;" horiz-adv-x="290" 
d="M124 272l90 -102q14 -17 14 -34q0 -8 -3 -18t-7 -16l-129 118q-13 11 -21 23t-8 29t9.5 29.5t22.5 23.5l126 118q5 -5 8.5 -14.5t3.5 -17.5q0 -21 -13 -34z" />
    <glyph glyph-name="guilsinglright" unicode="&#x203a;" horiz-adv-x="290" 
d="M73 379q-13 13 -13 34q0 8 3.5 17.5t8.5 14.5l126 -118q13 -11 22.5 -23.5t9.5 -29.5t-8 -29t-21 -23l-129 -118q-4 6 -7 16t-3 18q0 17 14 34l90 102z" />
    <glyph glyph-name="fraction" unicode="&#x2044;" horiz-adv-x="72" 
d="M-127 0h-57l359 644q11 20 21 28.5t27 8.5q13 0 23 -4l5 -2z" />
    <glyph glyph-name="zerosuperior" unicode="&#x2070;" 
d="M303 490q0 -91 -39 -137t-105 -46q-69 0 -105.5 47.5t-36.5 135.5q0 94 39 142.5t103 48.5q69 0 106.5 -47t37.5 -144zM248 491q0 31 -4.5 57t-15 45.5t-27.5 30.5t-42 11q-24 0 -40.5 -11.5t-26.5 -31.5t-14.5 -46t-4.5 -56q0 -28 4.5 -53t14.5 -43.5t26 -29.5t40 -11
q25 0 42.5 11t28 29.5t15 43.5t4.5 54z" />
    <glyph glyph-name="foursuperior" unicode="&#x2074;" 
d="M29 385v39l172 245q5 6 10 10t16 4q14 0 22 -6v-250h16q31 0 31 -27q0 -2 -0.5 -4.5t-0.5 -4.5q-1 -2 -1 -6h-45v-71h-50v71h-170zM199 427v173l-119 -173h119z" />
    <glyph glyph-name="fivesuperior" unicode="&#x2075;" 
d="M114 637l-7 -87q8 2 19 4t30 2q24 0 46 -7t39 -21.5t27 -37.5t10 -56q0 -57 -32 -92t-95 -35q-23 0 -40 4.5t-29.5 10t-20 11.5t-10.5 9t-6.5 8t-3.5 10q0 12 23 35q10 -12 32.5 -29t56.5 -17q12 0 25.5 4t24 13t17.5 24.5t7 39.5q0 28 -8 45t-21 26t-28 11.5t-28 2.5
q-17 0 -36 -4t-33 -10l-14 8l15 170h189q1 -3 1 -10q0 -14 -8 -23t-26 -9h-116z" />
    <glyph glyph-name="sixsuperior" unicode="&#x2076;" 
d="M283 437q0 -63 -33 -96.5t-87 -33.5q-61 0 -93.5 41.5t-32.5 113.5q0 57 17 98.5t44 68t59.5 39.5t64.5 13q15 0 21 -6t6 -17q0 -4 -0.5 -8t-1.5 -9h-18q-31 0 -55 -10.5t-40.5 -26.5t-27 -35t-14.5 -36q14 12 35.5 21t46.5 9q28 0 49 -10t34 -27t19.5 -40t6.5 -49z
M236 435q0 39 -16 63.5t-53 24.5q-18 0 -32.5 -5.5t-25.5 -12.5q-6 -4 -11.5 -8t-10.5 -9q-1 -5 -1.5 -12.5t-0.5 -18.5q0 -19 4 -38.5t13 -35.5t24.5 -26t39.5 -10q31 0 50.5 21.5t19.5 66.5z" />
    <glyph glyph-name="sevensuperior" unicode="&#x2077;" 
d="M121 312h-54l153 319h-183v15q0 14 9.5 22t25.5 8h186q11 0 17.5 -3.5t6.5 -16.5v-8z" />
    <glyph glyph-name="eightsuperior" unicode="&#x2078;" 
d="M291 418q0 -29 -10.5 -49.5t-28.5 -34.5t-41.5 -20.5t-50.5 -6.5q-57 0 -94 26.5t-37 81.5q0 32 16 55t44 36q-23 12 -35 33.5t-12 45.5t10.5 42.5t27 31t38 18.5t42.5 6q22 0 43.5 -5.5t38.5 -17t27 -29.5t10 -43q0 -24 -12 -46t-35 -35q29 -12 44 -35.5t15 -53.5z
M243 418q0 32 -22.5 50.5t-60.5 18.5t-60.5 -18.5t-22.5 -50.5q0 -35 23.5 -53.5t59.5 -18.5t59.5 18.5t23.5 53.5zM232 586q0 29 -20.5 43.5t-51.5 14.5t-51 -15.5t-20 -44.5t21 -45t50 -16t50.5 16.5t21.5 46.5z" />
    <glyph glyph-name="ninesuperior" unicode="&#x2079;" 
d="M159 681q60 0 91.5 -41.5t31.5 -110.5q0 -57 -16 -99t-41.5 -69t-58 -40.5t-65.5 -13.5q-17 0 -23.5 5t-6.5 16q0 9 1 12q0 5 1 7h17q28 0 51 9.5t40 24.5t28 33.5t16 36.5q-12 -11 -30.5 -18.5t-44.5 -7.5q-56 0 -84 36t-28 87q0 61 33.5 97t87.5 36zM157 641
q-34 0 -53 -24.5t-19 -66.5t18 -64t56 -22q18 0 32 4.5t23 10.5q12 8 18 16q2 5 2.5 18t0.5 22q0 19 -4 38t-13 34t-24 24.5t-37 9.5z" />
    <glyph glyph-name="zeroinferior" unicode="&#x2080;" 
d="M303 177q0 -91 -39 -137t-105 -46q-69 0 -105.5 47.5t-36.5 135.5q0 94 39 142.5t103 48.5q69 0 106.5 -47t37.5 -144zM248 178q0 31 -4.5 57t-15 45.5t-27.5 30.5t-42 11q-24 0 -40.5 -11.5t-26.5 -31.5t-14.5 -46t-4.5 -56q0 -28 4.5 -53t14.5 -43.5t26 -29.5t40 -11
q25 0 42.5 11t28 29.5t15 43.5t4.5 54z" />
    <glyph glyph-name="oneinferior" unicode="&#x2081;" 
d="M162 1v306l-112 -59q-5 5 -9.5 15t-4.5 17q0 11 16 20l115 65q12 5 19 5q17 0 28 -7v-362h-52z" />
    <glyph glyph-name="twoinferior" unicode="&#x2082;" 
d="M52 1v39q23 20 51 47.5t51 53.5q28 32 44.5 61t16.5 60q0 37 -19.5 50.5t-45.5 13.5q-28 0 -46.5 -12t-26.5 -22h-14q-9 9 -12 15.5t-3 10.5q0 8 11 17q3 3 11 8.5t20.5 11.5t28.5 10t35 4q51 0 80.5 -25t29.5 -79q0 -42 -21 -78t-49 -68q-19 -21 -37.5 -40t-33.5 -33
h121q20 0 29 -11t9 -24v-10h-230z" />
    <glyph glyph-name="threeinferior" unicode="&#x2083;" 
d="M278 104q0 -49 -32.5 -79.5t-93.5 -30.5q-22 0 -39.5 4.5t-30.5 10.5t-21 12t-11 9t-6 7.5t-3 9.5q0 11 23 37q4 -6 12.5 -14t20 -15t25.5 -12t30 -5q13 0 26.5 3t24 10.5t17 20t6.5 32.5q0 23 -9.5 36.5t-22 20t-25 8.5t-18.5 2h-29v42h29q6 0 17.5 2t22 8t18.5 18t8 32
q0 27 -16.5 40t-45.5 13q-31 0 -51.5 -14t-26.5 -21h-15q-16 15 -16 25q0 8 9 17q4 4 12 10t21 12t30.5 10.5t40.5 4.5q55 0 82.5 -25t27.5 -65q0 -18 -6 -32.5t-15 -25.5t-18.5 -18.5t-16.5 -10.5q10 -4 21.5 -11t21 -17.5t16 -25.5t6.5 -35z" />
    <glyph glyph-name="fourinferior" unicode="&#x2084;" 
d="M29 72v39l172 245q5 6 10 10t16 4q14 0 22 -6v-250h16q31 0 31 -27q0 -2 -0.5 -4.5t-0.5 -4.5q-1 -2 -1 -6h-45v-71h-50v71h-170zM199 114v173l-119 -173h119z" />
    <glyph glyph-name="fiveinferior" unicode="&#x2085;" 
d="M114 324l-7 -87q8 2 19 4t30 2q24 0 46 -7t39 -21.5t27 -37.5t10 -56q0 -57 -32 -92t-95 -35q-23 0 -40 4.5t-29.5 10t-20 11.5t-10.5 9t-6.5 8t-3.5 10q0 12 23 35q10 -12 32.5 -29t56.5 -17q12 0 25.5 4t24 13t17.5 24.5t7 39.5q0 28 -8 45t-21 26t-28 11.5t-28 2.5
q-17 0 -36 -4t-33 -10l-14 8l15 170h189q1 -3 1 -10q0 -14 -8 -23t-26 -9h-116z" />
    <glyph glyph-name="sixinferior" unicode="&#x2086;" 
d="M283 124q0 -63 -33 -96.5t-87 -33.5q-61 0 -93.5 41.5t-32.5 113.5q0 57 17 98.5t44 68t59.5 39.5t64.5 13q15 0 21 -6t6 -17q0 -4 -0.5 -8t-1.5 -9h-18q-31 0 -55 -10.5t-40.5 -26.5t-27 -35t-14.5 -36q14 12 35.5 21t46.5 9q28 0 49 -10t34 -27t19.5 -40t6.5 -49z
M236 122q0 39 -16 63.5t-53 24.5q-18 0 -32.5 -5.5t-25.5 -12.5q-6 -4 -11.5 -8t-10.5 -9q-1 -5 -1.5 -12.5t-0.5 -18.5q0 -19 4 -38.5t13 -35.5t24.5 -26t39.5 -10q31 0 50.5 21.5t19.5 66.5z" />
    <glyph glyph-name="seveninferior" unicode="&#x2087;" 
d="M121 -1h-54l153 319h-183v15q0 14 9.5 22t25.5 8h186q11 0 17.5 -3.5t6.5 -16.5v-8z" />
    <glyph glyph-name="eightinferior" unicode="&#x2088;" 
d="M291 105q0 -29 -10.5 -49.5t-28.5 -34.5t-41.5 -20.5t-50.5 -6.5q-57 0 -94 26.5t-37 81.5q0 32 16 55t44 36q-23 12 -35 33.5t-12 45.5t10.5 42.5t27 31t38 18.5t42.5 6q22 0 43.5 -5.5t38.5 -17t27 -29.5t10 -43q0 -24 -12 -46t-35 -35q29 -12 44 -35.5t15 -53.5z
M243 105q0 32 -22.5 50.5t-60.5 18.5t-60.5 -18.5t-22.5 -50.5q0 -35 23.5 -53.5t59.5 -18.5t59.5 18.5t23.5 53.5zM232 273q0 29 -20.5 43.5t-51.5 14.5t-51 -15.5t-20 -44.5t21 -45t50 -16t50.5 16.5t21.5 46.5z" />
    <glyph glyph-name="nineinferior" unicode="&#x2089;" 
d="M159 368q60 0 91.5 -41.5t31.5 -110.5q0 -57 -16 -99t-41.5 -69t-58 -40.5t-65.5 -13.5q-17 0 -23.5 5t-6.5 16q0 9 1 12q0 5 1 7h17q28 0 51 9.5t40 24.5t28 33.5t16 36.5q-12 -11 -30.5 -18.5t-44.5 -7.5q-56 0 -84 36t-28 87q0 61 33.5 97t87.5 36zM157 328
q-34 0 -53 -24.5t-19 -66.5t18 -64t56 -22q18 0 32 4.5t23 10.5q12 8 18 16q2 5 2.5 18t0.5 22q0 19 -4 38t-13 34t-24 24.5t-37 9.5z" />
    <glyph glyph-name="Euro" unicode="&#x20ac;" horiz-adv-x="540" 
d="M506 107q9 -8 18.5 -18.5t9.5 -18.5q0 -9 -10 -20q-5 -6 -17 -16.5t-33 -21.5t-51.5 -19t-70.5 -8q-54 0 -96.5 19t-73.5 52.5t-50.5 79t-26.5 99.5h-71v47h65q-2 13 -2 24v42q0 10 1 22h-64v47h70q9 56 30 103t53.5 80.5t76.5 52t99 18.5q37 0 65 -7t47.5 -17t31 -19.5
t17.5 -15.5q4 -4 8 -10t4 -13q0 -11 -20 -34h-11q-6 7 -17 18t-28.5 21.5t-42 18t-57.5 7.5q-45 0 -78 -16.5t-56.5 -44t-38 -64.5t-21.5 -78h244v-47h-250q-1 -10 -1 -20v-45q0 -12 2 -23h248v-47h-242q7 -40 21.5 -76.5t38 -64t56 -44t75.5 -16.5q39 0 67 11t46 25
q23 18 35 37z" />
    <glyph glyph-name="afii61289" unicode="&#x2113;" horiz-adv-x="456" 
d="M180 289q54 60 85.5 123.5t31.5 132.5q0 48 -16 67.5t-38 19.5q-26 0 -44.5 -33t-18.5 -109v-201zM366 115l19.5 -19.5t20.5 -18.5q-27 -40 -65.5 -63t-90.5 -23q-70 0 -108 39.5t-38 127.5q-13 -10 -24.5 -18t-24.5 -17q-5 11 -11.5 22t-13.5 22q19 13 37 27.5t36 30.5
v212q0 71 9.5 119.5t28 78t45 42.5t61.5 13q51 0 84 -37.5t33 -106.5q0 -91 -48 -172.5t-136 -163.5v-20q0 -41 6 -66.5t16.5 -39.5t25 -19.5t31.5 -5.5q32 0 61.5 16.5t45.5 39.5z" />
    <glyph glyph-name="trademark" unicode="&#x2122;" horiz-adv-x="767" 
d="M392 681q13 0 20.5 -5.5t11.5 -13.5l105 -245l105 243q6 14 15.5 17.5t18.5 3.5q12 0 24 -5l18 -363h-49l-12 272l-96 -212h-50l-92 201l-16 -261h-50l23 363q12 5 24 5zM309 681q2 -10 2 -16q0 -11 -7 -20t-29 -9h-87v-323h-52v323h-119q-1 3 -1 15q0 11 6.5 20.5
t29.5 9.5h257z" />
    <glyph glyph-name="uni2126" unicode="&#x2126;" horiz-adv-x="704" 
d="M417 0v53q33 23 61.5 53t49.5 67t33 81.5t12 96.5q0 60 -13.5 109t-41 84.5t-69 54.5t-96.5 19t-96.5 -19.5t-70 -55t-43 -85t-14.5 -109.5q0 -52 12.5 -96t34 -80.5t50.5 -66.5t62 -53v-53h-223v51h150q-28 22 -54 50t-46.5 64t-33 82t-12.5 103q0 69 19 127t55.5 101
t89.5 67t122 24q68 0 120 -23.5t87.5 -65t53.5 -99t18 -126.5q0 -57 -12 -103.5t-32.5 -83.5t-47 -66t-54.5 -51h151v-51h-222z" />
    <glyph glyph-name="estimated" unicode="&#x212e;" horiz-adv-x="742" 
d="M187 340v-230q75 -75 183 -75q79 0 137.5 35.5t106.5 116.5l44 -26q-29 -45 -59 -77.5t-64 -53.5t-74.5 -30.5t-90.5 -9.5q-75 0 -135 27.5t-102.5 74.5t-65.5 111t-23 137t23 137t65.5 111.5t102.5 74.5t135 27q73 0 133 -26t103 -72.5t67 -111t25 -140.5h-511zM555 386
v183q-79 76 -186 76q-109 0 -182 -76v-183h368z" />
    <glyph glyph-name="onethird" unicode="&#x2153;" horiz-adv-x="810" 
d="M156 314v306l-112 -59q-5 5 -9.5 15t-4.5 17q0 11 16 20l115 65q12 5 19 5q17 0 28 -7v-362h-52zM215 0h-57l359 644q11 20 21 28.5t27 8.5q13 0 23 -4l5 -2zM748 111q0 -49 -32.5 -79.5t-93.5 -30.5q-22 0 -39.5 4.5t-30.5 10.5t-21 12t-11 9t-6 7.5t-3 9.5q0 11 23 37
q4 -6 12.5 -14t20 -15t25.5 -12t30 -5q13 0 26.5 3t24 10.5t17 20t6.5 32.5q0 23 -9.5 36.5t-22 20t-25 8.5t-18.5 2h-29v42h29q6 0 17.5 2t22 8t18.5 18t8 32q0 27 -16.5 40t-45.5 13q-31 0 -51.5 -14t-26.5 -21h-15q-16 15 -16 25q0 8 9 17q4 4 12 10t21 12t30.5 10.5
t40.5 4.5q55 0 82.5 -25t27.5 -65q0 -18 -6 -32.5t-15 -25.5t-18.5 -18.5t-16.5 -10.5q10 -4 21.5 -11t21 -17.5t16 -25.5t6.5 -35z" />
    <glyph glyph-name="twothirds" unicode="&#x2154;" horiz-adv-x="810" 
d="M66 314v39q23 20 51 47.5t51 53.5q28 32 44.5 61t16.5 60q0 37 -19.5 50.5t-45.5 13.5q-28 0 -46.5 -12t-26.5 -22h-14q-9 9 -12 15.5t-3 10.5q0 8 11 17q3 3 11 8.5t20.5 11.5t28.5 10t35 4q51 0 80.5 -25t29.5 -79q0 -42 -21 -78t-49 -68q-19 -21 -37.5 -40t-33.5 -33
h121q20 0 29 -11t9 -24v-10h-230zM746 110q0 -49 -32.5 -79.5t-93.5 -30.5q-22 0 -39.5 4.5t-30.5 10.5t-21 12t-11 9t-6 7.5t-3 9.5q0 11 23 37q4 -6 12.5 -14t20 -15t25.5 -12t30 -5q13 0 26.5 3t24 10.5t17 20t6.5 32.5q0 23 -9.5 36.5t-22 20t-25 8.5t-18.5 2h-29v42h29
q6 0 17.5 2t22 8t18.5 18t8 32q0 27 -16.5 40t-45.5 13q-31 0 -51.5 -14t-26.5 -21h-15q-16 15 -16 25q0 8 9 17q4 4 12 10t21 12t30.5 10.5t40.5 4.5q55 0 82.5 -25t27.5 -65q0 -18 -6 -32.5t-15 -25.5t-18.5 -18.5t-16.5 -10.5q10 -4 21.5 -11t21 -17.5t16 -25.5t6.5 -35z
M252 0h-57l359 644q11 20 21 28.5t27 8.5q13 0 23 -4l5 -2z" />
    <glyph glyph-name="onefifth" unicode="&#x2155;" horiz-adv-x="810" 
d="M181 314v306l-112 -59q-5 5 -9.5 15t-4.5 17q0 11 16 20l115 65q12 5 19 5q17 0 28 -7v-362h-52zM245 0h-57l359 644q11 20 21 28.5t27 8.5q13 0 23 -4l5 -2zM606 331l-7 -87q8 2 19 4t30 2q24 0 46 -7t39 -21.5t27 -37.5t10 -56q0 -57 -32 -92t-95 -35q-23 0 -40 4.5
t-29.5 10t-20 11.5t-10.5 9t-6.5 8t-3.5 10q0 12 23 35q10 -12 32.5 -29t56.5 -17q12 0 25.5 4t24 13t17.5 24.5t7 39.5q0 28 -8 45t-21 26t-28 11.5t-28 2.5q-17 0 -36 -4t-33 -10l-14 8l15 170h189q1 -3 1 -10q0 -14 -8 -23t-26 -9h-116z" />
    <glyph glyph-name="twofifths" unicode="&#x2156;" horiz-adv-x="810" 
d="M258 0h-57l359 644q11 20 21 28.5t27 8.5q13 0 23 -4l5 -2zM66 314v39q23 20 51 47.5t51 53.5q28 32 44.5 61t16.5 60q0 37 -19.5 50.5t-45.5 13.5q-28 0 -46.5 -12t-26.5 -22h-14q-9 9 -12 15.5t-3 10.5q0 8 11 17q3 3 11 8.5t20.5 11.5t28.5 10t35 4q51 0 80.5 -25
t29.5 -79q0 -42 -21 -78t-49 -68q-19 -21 -37.5 -40t-33.5 -33h121q20 0 29 -11t9 -24v-10h-230zM596 329l-7 -87q8 2 19 4t30 2q24 0 46 -7t39 -21.5t27 -37.5t10 -56q0 -57 -32 -92t-95 -35q-23 0 -40 4.5t-29.5 10t-20 11.5t-10.5 9t-6.5 8t-3.5 10q0 12 23 35
q10 -12 32.5 -29t56.5 -17q12 0 25.5 4t24 13t17.5 24.5t7 39.5q0 28 -8 45t-21 26t-28 11.5t-28 2.5q-17 0 -36 -4t-33 -10l-14 8l15 170h189q1 -3 1 -10q0 -14 -8 -23t-26 -9h-116z" />
    <glyph glyph-name="threefifths" unicode="&#x2157;" horiz-adv-x="810" 
d="M230 0h-57l359 644q11 20 21 28.5t27 8.5q13 0 23 -4l5 -2zM290 417q0 -49 -32.5 -79.5t-93.5 -30.5q-22 0 -39.5 4.5t-30.5 10.5t-21 12t-11 9t-6 7.5t-3 9.5q0 11 23 37q4 -6 12.5 -14t20 -15t25.5 -12t30 -5q13 0 26.5 3t24 10.5t17 20t6.5 32.5q0 23 -9.5 36.5
t-22 20t-25 8.5t-18.5 2h-29v42h29q6 0 17.5 2t22 8t18.5 18t8 32q0 27 -16.5 40t-45.5 13q-31 0 -51.5 -14t-26.5 -21h-15q-16 15 -16 25q0 8 9 17q4 4 12 10t21 12t30.5 10.5t40.5 4.5q55 0 82.5 -25t27.5 -65q0 -18 -6 -32.5t-15 -25.5t-18.5 -18.5t-16.5 -10.5
q10 -4 21.5 -11t21 -17.5t16 -25.5t6.5 -35zM571 330l-7 -87q8 2 19 4t30 2q24 0 46 -7t39 -21.5t27 -37.5t10 -56q0 -57 -32 -92t-95 -35q-23 0 -40 4.5t-29.5 10t-20 11.5t-10.5 9t-6.5 8t-3.5 10q0 12 23 35q10 -12 32.5 -29t56.5 -17q12 0 25.5 4t24 13t17.5 24.5
t7 39.5q0 28 -8 45t-21 26t-28 11.5t-28 2.5q-17 0 -36 -4t-33 -10l-14 8l15 170h189q1 -3 1 -10q0 -14 -8 -23t-26 -9h-116z" />
    <glyph glyph-name="fourfifths" unicode="&#x2158;" horiz-adv-x="810" 
d="M253 0h-57l359 644q11 20 21 28.5t27 8.5q13 0 23 -4l5 -2zM39 385v39l172 245q5 6 10 10t16 4q14 0 22 -6v-250h16q31 0 31 -27q0 -2 -0.5 -4.5t-0.5 -4.5q-1 -2 -1 -6h-45v-71h-50v71h-170zM209 427v173l-119 -173h119zM591 331l-7 -87q8 2 19 4t30 2q24 0 46 -7
t39 -21.5t27 -37.5t10 -56q0 -57 -32 -92t-95 -35q-23 0 -40 4.5t-29.5 10t-20 11.5t-10.5 9t-6.5 8t-3.5 10q0 12 23 35q10 -12 32.5 -29t56.5 -17q12 0 25.5 4t24 13t17.5 24.5t7 39.5q0 28 -8 45t-21 26t-28 11.5t-28 2.5q-17 0 -36 -4t-33 -10l-14 8l15 170h189
q1 -3 1 -10q0 -14 -8 -23t-26 -9h-116z" />
    <glyph glyph-name="onesixth" unicode="&#x2159;" horiz-adv-x="810" 
d="M224 0h-57l359 644q11 20 21 28.5t27 8.5q13 0 23 -4l5 -2zM171 314v306l-112 -59q-5 5 -9.5 15t-4.5 17q0 11 16 20l115 65q12 5 19 5q17 0 28 -7v-362h-52zM744 130q0 -63 -33 -96.5t-87 -33.5q-61 0 -93.5 41.5t-32.5 113.5q0 57 17 98.5t44 68t59.5 39.5t64.5 13
q15 0 21 -6t6 -17q0 -4 -0.5 -8t-1.5 -9h-18q-31 0 -55 -10.5t-40.5 -26.5t-27 -35t-14.5 -36q14 12 35.5 21t46.5 9q28 0 49 -10t34 -27t19.5 -40t6.5 -49zM697 128q0 39 -16 63.5t-53 24.5q-18 0 -32.5 -5.5t-25.5 -12.5q-6 -4 -11.5 -8t-10.5 -9q-1 -5 -1.5 -12.5
t-0.5 -18.5q0 -19 4 -38.5t13 -35.5t24.5 -26t39.5 -10q31 0 50.5 21.5t19.5 66.5z" />
    <glyph glyph-name="fivesixths" unicode="&#x215a;" horiz-adv-x="810" 
d="M127 637l-7 -87q8 2 19 4t30 2q24 0 46 -7t39 -21.5t27 -37.5t10 -56q0 -57 -32 -92t-95 -35q-23 0 -40 4.5t-29.5 10t-20 11.5t-10.5 9t-6.5 8t-3.5 10q0 12 23 35q10 -12 32.5 -29t56.5 -17q12 0 25.5 4t24 13t17.5 24.5t7 39.5q0 28 -8 45t-21 26t-28 11.5t-28 2.5
q-17 0 -36 -4t-33 -10l-14 8l15 170h189q1 -3 1 -10q0 -14 -8 -23t-26 -9h-116zM236 0h-57l359 644q11 20 21 28.5t27 8.5q13 0 23 -4l5 -2zM740 130q0 -63 -33 -96.5t-87 -33.5q-61 0 -93.5 41.5t-32.5 113.5q0 57 17 98.5t44 68t59.5 39.5t64.5 13q15 0 21 -6t6 -17
q0 -4 -0.5 -8t-1.5 -9h-18q-31 0 -55 -10.5t-40.5 -26.5t-27 -35t-14.5 -36q14 12 35.5 21t46.5 9q28 0 49 -10t34 -27t19.5 -40t6.5 -49zM693 128q0 39 -16 63.5t-53 24.5q-18 0 -32.5 -5.5t-25.5 -12.5q-6 -4 -11.5 -8t-10.5 -9q-1 -5 -1.5 -12.5t-0.5 -18.5
q0 -19 4 -38.5t13 -35.5t24.5 -26t39.5 -10q31 0 50.5 21.5t19.5 66.5z" />
    <glyph glyph-name="oneeighth" unicode="&#x215b;" horiz-adv-x="810" 
d="M173 314v306l-112 -59q-5 5 -9.5 15t-4.5 17q0 11 16 20l115 65q12 5 19 5q17 0 28 -7v-362h-52zM217 0h-57l359 644q11 20 21 28.5t27 8.5q13 0 23 -4l5 -2zM754 111q0 -29 -10.5 -49.5t-28.5 -34.5t-41.5 -20.5t-50.5 -6.5q-57 0 -94 26.5t-37 81.5q0 32 16 55t44 36
q-23 12 -35 33.5t-12 45.5t10.5 42.5t27 31t38 18.5t42.5 6q22 0 43.5 -5.5t38.5 -17t27 -29.5t10 -43q0 -24 -12 -46t-35 -35q29 -12 44 -35.5t15 -53.5zM706 111q0 32 -22.5 50.5t-60.5 18.5t-60.5 -18.5t-22.5 -50.5q0 -35 23.5 -53.5t59.5 -18.5t59.5 18.5t23.5 53.5z
M695 279q0 29 -20.5 43.5t-51.5 14.5t-51 -15.5t-20 -44.5t21 -45t50 -16t50.5 16.5t21.5 46.5z" />
    <glyph glyph-name="threeeighths" unicode="&#x215c;" horiz-adv-x="810" 
d="M284 417q0 -49 -32.5 -79.5t-93.5 -30.5q-22 0 -39.5 4.5t-30.5 10.5t-21 12t-11 9t-6 7.5t-3 9.5q0 11 23 37q4 -6 12.5 -14t20 -15t25.5 -12t30 -5q13 0 26.5 3t24 10.5t17 20t6.5 32.5q0 23 -9.5 36.5t-22 20t-25 8.5t-18.5 2h-29v42h29q6 0 17.5 2t22 8t18.5 18t8 32
q0 27 -16.5 40t-45.5 13q-31 0 -51.5 -14t-26.5 -21h-15q-16 15 -16 25q0 8 9 17q4 4 12 10t21 12t30.5 10.5t40.5 4.5q55 0 82.5 -25t27.5 -65q0 -18 -6 -32.5t-15 -25.5t-18.5 -18.5t-16.5 -10.5q10 -4 21.5 -11t21 -17.5t16 -25.5t6.5 -35zM227 0h-57l359 644
q11 20 21 28.5t27 8.5q13 0 23 -4l5 -2zM752 111q0 -29 -10.5 -49.5t-28.5 -34.5t-41.5 -20.5t-50.5 -6.5q-57 0 -94 26.5t-37 81.5q0 32 16 55t44 36q-23 12 -35 33.5t-12 45.5t10.5 42.5t27 31t38 18.5t42.5 6q22 0 43.5 -5.5t38.5 -17t27 -29.5t10 -43q0 -24 -12 -46
t-35 -35q29 -12 44 -35.5t15 -53.5zM704 111q0 32 -22.5 50.5t-60.5 18.5t-60.5 -18.5t-22.5 -50.5q0 -35 23.5 -53.5t59.5 -18.5t59.5 18.5t23.5 53.5zM693 279q0 29 -20.5 43.5t-51.5 14.5t-51 -15.5t-20 -44.5t21 -45t50 -16t50.5 16.5t21.5 46.5z" />
    <glyph glyph-name="fiveeighths" unicode="&#x215d;" horiz-adv-x="810" 
d="M233 0h-57l359 644q11 20 21 28.5t27 8.5q13 0 23 -4l5 -2zM124 637l-7 -87q8 2 19 4t30 2q24 0 46 -7t39 -21.5t27 -37.5t10 -56q0 -57 -32 -92t-95 -35q-23 0 -40 4.5t-29.5 10t-20 11.5t-10.5 9t-6.5 8t-3.5 10q0 12 23 35q10 -12 32.5 -29t56.5 -17q12 0 25.5 4
t24 13t17.5 24.5t7 39.5q0 28 -8 45t-21 26t-28 11.5t-28 2.5q-17 0 -36 -4t-33 -10l-14 8l15 170h189q1 -3 1 -10q0 -14 -8 -23t-26 -9h-116zM753 110q0 -29 -10.5 -49.5t-28.5 -34.5t-41.5 -20.5t-50.5 -6.5q-57 0 -94 26.5t-37 81.5q0 32 16 55t44 36q-23 12 -35 33.5
t-12 45.5t10.5 42.5t27 31t38 18.5t42.5 6q22 0 43.5 -5.5t38.5 -17t27 -29.5t10 -43q0 -24 -12 -46t-35 -35q29 -12 44 -35.5t15 -53.5zM705 110q0 32 -22.5 50.5t-60.5 18.5t-60.5 -18.5t-22.5 -50.5q0 -35 23.5 -53.5t59.5 -18.5t59.5 18.5t23.5 53.5zM694 278
q0 29 -20.5 43.5t-51.5 14.5t-51 -15.5t-20 -44.5t21 -45t50 -16t50.5 16.5t21.5 46.5z" />
    <glyph glyph-name="seveneighths" unicode="&#x215e;" horiz-adv-x="810" 
d="M203 0h-57l359 644q11 20 21 28.5t27 8.5q13 0 23 -4l5 -2zM144 312h-54l153 319h-183v15q0 14 9.5 22t25.5 8h186q11 0 17.5 -3.5t6.5 -16.5v-8zM752 111q0 -29 -10.5 -49.5t-28.5 -34.5t-41.5 -20.5t-50.5 -6.5q-57 0 -94 26.5t-37 81.5q0 32 16 55t44 36
q-23 12 -35 33.5t-12 45.5t10.5 42.5t27 31t38 18.5t42.5 6q22 0 43.5 -5.5t38.5 -17t27 -29.5t10 -43q0 -24 -12 -46t-35 -35q29 -12 44 -35.5t15 -53.5zM704 111q0 32 -22.5 50.5t-60.5 18.5t-60.5 -18.5t-22.5 -50.5q0 -35 23.5 -53.5t59.5 -18.5t59.5 18.5t23.5 53.5z
M693 279q0 29 -20.5 43.5t-51.5 14.5t-51 -15.5t-20 -44.5t21 -45t50 -16t50.5 16.5t21.5 46.5z" />
    <glyph glyph-name="partialdiff" unicode="&#x2202;" horiz-adv-x="534" 
d="M477 276q0 -71 -16 -125.5t-44.5 -91t-67.5 -55.5t-84 -19q-44 0 -82.5 15.5t-66.5 47t-44 78.5t-16 109q0 59 15 105.5t43 78.5t66 49t85 17q45 0 74 -9.5t52 -23.5q-32 79 -111 126q-38 22 -83.5 36t-90.5 19l9 47q63 -5 114.5 -22t102.5 -52q22 -15 46 -39
q45 -48 72 -124t27 -167zM418 273q0 40 -6 71t-12 51q-29 18 -60 28t-73 10q-69 0 -109.5 -51t-40.5 -147t42 -146.5t106 -50.5q32 0 60 15t48.5 44.5t32.5 73.5t12 102z" />
    <glyph glyph-name="Delta" unicode="&#x2206;" horiz-adv-x="609" 
d="M301 593l-199 -543h400zM584 0h-559l249 665q5 2 12.5 4t16.5 2q12 0 20.5 -6t14.5 -22z" />
    <glyph glyph-name="product" unicode="&#x220f;" horiz-adv-x="636" 
d="M615 615h-82v-737h-60v737h-310v-737h-60v737h-82v54h594v-54z" />
    <glyph glyph-name="summation" unicode="&#x2211;" horiz-adv-x="499" 
d="M46 -122v55l217 354l-215 326v56h412v-53h-346l216 -328l-220 -357h358v-53h-422z" />
    <glyph glyph-name="minus" unicode="&#x2212;" horiz-adv-x="540" 
d="M86 311v55h368v-55h-368z" />
    <glyph glyph-name="uni2215" unicode="&#x2215;" horiz-adv-x="376" 
d="M81 0h-61l261 633q9 21 18 30.5t26 9.5q11 0 23 -4l8 -3z" />
    <glyph glyph-name="uni2219" unicode="&#x2219;" horiz-adv-x="246" 
d="M181 348q0 -21 -14 -36t-34 -15t-34 15t-14 36t14 36t34 15t34 -15t14 -36z" />
    <glyph glyph-name="radical" unicode="&#x221a;" horiz-adv-x="537" 
d="M123 234h-71v47h107l95 -205l221 641l48 -16l-242 -701h-46z" />
    <glyph glyph-name="infinity" unicode="&#x221e;" horiz-adv-x="587" 
d="M547 349q0 -26 -7.5 -53.5t-22.5 -50t-38.5 -36.5t-55.5 -14q-38 0 -70.5 22.5t-59.5 76.5q-26 -56 -60 -77.5t-67 -21.5q-32 0 -55.5 13t-39.5 34t-23.5 49t-7.5 58q0 75 35.5 114.5t90.5 39.5q40 0 71.5 -23t54.5 -77q21 51 52 75t77 24q26 0 49 -10.5t40 -30t27 -48
t10 -64.5zM493 350q0 51 -21.5 79t-51.5 28q-35 0 -58.5 -30t-42.5 -78q9 -20 19.5 -39t23.5 -34t28 -24.5t32 -9.5q18 0 31.5 9.5t22 25t13 34.5t4.5 39zM265 348q-20 48 -43.5 78t-53.5 30q-17 0 -30.5 -9t-23 -24t-14.5 -34.5t-5 -39.5q0 -51 21 -79t50 -28q20 0 36 11.5
t28 28t20.5 34.5t14.5 32z" />
    <glyph glyph-name="integral" unicode="&#x222b;" horiz-adv-x="349" 
d="M138 485q0 100 48.5 141.5t145.5 42.5v-51q-32 0 -57 -6t-42 -22t-26 -43.5t-9 -70.5v-485q0 -50 -13 -85.5t-38 -57.5t-62 -32t-85 -10v51q33 0 58.5 6.5t43 22.5t27 43.5t9.5 69.5v486z" />
    <glyph glyph-name="approxequal" unicode="&#x2248;" horiz-adv-x="540" 
d="M159 398q-28 0 -50.5 -8t-44.5 -19l-21 41q21 13 52.5 23.5t62.5 10.5q30 0 58.5 -5t63.5 -15q29 -8 52 -12.5t46 -4.5q29 0 51.5 8t45.5 21l22 -40q-19 -14 -51 -25.5t-67 -11.5q-26 0 -53.5 5t-53.5 13q-34 10 -60.5 14.5t-52.5 4.5zM159 217q-28 0 -50.5 -8t-44.5 -19
l-21 41q21 13 52.5 23.5t62.5 10.5q30 0 58.5 -5t63.5 -15q29 -8 52 -12.5t46 -4.5q29 0 51.5 8t45.5 21l22 -40q-19 -14 -51 -25.5t-67 -11.5q-26 0 -53.5 5t-53.5 13q-34 10 -60.5 14.5t-52.5 4.5z" />
    <glyph glyph-name="notequal" unicode="&#x2260;" horiz-adv-x="540" 
d="M235 222l-65 -116l-40 22l53 94h-98v53h128l65 118h-193v54h223l64 115l40 -23l-51 -92h94v-54h-125l-65 -118h190v-53h-220z" />
    <glyph glyph-name="lessequal" unicode="&#x2264;" horiz-adv-x="540" 
d="M87 315v47l365 173v-62l-288 -135l288 -134v-63zM87 -1v56h365v-56h-365z" />
    <glyph glyph-name="greaterequal" unicode="&#x2265;" horiz-adv-x="540" 
d="M87 535l365 -173v-48l-365 -173v63l290 134l-290 135v62zM87 -1v56h365v-56h-365z" />
    <glyph glyph-name="lozenge" unicode="&#x25ca;" horiz-adv-x="552" 
d="M275 -16l-210 373l210 363l212 -363zM275 621l-150 -262l153 -279l149 278z" />
    <glyph glyph-name="fi" unicode="&#xf001;" horiz-adv-x="517" 
d="M441 -5q-24 0 -38 9t-20.5 23t-8 32.5t-1.5 38.5v322h-236v-420h-57v526q0 29 3 53q11 69 57.5 103.5t116.5 34.5q48 0 84 -15t54 -30q11 -9 14.5 -16t3.5 -14q0 -8 -4.5 -16.5t-11.5 -18.5h-9q-19 26 -52.5 44.5t-79.5 18.5q-42 0 -75 -19.5t-41 -65.5q-3 -20 -3 -42
v-76h294v-372q0 -44 12 -58t39 -16v-21q-11 -3 -21 -4t-20 -1z" />
    <glyph glyph-name="fl" unicode="&#xf002;" horiz-adv-x="527" 
d="M383 642q-20 11 -52 18.5t-67 7.5q-22 0 -42.5 -4.5t-37.5 -14t-28.5 -25.5t-15.5 -39q-3 -20 -3 -42v-76h175v-47h-175v-420h-57v526q0 29 3 53q9 71 59.5 104.5t122.5 33.5q33 0 62 -5.5t52 -13.5t39 -17t23 -17v-572q0 -42 12 -55.5t39 -15.5v-21q-11 -3 -21 -4
t-20 -1q-24 0 -38 9t-20.5 23t-8 32.5t-1.5 38.5v544z" />
    <glyph glyph-name="oneseventh" unicode="&#xf506;" horiz-adv-x="810" 
d="M209 0h-57l359 644q11 20 21 28.5t27 8.5q13 0 23 -4l5 -2zM152 314v306l-112 -59q-5 5 -9.5 15t-4.5 17q0 11 16 20l115 65q12 5 19 5q17 0 28 -7v-362h-52zM601 0h-54l153 319h-183v15q0 14 9.5 22t25.5 8h186q11 0 17.5 -3.5t6.5 -16.5v-8z" />
    <glyph glyph-name="twosevenths" unicode="&#xf507;" horiz-adv-x="810" 
d="M241 0h-57l359 644q11 20 21 28.5t27 8.5q13 0 23 -4l5 -2zM44 314v39q23 20 51 47.5t51 53.5q28 32 44.5 61t16.5 60q0 37 -19.5 50.5t-45.5 13.5q-28 0 -46.5 -12t-26.5 -22h-14q-9 9 -12 15.5t-3 10.5q0 8 11 17q3 3 11 8.5t20.5 11.5t28.5 10t35 4q51 0 80.5 -25
t29.5 -79q0 -42 -21 -78t-49 -68q-19 -21 -37.5 -40t-33.5 -33h121q20 0 29 -11t9 -24v-10h-230zM605 0h-54l153 319h-183v15q0 14 9.5 22t25.5 8h186q11 0 17.5 -3.5t6.5 -16.5v-8z" />
    <glyph glyph-name="threesevenths" unicode="&#xf508;" horiz-adv-x="810" 
d="M243 0h-57l359 644q11 20 21 28.5t27 8.5q13 0 23 -4l5 -2zM281 417q0 -49 -32.5 -79.5t-93.5 -30.5q-22 0 -39.5 4.5t-30.5 10.5t-21 12t-11 9t-6 7.5t-3 9.5q0 11 23 37q4 -6 12.5 -14t20 -15t25.5 -12t30 -5q13 0 26.5 3t24 10.5t17 20t6.5 32.5q0 23 -9.5 36.5
t-22 20t-25 8.5t-18.5 2h-29v42h29q6 0 17.5 2t22 8t18.5 18t8 32q0 27 -16.5 40t-45.5 13q-31 0 -51.5 -14t-26.5 -21h-15q-16 15 -16 25q0 8 9 17q4 4 12 10t21 12t30.5 10.5t40.5 4.5q55 0 82.5 -25t27.5 -65q0 -18 -6 -32.5t-15 -25.5t-18.5 -18.5t-16.5 -10.5
q10 -4 21.5 -11t21 -17.5t16 -25.5t6.5 -35zM618 0h-54l153 319h-183v15q0 14 9.5 22t25.5 8h186q11 0 17.5 -3.5t6.5 -16.5v-8z" />
    <glyph glyph-name="foursevenths" unicode="&#xf509;" horiz-adv-x="810" 
d="M248 0h-57l359 644q11 20 21 28.5t27 8.5q13 0 23 -4l5 -2zM35 385v39l172 245q5 6 10 10t16 4q14 0 22 -6v-250h16q31 0 31 -27q0 -2 -0.5 -4.5t-0.5 -4.5q-1 -2 -1 -6h-45v-71h-50v71h-170zM205 427v173l-119 -173h119zM616 1h-54l153 319h-183v15q0 14 9.5 22t25.5 8
h186q11 0 17.5 -3.5t6.5 -16.5v-8z" />
    <glyph glyph-name="fivesevenths" unicode="&#xf50a;" horiz-adv-x="810" 
d="M232 0h-57l359 644q11 20 21 28.5t27 8.5q13 0 23 -4l5 -2zM109 637l-7 -87q8 2 19 4t30 2q24 0 46 -7t39 -21.5t27 -37.5t10 -56q0 -57 -32 -92t-95 -35q-23 0 -40 4.5t-29.5 10t-20 11.5t-10.5 9t-6.5 8t-3.5 10q0 12 23 35q10 -12 32.5 -29t56.5 -17q12 0 25.5 4
t24 13t17.5 24.5t7 39.5q0 28 -8 45t-21 26t-28 11.5t-28 2.5q-17 0 -36 -4t-33 -10l-14 8l15 170h189q1 -3 1 -10q0 -14 -8 -23t-26 -9h-116zM614 1h-54l153 319h-183v15q0 14 9.5 22t25.5 8h186q11 0 17.5 -3.5t6.5 -16.5v-8z" />
    <glyph glyph-name="sixsevenths" unicode="&#xf50b;" horiz-adv-x="810" 
d="M239 0h-57l359 644q11 20 21 28.5t27 8.5q13 0 23 -4l5 -2zM289 437q0 -63 -33 -96.5t-87 -33.5q-61 0 -93.5 41.5t-32.5 113.5q0 57 17 98.5t44 68t59.5 39.5t64.5 13q15 0 21 -6t6 -17q0 -4 -0.5 -8t-1.5 -9h-18q-31 0 -55 -10.5t-40.5 -26.5t-27 -35t-14.5 -36
q14 12 35.5 21t46.5 9q28 0 49 -10t34 -27t19.5 -40t6.5 -49zM242 435q0 39 -16 63.5t-53 24.5q-18 0 -32.5 -5.5t-25.5 -12.5q-6 -4 -11.5 -8t-10.5 -9q-1 -5 -1.5 -12.5t-0.5 -18.5q0 -19 4 -38.5t13 -35.5t24.5 -26t39.5 -10q31 0 50.5 21.5t19.5 66.5zM616 1h-54
l153 319h-183v15q0 14 9.5 22t25.5 8h186q11 0 17.5 -3.5t6.5 -16.5v-8z" />
    <glyph glyph-name="oneninth" unicode="&#xf50c;" horiz-adv-x="810" 
d="M213 0h-57l359 644q11 20 21 28.5t27 8.5q13 0 23 -4l5 -2zM159 314v306l-112 -59q-5 5 -9.5 15t-4.5 17q0 11 16 20l115 65q12 5 19 5q17 0 28 -7v-362h-52zM629 370q60 0 91.5 -41.5t31.5 -110.5q0 -57 -16 -99t-41.5 -69t-58 -40.5t-65.5 -13.5q-17 0 -23.5 5t-6.5 16
q0 9 1 12q0 5 1 7h17q28 0 51 9.5t40 24.5t28 33.5t16 36.5q-12 -11 -30.5 -18.5t-44.5 -7.5q-56 0 -84 36t-28 87q0 61 33.5 97t87.5 36zM627 330q-34 0 -53 -24.5t-19 -66.5t18 -64t56 -22q18 0 32 4.5t23 10.5q12 8 18 16q2 5 2.5 18t0.5 22q0 19 -4 38t-13 34t-24 24.5
t-37 9.5z" />
    <glyph glyph-name="twoninths" unicode="&#xf50d;" horiz-adv-x="810" 
d="M250 0h-57l359 644q11 20 21 28.5t27 8.5q13 0 23 -4l5 -2zM48 314v39q23 20 51 47.5t51 53.5q28 32 44.5 61t16.5 60q0 37 -19.5 50.5t-45.5 13.5q-28 0 -46.5 -12t-26.5 -22h-14q-9 9 -12 15.5t-3 10.5q0 8 11 17q3 3 11 8.5t20.5 11.5t28.5 10t35 4q51 0 80.5 -25
t29.5 -79q0 -42 -21 -78t-49 -68q-19 -21 -37.5 -40t-33.5 -33h121q20 0 29 -11t9 -24v-10h-230zM634 370q60 0 91.5 -41.5t31.5 -110.5q0 -57 -16 -99t-41.5 -69t-58 -40.5t-65.5 -13.5q-17 0 -23.5 5t-6.5 16q0 9 1 12q0 5 1 7h17q28 0 51 9.5t40 24.5t28 33.5t16 36.5
q-12 -11 -30.5 -18.5t-44.5 -7.5q-56 0 -84 36t-28 87q0 61 33.5 97t87.5 36zM632 330q-34 0 -53 -24.5t-19 -66.5t18 -64t56 -22q18 0 32 4.5t23 10.5q12 8 18 16q2 5 2.5 18t0.5 22q0 19 -4 38t-13 34t-24 24.5t-37 9.5z" />
    <glyph glyph-name="fourninths" unicode="&#xf50e;" horiz-adv-x="810" 
d="M246 0h-57l359 644q11 20 21 28.5t27 8.5q13 0 23 -4l5 -2zM29 385v39l172 245q5 6 10 10t16 4q14 0 22 -6v-250h16q31 0 31 -27q0 -2 -0.5 -4.5t-0.5 -4.5q-1 -2 -1 -6h-45v-71h-50v71h-170zM199 427v173l-119 -173h119zM630 370q60 0 91.5 -41.5t31.5 -110.5
q0 -57 -16 -99t-41.5 -69t-58 -40.5t-65.5 -13.5q-17 0 -23.5 5t-6.5 16q0 9 1 12q0 5 1 7h17q28 0 51 9.5t40 24.5t28 33.5t16 36.5q-12 -11 -30.5 -18.5t-44.5 -7.5q-56 0 -84 36t-28 87q0 61 33.5 97t87.5 36zM628 330q-34 0 -53 -24.5t-19 -66.5t18 -64t56 -22
q18 0 32 4.5t23 10.5q12 8 18 16q2 5 2.5 18t0.5 22q0 19 -4 38t-13 34t-24 24.5t-37 9.5z" />
    <glyph glyph-name="fiveninths" unicode="&#xf50f;" horiz-adv-x="810" 
d="M252 0h-57l359 644q11 20 21 28.5t27 8.5q13 0 23 -4l5 -2zM114 637l-7 -87q8 2 19 4t30 2q24 0 46 -7t39 -21.5t27 -37.5t10 -56q0 -57 -32 -92t-95 -35q-23 0 -40 4.5t-29.5 10t-20 11.5t-10.5 9t-6.5 8t-3.5 10q0 12 23 35q10 -12 32.5 -29t56.5 -17q12 0 25.5 4
t24 13t17.5 24.5t7 39.5q0 28 -8 45t-21 26t-28 11.5t-28 2.5q-17 0 -36 -4t-33 -10l-14 8l15 170h189q1 -3 1 -10q0 -14 -8 -23t-26 -9h-116zM645 370q60 0 91.5 -41.5t31.5 -110.5q0 -57 -16 -99t-41.5 -69t-58 -40.5t-65.5 -13.5q-17 0 -23.5 5t-6.5 16q0 9 1 12q0 5 1 7
h17q28 0 51 9.5t40 24.5t28 33.5t16 36.5q-12 -11 -30.5 -18.5t-44.5 -7.5q-56 0 -84 36t-28 87q0 61 33.5 97t87.5 36zM643 330q-34 0 -53 -24.5t-19 -66.5t18 -64t56 -22q18 0 32 4.5t23 10.5q12 8 18 16q2 5 2.5 18t0.5 22q0 19 -4 38t-13 34t-24 24.5t-37 9.5z" />
    <glyph glyph-name="sevenninths" unicode="&#xf510;" horiz-adv-x="810" 
d="M186 0h-57l359 644q11 20 21 28.5t27 8.5q13 0 23 -4l5 -2zM123 312h-54l153 319h-183v15q0 14 9.5 22t25.5 8h186q11 0 17.5 -3.5t6.5 -16.5v-8zM624 370q60 0 91.5 -41.5t31.5 -110.5q0 -57 -16 -99t-41.5 -69t-58 -40.5t-65.5 -13.5q-17 0 -23.5 5t-6.5 16q0 9 1 12
q0 5 1 7h17q28 0 51 9.5t40 24.5t28 33.5t16 36.5q-12 -11 -30.5 -18.5t-44.5 -7.5q-56 0 -84 36t-28 87q0 61 33.5 97t87.5 36zM622 330q-34 0 -53 -24.5t-19 -66.5t18 -64t56 -22q18 0 32 4.5t23 10.5q12 8 18 16q2 5 2.5 18t0.5 22q0 19 -4 38t-13 34t-24 24.5t-37 9.5z
" />
    <glyph glyph-name="eightninths" unicode="&#xf511;" horiz-adv-x="810" 
d="M247 0h-57l359 644q11 20 21 28.5t27 8.5q13 0 23 -4l5 -2zM297 418q0 -29 -10.5 -49.5t-28.5 -34.5t-41.5 -20.5t-50.5 -6.5q-57 0 -94 26.5t-37 81.5q0 32 16 55t44 36q-23 12 -35 33.5t-12 45.5t10.5 42.5t27 31t38 18.5t42.5 6q22 0 43.5 -5.5t38.5 -17t27 -29.5
t10 -43q0 -24 -12 -46t-35 -35q29 -12 44 -35.5t15 -53.5zM249 418q0 32 -22.5 50.5t-60.5 18.5t-60.5 -18.5t-22.5 -50.5q0 -35 23.5 -53.5t59.5 -18.5t59.5 18.5t23.5 53.5zM238 586q0 29 -20.5 43.5t-51.5 14.5t-51 -15.5t-20 -44.5t21 -45t50 -16t50.5 16.5t21.5 46.5z
M636 370q60 0 91.5 -41.5t31.5 -110.5q0 -57 -16 -99t-41.5 -69t-58 -40.5t-65.5 -13.5q-17 0 -23.5 5t-6.5 16q0 9 1 12q0 5 1 7h17q28 0 51 9.5t40 24.5t28 33.5t16 36.5q-12 -11 -30.5 -18.5t-44.5 -7.5q-56 0 -84 36t-28 87q0 61 33.5 97t87.5 36zM634 330
q-34 0 -53 -24.5t-19 -66.5t18 -64t56 -22q18 0 32 4.5t23 10.5q12 8 18 16q2 5 2.5 18t0.5 22q0 19 -4 38t-13 34t-24 24.5t-37 9.5z" />
    <glyph glyph-name="zero.alt" unicode="&#xf800;" horiz-adv-x="540" 
d="M498 326q0 -166 -58 -253.5t-170 -87.5t-170 85t-58 256q0 79 14.5 143t43 109t72 69t102.5 24q114 0 169 -91.5t55 -253.5zM436 326q0 81 -12 137.5t-33.5 91t-52 50t-67.5 15.5t-68 -15.5t-53 -50t-34 -91t-12 -137.5q0 -80 12 -135.5t34 -90t53 -49.5t68 -15t67.5 15
t52 49t33.5 89.5t12 136.5z" />
    <glyph glyph-name="one.alt" unicode="&#xf801;" horiz-adv-x="394" 
d="M212 0v592l-149 -78q-5 6 -11 15.5t-6 17.5q0 15 19 25l153 86q11 7 23 7q9 0 17 -3.5t12 -7.5v-654h-58z" />
    <glyph glyph-name="two.alt" unicode="&#xf802;" horiz-adv-x="507" 
d="M43 0v50q19 16 46.5 39.5t57.5 51.5t61 59.5t59 64.5q46 54 74.5 107t28.5 114q0 37 -11 62.5t-29.5 41.5t-42 22.5t-48.5 6.5q-32 0 -58 -9t-45.5 -22t-33 -26t-19.5 -22h-11q-20 23 -20 35q0 11 12 25q5 6 19.5 18t37 23.5t53 20.5t68.5 9q40 0 74 -10.5t59 -32.5
t39.5 -57.5t14.5 -84.5q0 -70 -36.5 -135.5t-88.5 -123.5q-26 -30 -53.5 -58t-52.5 -51t-45.5 -40.5t-32.5 -27.5h297q23 0 36 -11.5t13 -29.5q0 -2 -0.5 -3t-0.5 -3v-3h-422z" />
    <glyph glyph-name="three.alt" unicode="&#xf803;" horiz-adv-x="494" 
d="M432 183q0 -43 -13 -79t-40 -62.5t-68 -41.5t-96 -15q-39 0 -69.5 7t-52.5 17t-36 20t-19 15q-5 4 -9 10t-4 13q0 16 24 43q7 -9 22 -22t36 -24.5t48.5 -19.5t60.5 -8q27 0 54.5 7t50 23.5t37 45t14.5 72.5q0 47 -19.5 75t-45.5 42.5t-52.5 18.5t-40.5 4h-28v49h28
q14 0 38 4.5t47 18.5t39.5 39.5t16.5 68.5q0 55 -33 85.5t-99 30.5q-34 0 -60.5 -9.5t-46 -21.5t-32.5 -25l-18 -18h-11q-20 23 -20 34q0 7 4 13t8 10q5 5 19 16.5t36.5 23t54.5 20t74 8.5q48 0 83 -13t57.5 -35t33.5 -51.5t11 -62.5q0 -42 -15 -71.5t-35 -48.5t-39 -28.5
t-26 -10.5l30 -10q22 -7 44.5 -25t39.5 -49.5t17 -82.5z" />
    <glyph glyph-name="four.alt" unicode="&#xf804;" horiz-adv-x="528" 
d="M37 182v45l313 418q5 7 12 13.5t18 6.5q18 0 29 -8v-425h34q24 0 34 -10.5t10 -27.5q0 -3 -0.5 -5t-0.5 -4v-3h-77v-182h-58v182h-314zM351 232v330l-249 -330h249z" />
    <glyph glyph-name="five.alt" unicode="&#xf805;" horiz-adv-x="508" 
d="M154 609l-20 -201q13 3 37.5 6t51.5 3q43 0 83.5 -11.5t71.5 -37t50 -66.5t19 -101q0 -45 -13 -84t-40 -68.5t-68 -46.5t-96 -17q-39 0 -69.5 7t-52.5 17t-36 20t-19 15q-5 4 -9 10t-4 13q0 16 24 43q7 -9 21.5 -22t35 -24.5t48 -19.5t62.5 -8q27 0 54.5 9t50 28t37 49.5
t14.5 73.5q0 55 -18.5 88.5t-45.5 51.5t-58.5 24t-57.5 6q-35 0 -66.5 -5.5t-51.5 -10.5l-15 7l30 306h317q1 -5 1 -9q0 -19 -11 -32t-35 -13h-222z" />
    <glyph glyph-name="six.alt" unicode="&#xf806;" horiz-adv-x="540" 
d="M482 218q0 -56 -15.5 -99t-43 -73t-65 -45.5t-81.5 -15.5q-108 0 -159.5 71.5t-51.5 208.5q0 104 29 180.5t75 126.5t102.5 74.5t112.5 24.5q21 0 29 -8t8 -23q0 -6 -0.5 -10.5t-1.5 -9.5h-21q-49 0 -87.5 -15t-67.5 -38.5t-49 -52t-33 -56t-19 -51t-7 -35.5q6 7 19 19
t32.5 23t46.5 19.5t60 8.5q50 0 85.5 -19.5t58.5 -51t33.5 -71.5t10.5 -82zM421 211q0 36 -7.5 68.5t-24 57t-43 39t-63.5 14.5q-32 0 -57 -9.5t-44 -23t-32 -28.5t-20 -26q-1 -8 -2 -21t-1 -29q0 -33 5.5 -71.5t22 -71t46.5 -54.5t80 -22q64 0 102 48t38 129z" />
    <glyph glyph-name="seven.alt" unicode="&#xf807;" horiz-adv-x="466" 
d="M152 0h-63l288 609h-355q-1 5 -1 11q0 19 14 31t38 12h343q14 0 22.5 -5t8.5 -20v-13z" />
    <glyph glyph-name="eight.alt" unicode="&#xf808;" horiz-adv-x="553" 
d="M498 177q0 -49 -17.5 -85t-47.5 -60t-70.5 -35.5t-86.5 -11.5q-101 0 -161 46.5t-60 142.5q0 31 10 59t27.5 51t42.5 39.5t55 23.5q-57 19 -84.5 60t-27.5 92q0 40 15.5 72t42.5 54.5t63.5 34t77.5 11.5q43 0 79.5 -10.5t63 -31.5t41.5 -53t15 -74q0 -51 -28.5 -91.5
t-85.5 -61.5q33 -6 58 -22t42.5 -39.5t26.5 -52t9 -58.5zM416 501q0 60 -36.5 90.5t-102.5 30.5q-67 0 -103 -32.5t-36 -89.5q0 -27 10.5 -49.5t29.5 -39.5t44 -26.5t55 -9.5q29 0 54.5 10t44 27.5t29.5 40t11 48.5zM436 177q0 63 -41.5 104t-117.5 41t-118.5 -41
t-42.5 -104q0 -69 44.5 -106.5t116.5 -37.5t115.5 37.5t43.5 106.5z" />
    <glyph glyph-name="nine.alt" unicode="&#xf809;" horiz-adv-x="541" 
d="M60 439q0 55 15.5 98t43 73t65 45.5t81.5 15.5q53 0 92.5 -20t66 -56t39.5 -87t13 -113q0 -105 -29 -182.5t-75 -128t-103 -75t-112 -24.5q-21 0 -29 8t-8 23q0 6 0.5 10.5t1.5 9.5h21q49 0 87.5 15t67.5 39t49 53t33 57t19 51.5t7 36.5q-6 -7 -18.5 -19t-31.5 -23
t-45 -19.5t-59 -8.5q-51 0 -87.5 19t-60 50t-34 70.5t-10.5 81.5zM121 446q0 -36 7.5 -68t24 -56t42.5 -38t64 -14q31 0 56.5 9.5t44.5 23t32 28.5t20 26q1 8 2 21t1 29q0 30 -5.5 67t-22 70t-47 55.5t-79.5 22.5q-64 0 -102 -47.5t-38 -128.5z" />
    <glyph glyph-name="zero.sups" unicode="&#xf80a;" 
d="M303 580q0 -91 -39 -137t-105 -46q-69 0 -105.5 47.5t-36.5 135.5q0 94 39 142.5t103 48.5q69 0 106.5 -47t37.5 -144zM248 581q0 31 -4.5 57t-15 45.5t-27.5 30.5t-42 11q-24 0 -40.5 -11.5t-26.5 -31.5t-14.5 -46t-4.5 -56q0 -28 4.5 -53t14.5 -43.5t26 -29.5t40 -11
q25 0 42.5 11t28 29.5t15 43.5t4.5 54z" />
    <glyph glyph-name="one.sups" unicode="&#xf80b;" 
d="M162 404v306l-112 -59q-5 5 -9.5 15t-4.5 17q0 11 16 20l115 65q12 5 19 5q17 0 28 -7v-362h-52z" />
    <glyph glyph-name="two.sups" unicode="&#xf80c;" 
d="M52 404v39q23 20 51 47.5t51 53.5q28 32 44.5 61t16.5 60q0 37 -19.5 50.5t-45.5 13.5q-28 0 -46.5 -12t-26.5 -22h-14q-9 9 -12 15.5t-3 10.5q0 8 11 17q3 3 11 8.5t20.5 11.5t28.5 10t35 4q51 0 80.5 -25t29.5 -79q0 -42 -21 -78t-49 -68q-19 -21 -37.5 -40t-33.5 -33
h121q20 0 29 -11t9 -24v-10h-230z" />
    <glyph glyph-name="three.sups" unicode="&#xf80d;" 
d="M278 507q0 -49 -32.5 -79.5t-93.5 -30.5q-22 0 -39.5 4.5t-30.5 10.5t-21 12t-11 9t-6 7.5t-3 9.5q0 11 23 37q4 -6 12.5 -14t20 -15t25.5 -12t30 -5q13 0 26.5 3t24 10.5t17 20t6.5 32.5q0 23 -9.5 36.5t-22 20t-25 8.5t-18.5 2h-29v42h29q6 0 17.5 2t22 8t18.5 18t8 32
q0 27 -16.5 40t-45.5 13q-31 0 -51.5 -14t-26.5 -21h-15q-16 15 -16 25q0 8 9 17q4 4 12 10t21 12t30.5 10.5t40.5 4.5q55 0 82.5 -25t27.5 -65q0 -18 -6 -32.5t-15 -25.5t-18.5 -18.5t-16.5 -10.5q10 -4 21.5 -11t21 -17.5t16 -25.5t6.5 -35z" />
    <glyph glyph-name="four.sups" unicode="&#xf80e;" 
d="M29 475v39l172 245q5 6 10 10t16 4q14 0 22 -6v-250h16q31 0 31 -27q0 -2 -0.5 -4.5t-0.5 -4.5q-1 -2 -1 -6h-45v-71h-50v71h-170zM199 517v173l-119 -173h119z" />
    <glyph glyph-name="five.sups" unicode="&#xf80f;" 
d="M114 727l-7 -87q8 2 19 4t30 2q24 0 46 -7t39 -21.5t27 -37.5t10 -56q0 -57 -32 -92t-95 -35q-23 0 -40 4.5t-29.5 10t-20 11.5t-10.5 9t-6.5 8t-3.5 10q0 12 23 35q10 -12 32.5 -29t56.5 -17q12 0 25.5 4t24 13t17.5 24.5t7 39.5q0 28 -8 45t-21 26t-28 11.5t-28 2.5
q-17 0 -36 -4t-33 -10l-14 8l15 170h189q1 -3 1 -10q0 -14 -8 -23t-26 -9h-116z" />
    <glyph glyph-name="six.sups" unicode="&#xf810;" 
d="M283 527q0 -63 -33 -96.5t-87 -33.5q-61 0 -93.5 41.5t-32.5 113.5q0 57 17 98.5t44 68t59.5 39.5t64.5 13q15 0 21 -6t6 -17q0 -4 -0.5 -8t-1.5 -9h-18q-31 0 -55 -10.5t-40.5 -26.5t-27 -35t-14.5 -36q14 12 35.5 21t46.5 9q28 0 49 -10t34 -27t19.5 -40t6.5 -49z
M236 525q0 39 -16 63.5t-53 24.5q-18 0 -32.5 -5.5t-25.5 -12.5q-6 -4 -11.5 -8t-10.5 -9q-1 -5 -1.5 -12.5t-0.5 -18.5q0 -19 4 -38.5t13 -35.5t24.5 -26t39.5 -10q31 0 50.5 21.5t19.5 66.5z" />
    <glyph glyph-name="seven.sups" unicode="&#xf811;" 
d="M121 402h-54l153 319h-183v15q0 14 9.5 22t25.5 8h186q11 0 17.5 -3.5t6.5 -16.5v-8z" />
    <glyph glyph-name="eight.sups" unicode="&#xf812;" 
d="M291 508q0 -29 -10.5 -49.5t-28.5 -34.5t-41.5 -20.5t-50.5 -6.5q-57 0 -94 26.5t-37 81.5q0 32 16 55t44 36q-23 12 -35 33.5t-12 45.5t10.5 42.5t27 31t38 18.5t42.5 6q22 0 43.5 -5.5t38.5 -17t27 -29.5t10 -43q0 -24 -12 -46t-35 -35q29 -12 44 -35.5t15 -53.5z
M243 508q0 32 -22.5 50.5t-60.5 18.5t-60.5 -18.5t-22.5 -50.5q0 -35 23.5 -53.5t59.5 -18.5t59.5 18.5t23.5 53.5zM232 676q0 29 -20.5 43.5t-51.5 14.5t-51 -15.5t-20 -44.5t21 -45t50 -16t50.5 16.5t21.5 46.5z" />
    <glyph glyph-name="nine.sups" unicode="&#xf813;" 
d="M159 771q60 0 91.5 -41.5t31.5 -110.5q0 -57 -16 -99t-41.5 -69t-58 -40.5t-65.5 -13.5q-17 0 -23.5 5t-6.5 16q0 9 1 12q0 5 1 7h17q28 0 51 9.5t40 24.5t28 33.5t16 36.5q-12 -11 -30.5 -18.5t-44.5 -7.5q-56 0 -84 36t-28 87q0 61 33.5 97t87.5 36zM157 731
q-34 0 -53 -24.5t-19 -66.5t18 -64t56 -22q18 0 32 4.5t23 10.5q12 8 18 16q2 5 2.5 18t0.5 22q0 19 -4 38t-13 34t-24 24.5t-37 9.5z" />
    <glyph glyph-name="zero.sinf" unicode="&#xf814;" 
d="M303 87q0 -91 -39 -137t-105 -46q-69 0 -105.5 47.5t-36.5 135.5q0 94 39 142.5t103 48.5q69 0 106.5 -47t37.5 -144zM248 88q0 31 -4.5 57t-15 45.5t-27.5 30.5t-42 11q-24 0 -40.5 -11.5t-26.5 -31.5t-14.5 -46t-4.5 -56q0 -28 4.5 -53t14.5 -43.5t26 -29.5t40 -11
q25 0 42.5 11t28 29.5t15 43.5t4.5 54z" />
    <glyph glyph-name="one.sinf" unicode="&#xf815;" 
d="M162 -89v306l-112 -59q-5 5 -9.5 15t-4.5 17q0 11 16 20l115 65q12 5 19 5q17 0 28 -7v-362h-52z" />
    <glyph glyph-name="two.sinf" unicode="&#xf816;" 
d="M52 -89v39q23 20 51 47.5t51 53.5q28 32 44.5 61t16.5 60q0 37 -19.5 50.5t-45.5 13.5q-28 0 -46.5 -12t-26.5 -22h-14q-9 9 -12 15.5t-3 10.5q0 8 11 17q3 3 11 8.5t20.5 11.5t28.5 10t35 4q51 0 80.5 -25t29.5 -79q0 -42 -21 -78t-49 -68q-19 -21 -37.5 -40t-33.5 -33
h121q20 0 29 -11t9 -24v-10h-230z" />
    <glyph glyph-name="three.sinf" unicode="&#xf817;" 
d="M278 14q0 -49 -32.5 -79.5t-93.5 -30.5q-22 0 -39.5 4.5t-30.5 10.5t-21 12t-11 9t-6 7.5t-3 9.5q0 11 23 37q4 -6 12.5 -14t20 -15t25.5 -12t30 -5q13 0 26.5 3t24 10.5t17 20t6.5 32.5q0 23 -9.5 36.5t-22 20t-25 8.5t-18.5 2h-29v42h29q6 0 17.5 2t22 8t18.5 18t8 32
q0 27 -16.5 40t-45.5 13q-31 0 -51.5 -14t-26.5 -21h-15q-16 15 -16 25q0 8 9 17q4 4 12 10t21 12t30.5 10.5t40.5 4.5q55 0 82.5 -25t27.5 -65q0 -18 -6 -32.5t-15 -25.5t-18.5 -18.5t-16.5 -10.5q10 -4 21.5 -11t21 -17.5t16 -25.5t6.5 -35z" />
    <glyph glyph-name="four.sinf" unicode="&#xf818;" 
d="M29 -18v39l172 245q5 6 10 10t16 4q14 0 22 -6v-250h16q31 0 31 -27q0 -2 -0.5 -4.5t-0.5 -4.5q-1 -2 -1 -6h-45v-71h-50v71h-170zM199 24v173l-119 -173h119z" />
    <glyph glyph-name="five.sinf" unicode="&#xf819;" 
d="M114 234l-7 -87q8 2 19 4t30 2q24 0 46 -7t39 -21.5t27 -37.5t10 -56q0 -57 -32 -92t-95 -35q-23 0 -40 4.5t-29.5 10t-20 11.5t-10.5 9t-6.5 8t-3.5 10q0 12 23 35q10 -12 32.5 -29t56.5 -17q12 0 25.5 4t24 13t17.5 24.5t7 39.5q0 28 -8 45t-21 26t-28 11.5t-28 2.5
q-17 0 -36 -4t-33 -10l-14 8l15 170h189q1 -3 1 -10q0 -14 -8 -23t-26 -9h-116z" />
    <glyph glyph-name="six.sinf" unicode="&#xf81a;" 
d="M283 34q0 -63 -33 -96.5t-87 -33.5q-61 0 -93.5 41.5t-32.5 113.5q0 57 17 98.5t44 68t59.5 39.5t64.5 13q15 0 21 -6t6 -17q0 -4 -0.5 -8t-1.5 -9h-18q-31 0 -55 -10.5t-40.5 -26.5t-27 -35t-14.5 -36q14 12 35.5 21t46.5 9q28 0 49 -10t34 -27t19.5 -40t6.5 -49z
M236 32q0 39 -16 63.5t-53 24.5q-18 0 -32.5 -5.5t-25.5 -12.5q-6 -4 -11.5 -8t-10.5 -9q-1 -5 -1.5 -12.5t-0.5 -18.5q0 -19 4 -38.5t13 -35.5t24.5 -26t39.5 -10q31 0 50.5 21.5t19.5 66.5z" />
    <glyph glyph-name="seven.sinf" unicode="&#xf81b;" 
d="M121 -91h-54l153 319h-183v15q0 14 9.5 22t25.5 8h186q11 0 17.5 -3.5t6.5 -16.5v-8z" />
    <glyph glyph-name="eight.sinf" unicode="&#xf81c;" 
d="M291 15q0 -29 -10.5 -49.5t-28.5 -34.5t-41.5 -20.5t-50.5 -6.5q-57 0 -94 26.5t-37 81.5q0 32 16 55t44 36q-23 12 -35 33.5t-12 45.5t10.5 42.5t27 31t38 18.5t42.5 6q22 0 43.5 -5.5t38.5 -17t27 -29.5t10 -43q0 -24 -12 -46t-35 -35q29 -12 44 -35.5t15 -53.5z
M243 15q0 32 -22.5 50.5t-60.5 18.5t-60.5 -18.5t-22.5 -50.5q0 -35 23.5 -53.5t59.5 -18.5t59.5 18.5t23.5 53.5zM232 183q0 29 -20.5 43.5t-51.5 14.5t-51 -15.5t-20 -44.5t21 -45t50 -16t50.5 16.5t21.5 46.5z" />
    <glyph glyph-name="nine.sinf" unicode="&#xf81d;" 
d="M159 278q60 0 91.5 -41.5t31.5 -110.5q0 -57 -16 -99t-41.5 -69t-58 -40.5t-65.5 -13.5q-17 0 -23.5 5t-6.5 16q0 9 1 12q0 5 1 7h17q28 0 51 9.5t40 24.5t28 33.5t16 36.5q-12 -11 -30.5 -18.5t-44.5 -7.5q-56 0 -84 36t-28 87q0 61 33.5 97t87.5 36zM157 238
q-34 0 -53 -24.5t-19 -66.5t18 -64t56 -22q18 0 32 4.5t23 10.5q12 8 18 16q2 5 2.5 18t0.5 22q0 19 -4 38t-13 34t-24 24.5t-37 9.5z" />
    <glyph glyph-name="i.locl" horiz-adv-x="224" 
d="M148 -5q-24 0 -37.5 9t-20 23t-8 32.5t-1.5 38.5v369h3q20 0 37 -10.5t17 -41.5v-320q0 -44 12 -58t39 -16v-21q-11 -3 -21 -4t-20 -1zM150 590q0 -19 -12.5 -32.5t-30.5 -13.5t-30.5 13.5t-12.5 32.5t12.5 32.5t30.5 13.5t30.5 -13.5t12.5 -32.5z" />
    <glyph glyph-name="kgreenlandic.case" horiz-adv-x="655" 
d="M429 646q14 14 26 19.5t23 5.5q8 0 15 -2.5t12 -4.5l10 -6l-279 -295l299 -366q-17 -6 -33 -6q-20 0 -35.5 7t-31.5 26l-263 322v27zM144 0h-59v670q5 1 7 1h4q6 0 14 -1.5t15.5 -7t13 -15.5t5.5 -27v-620zM544 562q0 33 12.5 60.5t29.5 45.5q23 26 46 26q19 0 28 -23
q-18 -9 -36 -25t-22 -44q13 -5 24 -17.5t11 -31.5q0 -20 -12.5 -34t-32.5 -14q-24 0 -36 16t-12 41z" />
    <glyph glyph-name="napostrophe.case" horiz-adv-x="750" 
d="M665 0h-61l-375 568v-568h-55v667q9 4 28 4q15 0 24 -5.5t19 -20.5l365 -562v587q5 1 8 1h5q6 0 13.5 -1.5t13.5 -7t10.5 -15.5t4.5 -27v-620zM117 636q0 -33 -12.5 -60.5t-29.5 -45.5q-24 -26 -46 -26q-19 0 -28 23q18 9 36 25t22 44q-13 5 -24 17.5t-11 31.5
q0 20 12.5 34t32.5 14q24 0 36 -16t12 -41z" />
    <glyph glyph-name="hungarumlaut.cap" horiz-adv-x="370" 
d="M235 518q-14 -8 -26 -8q-10 0 -20.5 5t-14.5 11l110 87q11 9 21 14.5t21 5.5q14 0 25.5 -9.5t19.5 -18.5zM75 518q-14 -8 -26 -8q-10 0 -20.5 5t-14.5 11l110 87q11 9 21 14.5t21 5.5q14 0 25.5 -9.5t19.5 -18.5z" />
    <glyph glyph-name="cedilla.cap" horiz-adv-x="370" 
d="M239 -124q0 -19 -7.5 -34.5t-19.5 -26.5t-27.5 -17t-31.5 -6q-27 0 -27 23q0 11 3 22q5 -1 10 -1h10q18 0 30 7.5t12 24.5q0 12 -6.5 20t-14 15.5t-14 16.5t-6.5 23q0 18 10.5 34.5t15.5 22.5h43q-6 -7 -14.5 -16t-8.5 -20q0 -10 6.5 -18t15 -17t15 -21.5t6.5 -31.5z" />
    <glyph glyph-name="tilde.cap" horiz-adv-x="370" 
d="M245 531q-21 0 -38 6t-31.5 12.5t-28 12.5t-27.5 6q-20 0 -36 -12t-31 -31q-7 4 -12.5 12.5t-5.5 19.5t8.5 21.5t21.5 19t28.5 13.5t30.5 5q21 0 37.5 -6t30 -13t26.5 -13t27 -6q20 0 35 13.5t31 36.5q6 -2 14 -11.5t8 -23.5q0 -9 -7 -20t-19 -20t-28 -15.5t-34 -6.5z
" />
    <glyph glyph-name="ogonek.cap" horiz-adv-x="370" 
d="M240 -147q6 -5 12.5 -11.5t6.5 -15.5q0 -10 -11 -19q-10 -8 -25 -12.5t-31 -4.5q-36 0 -59 18.5t-23 60.5q0 24 8.5 46t21.5 40t27.5 31.5t25.5 20.5l44 -7q-13 -8 -27 -21.5t-25.5 -30.5t-19 -36t-7.5 -37q0 -45 38 -45q17 0 27 7.5t17 15.5z" />
    <glyph glyph-name="ring.cap" horiz-adv-x="370" 
d="M287 605q0 -43 -27 -74t-75 -31t-75.5 30.5t-27.5 73.5q0 45 27.5 75.5t75.5 30.5t75 -31t27 -74zM244 605q0 26 -16.5 46t-42.5 20q-27 0 -43.5 -20t-16.5 -46t16 -46.5t44 -20.5q27 0 43 20t16 46v1z" />
    <glyph glyph-name="caron.cap" horiz-adv-x="370" 
d="M186 577l64 58q17 14 34 14q8 0 15.5 -3t11.5 -6l-79 -92q-11 -13 -20.5 -21t-26.5 -8t-27 8.5t-21 21.5l-78 91q4 3 11.5 6t15.5 3q21 0 34 -13z" />
    <glyph glyph-name="macron.cap" horiz-adv-x="370" 
d="M80 538q-25 0 -35 8t-10 24q0 5 0.5 8.5t1.5 8.5h251q22 0 34 -7t12 -25q0 -7 -2 -17h-252z" />
    <glyph glyph-name="dieresis.cap" horiz-adv-x="370" 
d="M315 565q0 -19 -12 -31.5t-31 -12.5t-31 12.5t-12 31.5t12.5 31.5t30.5 12.5t30.5 -12.5t12.5 -31.5zM141 565q0 -19 -12 -31.5t-31 -12.5q-20 0 -31.5 12.5t-11.5 31.5t12.5 31.5t30.5 12.5t30.5 -12.5t12.5 -31.5z" />
    <glyph glyph-name="dotaccent.cap" horiz-adv-x="370" 
d="M232 570q0 -21 -13.5 -36t-33.5 -15t-33.5 15t-13.5 36t13.5 36t33.5 15t33.5 -15t13.5 -36z" />
    <glyph glyph-name="circumflex.cap" horiz-adv-x="370" 
d="M184 582l-64 -58q-17 -14 -34 -14q-8 0 -15.5 3t-11.5 6l79 92q11 13 20.5 21t26.5 8t27 -8.5t21 -21.5l78 -91q-4 -3 -11.5 -6t-15.5 -3q-21 0 -34 13z" />
    <glyph glyph-name="acute.cap" horiz-adv-x="370" 
d="M147 518q-14 -8 -26 -8q-10 0 -20.5 5t-14.5 11l110 87q11 9 21 14.5t21 5.5q14 0 25.5 -9.5t19.5 -18.5z" />
    <glyph glyph-name="grave.cap" horiz-adv-x="370" 
d="M86 605q8 9 19.5 18.5t25.5 9.5q11 0 21 -5.5t21 -14.5l110 -87q-4 -6 -14.5 -11t-20.5 -5q-12 0 -26 8z" />
    <glyph glyph-name="breve.cap" horiz-adv-x="370" 
d="M115 618q12 -29 30 -42t50 -13q33 0 51 13t29 42q7 17 14.5 24t18.5 7q19 0 27 -5q-4 -17 -6 -24.5t-8 -22.5q-16 -38 -48 -58.5t-78 -20.5q-49 0 -79.5 19.5t-47.5 56.5q-8 15 -10.5 24t-4.5 26q4 2 13 3.5t17 1.5q11 0 17.5 -6.5t14.5 -24.5z" />
    <glyph glyph-name="commaaccent.cap" horiz-adv-x="370" 
d="M182 -176q-7 -11 -16.5 -18t-23.5 -7q-12 0 -18 3l43 107q8 19 18.5 31.5t30.5 12.5q8 0 16 -2.5t14 -5.5z" />
    <glyph glyph-name="caron.alt" horiz-adv-x="177" 
d="M131 542q-1 -17 -13 -26t-30 -9h-5v140q0 17 2 30.5t13 23.5q12 9 29 9q2 0 6 -0.5t9 -1.5z" />
    <glyph glyph-name="commaaccent" horiz-adv-x="370" 
d="M182 -176q-7 -11 -16.5 -18t-23.5 -7q-12 0 -18 3l43 107q8 19 18.5 31.5t30.5 12.5q8 0 16 -2.5t14 -5.5z" />
    <glyph glyph-name="revcommaaccent" horiz-adv-x="370" 
d="M185 649q7 11 16.5 18t23.5 7q12 0 18 -3l-43 -107q-8 -19 -18.5 -31.5t-30.5 -12.5q-8 0 -16 2.5t-14 5.5z" />
    <glyph glyph-name="at.alt" horiz-adv-x="926" 
d="M506 399q-38 0 -69 -19t-53.5 -51t-35 -75.5t-12.5 -91.5q0 -45 23 -75t71 -30q42 0 76.5 29.5t45.5 89.5l36 205q-17 9 -38 13.5t-44 4.5zM640 55q32 0 63.5 17.5t56.5 52t40.5 84t15.5 114.5q0 76 -24.5 130.5t-65 90t-93 52.5t-108.5 17q-90 0 -164 -31t-127.5 -87
t-83 -133.5t-29.5 -170.5q0 -68 19 -132t59.5 -113.5t104.5 -79.5t154 -30q66 0 118 14t88 31l10 -18q11 -20 5.5 -27.5t-18.5 -14.5q-35 -17 -92.5 -28t-121.5 -11q-102 0 -175 35.5t-120 93.5t-69.5 130t-22.5 146q0 107 36 195.5t98 151.5t146 98t180 35q72 0 136.5 -22
t113 -65t77.5 -106.5t29 -147.5q0 -65 -18 -122.5t-50 -101t-75.5 -68.5t-95.5 -25q-38 0 -62 14.5t-31 52.5q-25 -35 -58.5 -52t-79.5 -17q-33 0 -57.5 12t-41 32.5t-25 47.5t-8.5 57q0 49 14 100.5t43 93.5t74 69t107 27q45 0 82 -13t59 -27l-51 -293q-1 -5 -1.5 -11
t-0.5 -12q0 -35 40 -35z" />
    </font>
</defs>
</svg>
