<?xml version="1.0" standalone="no"?>
<!DOCTYPE svg PUBLIC "-//W3C//DTD SVG 1.1//EN" "http://www.w3.org/Graphics/SVG/1.1/DTD/svg11.dtd" >
<svg>
<metadata>
Created by FontForge 20110222 at Wed Oct  2 13:34:35 2013
 By Orthosie Webhosting
Copyright 2011 Dalton Maag Ltd. Modification of this file requires prior written permission from Dalton Maag Ltd.
</metadata>
<defs>
<font id="FocoItalic" horiz-adv-x="332" >
  <font-face 
    font-family="FocoItalic"
    font-weight="400"
    font-style="italic"
    font-stretch="normal"
    units-per-em="1000"
    panose-1="2 11 5 4 5 2 2 9 2 3"
    ascent="800"
    descent="-200"
    x-height="472"
    cap-height="672"
    bbox="-180 -227 1051 914"
    underline-thickness="20"
    underline-position="-113"
    slope="-9"
    unicode-range="U+0008-FB04"
  />
<missing-glyph horiz-adv-x="500" 
d="M50 0v750h400v-750h-400zM400 50v650h-300v-650h300z" />
    <glyph glyph-name="f_f" unicode="ff" horiz-adv-x="627" 
d="M733 674q12 -14 12 -28q0 -15 -7.5 -24t-19.5 -16l-16 -9q-26 52 -86 52q-24 0 -42 -9t-30.5 -25t-20 -37t-11.5 -45l-10 -61h153l-11 -67h-153l-69 -418q-7 -41 -18.5 -76t-31 -61.5t-49 -41.5t-72.5 -15q-30 0 -54.5 6.5t-38.5 19.5q-13 13 -13 29q0 11 3 17.5t10 14.5
l16 16q15 -17 32.5 -25.5t41.5 -8.5q21 0 36 9.5t25.5 26t17.5 39t11 47.5l88 537q7 44 22 80.5t38.5 62t56 39.5t76.5 14q43 0 71.5 -13t42.5 -30zM421 678q12 -14 12 -28q0 -15 -7.5 -24t-19.5 -16l-16 -9q-14 27 -32 37.5t-44 10.5q-42 0 -63.5 -31t-29.5 -79l-11 -67
h153l-11 -67h-153l-69 -418q-7 -41 -18.5 -76t-31 -61.5t-49 -41.5t-72.5 -15q-30 0 -54.5 6.5t-38.5 19.5q-13 13 -13 29q0 11 3 17.5t10 14.5l16 16q15 -17 32.5 -25.5t41.5 -8.5q21 0 36 9.5t25.5 26t17.5 39t11 47.5l89 543q14 88 56.5 139t125.5 51q38 0 64 -11t40 -28
z" />
    <glyph glyph-name="f_i" unicode="fi" horiz-adv-x="488" 
d="M459 8q-12 -7 -29.5 -11t-30.5 -4q-42 0 -61.5 21t-18.5 56q0 5 0.5 10.5t1.5 11.5l52 313h-174l-69 -418q-7 -41 -18.5 -76t-31 -61.5t-49 -41.5t-72.5 -15q-30 0 -54.5 6.5t-38.5 19.5q-13 13 -13 29q0 11 3 17.5t10 14.5l16 16q15 -17 32.5 -25.5t41.5 -8.5
q21 0 36 9.5t25.5 26t17.5 39t11 47.5l88 537q7 44 23 80.5t41.5 62t61 39.5t82.5 14q51 0 83.5 -17t49.5 -40q5 -6 8 -13t3 -15q0 -15 -7.5 -24t-19.5 -16l-16 -9q-15 32 -41.5 49.5t-62.5 17.5q-56 0 -83.5 -32t-35.5 -85l-10 -61h260l-63 -377q-1 -6 -1.5 -11t-0.5 -10
q0 -15 6 -22.5t22 -7.5q8 0 19 3z" />
    <glyph glyph-name="f_l" unicode="fl" horiz-adv-x="510" 
d="M337 405h-138l-69 -418q-7 -41 -18.5 -76t-31 -61.5t-49 -41.5t-72.5 -15q-30 0 -54.5 6.5t-38.5 19.5q-13 13 -13 29q0 11 3 17.5t10 14.5l16 16q15 -17 32.5 -25.5t41.5 -8.5q21 0 36 9.5t25.5 26t17.5 39t11 47.5l88 537q14 89 66.5 142.5t146.5 53.5q50 0 94.5 -16.5
t79.5 -44.5l-93 -561q-1 -6 -1.5 -11t-0.5 -10q0 -15 6 -22.5t22 -7.5q8 0 19 3l7 -39q-12 -7 -29.5 -11t-30.5 -4q-42 0 -61.5 21t-18.5 56q0 5 0.5 10.5t1.5 11.5l88 534q-17 13 -41 18.5t-45 5.5q-56 0 -86 -32t-38 -85l-10 -61h137z" />
    <glyph glyph-name="f_f_i" unicode="ffi" horiz-adv-x="780" 
d="M421 678q12 -14 12 -28q0 -15 -7.5 -24t-19.5 -16l-16 -9q-14 27 -32 37.5t-44 10.5q-42 0 -63.5 -31t-29.5 -79l-11 -67h153l-11 -67h-153l-69 -418q-7 -41 -18.5 -76t-31 -61.5t-49 -41.5t-72.5 -15q-30 0 -54.5 6.5t-38.5 19.5q-13 13 -13 29q0 11 3 17.5t10 14.5
l16 16q15 -17 32.5 -25.5t41.5 -8.5q21 0 36 9.5t25.5 26t17.5 39t11 47.5l89 543q14 88 56.5 139t125.5 51q38 0 64 -11t40 -28zM751 8q-12 -7 -29.5 -11t-30.5 -4q-42 0 -61.5 21t-18.5 56q0 5 0.5 10.5t1.5 11.5l52 313h-174l-69 -418q-7 -41 -18.5 -76t-31 -61.5
t-49 -41.5t-72.5 -15q-30 0 -54.5 6.5t-38.5 19.5q-13 13 -13 29q0 11 3 17.5t10 14.5l16 16q15 -17 32.5 -25.5t41.5 -8.5q21 0 36 9.5t25.5 26t17.5 39t11 47.5l88 537q7 44 23 80.5t41.5 62t61 39.5t82.5 14q51 0 83.5 -17t49.5 -40q5 -6 8 -13t3 -15q0 -15 -7.5 -24
t-19.5 -16l-16 -9q-15 32 -41.5 49.5t-62.5 17.5q-56 0 -83.5 -32t-35.5 -85l-10 -61h260l-63 -377q-1 -6 -1.5 -11t-0.5 -10q0 -15 6 -22.5t22 -7.5q8 0 19 3z" />
    <glyph glyph-name="f_f_l" unicode="ffl" horiz-adv-x="802" 
d="M421 678q12 -14 12 -28q0 -15 -7.5 -24t-19.5 -16l-16 -9q-14 27 -32 37.5t-44 10.5q-42 0 -63.5 -31t-29.5 -79l-11 -67h153l-11 -67h-153l-69 -418q-7 -41 -18.5 -76t-31 -61.5t-49 -41.5t-72.5 -15q-30 0 -54.5 6.5t-38.5 19.5q-13 13 -13 29q0 11 3 17.5t10 14.5
l16 16q15 -17 32.5 -25.5t41.5 -8.5q21 0 36 9.5t25.5 26t17.5 39t11 47.5l89 543q14 88 56.5 139t125.5 51q38 0 64 -11t40 -28zM629 405h-138l-69 -418q-7 -41 -18.5 -76t-31 -61.5t-49 -41.5t-72.5 -15q-30 0 -54.5 6.5t-38.5 19.5q-13 13 -13 29q0 11 3 17.5t10 14.5
l16 16q15 -17 32.5 -25.5t41.5 -8.5q21 0 36 9.5t25.5 26t17.5 39t11 47.5l88 537q14 89 66.5 142.5t146.5 53.5q50 0 94.5 -16.5t79.5 -44.5l-93 -561q-1 -6 -1.5 -11t-0.5 -10q0 -15 6 -22.5t22 -7.5q8 0 19 3l7 -39q-12 -7 -29.5 -11t-30.5 -4q-42 0 -61.5 21t-18.5 56
q0 5 0.5 10.5t1.5 11.5l88 534q-17 13 -41 18.5t-45 5.5q-56 0 -86 -32t-38 -85l-10 -61h137z" />
    <glyph glyph-name=".notdef" horiz-adv-x="500" 
d="M50 0v750h400v-750h-400zM400 50v650h-300v-650h300z" />
    <glyph glyph-name=".null" horiz-adv-x="0" 
 />
    <glyph glyph-name=".null" horiz-adv-x="0" 
 />
    <glyph glyph-name=".null" horiz-adv-x="0" 
 />
    <glyph glyph-name="nonmarkingreturn" unicode="&#x9;" horiz-adv-x="191" 
 />
    <glyph glyph-name="nonmarkingreturn" unicode="&#xd;" horiz-adv-x="191" 
 />
    <glyph glyph-name="space" unicode=" " horiz-adv-x="191" 
 />
    <glyph glyph-name="exclam" unicode="!" horiz-adv-x="234" 
d="M160 170q-7 -2 -13.5 -2h-12.5q-26 0 -38.5 14t-12.5 36q0 8 2 19.5t4 22.5l68 410q10 2 18 2q33 0 45 -16t12 -43q0 -5 -1 -13t-2 -13zM89 -15q-25 0 -37 16.5t-12 37.5q0 28 17 48t46 20q25 0 37 -16.5t12 -37.5q0 -28 -17 -48t-46 -20z" />
    <glyph glyph-name="quotedbl" unicode="&#x22;" horiz-adv-x="325" 
d="M158 436h-65l39 243q5 1 11 1.5t11 0.5q23 0 33.5 -13t10.5 -28q0 -7 -3 -23zM300 436h-65l39 243q5 1 11 1.5t11 0.5q23 0 33.5 -13t10.5 -28q0 -7 -3 -23z" />
    <glyph glyph-name="numbersign" unicode="#" horiz-adv-x="613" 
d="M413 186l-44 -158h-68l45 158h-124l-44 -158h-68l45 158h-125l14 58h127l43 151h-126l16 58h126l43 151h68l-43 -151h123l43 151h68l-43 -151h126l-16 -58h-126l-43 -151h126l-16 -58h-127zM405 395h-123l-43 -151h123z" />
    <glyph glyph-name="dollar" unicode="$" horiz-adv-x="549" 
d="M199 -11q-41 4 -71.5 15t-53.5 28q-22 16 -22 38q0 30 35 52q25 -26 54.5 -43t69.5 -22l43 258l-3 2q-27 16 -50.5 33t-41.5 38t-28.5 47.5t-10.5 61.5q0 40 15.5 71.5t41.5 54.5t61.5 36t75.5 15l14 85h60l-15 -87q40 -7 66 -21t38 -25q18 -17 18 -39q0 -14 -9 -27
t-34 -21q-17 26 -40.5 41t-50.5 20l-38 -229q32 -20 58 -38.5t44 -40t27.5 -47t9.5 -59.5q0 -47 -15 -82.5t-42 -60t-64 -38.5t-82 -17l-13 -82h-60zM372 176q0 40 -17 64t-46 43l-38 -225q53 9 77 41t24 77zM204 507q0 -38 18 -60.5t47 -42.5l33 199q-48 -6 -73 -32.5
t-25 -63.5z" />
    <glyph glyph-name="percent" unicode="%" horiz-adv-x="756" 
d="M250 682q30 0 51.5 -11.5t35.5 -30t20.5 -43t6.5 -50.5q0 -39 -11 -78t-32.5 -69.5t-53 -49.5t-71.5 -19q-30 0 -51.5 11t-36 30t-21 43.5t-6.5 50.5q0 39 11 77.5t33 69t53 50t72 19.5zM242 625q-39 0 -64.5 -46.5t-25.5 -123.5q0 -32 14 -49.5t37 -17.5q21 0 37.5 14.5
t28 38t17.5 53.5t6 60q0 32 -12 51.5t-38 19.5zM604 335q30 0 51.5 -11.5t36 -30t21 -43t6.5 -50.5q0 -39 -11 -77.5t-32.5 -69t-53 -49.5t-71.5 -19q-30 0 -52 11t-36.5 29.5t-21 43t-6.5 50.5q0 39 11 77.5t33 69.5t53 50t72 19zM597 278q-39 0 -64.5 -45.5t-25.5 -120.5
q0 -34 12 -52.5t38 -18.5q21 0 37.5 14.5t28 38.5t17.5 53.5t6 59.5q0 32 -11.5 51.5t-37.5 19.5zM207 0h-79l443 638q15 21 28.5 32.5t36.5 11.5q20 0 26 -3t13 -5z" />
    <glyph glyph-name="ampersand" unicode="&#x26;" horiz-adv-x="615" 
d="M436 69q-36 -38 -85 -59.5t-104 -21.5q-36 0 -71 10t-62.5 31t-44.5 54.5t-17 80.5q0 38 12.5 71.5t34.5 62.5t50 52.5t60 41.5q-16 39 -23.5 70.5t-7.5 66.5q0 31 11 58.5t32.5 48.5t52 33t69.5 12q28 0 48 -7t34 -17.5t22.5 -22.5t13.5 -22q5 -12 5 -21
q0 -15 -10.5 -26.5t-36.5 -17.5q-11 27 -29.5 46.5t-49.5 19.5q-42 0 -63.5 -26.5t-21.5 -67.5q0 -33 14 -72t38.5 -82t57 -88t69.5 -89q11 27 17 56.5t6 56.5q0 36 -4.5 64.5t-13.5 56.5h175l-9 -60h-87q3 -14 5 -32t2 -34q0 -45 -11 -87t-31 -79q27 -32 54.5 -61t54.5 -55
q-13 -12 -25 -16.5t-26 -4.5q-17 0 -28.5 3.5t-25.5 16.5zM391 120q-41 49 -81 103.5t-72 110.5q-43 -27 -72.5 -66.5t-29.5 -92.5q0 -57 33 -87.5t86 -30.5q38 0 74 17t62 46z" />
    <glyph glyph-name="quotesingle" unicode="'" horiz-adv-x="189" 
d="M161 436h-65l39 243q5 1 11 1.5t11 0.5q23 0 33.5 -13t10.5 -28q0 -7 -3 -23z" />
    <glyph glyph-name="parenleft" unicode="(" horiz-adv-x="299" 
d="M366 706q-52 -53 -88 -118.5t-58 -137.5t-31.5 -147.5t-9.5 -150.5q0 -85 15 -156.5t37 -112.5q-13 -7 -31 -7q-17 0 -29 7.5t-23 22.5q-23 32 -40 96t-17 156q0 109 19.5 199.5t49 158.5t63 114t61.5 67q25 18 51 18q20 0 31 -9z" />
    <glyph glyph-name="parenright" unicode=")" horiz-adv-x="299" 
d="M-33 -115q52 53 88 118.5t58 137.5t31.5 147.5t9.5 150.5q0 85 -15 156.5t-37 112.5q13 7 31 7q17 0 29 -7.5t23 -22.5q23 -32 40 -96t17 -156q0 -110 -19.5 -200t-49 -158t-63 -114t-61.5 -67q-25 -18 -51 -18q-20 0 -31 9z" />
    <glyph glyph-name="asterisk" unicode="*" horiz-adv-x="385" 
d="M98 565q-14 8 -14 26q0 13 7 24q11 20 27 20q9 0 18 -5.5t18 -13.5l42 -39q3 -2 6 -7t3 -10q0 -12 -6.5 -16t-14.5 -4q-6 0 -18 3l-51 15q-4 1 -8 3t-9 4zM142 428q-9 -9 -22 -9q-16 0 -29 22q-6 10 -6 23q0 18 14 26q5 3 11 5t11 4l51 16q10 2 13 2q8 0 13 -6t5 -14
q0 -7 -4 -12.5t-9 -10.5zM383 563q-5 -2 -9.5 -4t-8.5 -3l-50 -15q-12 -3 -18 -3q-8 0 -14.5 4t-6.5 16q0 5 3 10t6 7l42 39q8 8 17 13.5t18 5.5q17 0 28 -20q7 -11 7 -24q0 -18 -14 -26zM289 472q-5 5 -9 10.5t-4 12.5q0 8 5 14t13 6q3 0 13 -2l50 -16q5 -2 11 -4t12 -5
q14 -8 14 -26q0 -13 -6 -23q-13 -22 -30 -22q-14 0 -21 9zM280 676q0 -7 -1.5 -14.5t-3.5 -12.5l-12 -48q-3 -12 -6.5 -18t-14.5 -6q-16 0 -21 23l-11 51q-2 5 -3 11.5t-1 13.5q0 13 9 22.5t27 9.5q19 0 28.5 -9t9.5 -23zM201 385q0 7 1.5 15t3.5 13l12 46q2 11 6 18t15 7
q16 0 20 -22l12 -51q4 -11 4 -25q0 -13 -9 -22.5t-28 -9.5q-37 0 -37 31z" />
    <glyph glyph-name="plus" unicode="+" horiz-adv-x="549" 
d="M222 137l27 163h-151l13 72h150l27 165h76l-27 -165h151l-12 -72h-151l-27 -163h-76z" />
    <glyph glyph-name="comma" unicode="," horiz-adv-x="218" 
d="M3 -89q23 11 44.5 29.5t29.5 49.5q-13 7 -22 17.5t-9 29.5q0 31 17.5 49t42.5 18q26 0 37.5 -18.5t11.5 -44.5t-11 -53.5t-28 -50.5t-38 -38t-42 -15q-13 0 -22 6.5t-11 20.5z" />
    <glyph glyph-name="hyphen" unicode="-" horiz-adv-x="418" 
d="M133 229q-29 0 -40.5 12.5t-11.5 33.5q0 5 1 13t4 17h224q29 0 40.5 -12.5t11.5 -32.5q0 -5 -1 -13.5t-4 -17.5h-224z" />
    <glyph glyph-name="period" unicode="." horiz-adv-x="218" 
d="M88 -15q-25 0 -37 16.5t-12 37.5q0 28 17 48t46 20q25 0 37 -16.5t12 -37.5q0 -28 -17 -48t-46 -20z" />
    <glyph glyph-name="slash" unicode="/" horiz-adv-x="355" 
d="M75 0h-85l328 623q14 26 29 38.5t41 12.5q20 0 36 -10z" />
    <glyph glyph-name="zero" unicode="0" horiz-adv-x="549" 
d="M342 597q-42 0 -76.5 -29.5t-60 -81t-39.5 -120.5t-14 -148q0 -69 24.5 -114t78.5 -45q41 0 76 29t61 79.5t41 119.5t15 149q0 70 -25.5 115.5t-80.5 45.5zM351 670q52 0 87.5 -21t57.5 -55.5t31 -78t9 -88.5q0 -79 -17.5 -158t-53 -142t-89.5 -102.5t-127 -39.5
q-53 0 -88 21t-57 55t-31 77.5t-9 87.5q0 77 17.5 156t53 143t89.5 104.5t127 40.5z" />
    <glyph glyph-name="one" unicode="1" horiz-adv-x="549" 
d="M242 0l92 557l-152 -78q-7 11 -12.5 22.5t-5.5 22.5q0 14 8 23t22 17l161 88q23 13 46 13q21 0 34 -14l-108 -651h-85z" />
    <glyph glyph-name="two" unicode="2" horiz-adv-x="549" 
d="M411 70q30 0 42 -10.5t12 -33.5q0 -5 -1 -12t-3 -14h-413l10 65q31 26 69.5 57.5t78 66.5t77 73t66.5 77t46.5 77.5t17.5 74.5q0 54 -27 79.5t-77 25.5q-42 0 -78 -21.5t-66 -60.5l-19 10q-9 5 -14.5 14t-5.5 20t4.5 19.5t12.5 17.5q10 13 28 26.5t41.5 24.5t51.5 18
t60 7q86 0 131.5 -45t45.5 -123q0 -44 -16.5 -87t-44 -83.5t-62.5 -78.5t-71.5 -71.5t-71 -62t-61.5 -50.5h237z" />
    <glyph glyph-name="three" unicode="3" horiz-adv-x="549" 
d="M144 533q-20 10 -20 33q0 11 4.5 19.5t12.5 17.5q32 32 78.5 50t95.5 18q45 0 78.5 -12t56 -33t33.5 -49t11 -59q0 -35 -12 -63t-31 -49t-42.5 -36t-46.5 -24q50 -23 73 -61.5t23 -85.5q0 -46 -15 -85.5t-45 -68t-73.5 -44.5t-100.5 -16q-65 0 -104 17t-58 34
q-14 13 -18.5 23t-4.5 23q0 15 8.5 26t27.5 23q29 -35 63.5 -54.5t88.5 -19.5q25 0 51 7.5t46 24t33 42.5t13 62q0 30 -9.5 52t-25 36.5t-36 21.5t-42.5 7h-34l11 68h32q18 0 43 7t47 22.5t37.5 39.5t15.5 59q0 39 -26 65t-80 26q-48 0 -80 -20.5t-58 -54.5z" />
    <glyph glyph-name="four" unicode="4" horiz-adv-x="549" 
d="M347 241l48 288l-247 -288h199zM458 241q23 0 33 -9.5t10 -28.5q0 -12 -5 -30h-78l-28 -173h-83l28 173h-283l10 60l324 380q20 24 37.5 38t40.5 14q11 0 19 -3t15 -7l-69 -414h29z" />
    <glyph glyph-name="five" unicode="5" horiz-adv-x="549" 
d="M87 36q-14 12 -20 22.5t-6 23.5q0 15 8.5 26t27.5 23q29 -35 64 -54t87 -19q29 0 55.5 9t46 28.5t31 51.5t11.5 77q0 59 -34 92t-93 33q-35 0 -59.5 -5.5t-50.5 -15.5l-25 14l63 321h316q-1 -38 -14.5 -56t-51.5 -18h-189l-34 -182q14 3 34 6t44 3q44 0 78 -15.5
t57.5 -41.5t35.5 -60.5t12 -72.5q0 -50 -15 -93.5t-45 -76.5t-73.5 -52t-100.5 -19q-63 0 -101.5 17t-58.5 34z" />
    <glyph glyph-name="six" unicode="6" horiz-adv-x="549" 
d="M82 210q1 84 24.5 166.5t71 148t118.5 106t167 40.5q25 0 35.5 -8.5t10.5 -25.5q0 -15 -11 -35q-10 1 -19.5 1h-19.5q-47 0 -90 -16t-78 -45t-61.5 -70t-39.5 -91q26 25 63 38.5t70 13.5q43 0 75.5 -15.5t55 -41.5t34 -61t11.5 -75q0 -48 -13.5 -94t-41.5 -82
t-71.5 -57.5t-102.5 -21.5q-84 0 -136 58.5t-52 166.5zM165 212q0 -81 31 -119.5t80 -38.5q28 0 53 11t44 33.5t30 56t11 77.5q0 57 -27.5 94t-80.5 37q-41 0 -76.5 -18.5t-53.5 -43.5q-5 -17 -8 -37t-3 -52z" />
    <glyph glyph-name="seven" unicode="7" horiz-adv-x="549" 
d="M107 588q1 36 15 55.5t51 19.5h329q15 0 24 -6.5t9 -19.5v-4l-3 -22l-336 -611h-95l329 588h-323z" />
    <glyph glyph-name="eight" unicode="8" horiz-adv-x="549" 
d="M520 514q0 -33 -10 -59.5t-27 -47t-39 -35t-45 -24.5q49 -25 74.5 -63t25.5 -83q0 -55 -19 -96t-51 -68t-74 -40t-88 -13q-45 0 -82 13t-63.5 36t-41 56t-14.5 72q0 38 12 68.5t32.5 54t46.5 40t54 26.5q-44 27 -62.5 59.5t-18.5 67.5q0 47 17.5 83t47 60t67 36.5
t76.5 12.5q42 0 75.5 -11.5t57 -32.5t36.5 -49.5t13 -62.5zM312 383q24 0 46.5 8t40 24t28 39.5t10.5 55.5q0 42 -27 68t-76 26q-52 0 -87.5 -30.5t-35.5 -93.5q0 -41 28 -69t73 -28zM269 52q29 0 55 9.5t46 28t31.5 46t11.5 64.5q0 24 -8.5 44.5t-24 36t-37.5 24.5t-48 9
q-28 0 -54.5 -10t-46.5 -29t-32.5 -47t-12.5 -64q0 -49 31.5 -80.5t88.5 -31.5z" />
    <glyph glyph-name="nine" unicode="9" horiz-adv-x="549" 
d="M321 671q41 0 75.5 -14.5t59 -42.5t38.5 -69t14 -94q0 -87 -21.5 -171t-67 -150t-116 -106t-169.5 -40q-24 0 -35 9.5t-11 24.5q0 10 3 18.5t8 18.5q11 -1 22.5 -1h16.5q50 0 93 16.5t77 46t58 71t36 92.5q-26 -26 -62 -41t-69 -15q-43 0 -76.5 15t-56.5 41t-35 61.5
t-12 76.5q0 48 14.5 93.5t43 81t71.5 57t101 21.5zM286 293q41 0 76.5 20t53.5 46q5 17 7.5 35.5t2.5 49.5q0 81 -31.5 119t-79.5 38q-28 0 -53.5 -11t-44.5 -33t-30 -55.5t-11 -77.5q0 -57 29 -94t81 -37z" />
    <glyph glyph-name="colon" unicode=":" horiz-adv-x="210" 
d="M143 365q-25 0 -37 16.5t-12 37.5q0 28 17 48t46 20q25 0 37 -16.5t12 -37.5q0 -28 -17 -48t-46 -20zM85 -15q-25 0 -37 16.5t-12 37.5q0 28 17 48t46 20q25 0 37 -16.5t12 -37.5q0 -28 -17 -48t-46 -20z" />
    <glyph glyph-name="semicolon" unicode=";" horiz-adv-x="210" 
d="M-9 -89q23 11 44.5 29.5t29.5 49.5q-13 7 -22 17.5t-9 29.5q0 31 17.5 49t42.5 18q26 0 37.5 -18.5t11.5 -44.5t-11 -53.5t-28 -50.5t-38 -38t-42 -15q-13 0 -22 6.5t-11 20.5zM143 365q-25 0 -37 16.5t-12 37.5q0 28 17 48t46 20q25 0 37 -16.5t12 -37.5q0 -28 -17 -48
t-46 -20z" />
    <glyph glyph-name="less" unicode="&#x3c;" horiz-adv-x="549" 
d="M508 533l-14 -85l-300 -129l257 -132l-12 -78l-337 180l11 68z" />
    <glyph glyph-name="equal" unicode="=" horiz-adv-x="549" 
d="M113 388l13 72h377l-12 -72h-378zM83 207l13 72h377l-12 -72h-378z" />
    <glyph glyph-name="greater" unicode="&#x3e;" horiz-adv-x="549" 
d="M79 113l14 86l300 129l-257 132l12 77l337 -180l-11 -68z" />
    <glyph glyph-name="question" unicode="?" horiz-adv-x="419" 
d="M125 543q-17 10 -27 21t-10 22q0 14 5.5 24t16.5 19q22 20 59 36t97 16q36 0 66 -10t51.5 -29t34 -46.5t12.5 -62.5q0 -31 -8.5 -57.5t-25.5 -52.5t-42 -52.5t-58 -57.5q-32 -29 -56 -57.5t-25 -74.5q-6 -2 -12 -2.5t-11 -0.5q-23 0 -32 11.5t-9 31.5q0 33 21 63t62 68
q23 21 43.5 40.5t35.5 39.5t24 42.5t9 49.5q0 42 -26 62.5t-66 20.5q-46 0 -76 -17t-53 -47zM152 -15q-25 0 -37 16.5t-12 37.5q0 28 17 48t46 20q25 0 37 -16.5t12 -37.5q0 -28 -17 -48t-46 -20z" />
    <glyph glyph-name="at" unicode="@" horiz-adv-x="712" 
d="M378 209q-14 2 -29 2.5t-26 0.5q-73 0 -110.5 -38t-37.5 -104q0 -68 46 -98t119 -30q66 0 114 28t79.5 76.5t47 114t15.5 140.5q0 59 -17 108t-50.5 83.5t-82 53.5t-111.5 19q-71 0 -138.5 -31.5t-112.5 -88.5q-18 8 -25 22t-7 22q0 14 7.5 24.5t21.5 23.5q21 19 50.5 36
t63.5 30t71.5 21t76.5 8q81 0 143 -26.5t103 -71.5t62 -105.5t21 -129.5q0 -91 -22.5 -168t-65 -133.5t-105 -88t-142.5 -31.5q-53 0 -97 12t-75 36t-48 60t-17 84t18 84.5t48 61.5t70 38t85 13q14 0 32.5 -0.5t33.5 -2.5l3 15q2 9 3 18.5t1 17.5q0 32 -19.5 52.5
t-61.5 20.5q-40 0 -68.5 -17t-51.5 -48q-19 10 -25.5 20t-6.5 21q0 16 15 31q22 22 59.5 39t87.5 17q74 0 109 -38t35 -96q0 -19 -5 -44l-23 -134q-1 -6 -1.5 -11t-0.5 -10q0 -15 5.5 -22.5t21.5 -7.5q8 0 19 3l7 -37q-12 -7 -29.5 -11t-30.5 -4q-42 0 -55 21t-12 56
q0 5 0.5 10.5t1.5 11.5z" />
    <glyph glyph-name="A" unicode="A" horiz-adv-x="559" 
d="M431 0l-28 171h-245l-80 -171h-87l324 661q10 5 20.5 8t20.5 3q41 0 49 -40l113 -632h-87zM340 559l-149 -317h200z" />
    <glyph glyph-name="B" unicode="B" horiz-adv-x="537" 
d="M48 0l110 666q39 5 73.5 7.5t79.5 2.5q54 0 91.5 -12t61.5 -32.5t35 -47.5t11 -58q0 -38 -11 -67.5t-28.5 -51t-39 -36t-43.5 -23.5q16 -5 34.5 -16t34 -28.5t26 -40.5t10.5 -53q0 -57 -19.5 -97t-54.5 -65t-85.5 -36.5t-111.5 -11.5h-174zM423 513q0 50 -27.5 73
t-87.5 23q-17 0 -40.5 -1t-36.5 -3l-38 -227h89q69 0 105 38t36 97zM403 206q0 54 -37 79.5t-92 25.5h-92l-41 -244h88q88 0 131 33t43 106z" />
    <glyph glyph-name="C" unicode="C" horiz-adv-x="559" 
d="M399 608q-52 0 -95 -27t-74 -74.5t-48 -112.5t-17 -141q0 -41 9.5 -76.5t28.5 -62t47 -41.5t66 -15q54 0 98 22t76 57l14 -14q18 -18 18 -33q0 -24 -21 -42q-13 -11 -30.5 -22t-41 -20t-53.5 -15t-68 -6q-62 0 -106.5 22t-72.5 59.5t-41 87t-13 105.5q0 76 21 151.5
t62.5 135.5t104.5 97.5t147 37.5q39 0 68 -8t49 -20t32.5 -25.5t18.5 -25.5q7 -13 7 -27q0 -12 -5 -23.5t-18 -18.5l-23 -12q-23 50 -58 68.5t-82 18.5z" />
    <glyph glyph-name="D" unicode="D" horiz-adv-x="604" 
d="M321 605q-22 0 -47.5 -1t-39.5 -3l-88 -531h72q74 0 126 29t85 78t48 113.5t15 135.5q0 38 -9.5 71t-30 57t-53 37.5t-78.5 13.5zM316 676q76 0 127 -20.5t82 -55t44 -80.5t13 -98q0 -88 -21.5 -165t-67.5 -134t-116.5 -90t-168.5 -33h-160l110 666q51 6 88.5 8t69.5 2z
" />
    <glyph glyph-name="E" unicode="E" horiz-adv-x="469" 
d="M372 70q30 0 42 -10.5t12 -33.5q0 -5 -1 -12t-3 -14h-374l111 669h355q0 -35 -13 -52.5t-49 -17.5h-218l-35 -216h205l-12 -70h-205l-40 -243h225z" />
    <glyph glyph-name="F" unicode="F" horiz-adv-x="452" 
d="M514 669q0 -35 -13 -52.5t-49 -17.5h-218l-37 -221h206l-12 -70h-206l-50 -308h-87l111 669h355z" />
    <glyph glyph-name="G" unicode="G" horiz-adv-x="615" 
d="M410 681q39 0 68 -8t49 -20t32.5 -25.5t18.5 -25.5q7 -13 7 -27q0 -12 -5 -23.5t-18 -18.5l-23 -12q-23 50 -58 68.5t-82 18.5q-52 0 -95 -27t-74 -74t-48 -112.5t-17 -141.5q0 -41 9.5 -76.5t28.5 -62t47 -42t66 -15.5q51 0 85 16.5t57 36.5l28 164h-127l12 70h210
l-43 -259q-37 -44 -97.5 -72t-132.5 -28q-62 0 -106.5 22t-72.5 59.5t-41 87t-13 105.5q0 76 21 151.5t62.5 135.5t104.5 97.5t147 37.5z" />
    <glyph glyph-name="H" unicode="H" horiz-adv-x="607" 
d="M503 0h-86l51 309h-283l-51 -309h-86l111 670q10 2 18 2q33 0 45 -16t12 -43q0 -5 -1 -13t-2 -13l-34 -207h283l48 290q10 2 18 2q33 0 45 -16t12 -43q0 -5 -1 -13t-2 -13z" />
    <glyph glyph-name="I" unicode="I" horiz-adv-x="236" 
d="M134 0h-86l111 670q10 2 18 2q33 0 45 -16t12 -43q0 -5 -1 -13t-2 -13z" />
    <glyph glyph-name="J" unicode="J" horiz-adv-x="237" 
d="M159 670q10 2 18 2q33 0 45 -16t12 -43q0 -5 -1 -13t-2 -13l-86 -523q-6 -37 -15.5 -79.5t-30 -78.5t-55 -60t-88.5 -24q-29 0 -39.5 11t-10.5 34q0 13 5 26q5 -1 12.5 -1h10.5q53 0 80 33t37 91z" />
    <glyph glyph-name="K" unicode="K" horiz-adv-x="514" 
d="M462 645q25 26 58 26q12 0 23.5 -4.5t22.5 -15.5l-267 -293l177 -358q-12 -5 -24 -7t-20 -2q-23 0 -37.5 7.5t-25.5 28.5l-158 318l4 29zM134 0h-86l111 670q10 2 18 2q33 0 45 -16t12 -43q0 -5 -1 -13t-2 -13z" />
    <glyph glyph-name="L" unicode="L" horiz-adv-x="454" 
d="M362 70q31 0 43 -10.5t12 -33.5q0 -5 -1 -12t-3 -14h-365l111 670q10 2 18 2q33 0 45 -16t12 -43q0 -5 -1 -13t-2 -13l-85 -517h216z" />
    <glyph glyph-name="M" unicode="M" horiz-adv-x="727" 
d="M220 672q22 0 32.5 -10.5t15.5 -29.5l102 -395l232 393q15 26 31.5 34t33.5 8q13 0 24 -1.5t17 -5.5l-62 -665h-83l52 521l-220 -368h-77l-96 358l-115 -511h-81l153 665q17 7 41 7z" />
    <glyph glyph-name="N" unicode="N" horiz-adv-x="613" 
d="M510 0h-77l-220 523l-85 -523h-80l110 666q16 6 36 6t33 -9.5t21 -29.5l205 -494l87 531q10 2 18 2q31 0 42.5 -15t11.5 -40q0 -5 -1.5 -15t-2.5 -15z" />
    <glyph glyph-name="O" unicode="O" horiz-adv-x="642" 
d="M403 682q60 0 101 -22t67 -58.5t37.5 -83.5t11.5 -96q0 -78 -19.5 -156t-60 -140.5t-101.5 -102t-144 -39.5q-60 0 -102 22t-68 58.5t-37.5 83t-11.5 96.5q0 78 20 156t60.5 140.5t102 102t144.5 39.5zM300 57q50 0 92 29.5t72.5 80t47.5 117.5t17 143q0 37 -7.5 70
t-24 58t-42.5 39.5t-62 14.5q-52 0 -94 -29.5t-71.5 -79.5t-45.5 -117.5t-16 -143.5q0 -36 7.5 -69t23.5 -58t41.5 -40t61.5 -15z" />
    <glyph glyph-name="P" unicode="P" horiz-adv-x="515" 
d="M176 260l-43 -260h-84l110 666q36 5 73.5 7.5t79.5 2.5q55 0 96 -14t68 -37.5t40 -55t13 -67.5q0 -66 -21.5 -112t-60 -75t-90.5 -42t-112 -13h-69zM438 499q0 54 -35 81.5t-98 27.5q-19 0 -38.5 -1t-33.5 -3l-45 -274h72q89 0 133.5 41t44.5 128z" />
    <glyph glyph-name="Q" unicode="Q" horiz-adv-x="642" 
d="M520 -117q0 -35 -16.5 -55t-44.5 -20q-29 0 -57.5 12.5t-54 31t-46.5 40.5t-34 41q16 22 43 22q12 0 21 -2.5t18 -7.5t20 -12.5t27 -17.5q24 -15 54 -25.5t70 -6.5zM406 682q60 0 101 -22t67 -58.5t37.5 -83.5t11.5 -96q0 -78 -19.5 -156t-60 -140.5t-101.5 -102
t-144 -39.5q-60 0 -102 22t-68 58.5t-37.5 83t-11.5 96.5q0 78 20 156t60.5 140.5t102 102t144.5 39.5zM303 57q50 0 92 29.5t72.5 80t47.5 117.5t17 143q0 37 -7.5 70t-24 58t-42.5 39.5t-62 14.5q-52 0 -94 -29.5t-71.5 -79.5t-45.5 -117.5t-16 -143.5q0 -36 7.5 -69
t23.5 -58t41.5 -40t61.5 -15z" />
    <glyph glyph-name="R" unicode="R" horiz-adv-x="518" 
d="M466 1q-25 -10 -48 -10q-29 0 -41 13t-23 39l-96 236h-80l-46 -279h-84l110 667q24 2 43 4t36 3t34 1.5t37 0.5q52 0 91 -13t65.5 -35.5t39.5 -53t13 -64.5q0 -94 -46 -146.5t-125 -71.5zM426 500q0 56 -36 81.5t-93 25.5q-35 0 -66 -3l-42 -256h62q39 0 71 8t55 26
t36 47t13 71z" />
    <glyph glyph-name="S" unicode="S" horiz-adv-x="483" 
d="M458 631q10 -9 14 -19.5t4 -19.5q0 -13 -9 -26.5t-33 -22.5q-25 36 -57 50.5t-73 14.5q-54 0 -87 -27.5t-33 -69.5q0 -26 9.5 -45t26 -35t38.5 -29.5t48 -29.5q31 -19 56.5 -38t43.5 -40.5t27.5 -47.5t9.5 -60q0 -50 -17.5 -87.5t-48 -63t-73 -38t-92.5 -12.5
q-52 0 -97 14t-68 36q-9 9 -13 16.5t-4 18.5q0 29 33 52q30 -31 65.5 -47.5t86.5 -16.5q70 0 103.5 34t33.5 84q0 28 -9 48t-25.5 35.5t-38.5 29.5t-49 29q-27 16 -51.5 33.5t-42.5 38.5t-28.5 48t-10.5 63q0 42 17 75.5t46.5 57t68 35.5t82.5 12q29 0 53 -5.5t42.5 -13
t31 -16t20.5 -15.5z" />
    <glyph glyph-name="T" unicode="T" horiz-adv-x="517" 
d="M582 669q0 -37 -13.5 -54.5t-50.5 -17.5h-146l-99 -597h-86l99 597h-201q0 37 13.5 54.5t50.5 17.5h433z" />
    <glyph glyph-name="U" unicode="U" horiz-adv-x="588" 
d="M537 253q-9 -58 -26 -107t-46 -85t-73.5 -56t-110.5 -20q-55 0 -94 13.5t-63.5 38.5t-36 61t-11.5 80q0 20 2.5 45t6.5 47l66 400q10 2 18 2q33 0 45 -16t12 -43q0 -5 -1 -13t-2 -13l-53 -323q-4 -21 -5 -45t-1 -41q0 -54 27.5 -88t93.5 -34q72 0 110.5 46t55.5 146
l69 422q10 2 18 2q33 0 45 -16t12 -43q0 -5 -1 -13t-2 -13z" />
    <glyph glyph-name="V" unicode="V" horiz-adv-x="551" 
d="M296 0h-92l-108 666q8 2 18 4t22 2q27 0 39.5 -14.5t16.5 -42.5l75 -512l239 519q12 26 28.5 38t44.5 12q10 0 19 -1.5t19 -3.5z" />
    <glyph glyph-name="W" unicode="W" horiz-adv-x="800" 
d="M579 0h-84l-52 384l-170 -384h-83l-94 665q8 3 19.5 5t20.5 2q26 0 38.5 -13.5t15.5 -39.5l64 -502l173 387l-20 162q24 6 40 6q26 0 36 -13.5t13 -39.5l59 -500l203 502q10 24 27 37.5t44 13.5q12 0 21 -2t17 -4z" />
    <glyph glyph-name="X" unicode="X" horiz-adv-x="508" 
d="M463 0q-24 -9 -46 -9q-27 0 -39.5 10.5t-21.5 34.5l-88 234l-186 -270h-94l245 346l-124 313q28 13 48 13q22 0 35 -10.5t21 -31.5l83 -216l148 208q17 25 34.5 37.5t41.5 12.5q23 0 43 -12l-233 -322z" />
    <glyph glyph-name="Y" unicode="Y" horiz-adv-x="494" 
d="M310 279l-46 -279h-86l45 276l-129 383q13 6 24.5 9.5t24.5 3.5q40 0 53 -42l84 -266l165 258q19 29 34.5 39.5t40.5 10.5q12 0 21.5 -3t19.5 -9z" />
    <glyph glyph-name="Z" unicode="Z" horiz-adv-x="489" 
d="M397 71q30 0 42 -10.5t12 -33.5q0 -5 -1 -13t-3 -14h-448l8 59q96 134 204 268t223 271h-335q1 36 14 53.5t50 17.5h349q13 0 22.5 -5.5t9.5 -21.5q0 -3 -0.5 -6.5t-1.5 -8.5l-5 -22q-53 -60 -108 -126t-110 -134.5t-108 -137.5t-102 -136h288z" />
    <glyph glyph-name="bracketleft" unicode="[" horiz-adv-x="297" 
d="M27 -136l142 853h191l-12 -66h-109l-118 -721h108l-10 -66h-192z" />
    <glyph glyph-name="backslash" unicode="\" horiz-adv-x="348" 
d="M81 666q10 5 20.5 6.5t19.5 1.5q21 0 32 -11t16 -37l135 -626h-80z" />
    <glyph glyph-name="bracketright" unicode="]" horiz-adv-x="297" 
d="M307 717l-142 -853h-190l11 66h109l118 721h-108l11 66h191z" />
    <glyph glyph-name="asciicircum" unicode="^" horiz-adv-x="438" 
d="M346 300l-63 283l-154 -283h-79l204 362h85l85 -362h-78z" />
    <glyph glyph-name="underscore" unicode="_" horiz-adv-x="439" 
d="M1 -154v61h368v-61h-368z" />
    <glyph glyph-name="grave" unicode="`" horiz-adv-x="349" 
d="M91 675q9 8 23 15t28 7q17 0 27 -6.5t20 -23.5l68 -115q-6 -5 -16.5 -9.5t-20.5 -4.5q-24 0 -38 19z" />
    <glyph glyph-name="a" unicode="a" horiz-adv-x="493" 
d="M311 415q-34 0 -64.5 -20.5t-53.5 -55.5t-36.5 -81.5t-13.5 -99.5q0 -102 81 -102q16 0 34.5 7t35.5 22t30 38t18 55l36 220q-13 8 -27.5 12.5t-39.5 4.5zM414 95q-1 -6 -1.5 -11t-0.5 -10q0 -15 6 -22.5t22 -7.5q8 0 19 3l7 -39q-12 -7 -29.5 -11t-30.5 -4q-36 0 -55 15
t-24 49q-23 -30 -55.5 -50t-73.5 -20q-38 0 -64.5 13t-44 36.5t-25.5 54.5t-8 67q0 57 18 114.5t51.5 104t82 75.5t108.5 29q23 0 45.5 -4.5t42.5 -12t36.5 -16t28.5 -16.5z" />
    <glyph glyph-name="b" unicode="b" horiz-adv-x="504" 
d="M209 50q39 0 72 20t57 54t37.5 79t13.5 96q0 56 -20.5 84.5t-65.5 28.5q-15 0 -34.5 -7.5t-37.5 -23.5t-32.5 -40t-20.5 -57l-37 -221q16 -8 32 -10.5t36 -2.5zM200 418q25 27 59 45t72 18q40 0 68 -15t45 -40.5t24.5 -59t7.5 -71.5q0 -55 -18 -110t-52.5 -99.5
t-85 -72.5t-116.5 -28q-44 0 -82 11.5t-71 31.5l112 680q10 2 18 2q32 0 44.5 -16t12.5 -42q0 -5 -1 -13t-2 -13z" />
    <glyph glyph-name="c" unicode="c" horiz-adv-x="433" 
d="M371 105q10 -7 15.5 -15t5.5 -19q0 -15 -17 -34q-15 -16 -48.5 -34t-90.5 -18q-38 0 -70.5 11.5t-56.5 35t-37.5 59.5t-13.5 85q0 67 20 123.5t54.5 96.5t79.5 62.5t96 22.5t79.5 -16t45.5 -38q5 -6 7.5 -14t2.5 -14q0 -17 -8 -25.5t-20 -15.5l-16 -9q-13 34 -37 49
t-61 15q-32 0 -60.5 -18.5t-50 -50.5t-34 -75t-12.5 -92q0 -60 27.5 -92.5t74.5 -32.5q65 0 112 62z" />
    <glyph glyph-name="d" unicode="d" horiz-adv-x="505" 
d="M310 414q-36 0 -66 -19.5t-52.5 -53.5t-35 -79t-12.5 -96q0 -54 20 -82t65 -28q16 0 36 7t38 22t32.5 38t19.5 55l35 213q-14 11 -32.5 17t-47.5 6zM426 95q-1 -6 -1.5 -10.5t-0.5 -9.5q0 -15 6 -23t22 -8q8 0 19 3l7 -39q-12 -7 -29.5 -11t-30.5 -4q-36 0 -55 15t-24 49
q-26 -33 -63.5 -51.5t-74.5 -18.5q-40 0 -67.5 13.5t-45 37.5t-25 57t-7.5 73q0 56 17.5 112t50 100.5t80 72.5t107.5 28q24 0 49.5 -8.5t40.5 -18.5l41 254q10 2 18 2q32 0 44.5 -16t12.5 -42q0 -5 -1 -13t-2 -13z" />
    <glyph glyph-name="e" unicode="e" horiz-adv-x="460" 
d="M178 246q40 0 74 8t59 22.5t39 35t14 46.5q0 23 -12.5 39.5t-45.5 16.5q-30 0 -55.5 -12.5t-46 -35t-34.5 -53t-21 -66.5q8 -1 15.5 -1h13.5zM391 39q-9 -9 -22 -18.5t-31.5 -17.5t-43.5 -13t-57 -5q-39 0 -72 11.5t-56.5 34.5t-37 59t-13.5 85q0 67 20.5 123.5t56 97
t82 63t98.5 22.5q63 0 96.5 -32.5t33.5 -84.5q0 -48 -23.5 -81.5t-61 -54.5t-83 -30.5t-89.5 -9.5h-23.5t-23.5 1v-13q0 -62 29.5 -93t76.5 -31q39 0 71 16.5t57 47.5l13 -9q10 -7 15.5 -15t5.5 -19q0 -16 -18 -34z" />
    <glyph glyph-name="f" unicode="f" horiz-adv-x="335" 
d="M441 674q12 -14 12 -28q0 -15 -7.5 -24t-19.5 -16l-16 -9q-26 52 -86 52q-24 0 -42 -9t-30.5 -25t-20 -37t-11.5 -45l-10 -61h153l-11 -67h-153l-69 -418q-7 -41 -18.5 -76t-31 -61.5t-49 -41.5t-72.5 -15q-30 0 -54.5 6.5t-38.5 19.5q-13 13 -13 29q0 11 3 17.5t10 14.5
l16 16q15 -17 32.5 -25.5t41.5 -8.5q21 0 36 9.5t25.5 26t17.5 39t11 47.5l88 537q7 44 22 80.5t38.5 62t56 39.5t76.5 14q43 0 71.5 -13t42.5 -30z" />
    <glyph glyph-name="g" unicode="g" horiz-adv-x="498" 
d="M312 415q-34 0 -64.5 -19.5t-53.5 -53.5t-36.5 -78.5t-13.5 -94.5q0 -55 20.5 -82.5t65.5 -27.5q18 0 37.5 7.5t36.5 22.5t30.5 38t18.5 55l36 215q-17 11 -35.5 14.5t-41.5 3.5zM175 -156q66 0 102 44.5t49 119.5l8 47q-25 -29 -58.5 -47t-73.5 -18t-68 13.5t-45 37.5
t-25 57.5t-8 72.5q0 55 18.5 110t52.5 99.5t82.5 72.5t107.5 28q51 0 92 -15t70 -35l-69 -414q-40 -241 -238 -241q-41 0 -80.5 12.5t-59.5 32.5q-16 16 -16 34q0 17 15 32l17 16q25 -31 55 -45t72 -14z" />
    <glyph glyph-name="h" unicode="h" horiz-adv-x="509" 
d="M199 414q26 28 63 47.5t83 19.5q34 0 57.5 -11t38.5 -29.5t21.5 -42.5t6.5 -50q0 -18 -2 -36t-5 -35l-46 -277h-85l45 277q2 13 4 28.5t2 29.5q0 30 -14.5 51t-50.5 21q-22 0 -44 -7t-41.5 -22t-33.5 -37.5t-19 -53.5l-48 -287h-85l117 708q10 2 18 2q32 0 44.5 -16
t12.5 -42q0 -5 -1 -13t-2 -13z" />
    <glyph glyph-name="i" unicode="i" horiz-adv-x="228" 
d="M199 8q-12 -7 -29.5 -11t-30.5 -4q-42 0 -61.5 21t-18.5 56q0 5 0.5 10.5t1.5 11.5l63 379q10 2 18 2q30 0 43 -17t13 -43q0 -5 -0.5 -12t-1.5 -12l-49 -294q-1 -6 -1.5 -11t-0.5 -10q0 -15 6 -22.5t22 -7.5q8 0 19 3zM182 568q-23 0 -34.5 15t-11.5 35q0 26 15.5 45
t43.5 19q23 0 34.5 -15.5t11.5 -35.5q0 -26 -16 -44.5t-43 -18.5z" />
    <glyph glyph-name="j" unicode="j" horiz-adv-x="226" 
d="M134 11q-4 -25 -8.5 -51t-11.5 -51.5t-17 -48.5t-25 -41q-18 -21 -44 -33.5t-61 -12.5q-28 0 -37 11.5t-9 32.5q0 5 0.5 10t1.5 10h16q48 0 71 32q12 17 18 40.5t11 49.5l85 512q10 2 18 2q30 0 43 -17t13 -43q0 -5 -0.5 -12t-1.5 -12zM182 568q-23 0 -34.5 15t-11.5 35
q0 26 15.5 45t43.5 19q23 0 34.5 -15.5t11.5 -35.5q0 -26 -16 -44.5t-43 -18.5z" />
    <glyph glyph-name="k" unicode="k" horiz-adv-x="473" 
d="M387 86q14 -22 23 -32t21 -10q4 0 9.5 0.5t10.5 2.5l7 -39q-12 -7 -29.5 -11t-32.5 -4q-29 0 -45.5 11t-31.5 36l-127 205l6 30l169 160q16 15 32 24t38 9q20 0 33 -13l11 -11l-200 -186zM131 0h-85l118 708q10 2 18 2q32 0 44 -16t12 -42q0 -5 -1 -13t-2 -13z" />
    <glyph glyph-name="l" unicode="l" horiz-adv-x="229" 
d="M147 95q-1 -6 -1.5 -11t-0.5 -10q0 -15 6 -22.5t22 -7.5q8 0 19 3l7 -39q-12 -7 -29.5 -11t-30.5 -4q-42 0 -61.5 21t-18.5 56q0 5 0.5 10.5t1.5 11.5l102 616q10 2 18 2q32 0 44.5 -16t12.5 -42q0 -5 -1 -13t-2 -13z" />
    <glyph glyph-name="m" unicode="m" horiz-adv-x="768" 
d="M195 409q26 30 63.5 51t84.5 21q41 0 68 -20.5t37 -54.5q14 16 29.5 29.5t34.5 23.5t42.5 16t53.5 6q33 0 56 -11.5t37 -30t20.5 -42.5t6.5 -49q0 -18 -2 -36t-5 -35l-46 -277h-85l46 277q2 12 4 27.5t2 29.5q0 33 -16 53t-51 20q-42 0 -77.5 -26.5t-46.5 -89.5l-47 -291
h-86l46 277q2 14 3.5 26.5t1.5 25.5q0 31 -16.5 54.5t-42.5 23.5q-20 0 -41.5 -7.5t-39.5 -23t-31.5 -38.5t-18.5 -53l-48 -285h-85l78 471q10 2 18 2q53 0 53 -52v-12z" />
    <glyph glyph-name="n" unicode="n" horiz-adv-x="509" 
d="M331 0l46 277q2 13 4 28.5t2 29.5q0 30 -15 51t-51 21q-22 0 -44 -7t-41.5 -22t-33.5 -37.5t-19 -53.5l-48 -287h-85l78 471q10 2 18 2q53 0 53 -52v-11q26 30 64 50.5t86 20.5q34 0 57.5 -11t38.5 -29.5t21.5 -42.5t6.5 -50q0 -18 -2 -36t-5 -35l-46 -277h-85z" />
    <glyph glyph-name="o" unicode="o" horiz-adv-x="504" 
d="M227 -15q-47 0 -79 16.5t-52 43.5t-29 61t-9 70q0 57 16.5 112t48 98t78 69t106.5 26q46 0 78 -16.5t52 -43.5t29 -61t9 -70q0 -57 -15.5 -111.5t-46.5 -97.5t-77.5 -69.5t-108.5 -26.5zM144 175q0 -25 5 -47.5t16.5 -39t28.5 -26.5t41 -10q34 0 62.5 18.5t48.5 50.5
t31.5 75.5t11.5 94.5q0 25 -5.5 47.5t-16.5 39t-28.5 26.5t-41.5 10q-34 0 -62 -18.5t-48.5 -50.5t-31.5 -75.5t-11 -94.5z" />
    <glyph glyph-name="p" unicode="p" horiz-adv-x="506" 
d="M215 51q35 0 66.5 18.5t55 51.5t37.5 78t14 98q0 54 -20 84t-67 30q-16 0 -35.5 -8t-37.5 -23t-31.5 -38t-18.5 -53l-37 -222q13 -8 29.5 -12t44.5 -4zM195 413q26 30 61.5 49t74.5 19q40 0 67.5 -15t45 -40.5t25.5 -59.5t8 -73q0 -60 -19 -115.5t-52.5 -97.5
t-79.5 -67.5t-101 -25.5q-23 0 -49 5.5t-45 16.5l-37 -225h-84l114 687q10 2 18 2q53 0 53 -52v-8z" />
    <glyph glyph-name="q" unicode="q" horiz-adv-x="508" 
d="M291 -216l43 264q-26 -29 -62 -45t-69 -16q-75 0 -111 45.5t-36 123.5q0 61 18.5 119.5t53.5 104t85.5 73.5t113.5 28q47 0 86 -14t70 -35l-108 -648h-84zM322 415q-39 0 -71.5 -21t-56 -56.5t-36.5 -83t-13 -100.5q0 -51 22 -74.5t63 -23.5q16 0 36 8t38.5 23t32.5 38
t19 53l36 220q-15 8 -31 12.5t-39 4.5z" />
    <glyph glyph-name="r" unicode="r" horiz-adv-x="366" 
d="M195 410q25 26 57.5 48t70.5 22q32 0 52.5 -15.5t20.5 -41.5q0 -17 -8 -28t-21 -19l-16 -10q-11 24 -25.5 31.5t-31.5 7.5q-18 0 -36.5 -8.5t-34 -24.5t-27.5 -38.5t-17 -50.5l-48 -283h-85l78 471q10 2 18 2q53 0 53 -52v-11z" />
    <glyph glyph-name="s" unicode="s" horiz-adv-x="395" 
d="M182 -15q-94 0 -141 41q-15 13 -15 31q0 16 11 28l16 17q23 -23 52 -36.5t65 -13.5q26 0 43 7t27 17.5t14 24t4 25.5q0 29 -24 49t-55 40q-18 11 -35.5 24t-31.5 29t-22.5 36t-8.5 47q0 25 10.5 48.5t31 41.5t51.5 29t72 11q45 0 78 -16.5t48 -36.5q9 -12 9 -24
q0 -11 -6 -19t-16 -15l-15 -10q-20 31 -45 44t-57 13q-43 0 -60.5 -19t-17.5 -42q0 -16 6 -27.5t17.5 -21.5t27 -20.5t35.5 -23.5q27 -18 45 -34t29 -31.5t15.5 -33.5t4.5 -40q0 -29 -11 -54.5t-32 -44t-51 -29.5t-68 -11z" />
    <glyph glyph-name="t" unicode="t" horiz-adv-x="333" 
d="M203 472h135l-12 -67h-134l-34 -211q-3 -17 -7 -43t-3 -44q1 -23 13 -39t41 -16q20 0 37.5 11t31.5 29l16 -15q13 -12 13 -29q0 -19 -22 -36q-33 -27 -94 -27q-62 0 -92.5 32t-30.5 93q0 7 1 17t3 21l76 466q10 2 18 2q32 0 44.5 -16t12.5 -42q0 -5 -1 -13t-2 -13z" />
    <glyph glyph-name="u" unicode="u" horiz-adv-x="501" 
d="M421 95q-1 -6 -1.5 -11t-0.5 -10q0 -15 6 -22.5t22 -7.5q8 0 19 3l7 -39q-12 -7 -29.5 -11t-30.5 -4q-36 0 -54.5 15t-23.5 49q-12 -15 -26.5 -28t-31.5 -22.5t-38.5 -15.5t-48.5 -6q-65 0 -96 37t-31 96q0 33 6 68l47 285q10 2 18 2q30 0 43 -17t13 -43q0 -5 -0.5 -12
t-1.5 -12l-34 -203q-2 -12 -3 -25t-1 -26q0 -37 16.5 -59.5t55.5 -22.5q21 0 42 9t38 26t29.5 40t17.5 52l48 291q10 2 18 2q30 0 43 -17t13 -43q0 -5 -0.5 -12t-1.5 -12z" />
    <glyph glyph-name="v" unicode="v" horiz-adv-x="432" 
d="M231 -3h-89l-79 467q12 5 21.5 7t20.5 2q30 0 40 -19.5t14 -48.5l43 -314l151 321q14 30 30 45.5t42 15.5q23 0 40 -10z" />
    <glyph glyph-name="w" unicode="w" horiz-adv-x="645" 
d="M458 -3h-77l-44 241l-127 -241h-74l-73 467q21 9 40 9q24 0 35.5 -15t15.5 -41l43 -323l122 232l-26 139q19 8 37 8q25 0 36.5 -15.5t15.5 -40.5l51 -320l130 314q13 32 29.5 47t42.5 15q12 0 20.5 -2.5t16.5 -7.5z" />
    <glyph glyph-name="x" unicode="x" horiz-adv-x="402" 
d="M72 465q18 8 43 8q21 0 33.5 -9t19.5 -26l59 -137l96 135q11 15 23.5 26t38.5 11q21 0 44 -15l-169 -222l104 -237q-8 -4 -18.5 -5.5t-19.5 -1.5q-32 0 -45.5 15t-26.5 46l-51 122l-115 -163q-8 -11 -18.5 -15.5t-29.5 -4.5q-28 0 -45 14l177 238z" />
    <glyph glyph-name="y" unicode="y" horiz-adv-x="437" 
d="M197 -86q-15 -30 -29 -55.5t-31.5 -44t-40 -28.5t-53.5 -10q-12 0 -27 2.5t-28.5 8.5t-23 17t-9.5 28q0 15 14 29l13 13q12 -17 28 -23.5t33 -6.5q28 0 46.5 23t43.5 75l26 54h-17l-79 468q12 5 21.5 7t20.5 2q30 0 40 -19.5t14 -48.5l43 -321l152 328q14 30 29.5 45.5
t41.5 15.5q23 0 40 -10z" />
    <glyph glyph-name="z" unicode="z" horiz-adv-x="400" 
d="M12 0l9 57q58 79 129 165.5t156 180.5h-230q0 32 13.5 50.5t48.5 18.5h241q16 0 26 -6.5t10 -23.5v-3l-3 -26q-83 -91 -157 -176.5t-135 -166.5h195q25 0 36 -11t11 -29q0 -12 -5 -30h-345z" />
    <glyph glyph-name="braceleft" unicode="{" horiz-adv-x="345" 
d="M258 440q-4 -25 -10 -46.5t-16 -38.5t-25 -30t-38 -22q28 -10 37.5 -37t9.5 -57q0 -13 -1 -26t-3 -24l-24 -147q-1 -6 -1.5 -12.5t-0.5 -11.5q0 -35 17 -48t44 -13q17 0 31 3q3 -8 5.5 -15t2.5 -15q0 -22 -16.5 -31t-45.5 -9q-61 0 -90.5 29.5t-29.5 86.5q0 16 3 34
l26 156q1 7 2 15t1 16q0 26 -10 48.5t-40 26.5l11 67q37 0 54.5 26.5t26.5 78.5l21 124q4 27 13.5 53.5t27 47.5t45 34.5t68.5 13.5q23 0 37.5 -7t14.5 -26q0 -20 -14 -37q-11 5 -29 5q-13 0 -25.5 -3.5t-24 -13t-20 -25t-12.5 -39.5z" />
    <glyph glyph-name="bar" unicode="|" horiz-adv-x="230" 
d="M22 -188l163 982h76l-163 -982h-76z" />
    <glyph glyph-name="braceright" unicode="}" horiz-adv-x="345" 
d="M126 137q4 25 10 46.5t16 38.5t25 30t38 22q-28 10 -37.5 37t-9.5 57q0 13 1 26t3 24l24 147q1 6 1.5 12.5t0.5 11.5q0 35 -17 48t-44 13q-18 0 -31 -3q-3 8 -5.5 15t-2.5 15q0 22 16.5 31t45.5 9q61 0 90.5 -29.5t29.5 -86.5q0 -16 -3 -34l-26 -156q-1 -7 -2 -15t-1 -16
q0 -26 10 -48.5t40 -26.5l-11 -67q-37 0 -54.5 -26.5t-26.5 -78.5l-21 -124q-5 -27 -14 -53.5t-26.5 -47.5t-45 -34.5t-68.5 -13.5q-23 0 -37.5 7t-14.5 26q0 20 14 37q11 -5 29 -5q13 0 25.5 3.5t24 13t20 25t12.5 39.5z" />
    <glyph glyph-name="asciitilde" unicode="~" horiz-adv-x="431" 
d="M357 514q-24 0 -43.5 11.5t-37.5 25.5t-36 25.5t-38 11.5q-21 0 -38.5 -17t-27.5 -54h-63q14 69 48 104.5t94 35.5q29 0 49 -12t36.5 -26.5t31.5 -26.5t35 -12q24 0 40.5 17.5t27.5 57.5h63q-26 -141 -141 -141z" />
    <glyph glyph-name="uni00A0" unicode="&#xa0;" horiz-adv-x="191" 
 />
    <glyph glyph-name="exclamdown" unicode="&#xa1;" horiz-adv-x="234" 
d="M94 289q7 2 13.5 2h12.5q26 0 38.5 -14t12.5 -36q0 -8 -2 -19.5t-4 -22.5l-68 -410q-10 -2 -18 -2q-33 0 -45 16t-12 43q0 5 1 13t2 13zM165 474q25 0 37 -16.5t12 -37.5q0 -28 -17 -48t-46 -20q-25 0 -37 16.5t-12 37.5q0 28 17 48t46 20z" />
    <glyph glyph-name="cent" unicode="&#xa2;" horiz-adv-x="549" 
d="M251 88q-60 11 -97 56.5t-37 128.5q0 60 16.5 111.5t46 90t68.5 63.5t84 33l15 91h60l-15 -89q40 -4 64.5 -19t39.5 -33q5 -6 7.5 -14t2.5 -14q0 -17 -8 -25.5t-20 -15.5l-16 -8q-23 55 -81 62l-59 -355q56 6 98 60l13 -8q10 -7 15.5 -15t5.5 -19q0 -15 -17 -34
q-14 -14 -44.5 -31.5t-81.5 -19.5l-17 -102h-60zM204 274q0 -44 15.5 -73t43.5 -42l57 339q-25 -11 -46 -32t-36.5 -50.5t-24.5 -65.5t-9 -76z" />
    <glyph glyph-name="sterling" unicode="&#xa3;" horiz-adv-x="549" 
d="M428 70q30 0 42 -10.5t12 -33.5q0 -5 -1 -12t-3 -14h-369l48 287h-67l11 67h66l23 133q7 40 22.5 73.5t41 57.5t62 37.5t84.5 13.5q51 0 82.5 -15.5t47.5 -33.5q10 -11 13.5 -22t3.5 -16q0 -20 -14.5 -31.5t-30.5 -16.5q-18 33 -43 48t-62 15q-57 0 -86 -32t-38 -88
l-20 -123h202l-11 -67h-202l-36 -217h222z" />
    <glyph glyph-name="currency" unicode="&#xa4;" horiz-adv-x="549" 
d="M436 336q0 66 -35.5 109t-104.5 43t-105 -42.5t-36 -109.5q0 -66 36.5 -108.5t104.5 -42.5q69 0 104.5 42.5t35.5 108.5zM480 107l-60 58q-27 -20 -58 -30.5t-66 -10.5q-68 0 -122 39l-58 -56l-48 47l58 56q-20 26 -30 59t-10 67q0 35 10.5 67.5t29.5 58.5l-57 55l49 47
l56 -54q26 18 57 28t65 10q68 0 125 -40l59 58l49 -48l-61 -58q37 -54 37 -124q0 -33 -9.5 -65t-27.5 -58l60 -59z" />
    <glyph glyph-name="yen" unicode="&#xa5;" horiz-adv-x="549" 
d="M84 148l9 53h132l13 84h-132l9 52h107l-106 317q14 6 25.5 9.5t23.5 3.5q20 0 31 -10t18 -32l80 -259l159 251q18 29 34.5 39.5t41.5 10.5q12 0 21 -3t19 -9l-209 -318h106l-9 -52h-134l-14 -84h136l-9 -53h-135l-25 -148h-85l25 148h-132z" />
    <glyph glyph-name="brokenbar" unicode="&#xa6;" horiz-adv-x="230" 
d="M123 419l62 375h76l-62 -375h-76zM165 215l-67 -403h-76l67 403h76z" />
    <glyph glyph-name="section" unicode="&#xa7;" horiz-adv-x="477" 
d="M56 -46q-8 11 -8 24q0 15 10 28.5t29 20.5q16 -28 42 -44.5t65 -16.5q42 0 67 23t25 66q0 19 -6 33t-19 26t-32 23t-44 25q-24 12 -45 26t-36 30.5t-24 37t-9 47.5q0 50 25 82.5t69 55.5q-11 16 -17.5 36.5t-6.5 50.5q0 38 14.5 67t39 48.5t57.5 29t69 9.5q44 0 74.5 -14
t46.5 -31q16 -16 16 -32q0 -13 -6.5 -27.5t-32.5 -23.5q-17 28 -41 44.5t-63 16.5q-42 0 -67 -22.5t-25 -67.5q0 -18 6 -31t18 -23.5t30.5 -21.5t44.5 -24q24 -13 45 -26t36 -29t24 -36t9 -47q0 -50 -24.5 -85t-66.5 -61q11 -17 17.5 -38t6.5 -49q0 -38 -14.5 -67.5
t-39.5 -49t-58 -29.5t-69 -10q-50 0 -84 18.5t-48 37.5zM356 273q0 32 -21.5 50t-56.5 37q-15 8 -32.5 17.5t-35.5 21.5q-26 -13 -42.5 -32t-16.5 -51t22 -50.5t55 -37.5q17 -9 34 -19t36 -24q25 15 41.5 35.5t16.5 52.5z" />
    <glyph glyph-name="dieresis" unicode="&#xa8;" horiz-adv-x="345" 
d="M95 555q-21 0 -31.5 14t-10.5 32q0 24 14 41t40 17q21 0 31.5 -14t10.5 -33q0 -23 -14.5 -40t-39.5 -17zM272 555q-21 0 -31.5 14t-10.5 32q0 24 14 41t40 17q21 0 31.5 -14t10.5 -33q0 -23 -14.5 -40t-39.5 -17z" />
    <glyph glyph-name="copyright" unicode="&#xa9;" horiz-adv-x="789" 
d="M554 153q-14 -11 -47 -24.5t-81 -13.5q-35 0 -70.5 10t-64 35.5t-47 68t-18.5 108.5q0 65 20.5 108t51.5 68.5t67 36t67 10.5q34 0 61 -8.5t46 -20t28.5 -24t9.5 -19.5q0 -11 -7.5 -24t-16.5 -25h-8q-20 26 -45.5 40.5t-67.5 14.5q-35 0 -59.5 -13t-39.5 -35t-22 -50
t-7 -59q0 -30 6.5 -58t22 -50t40 -35.5t60.5 -13.5q26 0 47.5 7.5t35.5 17.5q8 5 15.5 11.5t14.5 13.5q7 -8 18 -20.5t11 -25.5q0 -10 -5.5 -16.5t-15.5 -14.5zM749 332q0 -72 -23 -136t-66 -112t-104.5 -76t-139.5 -28t-140 28t-104.5 76t-65 112t-22.5 136t23 135.5
t66 111t104.5 75.5t139.5 28t139.5 -28t104 -75.5t65.5 -111t23 -135.5zM688 332q0 58 -18 111t-52.5 93.5t-85 64.5t-115.5 24t-115 -24t-84.5 -64.5t-52.5 -93.5t-18 -111t17.5 -111.5t52 -94t85 -65t115.5 -24.5t115.5 24.5t85 65t52.5 94t18 111.5z" />
    <glyph glyph-name="ordfeminine" unicode="&#xaa;" horiz-adv-x="441" 
d="M290 624q-26 0 -49 -13t-40 -37t-26.5 -57.5t-9.5 -74.5q0 -35 15.5 -55t44.5 -20q13 0 28 6.5t28.5 18.5t23.5 30t14 41l24 149q-11 5 -22.5 8.5t-30.5 3.5zM311 363q-17 -23 -45.5 -39.5t-59.5 -16.5q-59 0 -86.5 37.5t-27.5 93.5q0 45 14 88.5t40.5 78t65 55.5
t86.5 21q35 0 69.5 -12t53.5 -25l-39 -232q-2 -7 -2.5 -16.5t-0.5 -15.5q0 -27 19 -27h7.5t9.5 2l6 -32q-11 -6 -24.5 -9.5t-24.5 -3.5q-29 0 -43 12t-18 38v3z" />
    <glyph glyph-name="guillemotleft" unicode="&#xab;" horiz-adv-x="456" 
d="M158 276l69 -104q6 -9 8 -17.5t2 -15.5q0 -16 -8.5 -28t-20.5 -23l-106 134q-10 12 -16 23.5t-6 25.5q0 21 13.5 37t30.5 31l143 120q13 -21 13 -41q0 -26 -22 -47zM336 276l69 -104q6 -9 8 -17.5t2 -15.5q0 -16 -8.5 -28t-20.5 -23l-106 134q-10 12 -16 23.5t-6 25.5
q0 21 13.5 37t30.5 31l143 120q13 -21 13 -41q0 -26 -22 -47z" />
    <glyph glyph-name="logicalnot" unicode="&#xac;" horiz-adv-x="549" 
d="M392 170l29 176h-328l12 72h404l-40 -248h-77z" />
    <glyph glyph-name="uni00AD" unicode="&#xad;" horiz-adv-x="418" 
d="M133 229q-29 0 -40.5 12.5t-11.5 33.5q0 5 1 13t4 17h224q29 0 40.5 -12.5t11.5 -32.5q0 -5 -1 -13.5t-4 -17.5h-224z" />
    <glyph glyph-name="registered" unicode="&#xae;" horiz-adv-x="789" 
d="M750 332q0 -72 -23 -136t-66 -112t-104.5 -76t-139.5 -28t-140 28t-104.5 76t-65 112t-22.5 136t23 135.5t66 111t104.5 75.5t139.5 28t139.5 -28t104 -75.5t65.5 -111t23 -135.5zM689 332q0 58 -18 111t-52.5 93.5t-85 64.5t-115.5 24t-115 -24t-84.5 -64.5t-52.5 -93.5
t-18 -111t17.5 -111.5t52 -94t85 -65t115.5 -24.5t115.5 24.5t85 65t52.5 94t18 111.5zM582 130q-9 -5 -18.5 -7t-17.5 -2q-15 0 -28.5 6.5t-23.5 23.5l-85 141h-52v-166h-63v419q28 3 60.5 4.5t52.5 1.5q88 0 126.5 -35.5t38.5 -89.5q0 -26 -8 -47.5t-21 -37t-30.5 -26
t-35.5 -14.5h2zM506 425q0 33 -22.5 50t-73.5 17q-18 0 -31 -0.5t-24 -2.5h2v-138h63q86 0 86 74z" />
    <glyph glyph-name="macron" unicode="&#xaf;" horiz-adv-x="349" 
d="M79 574q-25 0 -34.5 10.5t-9.5 27.5q0 4 1 11t3 14h231q25 0 34.5 -10.5t9.5 -27.5q0 -4 -1 -11t-3 -14h-231z" />
    <glyph glyph-name="degree" unicode="&#xb0;" horiz-adv-x="360" 
d="M349 559q0 -27 -9.5 -51t-26.5 -42t-41 -28.5t-52 -10.5q-60 0 -95.5 38t-35.5 95q0 28 9.5 52.5t27 42.5t41.5 28.5t53 10.5q59 0 94 -37.5t35 -97.5zM291 559q0 36 -19.5 60t-51.5 24t-52 -24t-20 -59t20 -59t52 -24t51.5 24.5t19.5 57.5z" />
    <glyph glyph-name="plusminus" unicode="&#xb1;" horiz-adv-x="549" 
d="M227 137l27 163h-151l13 72h150l27 165h76l-27 -165h151l-12 -72h-151l-27 -163h-76zM68 0l13 72h363l-13 -72h-363z" />
    <glyph glyph-name="twosuperior" unicode="&#xb2;" 
d="M56 309l7 48q37 29 71.5 58t61.5 57t43.5 55t16.5 51q0 21 -12.5 35.5t-36.5 14.5q-23 0 -42.5 -12.5t-33.5 -32.5h-10q-10 5 -16 13t-6 17q0 13 10 25q15 17 44 31t64 14q52 0 78.5 -26.5t26.5 -71.5q0 -29 -10 -53.5t-26 -45.5t-36 -39.5t-40 -37.5q-5 -5 -17 -15.5
t-35 -30.5h105q22 0 30.5 -8.5t8.5 -23.5q0 -3 -0.5 -9t-2.5 -13h-243z" />
    <glyph glyph-name="threesuperior" unicode="&#xb3;" 
d="M137 589q-10 5 -16 13t-6 17q0 13 10 25q14 15 42 27t60 12q53 0 80.5 -27.5t27.5 -62.5q0 -34 -19 -56.5t-47 -36.5q24 -12 35.5 -33.5t11.5 -44.5q0 -54 -36.5 -88t-102.5 -34q-24 0 -48.5 6.5t-46.5 24.5q-6 5 -11 11.5t-5 14.5q0 20 30 40q17 -20 36.5 -31t45.5 -11
q12 0 24 3t22.5 10.5t17 20t6.5 30.5q0 25 -14.5 40t-37.5 15h-30l8 51h28q10 0 22 3t22.5 10t17 19t6.5 29t-12 29.5t-38 12.5q-23 0 -42 -10.5t-34 -28.5h-7z" />
    <glyph glyph-name="acute" unicode="&#xb4;" horiz-adv-x="349" 
d="M158 557q-19 -19 -44 -19q-11 0 -22 5t-16 10l90 112q12 15 25 23.5t33 8.5q14 0 27.5 -7.5t21.5 -15.5z" />
    <glyph glyph-name="mu" unicode="&#xb5;" horiz-adv-x="516" 
d="M430 108q-3 -15 -3 -28q0 -32 26 -32q12 0 29 5l5 -43q-16 -8 -34 -12.5t-32 -4.5q-33 0 -47.5 16t-19.5 41q-25 -29 -57.5 -46t-80.5 -17q-23 0 -47.5 10t-39.5 34l-37 -220h-83q13 79 23 140.5t19 113t16.5 96.5t15 92t16 99.5t19.5 118.5q10 2 18 2q30 0 43 -17
t13 -43q0 -5 -0.5 -12t-1.5 -12l-35 -204q-2 -13 -3 -25.5t-1 -24.5q0 -38 21 -58t60 -20q25 0 46 10.5t37.5 29t27 43.5t15.5 53l46 278q10 2 18 2q30 0 43 -17t13 -43q0 -5 -0.5 -12t-1.5 -12z" />
    <glyph glyph-name="paragraph" unicode="&#xb6;" horiz-adv-x="520" 
d="M234 255q-74 0 -117.5 46.5t-43.5 126.5q0 61 20 106.5t52.5 75.5t74.5 44.5t86 14.5h178q41 0 41 -37q0 -10 -1 -15l-122 -735h-74l119 718h-78l-119 -718h-74l62 373h-4z" />
    <glyph glyph-name="periodcentered" unicode="&#xb7;" horiz-adv-x="245" 
d="M137 264q-21 0 -33.5 13.5t-12.5 31.5q0 29 15 49t44 20q20 0 33 -14t13 -31q0 -29 -15 -49t-44 -20z" />
    <glyph glyph-name="cedilla" unicode="&#xb8;" horiz-adv-x="349" 
d="M140 -215q-18 0 -27 8.5t-9 20.5q0 7 2.5 14t6.5 14q11 -4 25 -4q18 0 28.5 8t10.5 24q0 9 -4 16.5t-8.5 14.5t-8.5 15t-4 18q0 22 12 39t24 27h52q-11 -9 -20 -21.5t-9 -26.5q0 -9 5.5 -16.5t11.5 -16.5t11.5 -20t5.5 -27q0 -24 -9.5 -40.5t-25 -27t-34 -15t-36.5 -4.5z
" />
    <glyph glyph-name="onesuperior" unicode="&#xb9;" 
d="M165 309l48 290l-106 -56q-7 8 -11.5 17.5t-4.5 17.5q0 13 6 20.5t19 14.5l108 60q8 5 17 8t20 3q22 0 33 -10l-61 -365h-68z" />
    <glyph glyph-name="ordmasculine" unicode="&#xba;" horiz-adv-x="425" 
d="M229 308q-36 0 -62 12.5t-42.5 32.5t-24.5 46t-8 53q0 43 13 84.5t38.5 74t62 52t83.5 19.5q36 0 62 -12.5t42.5 -33t24.5 -46.5t8 -53q0 -43 -13 -84t-38 -73.5t-61.5 -52t-84.5 -19.5zM170 453q0 -33 15 -59t52 -26q24 0 44 12.5t34.5 35t23 53.5t8.5 67q0 33 -16 59.5
t-51 26.5q-25 0 -45.5 -13t-34.5 -35.5t-22 -53.5t-8 -67z" />
    <glyph glyph-name="guillemotright" unicode="&#xbb;" horiz-adv-x="456" 
d="M162 272l-69 104q-6 8 -8.5 17t-2.5 16q0 16 9 28t21 23l106 -134q10 -12 16 -24t6 -25q0 -21 -13.5 -37.5t-30.5 -30.5l-144 -120q-5 10 -8.5 20t-3.5 21q0 27 22 48zM340 272l-69 104q-6 8 -8.5 17t-2.5 16q0 16 9 28t21 23l106 -134q10 -12 16 -24t6 -25
q0 -21 -13.5 -37.5t-30.5 -30.5l-144 -120q-5 10 -8.5 20t-3.5 21q0 27 22 48z" />
    <glyph glyph-name="onequarter" unicode="&#xbc;" horiz-adv-x="810" 
d="M178 309l48 290l-106 -56q-7 8 -11.5 17.5t-4.5 17.5q0 13 6 20.5t19 14.5l108 60q8 5 17 8t20 3q22 0 33 -10l-61 -365h-68zM244 0h-78l412 638q14 22 28 33t36 11q13 0 22 -2t17 -7zM658 125l27 155l-130 -155h103zM734 125q16 0 22 -6.5t6 -18.5q0 -5 -1.5 -11.5
t-4.5 -13.5h-43l-12 -75h-63l12 75h-164l7 43l203 244q12 14 35 14q17 0 31 -8l-40 -243h12z" />
    <glyph glyph-name="onehalf" unicode="&#xbd;" horiz-adv-x="810" 
d="M178 309l48 290l-106 -56q-7 8 -11.5 17.5t-4.5 17.5q0 13 6 20.5t19 14.5l108 60q8 5 17 8t20 3q22 0 33 -10l-61 -365h-68zM223 0h-78l412 638q14 22 28 33t36 11q13 0 22 -2t17 -7zM490 1l7 48q37 29 71.5 58t61.5 57t43.5 55t16.5 51q0 21 -12.5 35.5t-36.5 14.5
q-23 0 -42.5 -12.5t-33.5 -32.5h-10q-10 5 -16 13t-6 17q0 13 10 25q15 17 44 31t64 14q52 0 78.5 -26.5t26.5 -71.5q0 -29 -10 -53.5t-26 -45.5t-36 -39.5t-40 -37.5q-5 -5 -17 -15.5t-35 -30.5h105q22 0 30.5 -8.5t8.5 -23.5q0 -3 -0.5 -9t-2.5 -13h-243z" />
    <glyph glyph-name="threequarters" unicode="&#xbe;" horiz-adv-x="810" 
d="M150 589q-10 5 -16 13t-6 17q0 13 10 25q14 15 42 27t60 12q53 0 80.5 -27.5t27.5 -62.5q0 -34 -19 -56.5t-47 -36.5q24 -12 35.5 -33.5t11.5 -44.5q0 -54 -36.5 -88t-102.5 -34q-24 0 -48.5 6.5t-46.5 24.5q-6 5 -11 11.5t-5 14.5q0 20 30 40q17 -20 36.5 -31t45.5 -11
q12 0 24 3t22.5 10.5t17 20t6.5 30.5q0 25 -14.5 40t-37.5 15h-30l8 51h28q10 0 22 3t22.5 10t17 19t6.5 29t-12 29.5t-38 12.5q-23 0 -42 -10.5t-34 -28.5h-7zM271 0h-78l412 638q14 22 28 33t36 11q13 0 22 -2t17 -7zM658 125l27 155l-130 -155h103zM734 125q16 0 22 -6.5
t6 -18.5q0 -5 -1.5 -11.5t-4.5 -13.5h-43l-12 -75h-63l12 75h-164l7 43l203 244q12 14 35 14q17 0 31 -8l-40 -243h12z" />
    <glyph glyph-name="questiondown" unicode="&#xbf;" horiz-adv-x="419" 
d="M324 -83q17 -10 27 -21t10 -22q0 -14 -5.5 -24t-16.5 -19q-22 -20 -59 -36t-97 -16q-36 0 -66 10t-51.5 29t-34 46.5t-12.5 62.5q0 31 8.5 57.5t25.5 52.5t42 52.5t58 57.5q16 15 30.5 28.5t25.5 29t18 33.5t7 41q6 2 12 2.5t11 0.5q23 0 32 -11.5t9 -31.5q0 -33 -21 -63
t-62 -68q-23 -21 -43.5 -40.5t-35.5 -39.5t-24 -42.5t-9 -49.5q0 -42 26 -62.5t66 -20.5q46 0 76 17t53 47zM297 475q25 0 37 -16.5t12 -37.5q0 -28 -17 -48t-46 -20q-25 0 -37 16.5t-12 37.5q0 28 17 48t46 20z" />
    <glyph glyph-name="Agrave" unicode="&#xc0;" horiz-adv-x="559" 
d="M431 0l-28 171h-245l-80 -171h-87l324 661q10 5 20.5 8t20.5 3q41 0 49 -40l113 -632h-87zM340 559l-149 -317h200zM237 822q10 14 25 24t30 10q23 0 46 -21l94 -89q-10 -11 -22 -17t-23 -6q-8 0 -17.5 2.5t-17.5 9.5z" />
    <glyph glyph-name="Aacute" unicode="&#xc1;" horiz-adv-x="559" 
d="M431 0l-28 171h-245l-80 -171h-87l324 661q10 5 20.5 8t20.5 3q41 0 49 -40l113 -632h-87zM340 559l-149 -317h200zM353 735q-20 -12 -41 -12q-14 0 -24 6.5t-15 16.5l111 89q26 21 52 21q17 0 31 -12t19 -25z" />
    <glyph glyph-name="Acircumflex" unicode="&#xc2;" horiz-adv-x="559" 
d="M431 0l-28 171h-245l-80 -171h-87l324 661q10 5 20.5 8t20.5 3q41 0 49 -40l113 -632h-87zM340 559l-149 -317h200zM364 798l-58 -55q-22 -19 -46 -19q-9 0 -19 3.5t-15 8.5l92 97q13 14 25 21t30 7q19 0 29.5 -8.5t18.5 -22.5l57 -97q-17 -10 -38 -10q-23 0 -38 21z" />
    <glyph glyph-name="Atilde" unicode="&#xc3;" horiz-adv-x="559" 
d="M431 0l-28 171h-245l-80 -171h-87l324 661q10 5 20.5 8t20.5 3q41 0 49 -40l113 -632h-87zM340 559l-149 -317h200zM296 772q-16 0 -32.5 -7t-33.5 -36q-15 7 -21 16.5t-6 19.5q0 13 7.5 25.5t21 22t32 15t39.5 5.5q19 0 34 -6t27.5 -12.5t24 -12.5t24.5 -6q20 0 35 10
t32 39q27 -13 27 -35q0 -27 -26 -50.5t-74 -23.5q-18 0 -32 5.5t-27 12.5t-25 12.5t-27 5.5z" />
    <glyph glyph-name="Adieresis" unicode="&#xc4;" horiz-adv-x="559" 
d="M431 0l-28 171h-245l-80 -171h-87l324 661q10 5 20.5 8t20.5 3q41 0 49 -40l113 -632h-87zM340 559l-149 -317h200zM270 734q-21 0 -31.5 14t-10.5 32q0 24 14 41t40 17q21 0 31.5 -14t10.5 -33q0 -23 -14.5 -40t-39.5 -17zM447 734q-21 0 -31.5 14t-10.5 32q0 24 14 41
t40 17q21 0 31.5 -14t10.5 -33q0 -23 -14.5 -40t-39.5 -17z" />
    <glyph glyph-name="Aring" unicode="&#xc5;" horiz-adv-x="559" 
d="M464 751q0 -35 -17 -62.5t-48 -39.5l6 -17l113 -632h-87l-28 171h-245l-80 -171h-87l319 652q-28 13 -43 39.5t-15 58.5q0 45 28 77t78 32q25 0 44.5 -8.5t33 -23.5t21 -34.5t7.5 -41.5zM340 559l-149 -317h200zM415 750q0 26 -15.5 45.5t-41.5 19.5t-42 -19t-16 -45
t15.5 -45.5t42.5 -19.5q26 0 41.5 19t15.5 45z" />
    <glyph glyph-name="AE" unicode="&#xc6;" horiz-adv-x="808" 
d="M429 250l59 350l-236 -350h177zM418 183h-211l-123 -183h-91l429 624q14 21 34 33t50 12h347q0 -35 -13 -52.5t-49 -17.5h-218l-35 -216h205l-12 -70h-205l-40 -243h225q30 0 42 -10.5t12 -33.5q0 -5 -1 -12t-3 -14h-373z" />
    <glyph glyph-name="Ccedilla" unicode="&#xc7;" horiz-adv-x="559" 
d="M243 -215q-18 0 -27 8.5t-9 20.5q0 7 2.5 14t6.5 14q11 -4 25 -4q18 0 28.5 8t10.5 24q0 9 -4 16.5t-8.5 14.5t-8.5 15t-4 18q0 16 6.5 29t15.5 24q-54 5 -92 28.5t-62.5 60t-36 83.5t-11.5 100q0 76 21 151.5t62.5 135.5t104.5 97.5t147 37.5q39 0 68 -8t49 -20
t32.5 -25.5t18.5 -25.5q7 -13 7 -27q0 -12 -5 -23.5t-18 -18.5l-23 -12q-23 50 -58 68.5t-82 18.5q-52 0 -95 -27t-74 -74.5t-48 -112.5t-17 -141q0 -41 9.5 -76.5t28.5 -62t47 -41.5t66 -15q54 0 98 22t76 57l14 -14q18 -18 18 -33q0 -24 -21 -42q-25 -20 -66 -39.5
t-107 -22.5q-6 -8 -10 -16.5t-4 -17.5t5.5 -16.5t11.5 -16.5t11.5 -20t5.5 -27q0 -24 -9.5 -40.5t-25 -27t-34 -15t-36.5 -4.5z" />
    <glyph glyph-name="Egrave" unicode="&#xc8;" horiz-adv-x="469" 
d="M372 70q30 0 42 -10.5t12 -33.5q0 -5 -1 -12t-3 -14h-374l111 669h355q0 -35 -13 -52.5t-49 -17.5h-218l-35 -216h205l-12 -70h-205l-40 -243h225zM222 822q10 14 25 24t30 10q23 0 46 -21l94 -89q-10 -11 -22 -17t-23 -6q-8 0 -17.5 2.5t-17.5 9.5z" />
    <glyph glyph-name="Eacute" unicode="&#xc9;" horiz-adv-x="469" 
d="M372 70q30 0 42 -10.5t12 -33.5q0 -5 -1 -12t-3 -14h-374l111 669h355q0 -35 -13 -52.5t-49 -17.5h-218l-35 -216h205l-12 -70h-205l-40 -243h225zM335 735q-20 -12 -41 -12q-14 0 -24 6.5t-15 16.5l111 89q26 21 52 21q17 0 31 -12t19 -25z" />
    <glyph glyph-name="Ecircumflex" unicode="&#xca;" horiz-adv-x="469" 
d="M372 70q30 0 42 -10.5t12 -33.5q0 -5 -1 -12t-3 -14h-374l111 669h355q0 -35 -13 -52.5t-49 -17.5h-218l-35 -216h205l-12 -70h-205l-40 -243h225zM352 798l-58 -55q-22 -19 -46 -19q-9 0 -19 3.5t-15 8.5l92 97q13 14 25 21t30 7q19 0 29.5 -8.5t18.5 -22.5l57 -97
q-17 -10 -38 -10q-23 0 -38 21z" />
    <glyph glyph-name="Edieresis" unicode="&#xcb;" horiz-adv-x="469" 
d="M372 70q30 0 42 -10.5t12 -33.5q0 -5 -1 -12t-3 -14h-374l111 669h355q0 -35 -13 -52.5t-49 -17.5h-218l-35 -216h205l-12 -70h-205l-40 -243h225zM252 734q-21 0 -31.5 14t-10.5 32q0 24 14 41t40 17q21 0 31.5 -14t10.5 -33q0 -23 -14.5 -40t-39.5 -17zM429 734
q-21 0 -31.5 14t-10.5 32q0 24 14 41t40 17q21 0 31.5 -14t10.5 -33q0 -23 -14.5 -40t-39.5 -17z" />
    <glyph glyph-name="Igrave" unicode="&#xcc;" horiz-adv-x="236" 
d="M134 0h-86l111 670q10 2 18 2q33 0 45 -16t12 -43q0 -5 -1 -13t-2 -13zM77 822q10 14 25 24t30 10q23 0 46 -21l94 -89q-10 -11 -22 -17t-23 -6q-8 0 -17.5 2.5t-17.5 9.5z" />
    <glyph glyph-name="Iacute" unicode="&#xcd;" horiz-adv-x="236" 
d="M134 0h-86l111 670q10 2 18 2q33 0 45 -16t12 -43q0 -5 -1 -13t-2 -13zM218 735q-20 -12 -41 -12q-14 0 -24 6.5t-15 16.5l111 89q26 21 52 21q17 0 31 -12t19 -25z" />
    <glyph glyph-name="Icircumflex" unicode="&#xce;" horiz-adv-x="236" 
d="M134 0h-86l111 670q10 2 18 2q33 0 45 -16t12 -43q0 -5 -1 -13t-2 -13zM206 798l-58 -55q-22 -19 -46 -19q-9 0 -19 3.5t-15 8.5l92 97q13 14 25 21t30 7q19 0 29.5 -8.5t18.5 -22.5l57 -97q-17 -10 -38 -10q-23 0 -38 21z" />
    <glyph glyph-name="Idieresis" unicode="&#xcf;" horiz-adv-x="236" 
d="M134 0h-86l111 670q10 2 18 2q33 0 45 -16t12 -43q0 -5 -1 -13t-2 -13zM112 734q-21 0 -31.5 14t-10.5 32q0 24 14 41t40 17q21 0 31.5 -14t10.5 -33q0 -23 -14.5 -40t-39.5 -17zM289 734q-21 0 -31.5 14t-10.5 32q0 24 14 41t40 17q21 0 31.5 -14t10.5 -33
q0 -23 -14.5 -40t-39.5 -17z" />
    <glyph glyph-name="Eth" unicode="&#xd0;" horiz-adv-x="604" 
d="M53 383h58l47 283q51 6 88.5 8t69.5 2q76 0 127 -20.5t82 -55t44 -80.5t13 -98q0 -88 -21.5 -165t-67.5 -134t-116.5 -90t-168.5 -33h-160l52 316h-58zM321 605q-22 0 -47.5 -1t-39.5 -3l-36 -218h169l-11 -67h-169l-41 -246h72q74 0 126 29t85 78t48 113.5t15 135.5
q0 38 -9.5 71t-30 57t-53 37.5t-78.5 13.5z" />
    <glyph glyph-name="Ntilde" unicode="&#xd1;" horiz-adv-x="613" 
d="M510 0h-77l-220 523l-85 -523h-80l110 666q16 6 36 6t33 -9.5t21 -29.5l205 -494l87 531q10 2 18 2q31 0 42.5 -15t11.5 -40q0 -5 -1.5 -15t-2.5 -15zM323 772q-16 0 -32.5 -7t-33.5 -36q-15 7 -21 16.5t-6 19.5q0 13 7.5 25.5t21 22t32 15t39.5 5.5q19 0 34 -6
t27.5 -12.5t24 -12.5t24.5 -6q20 0 35 10t32 39q27 -13 27 -35q0 -27 -26 -50.5t-74 -23.5q-18 0 -32 5.5t-27 12.5t-25 12.5t-27 5.5z" />
    <glyph glyph-name="Ograve" unicode="&#xd2;" horiz-adv-x="642" 
d="M403 682q60 0 101 -22t67 -58.5t37.5 -83.5t11.5 -96q0 -78 -19.5 -156t-60 -140.5t-101.5 -102t-144 -39.5q-60 0 -102 22t-68 58.5t-37.5 83t-11.5 96.5q0 78 20 156t60.5 140.5t102 102t144.5 39.5zM300 57q50 0 92 29.5t72.5 80t47.5 117.5t17 143q0 37 -7.5 70
t-24 58t-42.5 39.5t-62 14.5q-52 0 -94 -29.5t-71.5 -79.5t-45.5 -117.5t-16 -143.5q0 -36 7.5 -69t23.5 -58t41.5 -40t61.5 -15zM292 822q10 14 25 24t30 10q23 0 46 -21l94 -89q-10 -11 -22 -17t-23 -6q-8 0 -17.5 2.5t-17.5 9.5z" />
    <glyph glyph-name="Oacute" unicode="&#xd3;" horiz-adv-x="642" 
d="M403 682q60 0 101 -22t67 -58.5t37.5 -83.5t11.5 -96q0 -78 -19.5 -156t-60 -140.5t-101.5 -102t-144 -39.5q-60 0 -102 22t-68 58.5t-37.5 83t-11.5 96.5q0 78 20 156t60.5 140.5t102 102t144.5 39.5zM300 57q50 0 92 29.5t72.5 80t47.5 117.5t17 143q0 37 -7.5 70
t-24 58t-42.5 39.5t-62 14.5q-52 0 -94 -29.5t-71.5 -79.5t-45.5 -117.5t-16 -143.5q0 -36 7.5 -69t23.5 -58t41.5 -40t61.5 -15zM420 735q-20 -12 -41 -12q-14 0 -24 6.5t-15 16.5l111 89q26 21 52 21q17 0 31 -12t19 -25z" />
    <glyph glyph-name="Ocircumflex" unicode="&#xd4;" horiz-adv-x="642" 
d="M403 682q60 0 101 -22t67 -58.5t37.5 -83.5t11.5 -96q0 -78 -19.5 -156t-60 -140.5t-101.5 -102t-144 -39.5q-60 0 -102 22t-68 58.5t-37.5 83t-11.5 96.5q0 78 20 156t60.5 140.5t102 102t144.5 39.5zM300 57q50 0 92 29.5t72.5 80t47.5 117.5t17 143q0 37 -7.5 70
t-24 58t-42.5 39.5t-62 14.5q-52 0 -94 -29.5t-71.5 -79.5t-45.5 -117.5t-16 -143.5q0 -36 7.5 -69t23.5 -58t41.5 -40t61.5 -15zM415 798l-58 -55q-22 -19 -46 -19q-9 0 -19 3.5t-15 8.5l92 97q13 14 25 21t30 7q19 0 29.5 -8.5t18.5 -22.5l57 -97q-17 -10 -38 -10
q-23 0 -38 21z" />
    <glyph glyph-name="Otilde" unicode="&#xd5;" horiz-adv-x="642" 
d="M403 682q60 0 101 -22t67 -58.5t37.5 -83.5t11.5 -96q0 -78 -19.5 -156t-60 -140.5t-101.5 -102t-144 -39.5q-60 0 -102 22t-68 58.5t-37.5 83t-11.5 96.5q0 78 20 156t60.5 140.5t102 102t144.5 39.5zM300 57q50 0 92 29.5t72.5 80t47.5 117.5t17 143q0 37 -7.5 70
t-24 58t-42.5 39.5t-62 14.5q-52 0 -94 -29.5t-71.5 -79.5t-45.5 -117.5t-16 -143.5q0 -36 7.5 -69t23.5 -58t41.5 -40t61.5 -15zM354 772q-16 0 -32.5 -7t-33.5 -36q-15 7 -21 16.5t-6 19.5q0 13 7.5 25.5t21 22t32 15t39.5 5.5q19 0 34 -6t27.5 -12.5t24 -12.5t24.5 -6
q20 0 35 10t32 39q27 -13 27 -35q0 -27 -26 -50.5t-74 -23.5q-18 0 -32 5.5t-27 12.5t-25 12.5t-27 5.5z" />
    <glyph glyph-name="Odieresis" unicode="&#xd6;" horiz-adv-x="642" 
d="M403 682q60 0 101 -22t67 -58.5t37.5 -83.5t11.5 -96q0 -78 -19.5 -156t-60 -140.5t-101.5 -102t-144 -39.5q-60 0 -102 22t-68 58.5t-37.5 83t-11.5 96.5q0 78 20 156t60.5 140.5t102 102t144.5 39.5zM300 57q50 0 92 29.5t72.5 80t47.5 117.5t17 143q0 37 -7.5 70
t-24 58t-42.5 39.5t-62 14.5q-52 0 -94 -29.5t-71.5 -79.5t-45.5 -117.5t-16 -143.5q0 -36 7.5 -69t23.5 -58t41.5 -40t61.5 -15zM320 734q-21 0 -31.5 14t-10.5 32q0 24 14 41t40 17q21 0 31.5 -14t10.5 -33q0 -23 -14.5 -40t-39.5 -17zM497 734q-21 0 -31.5 14t-10.5 32
q0 24 14 41t40 17q21 0 31.5 -14t10.5 -33q0 -23 -14.5 -40t-39.5 -17z" />
    <glyph glyph-name="multiply" unicode="&#xd7;" horiz-adv-x="549" 
d="M213 526l100 -134l140 133l46 -50l-146 -138l106 -141l-61 -48l-103 138l-146 -137l-46 51l151 141l-101 137z" />
    <glyph glyph-name="Oslash" unicode="&#xd8;" horiz-adv-x="642" 
d="M557 618q34 -37 48.5 -88.5t14.5 -107.5q0 -78 -19.5 -156t-60 -140.5t-101.5 -102t-144 -39.5q-36 0 -65.5 8.5t-52.5 22.5l-58 -92l-51 28l65 103q-31 37 -44 86.5t-13 103.5q0 78 20 156t60.5 140.5t102 102t144.5 39.5q33 0 60 -7t49 -20l45 71l51 -28zM300 57
q50 0 92 29.5t72.5 80t47.5 117.5t17 143q0 31 -5.5 59.5t-16.5 51.5l-287 -454q32 -27 80 -27zM166 239q0 -59 18 -104l284 451q-14 11 -33 17t-42 6q-52 0 -94 -29.5t-71.5 -79.5t-45.5 -117.5t-16 -143.5z" />
    <glyph glyph-name="Ugrave" unicode="&#xd9;" horiz-adv-x="588" 
d="M537 253q-9 -58 -26 -107t-46 -85t-73.5 -56t-110.5 -20q-55 0 -94 13.5t-63.5 38.5t-36 61t-11.5 80q0 20 2.5 45t6.5 47l66 400q10 2 18 2q33 0 45 -16t12 -43q0 -5 -1 -13t-2 -13l-53 -323q-4 -21 -5 -45t-1 -41q0 -54 27.5 -88t93.5 -34q72 0 110.5 46t55.5 146
l69 422q10 2 18 2q33 0 45 -16t12 -43q0 -5 -1 -13t-2 -13zM246 822q10 14 25 24t30 10q23 0 46 -21l94 -89q-10 -11 -22 -17t-23 -6q-8 0 -17.5 2.5t-17.5 9.5z" />
    <glyph glyph-name="Uacute" unicode="&#xda;" horiz-adv-x="588" 
d="M537 253q-9 -58 -26 -107t-46 -85t-73.5 -56t-110.5 -20q-55 0 -94 13.5t-63.5 38.5t-36 61t-11.5 80q0 20 2.5 45t6.5 47l66 400q10 2 18 2q33 0 45 -16t12 -43q0 -5 -1 -13t-2 -13l-53 -323q-4 -21 -5 -45t-1 -41q0 -54 27.5 -88t93.5 -34q72 0 110.5 46t55.5 146
l69 422q10 2 18 2q33 0 45 -16t12 -43q0 -5 -1 -13t-2 -13zM377 735q-20 -12 -41 -12q-14 0 -24 6.5t-15 16.5l111 89q26 21 52 21q17 0 31 -12t19 -25z" />
    <glyph glyph-name="Ucircumflex" unicode="&#xdb;" horiz-adv-x="588" 
d="M537 253q-9 -58 -26 -107t-46 -85t-73.5 -56t-110.5 -20q-55 0 -94 13.5t-63.5 38.5t-36 61t-11.5 80q0 20 2.5 45t6.5 47l66 400q10 2 18 2q33 0 45 -16t12 -43q0 -5 -1 -13t-2 -13l-53 -323q-4 -21 -5 -45t-1 -41q0 -54 27.5 -88t93.5 -34q72 0 110.5 46t55.5 146
l69 422q10 2 18 2q33 0 45 -16t12 -43q0 -5 -1 -13t-2 -13zM381 798l-58 -55q-22 -19 -46 -19q-9 0 -19 3.5t-15 8.5l92 97q13 14 25 21t30 7q19 0 29.5 -8.5t18.5 -22.5l57 -97q-17 -10 -38 -10q-23 0 -38 21z" />
    <glyph glyph-name="Udieresis" unicode="&#xdc;" horiz-adv-x="588" 
d="M537 253q-9 -58 -26 -107t-46 -85t-73.5 -56t-110.5 -20q-55 0 -94 13.5t-63.5 38.5t-36 61t-11.5 80q0 20 2.5 45t6.5 47l66 400q10 2 18 2q33 0 45 -16t12 -43q0 -5 -1 -13t-2 -13l-53 -323q-4 -21 -5 -45t-1 -41q0 -54 27.5 -88t93.5 -34q72 0 110.5 46t55.5 146
l69 422q10 2 18 2q33 0 45 -16t12 -43q0 -5 -1 -13t-2 -13zM286 734q-21 0 -31.5 14t-10.5 32q0 24 14 41t40 17q21 0 31.5 -14t10.5 -33q0 -23 -14.5 -40t-39.5 -17zM463 734q-21 0 -31.5 14t-10.5 32q0 24 14 41t40 17q21 0 31.5 -14t10.5 -33q0 -23 -14.5 -40t-39.5 -17z
" />
    <glyph glyph-name="Yacute" unicode="&#xdd;" horiz-adv-x="494" 
d="M310 279l-46 -279h-86l45 276l-129 383q13 6 24.5 9.5t24.5 3.5q40 0 53 -42l84 -266l165 258q19 29 34.5 39.5t40.5 10.5q12 0 21.5 -3t19.5 -9zM351 735q-20 -12 -41 -12q-14 0 -24 6.5t-15 16.5l111 89q26 21 52 21q17 0 31 -12t19 -25z" />
    <glyph glyph-name="Thorn" unicode="&#xde;" horiz-adv-x="509" 
d="M415 367q0 54 -35 82t-98 28q-19 0 -38.5 -1t-33.5 -3l-45 -277h72q89 0 133.5 41.5t44.5 129.5zM222 543q16 1 32 1.5t35 0.5q55 0 96 -14t68 -38t40 -56t13 -68q0 -66 -21.5 -112t-60 -75t-90.5 -42.5t-112 -13.5h-69q-5 -32 -10.5 -63.5t-10.5 -62.5h-86l111 670
q10 2 18 2q33 0 45 -16t12 -43q0 -5 -1 -13t-2 -13z" />
    <glyph glyph-name="germandbls" unicode="&#xdf;" horiz-adv-x="538" 
d="M131 519q16 97 69 147.5t149 50.5q77 0 119.5 -37t42.5 -99q0 -37 -11.5 -64.5t-28 -48t-36.5 -36.5t-36.5 -30.5t-28 -29.5t-11.5 -33q0 -22 11.5 -37t43.5 -37q28 -20 46.5 -35.5t29 -31.5t14.5 -33.5t4 -40.5q0 -28 -10.5 -53.5t-31 -44.5t-49.5 -30t-65 -11
q-29 0 -56.5 5t-50 14.5t-36 22t-13.5 27.5q0 14 9 26t20 23q22 -22 49.5 -36.5t64.5 -14.5q21 0 37 7t26.5 17.5t16 23.5t5.5 26q0 29 -23 49.5t-53 40.5q-40 26 -55 50.5t-15 54.5q0 28 11 49.5t28 40t36 35t36 34.5t28 39t11 48q0 35 -20.5 58.5t-62.5 23.5
q-31 0 -53.5 -9t-37.5 -25.5t-24 -39t-13 -48.5l-89 -540q-7 -41 -18.5 -76t-31 -61.5t-49 -41.5t-72.5 -15q-45 0 -75 15t-30 41q0 11 6.5 23.5t20.5 23.5q15 -17 33 -25.5t42 -8.5q21 0 36.5 10t26 26.5t17 38.5t10.5 47z" />
    <glyph glyph-name="agrave" unicode="&#xe0;" horiz-adv-x="493" 
d="M311 415q-34 0 -64.5 -20.5t-53.5 -55.5t-36.5 -81.5t-13.5 -99.5q0 -102 81 -102q16 0 34.5 7t35.5 22t30 38t18 55l36 220q-13 8 -27.5 12.5t-39.5 4.5zM414 95q-1 -6 -1.5 -11t-0.5 -10q0 -15 6 -22.5t22 -7.5q8 0 19 3l7 -39q-12 -7 -29.5 -11t-30.5 -4q-36 0 -55 15
t-24 49q-23 -30 -55.5 -50t-73.5 -20q-38 0 -64.5 13t-44 36.5t-25.5 54.5t-8 67q0 57 18 114.5t51.5 104t82 75.5t108.5 29q23 0 45.5 -4.5t42.5 -12t36.5 -16t28.5 -16.5zM214 675q9 8 23 15t28 7q17 0 27 -6.5t20 -23.5l68 -115q-6 -5 -16.5 -9.5t-20.5 -4.5
q-24 0 -38 19z" />
    <glyph glyph-name="aacute" unicode="&#xe1;" horiz-adv-x="493" 
d="M311 415q-34 0 -64.5 -20.5t-53.5 -55.5t-36.5 -81.5t-13.5 -99.5q0 -102 81 -102q16 0 34.5 7t35.5 22t30 38t18 55l36 220q-13 8 -27.5 12.5t-39.5 4.5zM414 95q-1 -6 -1.5 -11t-0.5 -10q0 -15 6 -22.5t22 -7.5q8 0 19 3l7 -39q-12 -7 -29.5 -11t-30.5 -4q-36 0 -55 15
t-24 49q-23 -30 -55.5 -50t-73.5 -20q-38 0 -64.5 13t-44 36.5t-25.5 54.5t-8 67q0 57 18 114.5t51.5 104t82 75.5t108.5 29q23 0 45.5 -4.5t42.5 -12t36.5 -16t28.5 -16.5zM346 557q-19 -19 -44 -19q-11 0 -22 5t-16 10l90 112q12 15 25 23.5t33 8.5q14 0 27.5 -7.5
t21.5 -15.5z" />
    <glyph glyph-name="acircumflex" unicode="&#xe2;" horiz-adv-x="493" 
d="M311 415q-34 0 -64.5 -20.5t-53.5 -55.5t-36.5 -81.5t-13.5 -99.5q0 -102 81 -102q16 0 34.5 7t35.5 22t30 38t18 55l36 220q-13 8 -27.5 12.5t-39.5 4.5zM414 95q-1 -6 -1.5 -11t-0.5 -10q0 -15 6 -22.5t22 -7.5q8 0 19 3l7 -39q-12 -7 -29.5 -11t-30.5 -4q-36 0 -55 15
t-24 49q-23 -30 -55.5 -50t-73.5 -20q-38 0 -64.5 13t-44 36.5t-25.5 54.5t-8 67q0 57 18 114.5t51.5 104t82 75.5t108.5 29q23 0 45.5 -4.5t42.5 -12t36.5 -16t28.5 -16.5zM338 627l-71 -69q-11 -11 -22 -15t-19 -4q-9 0 -18.5 3t-14.5 9l100 113q12 14 24 21.5t29 7.5
q32 0 47 -30l59 -115q-8 -4 -17.5 -7t-18.5 -3q-10 0 -20 5t-17 16z" />
    <glyph glyph-name="atilde" unicode="&#xe3;" horiz-adv-x="493" 
d="M311 415q-34 0 -64.5 -20.5t-53.5 -55.5t-36.5 -81.5t-13.5 -99.5q0 -102 81 -102q16 0 34.5 7t35.5 22t30 38t18 55l36 220q-13 8 -27.5 12.5t-39.5 4.5zM414 95q-1 -6 -1.5 -11t-0.5 -10q0 -15 6 -22.5t22 -7.5q8 0 19 3l7 -39q-12 -7 -29.5 -11t-30.5 -4q-36 0 -55 15
t-24 49q-23 -30 -55.5 -50t-73.5 -20q-38 0 -64.5 13t-44 36.5t-25.5 54.5t-8 67q0 57 18 114.5t51.5 104t82 75.5t108.5 29q23 0 45.5 -4.5t42.5 -12t36.5 -16t28.5 -16.5zM272 589q-16 0 -32.5 -7t-33.5 -36q-15 7 -21 16.5t-6 19.5q0 13 7.5 25.5t21 22t32 15t39.5 5.5
q19 0 34 -6t27.5 -12.5t24 -12.5t24.5 -6q20 0 35 10t32 39q27 -13 27 -35q0 -27 -26 -50.5t-74 -23.5q-18 0 -32 5.5t-27 12.5t-25 12.5t-27 5.5z" />
    <glyph glyph-name="adieresis" unicode="&#xe4;" horiz-adv-x="493" 
d="M311 415q-34 0 -64.5 -20.5t-53.5 -55.5t-36.5 -81.5t-13.5 -99.5q0 -102 81 -102q16 0 34.5 7t35.5 22t30 38t18 55l36 220q-13 8 -27.5 12.5t-39.5 4.5zM414 95q-1 -6 -1.5 -11t-0.5 -10q0 -15 6 -22.5t22 -7.5q8 0 19 3l7 -39q-12 -7 -29.5 -11t-30.5 -4q-36 0 -55 15
t-24 49q-23 -30 -55.5 -50t-73.5 -20q-38 0 -64.5 13t-44 36.5t-25.5 54.5t-8 67q0 57 18 114.5t51.5 104t82 75.5t108.5 29q23 0 45.5 -4.5t42.5 -12t36.5 -16t28.5 -16.5zM235 555q-21 0 -31.5 14t-10.5 32q0 24 14 41t40 17q21 0 31.5 -14t10.5 -33q0 -23 -14.5 -40
t-39.5 -17zM412 555q-21 0 -31.5 14t-10.5 32q0 24 14 41t40 17q21 0 31.5 -14t10.5 -33q0 -23 -14.5 -40t-39.5 -17z" />
    <glyph glyph-name="aring" unicode="&#xe5;" horiz-adv-x="493" 
d="M311 415q-34 0 -64.5 -20.5t-53.5 -55.5t-36.5 -81.5t-13.5 -99.5q0 -102 81 -102q16 0 34.5 7t35.5 22t30 38t18 55l36 220q-13 8 -27.5 12.5t-39.5 4.5zM414 95q-1 -6 -1.5 -11t-0.5 -10q0 -15 6 -22.5t22 -7.5q8 0 19 3l7 -39q-12 -7 -29.5 -11t-30.5 -4q-36 0 -55 15
t-24 49q-23 -30 -55.5 -50t-73.5 -20q-38 0 -64.5 13t-44 36.5t-25.5 54.5t-8 67q0 57 18 114.5t51.5 104t82 75.5t108.5 29q23 0 45.5 -4.5t42.5 -12t36.5 -16t28.5 -16.5zM445 642q0 -45 -28.5 -77t-77.5 -32q-24 0 -44 8.5t-33.5 23.5t-21 34.5t-7.5 41.5q0 46 28.5 78
t77.5 32t77.5 -30t28.5 -79zM393 641q0 23 -11.5 42.5t-43.5 19.5q-27 0 -39.5 -19t-12.5 -42q0 -24 13.5 -42t39.5 -18t40 17.5t14 41.5z" />
    <glyph glyph-name="ae" unicode="&#xe6;" horiz-adv-x="748" 
d="M311 415q-34 0 -64.5 -20.5t-53.5 -55.5t-36.5 -81.5t-13.5 -99.5q0 -49 19 -75.5t63 -26.5q15 0 33.5 7t35 22t30 38t18.5 55l36 220q-13 8 -27.5 12.5t-39.5 4.5zM466 246q40 0 74 8t59 22.5t39 35t14 46.5q0 23 -12.5 39.5t-45.5 16.5q-30 0 -55.5 -12.5t-46 -35
t-34.5 -53t-21 -66.5q8 -1 15.5 -1h13.5zM525 -15q-54 0 -96.5 24.5t-62.5 70.5q-32 -44 -71 -68.5t-96 -24.5q-39 0 -66 13t-44.5 35.5t-25 54t-7.5 68.5q0 57 18 114.5t51.5 104t82 75.5t108.5 29q22 0 41 -2.5t36 -8.5t34 -16.5t36 -26.5q26 22 60.5 38t79.5 16
q63 0 96.5 -32.5t33.5 -84.5q0 -48 -23.5 -81.5t-61 -54.5t-83 -30.5t-89.5 -9.5h-23.5t-23.5 1v-13q0 -62 29.5 -93t76.5 -31q39 0 71 16.5t57 47.5l13 -9q10 -7 15.5 -15t5.5 -19q0 -16 -18 -34q-9 -9 -22 -18.5t-31.5 -17.5t-43.5 -13t-57 -5z" />
    <glyph glyph-name="ccedilla" unicode="&#xe7;" horiz-adv-x="433" 
d="M161 -215q-18 0 -27 8.5t-9 20.5q0 7 2.5 14t6.5 14q11 -4 25 -4q18 0 28.5 8t10.5 24q0 9 -4 16.5t-8.5 14.5t-8.5 15t-4 18q0 17 7 30.5t16 24.5q-61 10 -99.5 55.5t-38.5 131.5q0 67 20 123.5t54.5 96.5t79.5 62.5t96 22.5t79.5 -16t45.5 -38q5 -6 7.5 -14t2.5 -14
q0 -17 -8 -25.5t-20 -15.5l-16 -9q-13 34 -37 49t-61 15q-32 0 -60.5 -18.5t-50 -50.5t-34 -75t-12.5 -92q0 -60 27.5 -92.5t74.5 -32.5q65 0 112 62l13 -9q10 -7 15.5 -15t5.5 -19q0 -15 -17 -34q-14 -15 -45.5 -32.5t-83.5 -19.5q-6 -7 -10 -15.5t-4 -17.5t5.5 -16.5
t11.5 -16.5t11.5 -20t5.5 -27q0 -24 -9.5 -40.5t-25 -27t-34 -15t-36.5 -4.5z" />
    <glyph glyph-name="egrave" unicode="&#xe8;" horiz-adv-x="460" 
d="M178 246q40 0 74 8t59 22.5t39 35t14 46.5q0 23 -12.5 39.5t-45.5 16.5q-30 0 -55.5 -12.5t-46 -35t-34.5 -53t-21 -66.5q8 -1 15.5 -1h13.5zM391 39q-9 -9 -22 -18.5t-31.5 -17.5t-43.5 -13t-57 -5q-39 0 -72 11.5t-56.5 34.5t-37 59t-13.5 85q0 67 20.5 123.5t56 97
t82 63t98.5 22.5q63 0 96.5 -32.5t33.5 -84.5q0 -48 -23.5 -81.5t-61 -54.5t-83 -30.5t-89.5 -9.5h-23.5t-23.5 1v-13q0 -62 29.5 -93t76.5 -31q39 0 71 16.5t57 47.5l13 -9q10 -7 15.5 -15t5.5 -19q0 -16 -18 -34zM197 675q9 8 23 15t28 7q17 0 27 -6.5t20 -23.5l68 -115
q-6 -5 -16.5 -9.5t-20.5 -4.5q-24 0 -38 19z" />
    <glyph glyph-name="eacute" unicode="&#xe9;" horiz-adv-x="460" 
d="M178 246q40 0 74 8t59 22.5t39 35t14 46.5q0 23 -12.5 39.5t-45.5 16.5q-30 0 -55.5 -12.5t-46 -35t-34.5 -53t-21 -66.5q8 -1 15.5 -1h13.5zM391 39q-9 -9 -22 -18.5t-31.5 -17.5t-43.5 -13t-57 -5q-39 0 -72 11.5t-56.5 34.5t-37 59t-13.5 85q0 67 20.5 123.5t56 97
t82 63t98.5 22.5q63 0 96.5 -32.5t33.5 -84.5q0 -48 -23.5 -81.5t-61 -54.5t-83 -30.5t-89.5 -9.5h-23.5t-23.5 1v-13q0 -62 29.5 -93t76.5 -31q39 0 71 16.5t57 47.5l13 -9q10 -7 15.5 -15t5.5 -19q0 -16 -18 -34zM331 557q-19 -19 -44 -19q-11 0 -22 5t-16 10l90 112
q12 15 25 23.5t33 8.5q14 0 27.5 -7.5t21.5 -15.5z" />
    <glyph glyph-name="ecircumflex" unicode="&#xea;" horiz-adv-x="460" 
d="M178 246q40 0 74 8t59 22.5t39 35t14 46.5q0 23 -12.5 39.5t-45.5 16.5q-30 0 -55.5 -12.5t-46 -35t-34.5 -53t-21 -66.5q8 -1 15.5 -1h13.5zM391 39q-9 -9 -22 -18.5t-31.5 -17.5t-43.5 -13t-57 -5q-39 0 -72 11.5t-56.5 34.5t-37 59t-13.5 85q0 67 20.5 123.5t56 97
t82 63t98.5 22.5q63 0 96.5 -32.5t33.5 -84.5q0 -48 -23.5 -81.5t-61 -54.5t-83 -30.5t-89.5 -9.5h-23.5t-23.5 1v-13q0 -62 29.5 -93t76.5 -31q39 0 71 16.5t57 47.5l13 -9q10 -7 15.5 -15t5.5 -19q0 -16 -18 -34zM329 627l-71 -69q-11 -11 -22 -15t-19 -4q-9 0 -18.5 3
t-14.5 9l100 113q12 14 24 21.5t29 7.5q32 0 47 -30l59 -115q-8 -4 -17.5 -7t-18.5 -3q-10 0 -20 5t-17 16z" />
    <glyph glyph-name="edieresis" unicode="&#xeb;" horiz-adv-x="460" 
d="M178 246q40 0 74 8t59 22.5t39 35t14 46.5q0 23 -12.5 39.5t-45.5 16.5q-30 0 -55.5 -12.5t-46 -35t-34.5 -53t-21 -66.5q8 -1 15.5 -1h13.5zM391 39q-9 -9 -22 -18.5t-31.5 -17.5t-43.5 -13t-57 -5q-39 0 -72 11.5t-56.5 34.5t-37 59t-13.5 85q0 67 20.5 123.5t56 97
t82 63t98.5 22.5q63 0 96.5 -32.5t33.5 -84.5q0 -48 -23.5 -81.5t-61 -54.5t-83 -30.5t-89.5 -9.5h-23.5t-23.5 1v-13q0 -62 29.5 -93t76.5 -31q39 0 71 16.5t57 47.5l13 -9q10 -7 15.5 -15t5.5 -19q0 -16 -18 -34zM229 555q-21 0 -31.5 14t-10.5 32q0 24 14 41t40 17
q21 0 31.5 -14t10.5 -33q0 -23 -14.5 -40t-39.5 -17zM406 555q-21 0 -31.5 14t-10.5 32q0 24 14 41t40 17q21 0 31.5 -14t10.5 -33q0 -23 -14.5 -40t-39.5 -17z" />
    <glyph glyph-name="igrave" unicode="&#xec;" horiz-adv-x="228" 
d="M199 8q-12 -7 -29.5 -11t-30.5 -4q-42 0 -61.5 21t-18.5 56q0 5 0.5 10.5t1.5 11.5l63 379q10 2 18 2q30 0 43 -17t13 -43q0 -5 -0.5 -12t-1.5 -12l-49 -294q-1 -6 -1.5 -11t-0.5 -10q0 -15 6 -22.5t22 -7.5q8 0 19 3zM60 675q9 8 23 15t28 7q17 0 27 -6.5t20 -23.5
l68 -115q-6 -5 -16.5 -9.5t-20.5 -4.5q-24 0 -38 19z" />
    <glyph glyph-name="iacute" unicode="&#xed;" horiz-adv-x="228" 
d="M199 8q-12 -7 -29.5 -11t-30.5 -4q-42 0 -61.5 21t-18.5 56q0 5 0.5 10.5t1.5 11.5l63 379q10 2 18 2q30 0 43 -17t13 -43q0 -5 -0.5 -12t-1.5 -12l-49 -294q-1 -6 -1.5 -11t-0.5 -10q0 -15 6 -22.5t22 -7.5q8 0 19 3zM188 557q-19 -19 -44 -19q-11 0 -22 5t-16 10
l90 112q12 15 25 23.5t33 8.5q14 0 27.5 -7.5t21.5 -15.5z" />
    <glyph glyph-name="icircumflex" unicode="&#xee;" horiz-adv-x="228" 
d="M199 8q-12 -7 -29.5 -11t-30.5 -4q-42 0 -61.5 21t-18.5 56q0 5 0.5 10.5t1.5 11.5l63 379q10 2 18 2q30 0 43 -17t13 -43q0 -5 -0.5 -12t-1.5 -12l-49 -294q-1 -6 -1.5 -11t-0.5 -10q0 -15 6 -22.5t22 -7.5q8 0 19 3zM179 627l-71 -69q-11 -11 -22 -15t-19 -4
q-9 0 -18.5 3t-14.5 9l100 113q12 14 24 21.5t29 7.5q32 0 47 -30l59 -115q-8 -4 -17.5 -7t-18.5 -3q-10 0 -20 5t-17 16z" />
    <glyph glyph-name="idieresis" unicode="&#xef;" horiz-adv-x="228" 
d="M199 8q-12 -7 -29.5 -11t-30.5 -4q-42 0 -61.5 21t-18.5 56q0 5 0.5 10.5t1.5 11.5l63 379q10 2 18 2q30 0 43 -17t13 -43q0 -5 -0.5 -12t-1.5 -12l-49 -294q-1 -6 -1.5 -11t-0.5 -10q0 -15 6 -22.5t22 -7.5q8 0 19 3zM80 555q-21 0 -31.5 14t-10.5 32q0 24 14 41t40 17
q21 0 31.5 -14t10.5 -33q0 -23 -14.5 -40t-39.5 -17zM257 555q-21 0 -31.5 14t-10.5 32q0 24 14 41t40 17q21 0 31.5 -14t10.5 -33q0 -23 -14.5 -40t-39.5 -17z" />
    <glyph glyph-name="eth" unicode="&#xf0;" horiz-adv-x="502" 
d="M225 493l-25 50l90 43q-54 40 -133 46q0 33 13.5 44.5t35.5 11.5q17 0 38 -5t42 -14t40.5 -20.5t34.5 -24.5l102 50l25 -50l-87 -43q34 -45 53 -102t19 -121q0 -97 -19 -167t-53 -115.5t-81 -67.5t-102 -22q-33 0 -63.5 11t-53.5 34t-36.5 58t-13.5 82q0 71 20 123
t52 85.5t73 49.5t83 16q34 0 61 -12.5t46 -31.5q-4 47 -16 81t-36 64zM384 319q-11 25 -37 42t-67 17q-29 0 -55.5 -10.5t-47 -34.5t-33 -62t-12.5 -93q0 -60 25.5 -93t70.5 -33q49 0 79.5 28t47.5 69t23 87.5t6 82.5z" />
    <glyph glyph-name="ntilde" unicode="&#xf1;" horiz-adv-x="509" 
d="M331 0l46 277q2 13 4 28.5t2 29.5q0 30 -15 51t-51 21q-22 0 -44 -7t-41.5 -22t-33.5 -37.5t-19 -53.5l-48 -287h-85l78 471q10 2 18 2q53 0 53 -52v-11q26 30 64 50.5t86 20.5q34 0 57.5 -11t38.5 -29.5t21.5 -42.5t6.5 -50q0 -18 -2 -36t-5 -35l-46 -277h-85zM255 589
q-16 0 -32.5 -7t-33.5 -36q-15 7 -21 16.5t-6 19.5q0 13 7.5 25.5t21 22t32 15t39.5 5.5q19 0 34 -6t27.5 -12.5t24 -12.5t24.5 -6q20 0 35 10t32 39q27 -13 27 -35q0 -27 -26 -50.5t-74 -23.5q-18 0 -32 5.5t-27 12.5t-25 12.5t-27 5.5z" />
    <glyph glyph-name="ograve" unicode="&#xf2;" horiz-adv-x="504" 
d="M227 -15q-47 0 -79 16.5t-52 43.5t-29 61t-9 70q0 57 16.5 112t48 98t78 69t106.5 26q46 0 78 -16.5t52 -43.5t29 -61t9 -70q0 -57 -15.5 -111.5t-46.5 -97.5t-77.5 -69.5t-108.5 -26.5zM144 175q0 -25 5 -47.5t16.5 -39t28.5 -26.5t41 -10q34 0 62.5 18.5t48.5 50.5
t31.5 75.5t11.5 94.5q0 25 -5.5 47.5t-16.5 39t-28.5 26.5t-41.5 10q-34 0 -62 -18.5t-48.5 -50.5t-31.5 -75.5t-11 -94.5zM206 675q9 8 23 15t28 7q17 0 27 -6.5t20 -23.5l68 -115q-6 -5 -16.5 -9.5t-20.5 -4.5q-24 0 -38 19z" />
    <glyph glyph-name="oacute" unicode="&#xf3;" horiz-adv-x="504" 
d="M227 -15q-47 0 -79 16.5t-52 43.5t-29 61t-9 70q0 57 16.5 112t48 98t78 69t106.5 26q46 0 78 -16.5t52 -43.5t29 -61t9 -70q0 -57 -15.5 -111.5t-46.5 -97.5t-77.5 -69.5t-108.5 -26.5zM144 175q0 -25 5 -47.5t16.5 -39t28.5 -26.5t41 -10q34 0 62.5 18.5t48.5 50.5
t31.5 75.5t11.5 94.5q0 25 -5.5 47.5t-16.5 39t-28.5 26.5t-41.5 10q-34 0 -62 -18.5t-48.5 -50.5t-31.5 -75.5t-11 -94.5zM341 557q-19 -19 -44 -19q-11 0 -22 5t-16 10l90 112q12 15 25 23.5t33 8.5q14 0 27.5 -7.5t21.5 -15.5z" />
    <glyph glyph-name="ocircumflex" unicode="&#xf4;" horiz-adv-x="504" 
d="M227 -15q-47 0 -79 16.5t-52 43.5t-29 61t-9 70q0 57 16.5 112t48 98t78 69t106.5 26q46 0 78 -16.5t52 -43.5t29 -61t9 -70q0 -57 -15.5 -111.5t-46.5 -97.5t-77.5 -69.5t-108.5 -26.5zM144 175q0 -25 5 -47.5t16.5 -39t28.5 -26.5t41 -10q34 0 62.5 18.5t48.5 50.5
t31.5 75.5t11.5 94.5q0 25 -5.5 47.5t-16.5 39t-28.5 26.5t-41.5 10q-34 0 -62 -18.5t-48.5 -50.5t-31.5 -75.5t-11 -94.5zM324 627l-71 -69q-11 -11 -22 -15t-19 -4q-9 0 -18.5 3t-14.5 9l100 113q12 14 24 21.5t29 7.5q32 0 47 -30l59 -115q-8 -4 -17.5 -7t-18.5 -3
q-10 0 -20 5t-17 16z" />
    <glyph glyph-name="otilde" unicode="&#xf5;" horiz-adv-x="504" 
d="M227 -15q-47 0 -79 16.5t-52 43.5t-29 61t-9 70q0 57 16.5 112t48 98t78 69t106.5 26q46 0 78 -16.5t52 -43.5t29 -61t9 -70q0 -57 -15.5 -111.5t-46.5 -97.5t-77.5 -69.5t-108.5 -26.5zM144 175q0 -25 5 -47.5t16.5 -39t28.5 -26.5t41 -10q34 0 62.5 18.5t48.5 50.5
t31.5 75.5t11.5 94.5q0 25 -5.5 47.5t-16.5 39t-28.5 26.5t-41.5 10q-34 0 -62 -18.5t-48.5 -50.5t-31.5 -75.5t-11 -94.5zM251 589q-16 0 -32.5 -7t-33.5 -36q-15 7 -21 16.5t-6 19.5q0 13 7.5 25.5t21 22t32 15t39.5 5.5q19 0 34 -6t27.5 -12.5t24 -12.5t24.5 -6
q20 0 35 10t32 39q27 -13 27 -35q0 -27 -26 -50.5t-74 -23.5q-18 0 -32 5.5t-27 12.5t-25 12.5t-27 5.5z" />
    <glyph glyph-name="odieresis" unicode="&#xf6;" horiz-adv-x="504" 
d="M227 -15q-47 0 -79 16.5t-52 43.5t-29 61t-9 70q0 57 16.5 112t48 98t78 69t106.5 26q46 0 78 -16.5t52 -43.5t29 -61t9 -70q0 -57 -15.5 -111.5t-46.5 -97.5t-77.5 -69.5t-108.5 -26.5zM144 175q0 -25 5 -47.5t16.5 -39t28.5 -26.5t41 -10q34 0 62.5 18.5t48.5 50.5
t31.5 75.5t11.5 94.5q0 25 -5.5 47.5t-16.5 39t-28.5 26.5t-41.5 10q-34 0 -62 -18.5t-48.5 -50.5t-31.5 -75.5t-11 -94.5zM218 555q-21 0 -31.5 14t-10.5 32q0 24 14 41t40 17q21 0 31.5 -14t10.5 -33q0 -23 -14.5 -40t-39.5 -17zM395 555q-21 0 -31.5 14t-10.5 32
q0 24 14 41t40 17q21 0 31.5 -14t10.5 -33q0 -23 -14.5 -40t-39.5 -17z" />
    <glyph glyph-name="divide" unicode="&#xf7;" horiz-adv-x="549" 
d="M323 541q21 0 32.5 -14.5t11.5 -32.5q0 -27 -15 -45t-41 -18q-22 0 -33.5 14t-11.5 32q0 27 15.5 45.5t41.5 18.5zM275 244q21 0 32.5 -14.5t11.5 -32.5q0 -27 -15 -45t-41 -18q-22 0 -33.5 14t-11.5 32q0 27 15.5 45.5t41.5 18.5zM106 301l13 72h363l-13 -72h-363z" />
    <glyph glyph-name="oslash" unicode="&#xf8;" horiz-adv-x="504" 
d="M432 427q23 -28 33 -63.5t10 -73.5q0 -57 -15.5 -111.5t-46.5 -97.5t-77.5 -69.5t-108.5 -26.5q-29 0 -51.5 6t-40.5 17l-46 -65l-38 25l49 70q-23 27 -32.5 63.5t-9.5 74.5q0 57 16.5 112t48 98t78 69t106.5 26q53 0 91 -24l41 58l38 -25zM144 175q0 -35 9 -62l200 281
q-11 9 -25 14.5t-31 5.5q-34 0 -62 -18.5t-48.5 -50.5t-31.5 -75.5t-11 -94.5zM389 291q0 35 -10 61l-199 -281q22 -19 55 -19q34 0 62.5 18.5t48.5 50.5t31.5 75.5t11.5 94.5z" />
    <glyph glyph-name="ugrave" unicode="&#xf9;" horiz-adv-x="501" 
d="M421 95q-1 -6 -1.5 -11t-0.5 -10q0 -15 6 -22.5t22 -7.5q8 0 19 3l7 -39q-12 -7 -29.5 -11t-30.5 -4q-36 0 -54.5 15t-23.5 49q-12 -15 -26.5 -28t-31.5 -22.5t-38.5 -15.5t-48.5 -6q-65 0 -96 37t-31 96q0 33 6 68l47 285q10 2 18 2q30 0 43 -17t13 -43q0 -5 -0.5 -12
t-1.5 -12l-34 -203q-2 -12 -3 -25t-1 -26q0 -37 16.5 -59.5t55.5 -22.5q21 0 42 9t38 26t29.5 40t17.5 52l48 291q10 2 18 2q30 0 43 -17t13 -43q0 -5 -0.5 -12t-1.5 -12zM178 675q9 8 23 15t28 7q17 0 27 -6.5t20 -23.5l68 -115q-6 -5 -16.5 -9.5t-20.5 -4.5q-24 0 -38 19z
" />
    <glyph glyph-name="uacute" unicode="&#xfa;" horiz-adv-x="501" 
d="M421 95q-1 -6 -1.5 -11t-0.5 -10q0 -15 6 -22.5t22 -7.5q8 0 19 3l7 -39q-12 -7 -29.5 -11t-30.5 -4q-36 0 -54.5 15t-23.5 49q-12 -15 -26.5 -28t-31.5 -22.5t-38.5 -15.5t-48.5 -6q-65 0 -96 37t-31 96q0 33 6 68l47 285q10 2 18 2q30 0 43 -17t13 -43q0 -5 -0.5 -12
t-1.5 -12l-34 -203q-2 -12 -3 -25t-1 -26q0 -37 16.5 -59.5t55.5 -22.5q21 0 42 9t38 26t29.5 40t17.5 52l48 291q10 2 18 2q30 0 43 -17t13 -43q0 -5 -0.5 -12t-1.5 -12zM320 557q-19 -19 -44 -19q-11 0 -22 5t-16 10l90 112q12 15 25 23.5t33 8.5q14 0 27.5 -7.5
t21.5 -15.5z" />
    <glyph glyph-name="ucircumflex" unicode="&#xfb;" horiz-adv-x="501" 
d="M421 95q-1 -6 -1.5 -11t-0.5 -10q0 -15 6 -22.5t22 -7.5q8 0 19 3l7 -39q-12 -7 -29.5 -11t-30.5 -4q-36 0 -54.5 15t-23.5 49q-12 -15 -26.5 -28t-31.5 -22.5t-38.5 -15.5t-48.5 -6q-65 0 -96 37t-31 96q0 33 6 68l47 285q10 2 18 2q30 0 43 -17t13 -43q0 -5 -0.5 -12
t-1.5 -12l-34 -203q-2 -12 -3 -25t-1 -26q0 -37 16.5 -59.5t55.5 -22.5q21 0 42 9t38 26t29.5 40t17.5 52l48 291q10 2 18 2q30 0 43 -17t13 -43q0 -5 -0.5 -12t-1.5 -12zM312 627l-71 -69q-11 -11 -22 -15t-19 -4q-9 0 -18.5 3t-14.5 9l100 113q12 14 24 21.5t29 7.5
q32 0 47 -30l59 -115q-8 -4 -17.5 -7t-18.5 -3q-10 0 -20 5t-17 16z" />
    <glyph glyph-name="udieresis" unicode="&#xfc;" horiz-adv-x="501" 
d="M421 95q-1 -6 -1.5 -11t-0.5 -10q0 -15 6 -22.5t22 -7.5q8 0 19 3l7 -39q-12 -7 -29.5 -11t-30.5 -4q-36 0 -54.5 15t-23.5 49q-12 -15 -26.5 -28t-31.5 -22.5t-38.5 -15.5t-48.5 -6q-65 0 -96 37t-31 96q0 33 6 68l47 285q10 2 18 2q30 0 43 -17t13 -43q0 -5 -0.5 -12
t-1.5 -12l-34 -203q-2 -12 -3 -25t-1 -26q0 -37 16.5 -59.5t55.5 -22.5q21 0 42 9t38 26t29.5 40t17.5 52l48 291q10 2 18 2q30 0 43 -17t13 -43q0 -5 -0.5 -12t-1.5 -12zM210 555q-21 0 -31.5 14t-10.5 32q0 24 14 41t40 17q21 0 31.5 -14t10.5 -33q0 -23 -14.5 -40
t-39.5 -17zM387 555q-21 0 -31.5 14t-10.5 32q0 24 14 41t40 17q21 0 31.5 -14t10.5 -33q0 -23 -14.5 -40t-39.5 -17z" />
    <glyph glyph-name="yacute" unicode="&#xfd;" horiz-adv-x="437" 
d="M197 -86q-15 -30 -29 -55.5t-31.5 -44t-40 -28.5t-53.5 -10q-12 0 -27 2.5t-28.5 8.5t-23 17t-9.5 28q0 15 14 29l13 13q12 -17 28 -23.5t33 -6.5q28 0 46.5 23t43.5 75l26 54h-17l-79 468q12 5 21.5 7t20.5 2q30 0 40 -19.5t14 -48.5l43 -321l152 328q14 30 29.5 45.5
t41.5 15.5q23 0 40 -10zM296 557q-19 -19 -44 -19q-11 0 -22 5t-16 10l90 112q12 15 25 23.5t33 8.5q14 0 27.5 -7.5t21.5 -15.5z" />
    <glyph glyph-name="thorn" unicode="&#xfe;" horiz-adv-x="507" 
d="M216 51q35 0 66.5 18.5t55 51.5t37.5 78t14 98q0 54 -20 84t-67 30q-16 0 -35.5 -8t-37.5 -23t-31.5 -38t-18.5 -53l-37 -222q13 -8 29.5 -12t44.5 -4zM200 417q26 28 60.5 46t71.5 18q40 0 67.5 -15t45 -40.5t25.5 -59.5t8 -73q0 -60 -19 -115.5t-52.5 -97.5
t-79.5 -67.5t-101 -25.5q-23 0 -49 5.5t-45 16.5l-37 -225h-84l152 924q10 2 18 2q32 0 44.5 -16t12.5 -42q0 -5 -1 -13t-2 -13z" />
    <glyph glyph-name="ydieresis" unicode="&#xff;" horiz-adv-x="437" 
d="M197 -86q-15 -30 -29 -55.5t-31.5 -44t-40 -28.5t-53.5 -10q-12 0 -27 2.5t-28.5 8.5t-23 17t-9.5 28q0 15 14 29l13 13q12 -17 28 -23.5t33 -6.5q28 0 46.5 23t43.5 75l26 54h-17l-79 468q12 5 21.5 7t20.5 2q30 0 40 -19.5t14 -48.5l43 -321l152 328q14 30 29.5 45.5
t41.5 15.5q23 0 40 -10zM175 555q-21 0 -31.5 14t-10.5 32q0 24 14 41t40 17q21 0 31.5 -14t10.5 -33q0 -23 -14.5 -40t-39.5 -17zM352 555q-21 0 -31.5 14t-10.5 32q0 24 14 41t40 17q21 0 31.5 -14t10.5 -33q0 -23 -14.5 -40t-39.5 -17z" />
    <glyph glyph-name="Amacron" unicode="&#x100;" horiz-adv-x="559" 
d="M431 0l-28 171h-245l-80 -171h-87l324 661q10 5 20.5 8t20.5 3q41 0 49 -40l113 -632h-87zM340 559l-149 -317h200zM267 749q-25 0 -34.5 10.5t-9.5 27.5q0 4 1 11t3 14h231q25 0 34.5 -10.5t9.5 -27.5q0 -4 -1 -11t-3 -14h-231z" />
    <glyph glyph-name="amacron" unicode="&#x101;" horiz-adv-x="493" 
d="M311 415q-34 0 -64.5 -20.5t-53.5 -55.5t-36.5 -81.5t-13.5 -99.5q0 -102 81 -102q16 0 34.5 7t35.5 22t30 38t18 55l36 220q-13 8 -27.5 12.5t-39.5 4.5zM414 95q-1 -6 -1.5 -11t-0.5 -10q0 -15 6 -22.5t22 -7.5q8 0 19 3l7 -39q-12 -7 -29.5 -11t-30.5 -4q-36 0 -55 15
t-24 49q-23 -30 -55.5 -50t-73.5 -20q-38 0 -64.5 13t-44 36.5t-25.5 54.5t-8 67q0 57 18 114.5t51.5 104t82 75.5t108.5 29q23 0 45.5 -4.5t42.5 -12t36.5 -16t28.5 -16.5zM229 574q-25 0 -34.5 10.5t-9.5 27.5q0 4 1 11t3 14h231q25 0 34.5 -10.5t9.5 -27.5q0 -4 -1 -11
t-3 -14h-231z" />
    <glyph glyph-name="Abreve" unicode="&#x102;" horiz-adv-x="559" 
d="M431 0l-28 171h-245l-80 -171h-87l324 661q10 5 20.5 8t20.5 3q41 0 49 -40l113 -632h-87zM340 559l-149 -317h200zM312 829q5 -32 20 -42t35 -10q23 0 41 12t34 47q9 20 18 25t23 5q20 0 34 -10q-21 -68 -57 -100.5t-98 -32.5q-61 0 -88 34t-25 102q17 7 29 7
q18 0 24.5 -8.5t9.5 -28.5z" />
    <glyph glyph-name="abreve" unicode="&#x103;" horiz-adv-x="493" 
d="M311 415q-34 0 -64.5 -20.5t-53.5 -55.5t-36.5 -81.5t-13.5 -99.5q0 -102 81 -102q16 0 34.5 7t35.5 22t30 38t18 55l36 220q-13 8 -27.5 12.5t-39.5 4.5zM414 95q-1 -6 -1.5 -11t-0.5 -10q0 -15 6 -22.5t22 -7.5q8 0 19 3l7 -39q-12 -7 -29.5 -11t-30.5 -4q-36 0 -55 15
t-24 49q-23 -30 -55.5 -50t-73.5 -20q-38 0 -64.5 13t-44 36.5t-25.5 54.5t-8 67q0 57 18 114.5t51.5 104t82 75.5t108.5 29q23 0 45.5 -4.5t42.5 -12t36.5 -16t28.5 -16.5zM272 645q5 -32 20 -44.5t37 -12.5q25 0 43 14.5t34 49.5q9 20 18 25t23 5q20 0 34 -10
q-21 -68 -58 -103t-99 -35q-61 0 -89 36.5t-26 104.5q17 7 29 7q18 0 24.5 -8.5t9.5 -28.5z" />
    <glyph glyph-name="Aogonek" unicode="&#x104;" horiz-adv-x="559" 
d="M431 -125q0 -15 8 -22.5t20 -7.5q13 0 23 7t18 16q17 -11 17 -29q0 -11 -3 -16t-8 -11q-11 -11 -30 -17.5t-40 -6.5q-30 0 -52.5 18.5t-22.5 53.5q0 22 7.5 42t19.5 38t27 33.5t30 26.5h-14l-28 171h-245l-80 -171h-87l324 661q10 5 20.5 8t20.5 3q41 0 49 -40l113 -632
q-15 -9 -30.5 -23t-28 -31t-20.5 -35t-8 -36zM340 559l-149 -317h200z" />
    <glyph glyph-name="aogonek" unicode="&#x105;" horiz-adv-x="493" 
d="M370 -125q0 -15 8 -22.5t20 -7.5q13 0 23 7t18 16q17 -11 17 -29q0 -11 -3 -16t-8 -11q-11 -11 -30 -17.5t-40 -6.5q-30 0 -52.5 18.5t-22.5 53.5q0 20 7.5 39.5t19.5 36.5t27.5 32t30.5 27q-51 7 -58 62q-23 -30 -55.5 -50t-73.5 -20q-38 0 -64.5 13t-44 36.5
t-25.5 54.5t-8 67q0 57 18 114.5t51.5 104t82 75.5t108.5 29q23 0 45.5 -4.5t42.5 -12t36.5 -16t28.5 -16.5l-55 -337q-1 -6 -1.5 -11t-0.5 -10q0 -15 6 -22.5t22 -7.5q8 0 19 3l7 -39q-16 -10 -33 -25t-31 -33t-23 -37.5t-9 -37.5zM311 415q-34 0 -64.5 -20.5t-53.5 -55.5
t-36.5 -81.5t-13.5 -99.5q0 -102 81 -102q16 0 34.5 7t35.5 22t30 38t18 55l36 220q-13 8 -27.5 12.5t-39.5 4.5z" />
    <glyph glyph-name="Cacute" unicode="&#x106;" horiz-adv-x="559" 
d="M399 608q-52 0 -95 -27t-74 -74.5t-48 -112.5t-17 -141q0 -41 9.5 -76.5t28.5 -62t47 -41.5t66 -15q54 0 98 22t76 57l14 -14q18 -18 18 -33q0 -24 -21 -42q-13 -11 -30.5 -22t-41 -20t-53.5 -15t-68 -6q-62 0 -106.5 22t-72.5 59.5t-41 87t-13 105.5q0 76 21 151.5
t62.5 135.5t104.5 97.5t147 37.5q39 0 68 -8t49 -20t32.5 -25.5t18.5 -25.5q7 -13 7 -27q0 -12 -5 -23.5t-18 -18.5l-23 -12q-23 50 -58 68.5t-82 18.5zM411 735q-20 -12 -41 -12q-14 0 -24 6.5t-15 16.5l111 89q26 21 52 21q17 0 31 -12t19 -25z" />
    <glyph glyph-name="cacute" unicode="&#x107;" horiz-adv-x="433" 
d="M371 105q10 -7 15.5 -15t5.5 -19q0 -15 -17 -34q-15 -16 -48.5 -34t-90.5 -18q-38 0 -70.5 11.5t-56.5 35t-37.5 59.5t-13.5 85q0 67 20 123.5t54.5 96.5t79.5 62.5t96 22.5t79.5 -16t45.5 -38q5 -6 7.5 -14t2.5 -14q0 -17 -8 -25.5t-20 -15.5l-16 -9q-13 34 -37 49
t-61 15q-32 0 -60.5 -18.5t-50 -50.5t-34 -75t-12.5 -92q0 -60 27.5 -92.5t74.5 -32.5q65 0 112 62zM325 557q-19 -19 -44 -19q-11 0 -22 5t-16 10l90 112q12 15 25 23.5t33 8.5q14 0 27.5 -7.5t21.5 -15.5z" />
    <glyph glyph-name="Ccircumflex" unicode="&#x108;" horiz-adv-x="559" 
d="M399 608q-52 0 -95 -27t-74 -74.5t-48 -112.5t-17 -141q0 -41 9.5 -76.5t28.5 -62t47 -41.5t66 -15q54 0 98 22t76 57l14 -14q18 -18 18 -33q0 -24 -21 -42q-13 -11 -30.5 -22t-41 -20t-53.5 -15t-68 -6q-62 0 -106.5 22t-72.5 59.5t-41 87t-13 105.5q0 76 21 151.5
t62.5 135.5t104.5 97.5t147 37.5q39 0 68 -8t49 -20t32.5 -25.5t18.5 -25.5q7 -13 7 -27q0 -12 -5 -23.5t-18 -18.5l-23 -12q-23 50 -58 68.5t-82 18.5zM417 798l-58 -55q-22 -19 -46 -19q-9 0 -19 3.5t-15 8.5l92 97q13 14 25 21t30 7q19 0 29.5 -8.5t18.5 -22.5l57 -97
q-17 -10 -38 -10q-23 0 -38 21z" />
    <glyph glyph-name="ccircumflex" unicode="&#x109;" horiz-adv-x="433" 
d="M371 105q10 -7 15.5 -15t5.5 -19q0 -15 -17 -34q-15 -16 -48.5 -34t-90.5 -18q-38 0 -70.5 11.5t-56.5 35t-37.5 59.5t-13.5 85q0 67 20 123.5t54.5 96.5t79.5 62.5t96 22.5t79.5 -16t45.5 -38q5 -6 7.5 -14t2.5 -14q0 -17 -8 -25.5t-20 -15.5l-16 -9q-13 34 -37 49
t-61 15q-32 0 -60.5 -18.5t-50 -50.5t-34 -75t-12.5 -92q0 -60 27.5 -92.5t74.5 -32.5q65 0 112 62zM326 627l-71 -69q-11 -11 -22 -15t-19 -4q-9 0 -18.5 3t-14.5 9l100 113q12 14 24 21.5t29 7.5q32 0 47 -30l59 -115q-8 -4 -17.5 -7t-18.5 -3q-10 0 -20 5t-17 16z" />
    <glyph glyph-name="Cdotaccent" unicode="&#x10a;" horiz-adv-x="559" 
d="M399 608q-52 0 -95 -27t-74 -74.5t-48 -112.5t-17 -141q0 -41 9.5 -76.5t28.5 -62t47 -41.5t66 -15q54 0 98 22t76 57l14 -14q18 -18 18 -33q0 -24 -21 -42q-13 -11 -30.5 -22t-41 -20t-53.5 -15t-68 -6q-62 0 -106.5 22t-72.5 59.5t-41 87t-13 105.5q0 76 21 151.5
t62.5 135.5t104.5 97.5t147 37.5q39 0 68 -8t49 -20t32.5 -25.5t18.5 -25.5q7 -13 7 -27q0 -12 -5 -23.5t-18 -18.5l-23 -12q-23 50 -58 68.5t-82 18.5zM404 733q-23 0 -34.5 15t-11.5 35q0 26 15.5 45t43.5 19q23 0 34.5 -15.5t11.5 -35.5q0 -26 -16 -44.5t-43 -18.5z" />
    <glyph glyph-name="cdotaccent" unicode="&#x10b;" horiz-adv-x="433" 
d="M371 105q10 -7 15.5 -15t5.5 -19q0 -15 -17 -34q-15 -16 -48.5 -34t-90.5 -18q-38 0 -70.5 11.5t-56.5 35t-37.5 59.5t-13.5 85q0 67 20 123.5t54.5 96.5t79.5 62.5t96 22.5t79.5 -16t45.5 -38q5 -6 7.5 -14t2.5 -14q0 -17 -8 -25.5t-20 -15.5l-16 -9q-13 34 -37 49
t-61 15q-32 0 -60.5 -18.5t-50 -50.5t-34 -75t-12.5 -92q0 -60 27.5 -92.5t74.5 -32.5q65 0 112 62zM316 546q-23 0 -34.5 15t-11.5 35q0 26 15.5 45t43.5 19q23 0 34.5 -15.5t11.5 -35.5q0 -26 -16 -44.5t-43 -18.5z" />
    <glyph glyph-name="Ccaron" unicode="&#x10c;" horiz-adv-x="559" 
d="M399 608q-52 0 -95 -27t-74 -74.5t-48 -112.5t-17 -141q0 -41 9.5 -76.5t28.5 -62t47 -41.5t66 -15q54 0 98 22t76 57l14 -14q18 -18 18 -33q0 -24 -21 -42q-13 -11 -30.5 -22t-41 -20t-53.5 -15t-68 -6q-62 0 -106.5 22t-72.5 59.5t-41 87t-13 105.5q0 76 21 151.5
t62.5 135.5t104.5 97.5t147 37.5q39 0 68 -8t49 -20t32.5 -25.5t18.5 -25.5q7 -13 7 -27q0 -12 -5 -23.5t-18 -18.5l-23 -12q-23 50 -58 68.5t-82 18.5zM408 787l58 54q12 11 23.5 15t23.5 4q9 0 19 -3t15 -9l-92 -97q-13 -14 -24.5 -21t-29.5 -7q-20 0 -30.5 9t-18.5 23
l-57 96q8 5 17.5 8t20.5 3q21 0 37 -22z" />
    <glyph glyph-name="ccaron" unicode="&#x10d;" horiz-adv-x="433" 
d="M371 105q10 -7 15.5 -15t5.5 -19q0 -15 -17 -34q-15 -16 -48.5 -34t-90.5 -18q-38 0 -70.5 11.5t-56.5 35t-37.5 59.5t-13.5 85q0 67 20 123.5t54.5 96.5t79.5 62.5t96 22.5t79.5 -16t45.5 -38q5 -6 7.5 -14t2.5 -14q0 -17 -8 -25.5t-20 -15.5l-16 -9q-13 34 -37 49
t-61 15q-32 0 -60.5 -18.5t-50 -50.5t-34 -75t-12.5 -92q0 -60 27.5 -92.5t74.5 -32.5q65 0 112 62zM321 596l71 69q11 11 22.5 15t19.5 4q9 0 18.5 -3.5t14.5 -8.5l-100 -114q-12 -14 -24 -21.5t-29 -7.5q-18 0 -28.5 8t-18.5 23l-59 114q17 10 36 10q10 0 19.5 -4.5
t16.5 -15.5z" />
    <glyph glyph-name="Dcaron" unicode="&#x10e;" horiz-adv-x="604" 
d="M321 605q-22 0 -47.5 -1t-39.5 -3l-88 -531h72q74 0 126 29t85 78t48 113.5t15 135.5q0 38 -9.5 71t-30 57t-53 37.5t-78.5 13.5zM316 676q76 0 127 -20.5t82 -55t44 -80.5t13 -98q0 -88 -21.5 -165t-67.5 -134t-116.5 -90t-168.5 -33h-160l110 666q51 6 88.5 8t69.5 2z
M343 787l58 54q12 11 23.5 15t23.5 4q9 0 19 -3t15 -9l-92 -97q-13 -14 -24.5 -21t-29.5 -7q-20 0 -30.5 9t-18.5 23l-57 96q8 5 17.5 8t20.5 3q21 0 37 -22z" />
    <glyph glyph-name="dcaron" unicode="&#x10f;" horiz-adv-x="544" 
d="M310 414q-36 0 -66 -19.5t-52.5 -53.5t-35 -79t-12.5 -96q0 -54 20 -82t65 -28q16 0 36 7t38 22t32.5 38t19.5 55l35 213q-14 11 -32.5 17t-47.5 6zM426 95q-1 -6 -1.5 -10.5t-0.5 -9.5q0 -15 6 -23t22 -8q8 0 19 3l7 -39q-12 -7 -29.5 -11t-30.5 -4q-36 0 -55 15t-24 49
q-26 -33 -63.5 -51.5t-74.5 -18.5q-40 0 -67.5 13.5t-45 37.5t-25 57t-7.5 73q0 56 17.5 112t50 100.5t80 72.5t107.5 28q24 0 49.5 -8.5t40.5 -18.5l41 254q10 2 18 2q32 0 44.5 -16t12.5 -42q0 -5 -1 -13t-2 -13zM624 544q-5 -24 -20 -34.5t-33 -10.5h-7.5t-9.5 2l26 156
q5 28 16 40.5t37 12.5q6 0 14 -1t15 -3z" />
    <glyph glyph-name="Dcroat" unicode="&#x110;" horiz-adv-x="604" 
d="M53 383h58l47 283q51 6 88.5 8t69.5 2q76 0 127 -20.5t82 -55t44 -80.5t13 -98q0 -88 -21.5 -165t-67.5 -134t-116.5 -90t-168.5 -33h-160l52 316h-58zM321 605q-22 0 -47.5 -1t-39.5 -3l-36 -218h169l-11 -67h-169l-41 -246h72q74 0 126 29t85 78t48 113.5t15 135.5
q0 38 -9.5 71t-30 57t-53 37.5t-78.5 13.5z" />
    <glyph glyph-name="dcroat" unicode="&#x111;" horiz-adv-x="503" 
d="M243 617h183l15 91q10 2 18 2q32 0 44.5 -16t12.5 -42q0 -5 -1 -13t-2 -13l-2 -9h61l-10 -62h-61l-76 -460q-1 -6 -1.5 -10.5t-0.5 -9.5q0 -15 6 -23t22 -8q8 0 19 3l7 -39q-12 -7 -29.5 -11t-30.5 -4q-36 0 -55 15t-24 49q-26 -33 -63.5 -51.5t-74.5 -18.5
q-40 0 -67.5 13.5t-45 37.5t-25 57t-7.5 73q0 56 17 110.5t49.5 98t79.5 70t107 26.5q24 0 49.5 -8.5t40.5 -18.5l18 109h-183zM307 406q-36 0 -66 -18.5t-51.5 -50.5t-34 -76t-12.5 -95q0 -54 20 -82t65 -28q16 0 36 7t38 22t32.5 38t19.5 55l33 205q-14 11 -32.5 17
t-47.5 6z" />
    <glyph glyph-name="Emacron" unicode="&#x112;" horiz-adv-x="469" 
d="M372 70q30 0 42 -10.5t12 -33.5q0 -5 -1 -12t-3 -14h-374l111 669h355q0 -35 -13 -52.5t-49 -17.5h-218l-35 -216h205l-12 -70h-205l-40 -243h225zM257 749q-25 0 -34.5 10.5t-9.5 27.5q0 4 1 11t3 14h231q25 0 34.5 -10.5t9.5 -27.5q0 -4 -1 -11t-3 -14h-231z" />
    <glyph glyph-name="emacron" unicode="&#x113;" horiz-adv-x="460" 
d="M178 246q40 0 74 8t59 22.5t39 35t14 46.5q0 23 -12.5 39.5t-45.5 16.5q-30 0 -55.5 -12.5t-46 -35t-34.5 -53t-21 -66.5q8 -1 15.5 -1h13.5zM391 39q-9 -9 -22 -18.5t-31.5 -17.5t-43.5 -13t-57 -5q-39 0 -72 11.5t-56.5 34.5t-37 59t-13.5 85q0 67 20.5 123.5t56 97
t82 63t98.5 22.5q63 0 96.5 -32.5t33.5 -84.5q0 -48 -23.5 -81.5t-61 -54.5t-83 -30.5t-89.5 -9.5h-23.5t-23.5 1v-13q0 -62 29.5 -93t76.5 -31q39 0 71 16.5t57 47.5l13 -9q10 -7 15.5 -15t5.5 -19q0 -16 -18 -34zM211 574q-25 0 -34.5 10.5t-9.5 27.5q0 4 1 11t3 14h231
q25 0 34.5 -10.5t9.5 -27.5q0 -4 -1 -11t-3 -14h-231z" />
    <glyph glyph-name="Ebreve" unicode="&#x114;" horiz-adv-x="469" 
d="M372 70q30 0 42 -10.5t12 -33.5q0 -5 -1 -12t-3 -14h-374l111 669h355q0 -35 -13 -52.5t-49 -17.5h-218l-35 -216h205l-12 -70h-205l-40 -243h225zM292 829q5 -32 20 -42t35 -10q23 0 41 12t34 47q9 20 18 25t23 5q20 0 34 -10q-21 -68 -57 -100.5t-98 -32.5
q-61 0 -88 34t-25 102q17 7 29 7q18 0 24.5 -8.5t9.5 -28.5z" />
    <glyph glyph-name="ebreve" unicode="&#x115;" horiz-adv-x="460" 
d="M178 246q40 0 74 8t59 22.5t39 35t14 46.5q0 23 -12.5 39.5t-45.5 16.5q-30 0 -55.5 -12.5t-46 -35t-34.5 -53t-21 -66.5q8 -1 15.5 -1h13.5zM391 39q-9 -9 -22 -18.5t-31.5 -17.5t-43.5 -13t-57 -5q-39 0 -72 11.5t-56.5 34.5t-37 59t-13.5 85q0 67 20.5 123.5t56 97
t82 63t98.5 22.5q63 0 96.5 -32.5t33.5 -84.5q0 -48 -23.5 -81.5t-61 -54.5t-83 -30.5t-89.5 -9.5h-23.5t-23.5 1v-13q0 -62 29.5 -93t76.5 -31q39 0 71 16.5t57 47.5l13 -9q10 -7 15.5 -15t5.5 -19q0 -16 -18 -34zM256 645q5 -32 20 -44.5t37 -12.5q25 0 43 14.5t34 49.5
q9 20 18 25t23 5q20 0 34 -10q-21 -68 -58 -103t-99 -35q-61 0 -89 36.5t-26 104.5q17 7 29 7q18 0 24.5 -8.5t9.5 -28.5z" />
    <glyph glyph-name="Edotaccent" unicode="&#x116;" horiz-adv-x="469" 
d="M372 70q30 0 42 -10.5t12 -33.5q0 -5 -1 -12t-3 -14h-374l111 669h355q0 -35 -13 -52.5t-49 -17.5h-218l-35 -216h205l-12 -70h-205l-40 -243h225zM340 733q-23 0 -34.5 15t-11.5 35q0 26 15.5 45t43.5 19q23 0 34.5 -15.5t11.5 -35.5q0 -26 -16 -44.5t-43 -18.5z" />
    <glyph glyph-name="edotaccent" unicode="&#x117;" horiz-adv-x="460" 
d="M178 246q40 0 74 8t59 22.5t39 35t14 46.5q0 23 -12.5 39.5t-45.5 16.5q-30 0 -55.5 -12.5t-46 -35t-34.5 -53t-21 -66.5q8 -1 15.5 -1h13.5zM391 39q-9 -9 -22 -18.5t-31.5 -17.5t-43.5 -13t-57 -5q-39 0 -72 11.5t-56.5 34.5t-37 59t-13.5 85q0 67 20.5 123.5t56 97
t82 63t98.5 22.5q63 0 96.5 -32.5t33.5 -84.5q0 -48 -23.5 -81.5t-61 -54.5t-83 -30.5t-89.5 -9.5h-23.5t-23.5 1v-13q0 -62 29.5 -93t76.5 -31q39 0 71 16.5t57 47.5l13 -9q10 -7 15.5 -15t5.5 -19q0 -16 -18 -34zM316 546q-23 0 -34.5 15t-11.5 35q0 26 15.5 45t43.5 19
q23 0 34.5 -15.5t11.5 -35.5q0 -26 -16 -44.5t-43 -18.5z" />
    <glyph glyph-name="Eogonek" unicode="&#x118;" horiz-adv-x="469" 
d="M335 -125q0 -15 8 -22.5t20 -7.5q13 0 23 7t18 16q17 -11 17 -29q0 -11 -3 -16t-8 -11q-11 -11 -30 -17.5t-40 -6.5q-30 0 -52.5 18.5t-22.5 53.5q0 22 7.5 42t19.5 38t27 33.5t30 26.5h-301l111 669h355q0 -35 -13 -52.5t-49 -17.5h-218l-35 -216h205l-12 -70h-205
l-40 -243h225q30 0 42 -10.5t12 -33.5q0 -5 -1 -12t-3 -14q-15 -9 -30.5 -23t-28 -31t-20.5 -35t-8 -36z" />
    <glyph glyph-name="eogonek" unicode="&#x119;" horiz-adv-x="460" 
d="M251 -125q0 -15 8 -22.5t20 -7.5q13 0 23 7t18 16q17 -11 17 -29q0 -11 -3 -16t-8 -11q-11 -11 -30 -17.5t-40 -6.5q-30 0 -52.5 18.5t-22.5 53.5q0 37 22.5 70t50.5 56q-4 -1 -8 -1h-9q-39 0 -72 11.5t-56.5 34.5t-37 59t-13.5 85q0 67 20.5 123.5t56 97t82 63
t98.5 22.5q63 0 96.5 -32.5t33.5 -84.5q0 -48 -23.5 -81.5t-61 -54.5t-83 -30.5t-89.5 -9.5h-23.5t-23.5 1v-13q0 -62 29.5 -93t76.5 -31q39 0 71 16.5t57 47.5l13 -9q10 -7 15.5 -15t5.5 -19q0 -16 -18 -34q-8 -8 -19.5 -16.5t-28.5 -16.5q-16 -10 -32 -25t-29.5 -32.5
t-22 -36.5t-8.5 -37zM178 246q40 0 74 8t59 22.5t39 35t14 46.5q0 23 -12.5 39.5t-45.5 16.5q-30 0 -55.5 -12.5t-46 -35t-34.5 -53t-21 -66.5q8 -1 15.5 -1h13.5z" />
    <glyph glyph-name="Ecaron" unicode="&#x11a;" horiz-adv-x="469" 
d="M372 70q30 0 42 -10.5t12 -33.5q0 -5 -1 -12t-3 -14h-374l111 669h355q0 -35 -13 -52.5t-49 -17.5h-218l-35 -216h205l-12 -70h-205l-40 -243h225zM346 787l58 54q12 11 23.5 15t23.5 4q9 0 19 -3t15 -9l-92 -97q-13 -14 -24.5 -21t-29.5 -7q-20 0 -30.5 9t-18.5 23
l-57 96q8 5 17.5 8t20.5 3q21 0 37 -22z" />
    <glyph glyph-name="ecaron" unicode="&#x11b;" horiz-adv-x="460" 
d="M178 246q40 0 74 8t59 22.5t39 35t14 46.5q0 23 -12.5 39.5t-45.5 16.5q-30 0 -55.5 -12.5t-46 -35t-34.5 -53t-21 -66.5q8 -1 15.5 -1h13.5zM391 39q-9 -9 -22 -18.5t-31.5 -17.5t-43.5 -13t-57 -5q-39 0 -72 11.5t-56.5 34.5t-37 59t-13.5 85q0 67 20.5 123.5t56 97
t82 63t98.5 22.5q63 0 96.5 -32.5t33.5 -84.5q0 -48 -23.5 -81.5t-61 -54.5t-83 -30.5t-89.5 -9.5h-23.5t-23.5 1v-13q0 -62 29.5 -93t76.5 -31q39 0 71 16.5t57 47.5l13 -9q10 -7 15.5 -15t5.5 -19q0 -16 -18 -34zM315 596l71 69q11 11 22.5 15t19.5 4q9 0 18.5 -3.5
t14.5 -8.5l-100 -114q-12 -14 -24 -21.5t-29 -7.5q-18 0 -28.5 8t-18.5 23l-59 114q17 10 36 10q10 0 19.5 -4.5t16.5 -15.5z" />
    <glyph glyph-name="Gcircumflex" unicode="&#x11c;" horiz-adv-x="615" 
d="M410 681q39 0 68 -8t49 -20t32.5 -25.5t18.5 -25.5q7 -13 7 -27q0 -12 -5 -23.5t-18 -18.5l-23 -12q-23 50 -58 68.5t-82 18.5q-52 0 -95 -27t-74 -74t-48 -112.5t-17 -141.5q0 -41 9.5 -76.5t28.5 -62t47 -42t66 -15.5q51 0 85 16.5t57 36.5l28 164h-127l12 70h210
l-43 -259q-37 -44 -97.5 -72t-132.5 -28q-62 0 -106.5 22t-72.5 59.5t-41 87t-13 105.5q0 76 21 151.5t62.5 135.5t104.5 97.5t147 37.5zM419 798l-58 -55q-22 -19 -46 -19q-9 0 -19 3.5t-15 8.5l92 97q13 14 25 21t30 7q19 0 29.5 -8.5t18.5 -22.5l57 -97q-17 -10 -38 -10
q-23 0 -38 21z" />
    <glyph glyph-name="gcircumflex" unicode="&#x11d;" horiz-adv-x="498" 
d="M312 415q-34 0 -64.5 -19.5t-53.5 -53.5t-36.5 -78.5t-13.5 -94.5q0 -55 20.5 -82.5t65.5 -27.5q18 0 37.5 7.5t36.5 22.5t30.5 38t18.5 55l36 215q-17 11 -35.5 14.5t-41.5 3.5zM175 -156q66 0 102 44.5t49 119.5l8 47q-25 -29 -58.5 -47t-73.5 -18t-68 13.5t-45 37.5
t-25 57.5t-8 72.5q0 55 18.5 110t52.5 99.5t82.5 72.5t107.5 28q51 0 92 -15t70 -35l-69 -414q-40 -241 -238 -241q-41 0 -80.5 12.5t-59.5 32.5q-16 16 -16 34q0 17 15 32l17 16q25 -31 55 -45t72 -14zM342 627l-71 -69q-11 -11 -22 -15t-19 -4q-9 0 -18.5 3t-14.5 9
l100 113q12 14 24 21.5t29 7.5q32 0 47 -30l59 -115q-8 -4 -17.5 -7t-18.5 -3q-10 0 -20 5t-17 16z" />
    <glyph glyph-name="Gbreve" unicode="&#x11e;" horiz-adv-x="615" 
d="M410 681q39 0 68 -8t49 -20t32.5 -25.5t18.5 -25.5q7 -13 7 -27q0 -12 -5 -23.5t-18 -18.5l-23 -12q-23 50 -58 68.5t-82 18.5q-52 0 -95 -27t-74 -74t-48 -112.5t-17 -141.5q0 -41 9.5 -76.5t28.5 -62t47 -42t66 -15.5q51 0 85 16.5t57 36.5l28 164h-127l12 70h210
l-43 -259q-37 -44 -97.5 -72t-132.5 -28q-62 0 -106.5 22t-72.5 59.5t-41 87t-13 105.5q0 76 21 151.5t62.5 135.5t104.5 97.5t147 37.5zM356 829q5 -32 20 -42t35 -10q23 0 41 12t34 47q9 20 18 25t23 5q20 0 34 -10q-21 -68 -57 -100.5t-98 -32.5q-61 0 -88 34t-25 102
q17 7 29 7q18 0 24.5 -8.5t9.5 -28.5z" />
    <glyph glyph-name="gbreve" unicode="&#x11f;" horiz-adv-x="498" 
d="M312 415q-34 0 -64.5 -19.5t-53.5 -53.5t-36.5 -78.5t-13.5 -94.5q0 -55 20.5 -82.5t65.5 -27.5q18 0 37.5 7.5t36.5 22.5t30.5 38t18.5 55l36 215q-17 11 -35.5 14.5t-41.5 3.5zM175 -156q66 0 102 44.5t49 119.5l8 47q-25 -29 -58.5 -47t-73.5 -18t-68 13.5t-45 37.5
t-25 57.5t-8 72.5q0 55 18.5 110t52.5 99.5t82.5 72.5t107.5 28q51 0 92 -15t70 -35l-69 -414q-40 -241 -238 -241q-41 0 -80.5 12.5t-59.5 32.5q-16 16 -16 34q0 17 15 32l17 16q25 -31 55 -45t72 -14zM281 645q5 -32 20 -44.5t37 -12.5q25 0 43 14.5t34 49.5q9 20 18 25
t23 5q20 0 34 -10q-21 -68 -58 -103t-99 -35q-61 0 -89 36.5t-26 104.5q17 7 29 7q18 0 24.5 -8.5t9.5 -28.5z" />
    <glyph glyph-name="Gdotaccent" unicode="&#x120;" horiz-adv-x="615" 
d="M410 681q39 0 68 -8t49 -20t32.5 -25.5t18.5 -25.5q7 -13 7 -27q0 -12 -5 -23.5t-18 -18.5l-23 -12q-23 50 -58 68.5t-82 18.5q-52 0 -95 -27t-74 -74t-48 -112.5t-17 -141.5q0 -41 9.5 -76.5t28.5 -62t47 -42t66 -15.5q51 0 85 16.5t57 36.5l28 164h-127l12 70h210
l-43 -259q-37 -44 -97.5 -72t-132.5 -28q-62 0 -106.5 22t-72.5 59.5t-41 87t-13 105.5q0 76 21 151.5t62.5 135.5t104.5 97.5t147 37.5zM401 733q-23 0 -34.5 15t-11.5 35q0 26 15.5 45t43.5 19q23 0 34.5 -15.5t11.5 -35.5q0 -26 -16 -44.5t-43 -18.5z" />
    <glyph glyph-name="gdotaccent" unicode="&#x121;" horiz-adv-x="498" 
d="M312 415q-34 0 -64.5 -19.5t-53.5 -53.5t-36.5 -78.5t-13.5 -94.5q0 -55 20.5 -82.5t65.5 -27.5q18 0 37.5 7.5t36.5 22.5t30.5 38t18.5 55l36 215q-17 11 -35.5 14.5t-41.5 3.5zM175 -156q66 0 102 44.5t49 119.5l8 47q-25 -29 -58.5 -47t-73.5 -18t-68 13.5t-45 37.5
t-25 57.5t-8 72.5q0 55 18.5 110t52.5 99.5t82.5 72.5t107.5 28q51 0 92 -15t70 -35l-69 -414q-40 -241 -238 -241q-41 0 -80.5 12.5t-59.5 32.5q-16 16 -16 34q0 17 15 32l17 16q25 -31 55 -45t72 -14zM327 546q-23 0 -34.5 15t-11.5 35q0 26 15.5 45t43.5 19
q23 0 34.5 -15.5t11.5 -35.5q0 -26 -16 -44.5t-43 -18.5z" />
    <glyph glyph-name="Gcommaaccent" unicode="&#x122;" horiz-adv-x="615" 
d="M410 681q39 0 68 -8t49 -20t32.5 -25.5t18.5 -25.5q7 -13 7 -27q0 -12 -5 -23.5t-18 -18.5l-23 -12q-23 50 -58 68.5t-82 18.5q-52 0 -95 -27t-74 -74t-48 -112.5t-17 -141.5q0 -41 9.5 -76.5t28.5 -62t47 -42t66 -15.5q51 0 85 16.5t57 36.5l28 164h-127l12 70h210
l-43 -259q-37 -44 -97.5 -72t-132.5 -28q-62 0 -106.5 22t-72.5 59.5t-41 87t-13 105.5q0 76 21 151.5t62.5 135.5t104.5 97.5t147 37.5zM276 -190q-20 -32 -56 -32q-16 0 -26 6l57 117q11 21 23 32t37 11q11 0 22 -3t18 -8z" />
    <glyph glyph-name="gcommaaccent" unicode="&#x123;" horiz-adv-x="498" 
d="M312 415q-34 0 -64.5 -19.5t-53.5 -53.5t-36.5 -78.5t-13.5 -94.5q0 -55 20.5 -82.5t65.5 -27.5q18 0 37.5 7.5t36.5 22.5t30.5 38t18.5 55l36 215q-17 11 -35.5 14.5t-41.5 3.5zM175 -156q66 0 102 44.5t49 119.5l8 47q-25 -29 -58.5 -47t-73.5 -18t-68 13.5t-45 37.5
t-25 57.5t-8 72.5q0 55 18.5 110t52.5 99.5t82.5 72.5t107.5 28q51 0 92 -15t70 -35l-69 -414q-40 -241 -238 -241q-41 0 -80.5 12.5t-59.5 32.5q-16 16 -16 34q0 17 15 32l17 16q25 -31 55 -45t72 -14zM350 658q20 32 55 32q14 0 25 -6l-57 -117q-11 -21 -22.5 -32
t-36.5 -11q-11 0 -21.5 3t-17.5 8z" />
    <glyph glyph-name="Hcircumflex" unicode="&#x124;" horiz-adv-x="607" 
d="M503 0h-86l51 309h-283l-51 -309h-86l111 670q10 2 18 2q33 0 45 -16t12 -43q0 -5 -1 -13t-2 -13l-34 -207h283l48 290q10 2 18 2q33 0 45 -16t12 -43q0 -5 -1 -13t-2 -13zM389 798l-58 -55q-22 -19 -46 -19q-9 0 -19 3.5t-15 8.5l92 97q13 14 25 21t30 7q19 0 29.5 -8.5
t18.5 -22.5l57 -97q-17 -10 -38 -10q-23 0 -38 21z" />
    <glyph glyph-name="hcircumflex" unicode="&#x125;" horiz-adv-x="509" 
d="M199 414q26 28 63 47.5t83 19.5q34 0 57.5 -11t38.5 -29.5t21.5 -42.5t6.5 -50q0 -18 -2 -36t-5 -35l-46 -277h-85l45 277q2 13 4 28.5t2 29.5q0 30 -14.5 51t-50.5 21q-22 0 -44 -7t-41.5 -22t-33.5 -37.5t-19 -53.5l-48 -287h-85l117 708q10 2 18 2q32 0 44.5 -16
t12.5 -42q0 -5 -1 -13t-2 -13zM303 824l-58 -55q-22 -19 -46 -19q-9 0 -19 3.5t-15 8.5l92 97q13 14 25 21t30 7q19 0 29.5 -8.5t18.5 -22.5l57 -97q-17 -10 -38 -10q-23 0 -38 21z" />
    <glyph glyph-name="Hbar" unicode="&#x126;" horiz-adv-x="607" 
d="M596 564h61l-11 -66h-61l-82 -498h-86l51 309h-283l-51 -309h-86l82 498h-61l11 66h61l18 106q10 2 18 2q33 0 45 -16t12 -43q0 -5 -1 -13t-2 -13l-4 -23h283l18 106q10 2 18 2q33 0 45 -16t12 -43q0 -5 -1 -13t-2 -13zM480 380l19 118h-283l-19 -118h283z" />
    <glyph glyph-name="hbar" unicode="&#x127;" horiz-adv-x="510" 
d="M83 617h65l15 91q10 2 18 2q32 0 44.5 -16t12.5 -42q0 -5 -1 -13t-2 -13l-2 -9h179l-10 -62h-179l-25 -150q26 28 63 47.5t83 19.5q34 0 57.5 -11t38.5 -29.5t21.5 -42.5t6.5 -50q0 -18 -2 -36t-5 -35l-45 -268h-85l44 268q2 13 4 28.5t2 29.5q0 30 -14.5 51t-50.5 21
q-22 0 -44 -7t-41.5 -22t-33.5 -37.5t-19 -53.5l-47 -278h-85l91 555h-64z" />
    <glyph glyph-name="Itilde" unicode="&#x128;" horiz-adv-x="236" 
d="M134 0h-86l111 670q10 2 18 2q33 0 45 -16t12 -43q0 -5 -1 -13t-2 -13zM137 772q-16 0 -32.5 -7t-33.5 -36q-15 7 -21 16.5t-6 19.5q0 13 7.5 25.5t21 22t32 15t39.5 5.5q19 0 34 -6t27.5 -12.5t24 -12.5t24.5 -6q20 0 35 10t32 39q27 -13 27 -35q0 -27 -26 -50.5
t-74 -23.5q-18 0 -32 5.5t-27 12.5t-25 12.5t-27 5.5z" />
    <glyph glyph-name="itilde" unicode="&#x129;" horiz-adv-x="228" 
d="M199 8q-12 -7 -29.5 -11t-30.5 -4q-42 0 -61.5 21t-18.5 56q0 5 0.5 10.5t1.5 11.5l63 379q10 2 18 2q30 0 43 -17t13 -43q0 -5 -0.5 -12t-1.5 -12l-49 -294q-1 -6 -1.5 -11t-0.5 -10q0 -15 6 -22.5t22 -7.5q8 0 19 3zM103 589q-16 0 -32.5 -7t-33.5 -36q-15 7 -21 16.5
t-6 19.5q0 13 7.5 25.5t21 22t32 15t39.5 5.5q19 0 34 -6t27.5 -12.5t24 -12.5t24.5 -6q20 0 35 10t32 39q27 -13 27 -35q0 -27 -26 -50.5t-74 -23.5q-18 0 -32 5.5t-27 12.5t-25 12.5t-27 5.5z" />
    <glyph glyph-name="Imacron" unicode="&#x12a;" horiz-adv-x="236" 
d="M134 0h-86l111 670q10 2 18 2q33 0 45 -16t12 -43q0 -5 -1 -13t-2 -13zM110 749q-25 0 -34.5 10.5t-9.5 27.5q0 4 1 11t3 14h231q25 0 34.5 -10.5t9.5 -27.5q0 -4 -1 -11t-3 -14h-231z" />
    <glyph glyph-name="imacron" unicode="&#x12b;" horiz-adv-x="228" 
d="M199 8q-12 -7 -29.5 -11t-30.5 -4q-42 0 -61.5 21t-18.5 56q0 5 0.5 10.5t1.5 11.5l63 379q10 2 18 2q30 0 43 -17t13 -43q0 -5 -0.5 -12t-1.5 -12l-49 -294q-1 -6 -1.5 -11t-0.5 -10q0 -15 6 -22.5t22 -7.5q8 0 19 3zM66 574q-25 0 -34.5 10.5t-9.5 27.5q0 4 1 11t3 14
h231q25 0 34.5 -10.5t9.5 -27.5q0 -4 -1 -11t-3 -14h-231z" />
    <glyph glyph-name="Ibreve" unicode="&#x12c;" horiz-adv-x="236" 
d="M134 0h-86l111 670q10 2 18 2q33 0 45 -16t12 -43q0 -5 -1 -13t-2 -13zM153 829q5 -32 20 -42t35 -10q23 0 41 12t34 47q9 20 18 25t23 5q20 0 34 -10q-21 -68 -57 -100.5t-98 -32.5q-61 0 -88 34t-25 102q17 7 29 7q18 0 24.5 -8.5t9.5 -28.5z" />
    <glyph glyph-name="ibreve" unicode="&#x12d;" horiz-adv-x="228" 
d="M199 8q-12 -7 -29.5 -11t-30.5 -4q-42 0 -61.5 21t-18.5 56q0 5 0.5 10.5t1.5 11.5l63 379q10 2 18 2q30 0 43 -17t13 -43q0 -5 -0.5 -12t-1.5 -12l-49 -294q-1 -6 -1.5 -11t-0.5 -10q0 -15 6 -22.5t22 -7.5q8 0 19 3zM112 645q5 -32 20 -44.5t37 -12.5q25 0 43 14.5
t34 49.5q9 20 18 25t23 5q20 0 34 -10q-21 -68 -58 -103t-99 -35q-61 0 -89 36.5t-26 104.5q17 7 29 7q18 0 24.5 -8.5t9.5 -28.5z" />
    <glyph glyph-name="Iogonek" unicode="&#x12e;" horiz-adv-x="236" 
d="M47 -125q0 -15 8 -22.5t20 -7.5q13 0 23 7t18 16q17 -11 17 -29q0 -11 -3 -16t-8 -11q-11 -11 -30 -17.5t-40 -6.5q-30 0 -52.5 18.5t-22.5 53.5q0 22 7.5 42t19.5 38t27 33.5t30 26.5h-13l111 670q10 2 18 2q33 0 45 -16t12 -43q0 -5 -1 -13t-2 -13l-97 -587
q-15 -9 -30.5 -23t-28 -31t-20.5 -35t-8 -36z" />
    <glyph glyph-name="iogonek" unicode="&#x12f;" horiz-adv-x="228" 
d="M103 -125q0 -15 8 -22.5t20 -7.5q13 0 23 7t18 16q17 -11 17 -29q0 -11 -3 -16t-8 -11q-11 -11 -30 -17.5t-40 -6.5q-30 0 -52.5 18.5t-22.5 53.5q0 20 7.5 39.5t19.5 36.5t27.5 32t30.5 27q-31 5 -45.5 24.5t-13.5 50.5q0 5 0.5 10.5t1.5 11.5l63 379q10 2 18 2
q30 0 43 -17t13 -43q0 -5 -0.5 -12t-1.5 -12l-49 -294q-1 -6 -1.5 -11t-0.5 -10q0 -15 6 -22.5t22 -7.5q8 0 19 3l7 -39q-16 -10 -33 -25t-31 -33t-23 -37.5t-9 -37.5zM182 568q-23 0 -34.5 15t-11.5 35q0 26 15.5 45t43.5 19q23 0 34.5 -15.5t11.5 -35.5q0 -26 -16 -44.5
t-43 -18.5z" />
    <glyph glyph-name="Idotaccent" unicode="&#x130;" horiz-adv-x="236" 
d="M134 0h-86l111 670q10 2 18 2q33 0 45 -16t12 -43q0 -5 -1 -13t-2 -13zM204 733q-23 0 -34.5 15t-11.5 35q0 26 15.5 45t43.5 19q23 0 34.5 -15.5t11.5 -35.5q0 -26 -16 -44.5t-43 -18.5z" />
    <glyph glyph-name="dotlessi" unicode="&#x131;" horiz-adv-x="228" 
d="M199 8q-12 -7 -29.5 -11t-30.5 -4q-42 0 -61.5 21t-18.5 56q0 5 0.5 10.5t1.5 11.5l63 379q10 2 18 2q30 0 43 -17t13 -43q0 -5 -0.5 -12t-1.5 -12l-49 -294q-1 -6 -1.5 -11t-0.5 -10q0 -15 6 -22.5t22 -7.5q8 0 19 3z" />
    <glyph glyph-name="IJ" unicode="&#x132;" horiz-adv-x="466" 
d="M134 0h-86l111 670q10 2 18 2q33 0 45 -16t12 -43q0 -5 -1 -13t-2 -13zM389 670q10 2 18 2q33 0 45 -16t12 -43q0 -5 -1 -13t-2 -13l-86 -523q-6 -37 -15.5 -79.5t-30 -78.5t-55 -60t-88.5 -24q-29 0 -39.5 11t-10.5 34q0 13 5 26q5 -1 12.5 -1h10.5q53 0 80 33t37 91z
" />
    <glyph glyph-name="ij" unicode="&#x133;" horiz-adv-x="443" 
d="M199 8q-12 -7 -29.5 -11t-30.5 -4q-42 0 -61.5 21t-18.5 56q0 5 0.5 10.5t1.5 11.5l63 379q10 2 18 2q30 0 43 -17t13 -43q0 -5 -0.5 -12t-1.5 -12l-49 -294q-1 -6 -1.5 -11t-0.5 -10q0 -15 6 -22.5t22 -7.5q8 0 19 3zM182 568q-23 0 -34.5 15t-11.5 35q0 26 15.5 45
t43.5 19q23 0 34.5 -15.5t11.5 -35.5q0 -26 -16 -44.5t-43 -18.5zM351 11q-4 -25 -8.5 -51t-11.5 -51.5t-17 -48.5t-25 -41q-18 -21 -44 -33.5t-61 -12.5q-28 0 -37 11.5t-9 32.5q0 5 0.5 10t1.5 10h16q48 0 71 32q12 17 18 40.5t11 49.5l85 512q10 2 18 2q30 0 43 -17
t13 -43q0 -5 -0.5 -12t-1.5 -12zM399 568q-23 0 -34.5 15t-11.5 35q0 26 15.5 45t43.5 19q23 0 34.5 -15.5t11.5 -35.5q0 -26 -16 -44.5t-43 -18.5z" />
    <glyph glyph-name="Jcircumflex" unicode="&#x134;" horiz-adv-x="237" 
d="M159 670q10 2 18 2q33 0 45 -16t12 -43q0 -5 -1 -13t-2 -13l-86 -523q-6 -37 -15.5 -79.5t-30 -78.5t-55 -60t-88.5 -24q-29 0 -39.5 11t-10.5 34q0 13 5 26q5 -1 12.5 -1h10.5q53 0 80 33t37 91zM208 798l-58 -55q-22 -19 -46 -19q-9 0 -19 3.5t-15 8.5l92 97
q13 14 25 21t30 7q19 0 29.5 -8.5t18.5 -22.5l57 -97q-17 -10 -38 -10q-23 0 -38 21z" />
    <glyph glyph-name="jcircumflex" unicode="&#x135;" horiz-adv-x="226" 
d="M134 11q-4 -25 -8.5 -51t-11.5 -51.5t-17 -48.5t-25 -41q-18 -21 -44 -33.5t-61 -12.5q-28 0 -37 11.5t-9 32.5q0 5 0.5 10t1.5 10h16q48 0 71 32q12 17 18 40.5t11 49.5l85 512q10 2 18 2q30 0 43 -17t13 -43q0 -5 -0.5 -12t-1.5 -12zM179 627l-71 -69q-11 -11 -22 -15
t-19 -4q-9 0 -18.5 3t-14.5 9l100 113q12 14 24 21.5t29 7.5q32 0 47 -30l59 -115q-8 -4 -17.5 -7t-18.5 -3q-10 0 -20 5t-17 16z" />
    <glyph glyph-name="Kcommaaccent" unicode="&#x136;" horiz-adv-x="514" 
d="M462 645q25 26 58 26q12 0 23.5 -4.5t22.5 -15.5l-267 -293l177 -358q-12 -5 -24 -7t-20 -2q-23 0 -37.5 7.5t-25.5 28.5l-158 318l4 29zM134 0h-86l111 670q10 2 18 2q33 0 45 -16t12 -43q0 -5 -1 -13t-2 -13zM220 -190q-20 -32 -56 -32q-16 0 -26 6l57 117q11 21 23 32
t37 11q11 0 22 -3t18 -8z" />
    <glyph glyph-name="kcommaaccent" unicode="&#x137;" horiz-adv-x="473" 
d="M387 86q14 -22 23 -32t21 -10q4 0 9.5 0.5t10.5 2.5l7 -39q-12 -7 -29.5 -11t-32.5 -4q-29 0 -45.5 11t-31.5 36l-127 205l6 30l169 160q16 15 32 24t38 9q20 0 33 -13l11 -11l-200 -186zM131 0h-85l118 708q10 2 18 2q32 0 44 -16t12 -42q0 -5 -1 -13t-2 -13zM204 -190
q-20 -32 -55 -32q-15 0 -25 6l57 117q11 21 22.5 32t36.5 11q11 0 21.5 -3t17.5 -8z" />
    <glyph glyph-name="kgreenlandic" unicode="&#x138;" horiz-adv-x="472" 
d="M386 86q14 -22 23 -32t21 -10q4 0 9.5 0.5t10.5 2.5l7 -39q-12 -7 -29.5 -11t-32.5 -4q-29 0 -44.5 11.5t-32.5 35.5l-127 189l6 30l169 176q15 16 31.5 24.5t38.5 8.5q20 0 33 -13l11 -11l-198 -198zM130 0h-85l79 471q10 2 18 2q32 0 44 -16t12 -42q0 -5 -1 -13t-2 -13
z" />
    <glyph glyph-name="Lacute" unicode="&#x139;" horiz-adv-x="454" 
d="M362 70q31 0 43 -10.5t12 -33.5q0 -5 -1 -12t-3 -14h-365l111 670q10 2 18 2q33 0 45 -16t12 -43q0 -5 -1 -13t-2 -13l-85 -517h216zM223 735q-20 -12 -41 -12q-14 0 -24 6.5t-15 16.5l111 89q26 21 52 21q17 0 31 -12t19 -25z" />
    <glyph glyph-name="lacute" unicode="&#x13a;" horiz-adv-x="229" 
d="M147 95q-1 -6 -1.5 -11t-0.5 -10q0 -15 6 -22.5t22 -7.5q8 0 19 3l7 -39q-12 -7 -29.5 -11t-30.5 -4q-42 0 -61.5 21t-18.5 56q0 5 0.5 10.5t1.5 11.5l102 616q10 2 18 2q32 0 44.5 -16t12.5 -42q0 -5 -1 -13t-2 -13zM209 771q-20 -12 -41 -12q-14 0 -24 6.5t-15 16.5
l111 89q26 21 52 21q17 0 31 -12t19 -25z" />
    <glyph glyph-name="Lcommaaccent" unicode="&#x13b;" horiz-adv-x="454" 
d="M362 70q31 0 43 -10.5t12 -33.5q0 -5 -1 -12t-3 -14h-365l111 670q10 2 18 2q33 0 45 -16t12 -43q0 -5 -1 -13t-2 -13l-85 -517h216zM197 -190q-20 -32 -56 -32q-16 0 -26 6l57 117q11 21 23 32t37 11q11 0 22 -3t18 -8z" />
    <glyph glyph-name="lcommaaccent" unicode="&#x13c;" horiz-adv-x="229" 
d="M147 95q-1 -6 -1.5 -11t-0.5 -10q0 -15 6 -22.5t22 -7.5q8 0 19 3l7 -39q-12 -7 -29.5 -11t-30.5 -4q-42 0 -61.5 21t-18.5 56q0 5 0.5 10.5t1.5 11.5l102 616q10 2 18 2q32 0 44.5 -16t12.5 -42q0 -5 -1 -13t-2 -13zM66 -190q-20 -32 -55 -32q-15 0 -25 6l57 117
q11 21 22.5 32t36.5 11q11 0 21.5 -3t17.5 -8z" />
    <glyph glyph-name="Lcaron" unicode="&#x13d;" horiz-adv-x="454" 
d="M362 70q31 0 43 -10.5t12 -33.5q0 -5 -1 -12t-3 -14h-365l111 670q10 2 18 2q33 0 45 -16t12 -43q0 -5 -1 -13t-2 -13l-85 -517h216zM380 507q-5 -24 -20 -34.5t-33 -10.5h-7.5t-9.5 2l26 156q5 28 16 40.5t37 12.5q6 0 14 -1t15 -3z" />
    <glyph glyph-name="lcaron" unicode="&#x13e;" horiz-adv-x="277" 
d="M147 95q-1 -6 -1.5 -11t-0.5 -10q0 -15 6 -22.5t22 -7.5q8 0 19 3l7 -39q-12 -7 -29.5 -11t-30.5 -4q-42 0 -61.5 21t-18.5 56q0 5 0.5 10.5t1.5 11.5l102 616q10 2 18 2q32 0 44.5 -16t12.5 -42q0 -5 -1 -13t-2 -13zM346 544q-5 -24 -20 -34.5t-33 -10.5h-7.5t-9.5 2
l26 156q5 28 16 40.5t37 12.5q6 0 14 -1t15 -3z" />
    <glyph glyph-name="Ldot" unicode="&#x13f;" horiz-adv-x="454" 
d="M362 70q31 0 43 -10.5t12 -33.5q0 -5 -1 -12t-3 -14h-365l111 670q10 2 18 2q33 0 45 -16t12 -43q0 -5 -1 -13t-2 -13l-85 -517h216zM366 298q-21 0 -33.5 13.5t-12.5 31.5q0 29 15 49t44 20q20 0 33 -14t13 -31q0 -29 -15 -49t-44 -20z" />
    <glyph glyph-name="ldot" unicode="&#x140;" horiz-adv-x="329" 
d="M147 95q-1 -6 -1.5 -11t-0.5 -10q0 -15 6 -22.5t22 -7.5q8 0 19 3l7 -39q-12 -7 -29.5 -11t-30.5 -4q-42 0 -61.5 21t-18.5 56q0 5 0.5 10.5t1.5 11.5l102 616q10 2 18 2q32 0 44.5 -16t12.5 -42q0 -5 -1 -13t-2 -13zM308 304q-23 0 -34.5 15t-11.5 35q0 26 15.5 45
t43.5 19q23 0 34.5 -15.5t11.5 -35.5q0 -26 -16 -44.5t-43 -18.5z" />
    <glyph glyph-name="Lslash" unicode="&#x141;" horiz-adv-x="453" 
d="M362 70q31 0 43 -10.5t12 -33.5q0 -5 -1 -12t-3 -14h-365l43 260l-64 -25l-20 59l95 35l57 341q10 2 18 2q33 0 45 -16t12 -43q0 -5 -1 -13t-2 -13l-37 -225l164 61l20 -58l-196 -73l-36 -222h216z" />
    <glyph glyph-name="lslash" unicode="&#x142;" horiz-adv-x="277" 
d="M230 423l78 38l26 -56l-116 -56l-42 -254q-1 -6 -1.5 -11t-0.5 -10q0 -15 6 -22.5t22 -7.5q8 0 19 3l7 -39q-12 -7 -29.5 -11t-30.5 -4q-42 0 -61.5 21t-18.5 56q0 5 0.5 10.5t1.5 11.5l36 217l-74 -35l-26 56l112 53l54 325q10 2 18 2q32 0 44.5 -16t12.5 -42
q0 -5 -1 -13t-2 -13z" />
    <glyph glyph-name="Nacute" unicode="&#x143;" horiz-adv-x="613" 
d="M510 0h-77l-220 523l-85 -523h-80l110 666q16 6 36 6t33 -9.5t21 -29.5l205 -494l87 531q10 2 18 2q31 0 42.5 -15t11.5 -40q0 -5 -1.5 -15t-2.5 -15zM402 735q-20 -12 -41 -12q-14 0 -24 6.5t-15 16.5l111 89q26 21 52 21q17 0 31 -12t19 -25z" />
    <glyph glyph-name="nacute" unicode="&#x144;" horiz-adv-x="509" 
d="M331 0l46 277q2 13 4 28.5t2 29.5q0 30 -15 51t-51 21q-22 0 -44 -7t-41.5 -22t-33.5 -37.5t-19 -53.5l-48 -287h-85l78 471q10 2 18 2q53 0 53 -52v-11q26 30 64 50.5t86 20.5q34 0 57.5 -11t38.5 -29.5t21.5 -42.5t6.5 -50q0 -18 -2 -36t-5 -35l-46 -277h-85zM335 557
q-19 -19 -44 -19q-11 0 -22 5t-16 10l90 112q12 15 25 23.5t33 8.5q14 0 27.5 -7.5t21.5 -15.5z" />
    <glyph glyph-name="Ncommaaccent" unicode="&#x145;" horiz-adv-x="613" 
d="M510 0h-77l-220 523l-85 -523h-80l110 666q16 6 36 6t33 -9.5t21 -29.5l205 -494l87 531q10 2 18 2q31 0 42.5 -15t11.5 -40q0 -5 -1.5 -15t-2.5 -15zM247 -190q-20 -32 -56 -32q-16 0 -26 6l57 117q11 21 23 32t37 11q11 0 22 -3t18 -8z" />
    <glyph glyph-name="ncommaaccent" unicode="&#x146;" horiz-adv-x="509" 
d="M331 0l46 277q2 13 4 28.5t2 29.5q0 30 -15 51t-51 21q-22 0 -44 -7t-41.5 -22t-33.5 -37.5t-19 -53.5l-48 -287h-85l78 471q10 2 18 2q53 0 53 -52v-11q26 30 64 50.5t86 20.5q34 0 57.5 -11t38.5 -29.5t21.5 -42.5t6.5 -50q0 -18 -2 -36t-5 -35l-46 -277h-85zM194 -190
q-20 -32 -55 -32q-15 0 -25 6l57 117q11 21 22.5 32t36.5 11q11 0 21.5 -3t17.5 -8z" />
    <glyph glyph-name="Ncaron" unicode="&#x147;" horiz-adv-x="613" 
d="M510 0h-77l-220 523l-85 -523h-80l110 666q16 6 36 6t33 -9.5t21 -29.5l205 -494l87 531q10 2 18 2q31 0 42.5 -15t11.5 -40q0 -5 -1.5 -15t-2.5 -15zM392 787l58 54q12 11 23.5 15t23.5 4q9 0 19 -3t15 -9l-92 -97q-13 -14 -24.5 -21t-29.5 -7q-20 0 -30.5 9t-18.5 23
l-57 96q8 5 17.5 8t20.5 3q21 0 37 -22z" />
    <glyph glyph-name="ncaron" unicode="&#x148;" horiz-adv-x="509" 
d="M331 0l46 277q2 13 4 28.5t2 29.5q0 30 -15 51t-51 21q-22 0 -44 -7t-41.5 -22t-33.5 -37.5t-19 -53.5l-48 -287h-85l78 471q10 2 18 2q53 0 53 -52v-11q26 30 64 50.5t86 20.5q34 0 57.5 -11t38.5 -29.5t21.5 -42.5t6.5 -50q0 -18 -2 -36t-5 -35l-46 -277h-85zM323 596
l71 69q11 11 22.5 15t19.5 4q9 0 18.5 -3.5t14.5 -8.5l-100 -114q-12 -14 -24 -21.5t-29 -7.5q-18 0 -28.5 8t-18.5 23l-59 114q17 10 36 10q10 0 19.5 -4.5t16.5 -15.5z" />
    <glyph glyph-name="napostrophe" unicode="&#x149;" horiz-adv-x="509" 
d="M331 0l46 277q2 13 4 28.5t2 29.5q0 30 -15 51t-51 21q-22 0 -44 -7t-41.5 -22t-33.5 -37.5t-19 -53.5l-48 -287h-85l78 471q10 2 18 2q53 0 53 -52v-11q26 30 64 50.5t86 20.5q34 0 57.5 -11t38.5 -29.5t21.5 -42.5t6.5 -50q0 -18 -2 -36t-5 -35l-46 -277h-85zM103 531
q21 10 40 25.5t25 43.5q-11 5 -19 15t-8 27q0 27 15.5 43t36.5 16q22 0 33.5 -13.5t11.5 -36.5q0 -24 -9 -49.5t-24 -46t-34 -34t-39 -13.5q-10 0 -18.5 5.5t-10.5 17.5z" />
    <glyph glyph-name="Eng" unicode="&#x14a;" horiz-adv-x="613" 
d="M515 29q-7 -42 -19.5 -79.5t-33.5 -66t-53 -45t-77 -16.5q-29 0 -39.5 11t-10.5 34q0 13 5 26q5 -1 12.5 -1h10.5q52 0 79.5 33t37.5 90l-214 508l-85 -523h-80l110 666q16 6 36 6t33 -9.5t21 -29.5l205 -494l87 531q10 2 18 2q31 0 42.5 -15t11.5 -40q0 -5 -1.5 -15
t-2.5 -15z" />
    <glyph glyph-name="eng" unicode="&#x14b;" horiz-adv-x="509" 
d="M377 277q2 13 4 28.5t2 29.5q0 30 -15 51t-51 21q-22 0 -44 -7t-41.5 -22t-33.5 -37.5t-19 -53.5l-48 -287h-85l78 471q10 2 18 2q53 0 53 -52v-11q26 30 64 50.5t86 20.5q34 0 57.5 -11t38.5 -29.5t21.5 -42.5t6.5 -50q0 -18 -2 -36t-5 -35l-45 -272q-4 -24 -8.5 -49.5
t-11.5 -50t-16.5 -46.5t-24.5 -40q-18 -21 -44 -33.5t-61 -12.5q-28 0 -37 11.5t-9 32.5q0 5 0.5 10t1.5 10h16q48 0 71 32q12 17 18.5 40.5t11.5 49.5z" />
    <glyph glyph-name="Omacron" unicode="&#x14c;" horiz-adv-x="642" 
d="M403 682q60 0 101 -22t67 -58.5t37.5 -83.5t11.5 -96q0 -78 -19.5 -156t-60 -140.5t-101.5 -102t-144 -39.5q-60 0 -102 22t-68 58.5t-37.5 83t-11.5 96.5q0 78 20 156t60.5 140.5t102 102t144.5 39.5zM300 57q50 0 92 29.5t72.5 80t47.5 117.5t17 143q0 37 -7.5 70
t-24 58t-42.5 39.5t-62 14.5q-52 0 -94 -29.5t-71.5 -79.5t-45.5 -117.5t-16 -143.5q0 -36 7.5 -69t23.5 -58t41.5 -40t61.5 -15zM326 749q-25 0 -34.5 10.5t-9.5 27.5q0 4 1 11t3 14h231q25 0 34.5 -10.5t9.5 -27.5q0 -4 -1 -11t-3 -14h-231z" />
    <glyph glyph-name="omacron" unicode="&#x14d;" horiz-adv-x="504" 
d="M227 -15q-47 0 -79 16.5t-52 43.5t-29 61t-9 70q0 57 16.5 112t48 98t78 69t106.5 26q46 0 78 -16.5t52 -43.5t29 -61t9 -70q0 -57 -15.5 -111.5t-46.5 -97.5t-77.5 -69.5t-108.5 -26.5zM144 175q0 -25 5 -47.5t16.5 -39t28.5 -26.5t41 -10q34 0 62.5 18.5t48.5 50.5
t31.5 75.5t11.5 94.5q0 25 -5.5 47.5t-16.5 39t-28.5 26.5t-41.5 10q-34 0 -62 -18.5t-48.5 -50.5t-31.5 -75.5t-11 -94.5zM214 574q-25 0 -34.5 10.5t-9.5 27.5q0 4 1 11t3 14h231q25 0 34.5 -10.5t9.5 -27.5q0 -4 -1 -11t-3 -14h-231z" />
    <glyph glyph-name="Obreve" unicode="&#x14e;" horiz-adv-x="642" 
d="M403 682q60 0 101 -22t67 -58.5t37.5 -83.5t11.5 -96q0 -78 -19.5 -156t-60 -140.5t-101.5 -102t-144 -39.5q-60 0 -102 22t-68 58.5t-37.5 83t-11.5 96.5q0 78 20 156t60.5 140.5t102 102t144.5 39.5zM300 57q50 0 92 29.5t72.5 80t47.5 117.5t17 143q0 37 -7.5 70
t-24 58t-42.5 39.5t-62 14.5q-52 0 -94 -29.5t-71.5 -79.5t-45.5 -117.5t-16 -143.5q0 -36 7.5 -69t23.5 -58t41.5 -40t61.5 -15zM369 829q5 -32 20 -42t35 -10q23 0 41 12t34 47q9 20 18 25t23 5q20 0 34 -10q-21 -68 -57 -100.5t-98 -32.5q-61 0 -88 34t-25 102q17 7 29 7
q18 0 24.5 -8.5t9.5 -28.5z" />
    <glyph glyph-name="obreve" unicode="&#x14f;" horiz-adv-x="504" 
d="M227 -15q-47 0 -79 16.5t-52 43.5t-29 61t-9 70q0 57 16.5 112t48 98t78 69t106.5 26q46 0 78 -16.5t52 -43.5t29 -61t9 -70q0 -57 -15.5 -111.5t-46.5 -97.5t-77.5 -69.5t-108.5 -26.5zM144 175q0 -25 5 -47.5t16.5 -39t28.5 -26.5t41 -10q34 0 62.5 18.5t48.5 50.5
t31.5 75.5t11.5 94.5q0 25 -5.5 47.5t-16.5 39t-28.5 26.5t-41.5 10q-34 0 -62 -18.5t-48.5 -50.5t-31.5 -75.5t-11 -94.5zM265 645q5 -32 20 -44.5t37 -12.5q25 0 43 14.5t34 49.5q9 20 18 25t23 5q20 0 34 -10q-21 -68 -58 -103t-99 -35q-61 0 -89 36.5t-26 104.5
q17 7 29 7q18 0 24.5 -8.5t9.5 -28.5z" />
    <glyph glyph-name="Ohungarumlaut" unicode="&#x150;" horiz-adv-x="642" 
d="M403 682q60 0 101 -22t67 -58.5t37.5 -83.5t11.5 -96q0 -78 -19.5 -156t-60 -140.5t-101.5 -102t-144 -39.5q-60 0 -102 22t-68 58.5t-37.5 83t-11.5 96.5q0 78 20 156t60.5 140.5t102 102t144.5 39.5zM300 57q50 0 92 29.5t72.5 80t47.5 117.5t17 143q0 37 -7.5 70
t-24 58t-42.5 39.5t-62 14.5q-52 0 -94 -29.5t-71.5 -79.5t-45.5 -117.5t-16 -143.5q0 -36 7.5 -69t23.5 -58t41.5 -40t61.5 -15zM345 734q-9 -6 -18 -9t-21 -3q-14 0 -22.5 6.5t-14.5 15.5l110 89q11 9 23.5 15.5t25.5 6.5q18 0 30 -12t17 -25zM518 734q-10 -6 -18.5 -9
t-20.5 -3q-14 0 -23 6.5t-14 15.5l109 89q11 10 23.5 16t26.5 6q18 0 30 -12t17 -25z" />
    <glyph glyph-name="ohungarumlaut" unicode="&#x151;" horiz-adv-x="504" 
d="M227 -15q-47 0 -79 16.5t-52 43.5t-29 61t-9 70q0 57 16.5 112t48 98t78 69t106.5 26q46 0 78 -16.5t52 -43.5t29 -61t9 -70q0 -57 -15.5 -111.5t-46.5 -97.5t-77.5 -69.5t-108.5 -26.5zM144 175q0 -25 5 -47.5t16.5 -39t28.5 -26.5t41 -10q34 0 62.5 18.5t48.5 50.5
t31.5 75.5t11.5 94.5q0 25 -5.5 47.5t-16.5 39t-28.5 26.5t-41.5 10q-34 0 -62 -18.5t-48.5 -50.5t-31.5 -75.5t-11 -94.5zM269 557q-18 -19 -43 -19q-11 0 -21.5 5t-15.5 10l91 112q12 15 26 23.5t31 8.5q14 0 26.5 -7.5t20.5 -15.5zM428 557q-18 -19 -43 -19
q-11 0 -21.5 5t-15.5 10l91 112q12 15 26 23.5t31 8.5q14 0 26.5 -7.5t20.5 -15.5z" />
    <glyph glyph-name="OE" unicode="&#x152;" horiz-adv-x="815" 
d="M166 240q0 -37 8 -68t25 -53.5t43 -35t61 -12.5h103l88 528h-96q-53 0 -96 -26t-73 -73.5t-46.5 -113.5t-16.5 -146zM581 599l-36 -216h200l-12 -70h-199l-41 -243h220q30 0 42 -10.5t12 -33.5q0 -5 -1 -12t-3 -14h-465q-60 0 -102 18.5t-69 51.5t-39 78t-12 97
q0 82 19.5 158.5t60 135.5t102.5 94.5t148 35.5h449q0 -35 -13 -52.5t-49 -17.5h-212z" />
    <glyph glyph-name="oe" unicode="&#x153;" horiz-adv-x="783" 
d="M296 413q-34 0 -62 -18.5t-48.5 -50.5t-31.5 -75.5t-11 -94.5t22 -86.5t69 -35.5q34 0 62.5 18t48.5 50t31.5 75.5t11.5 93.5q0 51 -22 87.5t-70 36.5zM501 246q40 0 74 8t59 22.5t39 35t14 46.5q0 23 -13 39.5t-46 16.5q-29 0 -54.5 -12.5t-46 -35t-35 -53t-21.5 -66.5
q9 -1 16.5 -1h13.5zM559 -15q-55 0 -94.5 22t-60.5 72q-30 -41 -72 -67.5t-105 -26.5q-47 0 -79 16.5t-52 43t-29 60.5t-9 70q0 57 16 112t47.5 98t78 69.5t106.5 26.5q31 0 54.5 -8t41 -22t29.5 -32t20 -38q35 45 81.5 72.5t104.5 27.5q63 0 97 -32.5t34 -84.5
q0 -48 -23.5 -81.5t-61 -54.5t-83.5 -30.5t-90 -9.5h-23t-23 1v-13q0 -61 29 -92.5t76 -31.5q39 0 71 16.5t57 47.5l13 -9q10 -7 15.5 -15t5.5 -19q0 -16 -18 -34q-9 -9 -22 -18.5t-31.5 -17.5t-43.5 -13t-57 -5z" />
    <glyph glyph-name="Racute" unicode="&#x154;" horiz-adv-x="518" 
d="M466 1q-25 -10 -48 -10q-29 0 -41 13t-23 39l-96 236h-80l-46 -279h-84l110 667q24 2 43 4t36 3t34 1.5t37 0.5q52 0 91 -13t65.5 -35.5t39.5 -53t13 -64.5q0 -94 -46 -146.5t-125 -71.5zM426 500q0 56 -36 81.5t-93 25.5q-35 0 -66 -3l-42 -256h62q39 0 71 8t55 26
t36 47t13 71zM333 735q-20 -12 -41 -12q-14 0 -24 6.5t-15 16.5l111 89q26 21 52 21q17 0 31 -12t19 -25z" />
    <glyph glyph-name="racute" unicode="&#x155;" horiz-adv-x="366" 
d="M195 410q25 26 57.5 48t70.5 22q32 0 52.5 -15.5t20.5 -41.5q0 -17 -8 -28t-21 -19l-16 -10q-11 24 -25.5 31.5t-31.5 7.5q-18 0 -36.5 -8.5t-34 -24.5t-27.5 -38.5t-17 -50.5l-48 -283h-85l78 471q10 2 18 2q53 0 53 -52v-11zM290 557q-19 -19 -44 -19q-11 0 -22 5
t-16 10l90 112q12 15 25 23.5t33 8.5q14 0 27.5 -7.5t21.5 -15.5z" />
    <glyph glyph-name="Rcommaaccent" unicode="&#x156;" horiz-adv-x="518" 
d="M466 1q-25 -10 -48 -10q-29 0 -41 13t-23 39l-96 236h-80l-46 -279h-84l110 667q24 2 43 4t36 3t34 1.5t37 0.5q52 0 91 -13t65.5 -35.5t39.5 -53t13 -64.5q0 -94 -46 -146.5t-125 -71.5zM426 500q0 56 -36 81.5t-93 25.5q-35 0 -66 -3l-42 -256h62q39 0 71 8t55 26
t36 47t13 71zM210 -190q-20 -32 -56 -32q-16 0 -26 6l57 117q11 21 23 32t37 11q11 0 22 -3t18 -8z" />
    <glyph glyph-name="rcommaaccent" unicode="&#x157;" horiz-adv-x="366" 
d="M195 410q25 26 57.5 48t70.5 22q32 0 52.5 -15.5t20.5 -41.5q0 -17 -8 -28t-21 -19l-16 -10q-11 24 -25.5 31.5t-31.5 7.5q-18 0 -36.5 -8.5t-34 -24.5t-27.5 -38.5t-17 -50.5l-48 -283h-85l78 471q10 2 18 2q53 0 53 -52v-11zM46 -190q-20 -32 -55 -32q-15 0 -25 6
l57 117q11 21 22.5 32t36.5 11q11 0 21.5 -3t17.5 -8z" />
    <glyph glyph-name="Rcaron" unicode="&#x158;" horiz-adv-x="518" 
d="M466 1q-25 -10 -48 -10q-29 0 -41 13t-23 39l-96 236h-80l-46 -279h-84l110 667q24 2 43 4t36 3t34 1.5t37 0.5q52 0 91 -13t65.5 -35.5t39.5 -53t13 -64.5q0 -94 -46 -146.5t-125 -71.5zM426 500q0 56 -36 81.5t-93 25.5q-35 0 -66 -3l-42 -256h62q39 0 71 8t55 26
t36 47t13 71zM322 787l58 54q12 11 23.5 15t23.5 4q9 0 19 -3t15 -9l-92 -97q-13 -14 -24.5 -21t-29.5 -7q-20 0 -30.5 9t-18.5 23l-57 96q8 5 17.5 8t20.5 3q21 0 37 -22z" />
    <glyph glyph-name="rcaron" unicode="&#x159;" horiz-adv-x="366" 
d="M195 410q25 26 57.5 48t70.5 22q32 0 52.5 -15.5t20.5 -41.5q0 -17 -8 -28t-21 -19l-16 -10q-11 24 -25.5 31.5t-31.5 7.5q-18 0 -36.5 -8.5t-34 -24.5t-27.5 -38.5t-17 -50.5l-48 -283h-85l78 471q10 2 18 2q53 0 53 -52v-11zM262 596l71 69q11 11 22.5 15t19.5 4
q9 0 18.5 -3.5t14.5 -8.5l-100 -114q-12 -14 -24 -21.5t-29 -7.5q-18 0 -28.5 8t-18.5 23l-59 114q17 10 36 10q10 0 19.5 -4.5t16.5 -15.5z" />
    <glyph glyph-name="Sacute" unicode="&#x15a;" horiz-adv-x="483" 
d="M458 631q10 -9 14 -19.5t4 -19.5q0 -13 -9 -26.5t-33 -22.5q-25 36 -57 50.5t-73 14.5q-54 0 -87 -27.5t-33 -69.5q0 -26 9.5 -45t26 -35t38.5 -29.5t48 -29.5q31 -19 56.5 -38t43.5 -40.5t27.5 -47.5t9.5 -60q0 -50 -17.5 -87.5t-48 -63t-73 -38t-92.5 -12.5
q-52 0 -97 14t-68 36q-9 9 -13 16.5t-4 18.5q0 29 33 52q30 -31 65.5 -47.5t86.5 -16.5q70 0 103.5 34t33.5 84q0 28 -9 48t-25.5 35.5t-38.5 29.5t-49 29q-27 16 -51.5 33.5t-42.5 38.5t-28.5 48t-10.5 63q0 42 17 75.5t46.5 57t68 35.5t82.5 12q29 0 53 -5.5t42.5 -13
t31 -16t20.5 -15.5zM316 735q-20 -12 -41 -12q-14 0 -24 6.5t-15 16.5l111 89q26 21 52 21q17 0 31 -12t19 -25z" />
    <glyph glyph-name="sacute" unicode="&#x15b;" horiz-adv-x="395" 
d="M182 -15q-94 0 -141 41q-15 13 -15 31q0 16 11 28l16 17q23 -23 52 -36.5t65 -13.5q26 0 43 7t27 17.5t14 24t4 25.5q0 29 -24 49t-55 40q-18 11 -35.5 24t-31.5 29t-22.5 36t-8.5 47q0 25 10.5 48.5t31 41.5t51.5 29t72 11q45 0 78 -16.5t48 -36.5q9 -12 9 -24
q0 -11 -6 -19t-16 -15l-15 -10q-20 31 -45 44t-57 13q-43 0 -60.5 -19t-17.5 -42q0 -16 6 -27.5t17.5 -21.5t27 -20.5t35.5 -23.5q27 -18 45 -34t29 -31.5t15.5 -33.5t4.5 -40q0 -29 -11 -54.5t-32 -44t-51 -29.5t-68 -11zM278 557q-19 -19 -44 -19q-11 0 -22 5t-16 10
l90 112q12 15 25 23.5t33 8.5q14 0 27.5 -7.5t21.5 -15.5z" />
    <glyph glyph-name="Scircumflex" unicode="&#x15c;" horiz-adv-x="483" 
d="M458 631q10 -9 14 -19.5t4 -19.5q0 -13 -9 -26.5t-33 -22.5q-25 36 -57 50.5t-73 14.5q-54 0 -87 -27.5t-33 -69.5q0 -26 9.5 -45t26 -35t38.5 -29.5t48 -29.5q31 -19 56.5 -38t43.5 -40.5t27.5 -47.5t9.5 -60q0 -50 -17.5 -87.5t-48 -63t-73 -38t-92.5 -12.5
q-52 0 -97 14t-68 36q-9 9 -13 16.5t-4 18.5q0 29 33 52q30 -31 65.5 -47.5t86.5 -16.5q70 0 103.5 34t33.5 84q0 28 -9 48t-25.5 35.5t-38.5 29.5t-49 29q-27 16 -51.5 33.5t-42.5 38.5t-28.5 48t-10.5 63q0 42 17 75.5t46.5 57t68 35.5t82.5 12q29 0 53 -5.5t42.5 -13
t31 -16t20.5 -15.5zM325 798l-58 -55q-22 -19 -46 -19q-9 0 -19 3.5t-15 8.5l92 97q13 14 25 21t30 7q19 0 29.5 -8.5t18.5 -22.5l57 -97q-17 -10 -38 -10q-23 0 -38 21z" />
    <glyph glyph-name="scircumflex" unicode="&#x15d;" horiz-adv-x="395" 
d="M182 -15q-94 0 -141 41q-15 13 -15 31q0 16 11 28l16 17q23 -23 52 -36.5t65 -13.5q26 0 43 7t27 17.5t14 24t4 25.5q0 29 -24 49t-55 40q-18 11 -35.5 24t-31.5 29t-22.5 36t-8.5 47q0 25 10.5 48.5t31 41.5t51.5 29t72 11q45 0 78 -16.5t48 -36.5q9 -12 9 -24
q0 -11 -6 -19t-16 -15l-15 -10q-20 31 -45 44t-57 13q-43 0 -60.5 -19t-17.5 -42q0 -16 6 -27.5t17.5 -21.5t27 -20.5t35.5 -23.5q27 -18 45 -34t29 -31.5t15.5 -33.5t4.5 -40q0 -29 -11 -54.5t-32 -44t-51 -29.5t-68 -11zM263 627l-71 -69q-11 -11 -22 -15t-19 -4
q-9 0 -18.5 3t-14.5 9l100 113q12 14 24 21.5t29 7.5q32 0 47 -30l59 -115q-8 -4 -17.5 -7t-18.5 -3q-10 0 -20 5t-17 16z" />
    <glyph glyph-name="Scedilla" unicode="&#x15e;" horiz-adv-x="483" 
d="M162 -215q-18 0 -27 8.5t-9 20.5q0 7 2.5 14t6.5 14q11 -4 25 -4q18 0 28.5 8t10.5 24q0 9 -4 16.5t-8.5 14.5t-8.5 15t-4 18q0 16 6 28.5t15 23.5q-48 2 -87.5 15.5t-60.5 33.5q-9 9 -13 16.5t-4 18.5q0 29 33 52q30 -31 65.5 -47.5t86.5 -16.5q70 0 103.5 34t33.5 84
q0 28 -9 48t-25.5 35.5t-38.5 29.5t-49 29q-27 16 -51.5 33.5t-42.5 38.5t-28.5 48t-10.5 63q0 42 17 75.5t46.5 57t68 35.5t82.5 12q29 0 53 -5.5t42.5 -13t31 -16t20.5 -15.5q10 -9 14 -19.5t4 -19.5q0 -13 -9 -26.5t-33 -22.5q-25 36 -57 50.5t-73 14.5q-54 0 -87 -27.5
t-33 -69.5q0 -26 9.5 -45t26 -35t38.5 -29.5t48 -29.5q31 -19 56.5 -38t43.5 -40.5t27.5 -47.5t9.5 -60q0 -45 -14.5 -80.5t-40 -60.5t-61.5 -39.5t-79 -18.5q-6 -8 -10.5 -16.5t-4.5 -18.5q0 -9 5.5 -16.5t11.5 -16.5t11.5 -20t5.5 -27q0 -24 -9.5 -40.5t-25 -27t-34 -15
t-36.5 -4.5z" />
    <glyph glyph-name="scedilla" unicode="&#x15f;" horiz-adv-x="395" 
d="M115 -215q-18 0 -27 8.5t-9 20.5q0 7 2.5 14t6.5 14q11 -4 25 -4q18 0 28.5 8t10.5 24q0 9 -4 16.5t-8.5 14.5t-8.5 15t-4 18q0 16 6.5 29t14.5 24q-70 6 -107 39q-15 13 -15 31q0 16 11 28l16 17q23 -23 52 -36.5t65 -13.5q26 0 43 7t27 17.5t14 24t4 25.5q0 29 -24 49
t-55 40q-18 11 -35.5 24t-31.5 29t-22.5 36t-8.5 47q0 25 10.5 48.5t31 41.5t51.5 29t72 11q45 0 78 -16.5t48 -36.5q9 -12 9 -24q0 -11 -6 -19t-16 -15l-15 -10q-20 31 -45 44t-57 13q-43 0 -60.5 -19t-17.5 -42q0 -16 6 -27.5t17.5 -21.5t27 -20.5t35.5 -23.5
q27 -18 45 -34t29 -31.5t15.5 -33.5t4.5 -40q0 -27 -10 -51t-28.5 -42.5t-45 -30t-60.5 -14.5q-6 -8 -10 -16t-4 -18q0 -9 5.5 -16.5t11.5 -16.5t11.5 -20t5.5 -27q0 -24 -9.5 -40.5t-25 -27t-34 -15t-36.5 -4.5z" />
    <glyph glyph-name="Scaron" unicode="&#x160;" horiz-adv-x="483" 
d="M458 631q10 -9 14 -19.5t4 -19.5q0 -13 -9 -26.5t-33 -22.5q-25 36 -57 50.5t-73 14.5q-54 0 -87 -27.5t-33 -69.5q0 -26 9.5 -45t26 -35t38.5 -29.5t48 -29.5q31 -19 56.5 -38t43.5 -40.5t27.5 -47.5t9.5 -60q0 -50 -17.5 -87.5t-48 -63t-73 -38t-92.5 -12.5
q-52 0 -97 14t-68 36q-9 9 -13 16.5t-4 18.5q0 29 33 52q30 -31 65.5 -47.5t86.5 -16.5q70 0 103.5 34t33.5 84q0 28 -9 48t-25.5 35.5t-38.5 29.5t-49 29q-27 16 -51.5 33.5t-42.5 38.5t-28.5 48t-10.5 63q0 42 17 75.5t46.5 57t68 35.5t82.5 12q29 0 53 -5.5t42.5 -13
t31 -16t20.5 -15.5zM320 787l58 54q12 11 23.5 15t23.5 4q9 0 19 -3t15 -9l-92 -97q-13 -14 -24.5 -21t-29.5 -7q-20 0 -30.5 9t-18.5 23l-57 96q8 5 17.5 8t20.5 3q21 0 37 -22z" />
    <glyph glyph-name="scaron" unicode="&#x161;" horiz-adv-x="395" 
d="M182 -15q-94 0 -141 41q-15 13 -15 31q0 16 11 28l16 17q23 -23 52 -36.5t65 -13.5q26 0 43 7t27 17.5t14 24t4 25.5q0 29 -24 49t-55 40q-18 11 -35.5 24t-31.5 29t-22.5 36t-8.5 47q0 25 10.5 48.5t31 41.5t51.5 29t72 11q45 0 78 -16.5t48 -36.5q9 -12 9 -24
q0 -11 -6 -19t-16 -15l-15 -10q-20 31 -45 44t-57 13q-43 0 -60.5 -19t-17.5 -42q0 -16 6 -27.5t17.5 -21.5t27 -20.5t35.5 -23.5q27 -18 45 -34t29 -31.5t15.5 -33.5t4.5 -40q0 -29 -11 -54.5t-32 -44t-51 -29.5t-68 -11zM259 596l71 69q11 11 22.5 15t19.5 4
q9 0 18.5 -3.5t14.5 -8.5l-100 -114q-12 -14 -24 -21.5t-29 -7.5q-18 0 -28.5 8t-18.5 23l-59 114q17 10 36 10q10 0 19.5 -4.5t16.5 -15.5z" />
    <glyph glyph-name="uni0162" unicode="&#x162;" horiz-adv-x="517" 
d="M158 -215q-18 0 -27 8.5t-9 20.5q0 7 2.5 14t6.5 14q11 -4 25 -4q18 0 28.5 8t10.5 24q0 9 -4 16.5t-8.5 14.5t-8.5 15t-4 18q0 22 12 39t24 27h-19l99 597h-201q0 37 13.5 54.5t50.5 17.5h433q0 -37 -13.5 -54.5t-50.5 -17.5h-146l-99 -597h-15q-11 -9 -20 -21.5
t-9 -26.5q0 -9 5.5 -16.5t11.5 -16.5t11.5 -20t5.5 -27q0 -24 -9.5 -40.5t-25 -27t-34 -15t-36.5 -4.5z" />
    <glyph glyph-name="uni0163" unicode="&#x163;" horiz-adv-x="333" 
d="M107 -215q-18 0 -27 8.5t-9 20.5q0 7 2.5 14t6.5 14q11 -4 25 -4q18 0 28.5 8t10.5 24q0 9 -4 16.5t-8.5 14.5t-8.5 15t-4 18q0 17 7 31t17 24q-42 10 -62 40.5t-20 80.5q0 7 1 17t3 21l76 466q10 2 18 2q32 0 44.5 -16t12.5 -42q0 -5 -1 -13t-2 -13l-10 -60h135l-12 -67
h-134l-34 -211q-3 -17 -7 -43t-3 -44q1 -23 13 -39t41 -16q20 0 37.5 11t31.5 29l16 -15q13 -12 13 -29q0 -19 -22 -36q-15 -12 -36.5 -19t-49.5 -8q-6 -7 -10 -15.5t-4 -17.5t5.5 -16.5t11.5 -16.5t11.5 -20t5.5 -27q0 -24 -9.5 -40.5t-25 -27t-34 -15t-36.5 -4.5z" />
    <glyph glyph-name="Tcaron" unicode="&#x164;" horiz-adv-x="517" 
d="M582 669q0 -37 -13.5 -54.5t-50.5 -17.5h-146l-99 -597h-86l99 597h-201q0 37 13.5 54.5t50.5 17.5h433zM351 787l58 54q12 11 23.5 15t23.5 4q9 0 19 -3t15 -9l-92 -97q-13 -14 -24.5 -21t-29.5 -7q-20 0 -30.5 9t-18.5 23l-57 96q8 5 17.5 8t20.5 3q21 0 37 -22z" />
    <glyph glyph-name="tcaron" unicode="&#x165;" horiz-adv-x="333" 
d="M333 567q-6 -23 -19.5 -33t-31.5 -10h-7t-9 2l25 143q5 27 15 39t36 12q6 0 13.5 -1t14.5 -3zM203 472h135l-12 -67h-134l-34 -211q-3 -17 -7 -43t-3 -44q1 -23 13 -39t41 -16q20 0 37.5 11t31.5 29l16 -15q13 -12 13 -29q0 -19 -22 -36q-33 -27 -94 -27q-62 0 -92.5 32
t-30.5 93q0 7 1 17t3 21l76 466q10 2 18 2q32 0 44.5 -16t12.5 -42q0 -5 -1 -13t-2 -13z" />
    <glyph glyph-name="Tbar" unicode="&#x166;" horiz-adv-x="517" 
d="M581 669q0 -37 -13.5 -54.5t-50.5 -17.5h-146l-43 -260h162l-11 -66h-162l-45 -271h-86l45 271h-151l11 66h151l43 260h-201q0 37 13.5 54.5t50.5 17.5h433z" />
    <glyph glyph-name="tbar" unicode="&#x167;" horiz-adv-x="333" 
d="M203 472h135l-12 -67h-134l-19 -116h130l-12 -67h-129l-4 -28q-3 -17 -7 -43t-3 -44q1 -23 13 -39t41 -16q20 0 37.5 11t31.5 29l16 -15q13 -12 13 -29q0 -19 -22 -36q-33 -27 -94 -27q-62 0 -92.5 32t-30.5 93q0 7 1 17t3 21l76 466q10 2 18 2q32 0 44.5 -16t12.5 -42
q0 -5 -1 -13t-2 -13z" />
    <glyph glyph-name="Utilde" unicode="&#x168;" horiz-adv-x="588" 
d="M537 253q-9 -58 -26 -107t-46 -85t-73.5 -56t-110.5 -20q-55 0 -94 13.5t-63.5 38.5t-36 61t-11.5 80q0 20 2.5 45t6.5 47l66 400q10 2 18 2q33 0 45 -16t12 -43q0 -5 -1 -13t-2 -13l-53 -323q-4 -21 -5 -45t-1 -41q0 -54 27.5 -88t93.5 -34q72 0 110.5 46t55.5 146
l69 422q10 2 18 2q33 0 45 -16t12 -43q0 -5 -1 -13t-2 -13zM319 772q-16 0 -32.5 -7t-33.5 -36q-15 7 -21 16.5t-6 19.5q0 13 7.5 25.5t21 22t32 15t39.5 5.5q19 0 34 -6t27.5 -12.5t24 -12.5t24.5 -6q20 0 35 10t32 39q27 -13 27 -35q0 -27 -26 -50.5t-74 -23.5
q-18 0 -32 5.5t-27 12.5t-25 12.5t-27 5.5z" />
    <glyph glyph-name="utilde" unicode="&#x169;" horiz-adv-x="501" 
d="M421 95q-1 -6 -1.5 -11t-0.5 -10q0 -15 6 -22.5t22 -7.5q8 0 19 3l7 -39q-12 -7 -29.5 -11t-30.5 -4q-36 0 -54.5 15t-23.5 49q-12 -15 -26.5 -28t-31.5 -22.5t-38.5 -15.5t-48.5 -6q-65 0 -96 37t-31 96q0 33 6 68l47 285q10 2 18 2q30 0 43 -17t13 -43q0 -5 -0.5 -12
t-1.5 -12l-34 -203q-2 -12 -3 -25t-1 -26q0 -37 16.5 -59.5t55.5 -22.5q21 0 42 9t38 26t29.5 40t17.5 52l48 291q10 2 18 2q30 0 43 -17t13 -43q0 -5 -0.5 -12t-1.5 -12zM236 589q-16 0 -32.5 -7t-33.5 -36q-15 7 -21 16.5t-6 19.5q0 13 7.5 25.5t21 22t32 15t39.5 5.5
q19 0 34 -6t27.5 -12.5t24 -12.5t24.5 -6q20 0 35 10t32 39q27 -13 27 -35q0 -27 -26 -50.5t-74 -23.5q-18 0 -32 5.5t-27 12.5t-25 12.5t-27 5.5z" />
    <glyph glyph-name="Umacron" unicode="&#x16a;" horiz-adv-x="588" 
d="M537 253q-9 -58 -26 -107t-46 -85t-73.5 -56t-110.5 -20q-55 0 -94 13.5t-63.5 38.5t-36 61t-11.5 80q0 20 2.5 45t6.5 47l66 400q10 2 18 2q33 0 45 -16t12 -43q0 -5 -1 -13t-2 -13l-53 -323q-4 -21 -5 -45t-1 -41q0 -54 27.5 -88t93.5 -34q72 0 110.5 46t55.5 146
l69 422q10 2 18 2q33 0 45 -16t12 -43q0 -5 -1 -13t-2 -13zM286 749q-25 0 -34.5 10.5t-9.5 27.5q0 4 1 11t3 14h231q25 0 34.5 -10.5t9.5 -27.5q0 -4 -1 -11t-3 -14h-231z" />
    <glyph glyph-name="umacron" unicode="&#x16b;" horiz-adv-x="501" 
d="M421 95q-1 -6 -1.5 -11t-0.5 -10q0 -15 6 -22.5t22 -7.5q8 0 19 3l7 -39q-12 -7 -29.5 -11t-30.5 -4q-36 0 -54.5 15t-23.5 49q-12 -15 -26.5 -28t-31.5 -22.5t-38.5 -15.5t-48.5 -6q-65 0 -96 37t-31 96q0 33 6 68l47 285q10 2 18 2q30 0 43 -17t13 -43q0 -5 -0.5 -12
t-1.5 -12l-34 -203q-2 -12 -3 -25t-1 -26q0 -37 16.5 -59.5t55.5 -22.5q21 0 42 9t38 26t29.5 40t17.5 52l48 291q10 2 18 2q30 0 43 -17t13 -43q0 -5 -0.5 -12t-1.5 -12zM201 574q-25 0 -34.5 10.5t-9.5 27.5q0 4 1 11t3 14h231q25 0 34.5 -10.5t9.5 -27.5q0 -4 -1 -11
t-3 -14h-231z" />
    <glyph glyph-name="Ubreve" unicode="&#x16c;" horiz-adv-x="588" 
d="M537 253q-9 -58 -26 -107t-46 -85t-73.5 -56t-110.5 -20q-55 0 -94 13.5t-63.5 38.5t-36 61t-11.5 80q0 20 2.5 45t6.5 47l66 400q10 2 18 2q33 0 45 -16t12 -43q0 -5 -1 -13t-2 -13l-53 -323q-4 -21 -5 -45t-1 -41q0 -54 27.5 -88t93.5 -34q72 0 110.5 46t55.5 146
l69 422q10 2 18 2q33 0 45 -16t12 -43q0 -5 -1 -13t-2 -13zM329 829q5 -32 20 -42t35 -10q23 0 41 12t34 47q9 20 18 25t23 5q20 0 34 -10q-21 -68 -57 -100.5t-98 -32.5q-61 0 -88 34t-25 102q17 7 29 7q18 0 24.5 -8.5t9.5 -28.5z" />
    <glyph glyph-name="ubreve" unicode="&#x16d;" horiz-adv-x="501" 
d="M421 95q-1 -6 -1.5 -11t-0.5 -10q0 -15 6 -22.5t22 -7.5q8 0 19 3l7 -39q-12 -7 -29.5 -11t-30.5 -4q-36 0 -54.5 15t-23.5 49q-12 -15 -26.5 -28t-31.5 -22.5t-38.5 -15.5t-48.5 -6q-65 0 -96 37t-31 96q0 33 6 68l47 285q10 2 18 2q30 0 43 -17t13 -43q0 -5 -0.5 -12
t-1.5 -12l-34 -203q-2 -12 -3 -25t-1 -26q0 -37 16.5 -59.5t55.5 -22.5q21 0 42 9t38 26t29.5 40t17.5 52l48 291q10 2 18 2q30 0 43 -17t13 -43q0 -5 -0.5 -12t-1.5 -12zM244 645q5 -32 20 -44.5t37 -12.5q25 0 43 14.5t34 49.5q9 20 18 25t23 5q20 0 34 -10
q-21 -68 -58 -103t-99 -35q-61 0 -89 36.5t-26 104.5q17 7 29 7q18 0 24.5 -8.5t9.5 -28.5z" />
    <glyph glyph-name="Uring" unicode="&#x16e;" horiz-adv-x="588" 
d="M537 253q-9 -58 -26 -107t-46 -85t-73.5 -56t-110.5 -20q-55 0 -94 13.5t-63.5 38.5t-36 61t-11.5 80q0 20 2.5 45t6.5 47l66 400q10 2 18 2q33 0 45 -16t12 -43q0 -5 -1 -13t-2 -13l-53 -323q-4 -21 -5 -45t-1 -41q0 -54 27.5 -88t93.5 -34q72 0 110.5 46t55.5 146
l69 422q10 2 18 2q33 0 45 -16t12 -43q0 -5 -1 -13t-2 -13zM476 806q0 -22 -7.5 -42t-21 -35t-33 -23.5t-44.5 -8.5q-50 0 -78 31.5t-28 76.5t28 77t78 32q25 0 44.5 -8.5t33 -23.5t21 -34.5t7.5 -41.5zM427 805q0 26 -15.5 45.5t-41.5 19.5t-42 -19t-16 -45t15.5 -45.5
t42.5 -19.5q26 0 41.5 19t15.5 45z" />
    <glyph glyph-name="uring" unicode="&#x16f;" horiz-adv-x="501" 
d="M421 95q-1 -6 -1.5 -11t-0.5 -10q0 -15 6 -22.5t22 -7.5q8 0 19 3l7 -39q-12 -7 -29.5 -11t-30.5 -4q-36 0 -54.5 15t-23.5 49q-12 -15 -26.5 -28t-31.5 -22.5t-38.5 -15.5t-48.5 -6q-65 0 -96 37t-31 96q0 33 6 68l47 285q10 2 18 2q30 0 43 -17t13 -43q0 -5 -0.5 -12
t-1.5 -12l-34 -203q-2 -12 -3 -25t-1 -26q0 -37 16.5 -59.5t55.5 -22.5q21 0 42 9t38 26t29.5 40t17.5 52l48 291q10 2 18 2q30 0 43 -17t13 -43q0 -5 -0.5 -12t-1.5 -12zM400 642q0 -45 -28.5 -77t-77.5 -32q-24 0 -44 8.5t-33.5 23.5t-21 34.5t-7.5 41.5q0 46 28.5 78
t77.5 32t77.5 -30t28.5 -79zM348 641q0 23 -11.5 42.5t-43.5 19.5q-27 0 -39.5 -19t-12.5 -42q0 -24 13.5 -42t39.5 -18t40 17.5t14 41.5z" />
    <glyph glyph-name="Uhungarumlaut" unicode="&#x170;" horiz-adv-x="588" 
d="M537 253q-9 -58 -26 -107t-46 -85t-73.5 -56t-110.5 -20q-55 0 -94 13.5t-63.5 38.5t-36 61t-11.5 80q0 20 2.5 45t6.5 47l66 400q10 2 18 2q33 0 45 -16t12 -43q0 -5 -1 -13t-2 -13l-53 -323q-4 -21 -5 -45t-1 -41q0 -54 27.5 -88t93.5 -34q72 0 110.5 46t55.5 146
l69 422q10 2 18 2q33 0 45 -16t12 -43q0 -5 -1 -13t-2 -13zM306 734q-9 -6 -18 -9t-21 -3q-14 0 -22.5 6.5t-14.5 15.5l110 89q11 9 23.5 15.5t25.5 6.5q18 0 30 -12t17 -25zM479 734q-10 -6 -18.5 -9t-20.5 -3q-14 0 -23 6.5t-14 15.5l109 89q11 10 23.5 16t26.5 6
q18 0 30 -12t17 -25z" />
    <glyph glyph-name="uhungarumlaut" unicode="&#x171;" horiz-adv-x="501" 
d="M421 95q-1 -6 -1.5 -11t-0.5 -10q0 -15 6 -22.5t22 -7.5q8 0 19 3l7 -39q-12 -7 -29.5 -11t-30.5 -4q-36 0 -54.5 15t-23.5 49q-12 -15 -26.5 -28t-31.5 -22.5t-38.5 -15.5t-48.5 -6q-65 0 -96 37t-31 96q0 33 6 68l47 285q10 2 18 2q30 0 43 -17t13 -43q0 -5 -0.5 -12
t-1.5 -12l-34 -203q-2 -12 -3 -25t-1 -26q0 -37 16.5 -59.5t55.5 -22.5q21 0 42 9t38 26t29.5 40t17.5 52l48 291q10 2 18 2q30 0 43 -17t13 -43q0 -5 -0.5 -12t-1.5 -12zM249 557q-18 -19 -43 -19q-11 0 -21.5 5t-15.5 10l91 112q12 15 26 23.5t31 8.5q14 0 26.5 -7.5
t20.5 -15.5zM408 557q-18 -19 -43 -19q-11 0 -21.5 5t-15.5 10l91 112q12 15 26 23.5t31 8.5q14 0 26.5 -7.5t20.5 -15.5z" />
    <glyph glyph-name="Uogonek" unicode="&#x172;" horiz-adv-x="588" 
d="M291 -125q0 -15 8 -22.5t20 -7.5q13 0 23 7t18 16q17 -11 17 -29q0 -11 -3 -16t-8 -11q-11 -11 -30 -17.5t-40 -6.5q-30 0 -52.5 18.5t-22.5 53.5q0 37 20 69.5t46 55.5h-6q-55 0 -94 13.5t-63.5 38.5t-36 61t-11.5 80q0 20 2.5 45t6.5 47l66 400q10 2 18 2q33 0 45 -16
t12 -43q0 -5 -1 -13t-2 -13l-53 -323q-4 -21 -5 -45t-1 -41q0 -54 27.5 -88t93.5 -34q72 0 110.5 46t55.5 146l69 422q10 2 18 2q33 0 45 -16t12 -43q0 -5 -1 -13t-2 -13l-55 -334q-8 -45 -19.5 -85.5t-30 -73.5t-45.5 -57t-64 -37q-15 -9 -30.5 -23t-28 -31t-20.5 -35
t-8 -36z" />
    <glyph glyph-name="uogonek" unicode="&#x173;" horiz-adv-x="501" 
d="M377 -125q0 -15 8 -22.5t20 -7.5q13 0 23 7t18 16q17 -11 17 -29q0 -11 -3 -16t-8 -11q-11 -11 -30 -17.5t-40 -6.5q-30 0 -52.5 18.5t-22.5 53.5q0 20 7.5 39.5t19.5 36.5t27.5 32t30.5 27q-50 7 -57 62q-12 -15 -26.5 -28t-31.5 -22.5t-38.5 -15.5t-48.5 -6
q-65 0 -96 37t-31 96q0 33 6 68l47 285q10 2 18 2q30 0 43 -17t13 -43q0 -5 -0.5 -12t-1.5 -12l-34 -203q-2 -12 -3 -25t-1 -26q0 -37 16.5 -59.5t55.5 -22.5q21 0 42 9t38 26t29.5 40t17.5 52l48 291q10 2 18 2q30 0 43 -17t13 -43q0 -5 -0.5 -12t-1.5 -12l-48 -294
q-1 -6 -1.5 -11t-0.5 -10q0 -15 6 -22.5t22 -7.5q8 0 19 3l7 -39l-3 -2q-16 -10 -32.5 -25t-30 -32.5t-22 -36.5t-8.5 -37z" />
    <glyph glyph-name="Wcircumflex" unicode="&#x174;" horiz-adv-x="800" 
d="M579 0h-84l-52 384l-170 -384h-83l-94 665q8 3 19.5 5t20.5 2q26 0 38.5 -13.5t15.5 -39.5l64 -502l173 387l-20 162q24 6 40 6q26 0 36 -13.5t13 -39.5l59 -500l203 502q10 24 27 37.5t44 13.5q12 0 21 -2t17 -4zM479 798l-58 -55q-22 -19 -46 -19q-9 0 -19 3.5t-15 8.5
l92 97q13 14 25 21t30 7q19 0 29.5 -8.5t18.5 -22.5l57 -97q-17 -10 -38 -10q-23 0 -38 21z" />
    <glyph glyph-name="wcircumflex" unicode="&#x175;" horiz-adv-x="645" 
d="M458 -3h-77l-44 241l-127 -241h-74l-73 467q21 9 40 9q24 0 35.5 -15t15.5 -41l43 -323l122 232l-26 139q19 8 37 8q25 0 36.5 -15.5t15.5 -40.5l51 -320l130 314q13 32 29.5 47t42.5 15q12 0 20.5 -2.5t16.5 -7.5zM373 627l-71 -69q-11 -11 -22 -15t-19 -4q-9 0 -18.5 3
t-14.5 9l100 113q12 14 24 21.5t29 7.5q32 0 47 -30l59 -115q-8 -4 -17.5 -7t-18.5 -3q-10 0 -20 5t-17 16z" />
    <glyph glyph-name="Ycircumflex" unicode="&#x176;" horiz-adv-x="494" 
d="M310 279l-46 -279h-86l45 276l-129 383q13 6 24.5 9.5t24.5 3.5q40 0 53 -42l84 -266l165 258q19 29 34.5 39.5t40.5 10.5q12 0 21.5 -3t19.5 -9zM343 798l-58 -55q-22 -19 -46 -19q-9 0 -19 3.5t-15 8.5l92 97q13 14 25 21t30 7q19 0 29.5 -8.5t18.5 -22.5l57 -97
q-17 -10 -38 -10q-23 0 -38 21z" />
    <glyph glyph-name="ycircumflex" unicode="&#x177;" horiz-adv-x="437" 
d="M197 -86q-15 -30 -29 -55.5t-31.5 -44t-40 -28.5t-53.5 -10q-12 0 -27 2.5t-28.5 8.5t-23 17t-9.5 28q0 15 14 29l13 13q12 -17 28 -23.5t33 -6.5q28 0 46.5 23t43.5 75l26 54h-17l-79 468q12 5 21.5 7t20.5 2q30 0 40 -19.5t14 -48.5l43 -321l152 328q14 30 29.5 45.5
t41.5 15.5q23 0 40 -10zM283 627l-71 -69q-11 -11 -22 -15t-19 -4q-9 0 -18.5 3t-14.5 9l100 113q12 14 24 21.5t29 7.5q32 0 47 -30l59 -115q-8 -4 -17.5 -7t-18.5 -3q-10 0 -20 5t-17 16z" />
    <glyph glyph-name="Ydieresis" unicode="&#x178;" horiz-adv-x="494" 
d="M310 279l-46 -279h-86l45 276l-129 383q13 6 24.5 9.5t24.5 3.5q40 0 53 -42l84 -266l165 258q19 29 34.5 39.5t40.5 10.5q12 0 21.5 -3t19.5 -9zM245 734q-21 0 -31.5 14t-10.5 32q0 24 14 41t40 17q21 0 31.5 -14t10.5 -33q0 -23 -14.5 -40t-39.5 -17zM422 734
q-21 0 -31.5 14t-10.5 32q0 24 14 41t40 17q21 0 31.5 -14t10.5 -33q0 -23 -14.5 -40t-39.5 -17z" />
    <glyph glyph-name="Zacute" unicode="&#x179;" horiz-adv-x="489" 
d="M397 71q30 0 42 -10.5t12 -33.5q0 -5 -1 -13t-3 -14h-448l8 59q96 134 204 268t223 271h-335q1 36 14 53.5t50 17.5h349q13 0 22.5 -5.5t9.5 -21.5q0 -3 -0.5 -6.5t-1.5 -8.5l-5 -22q-53 -60 -108 -126t-110 -134.5t-108 -137.5t-102 -136h288zM337 735q-20 -12 -41 -12
q-14 0 -24 6.5t-15 16.5l111 89q26 21 52 21q17 0 31 -12t19 -25z" />
    <glyph glyph-name="zacute" unicode="&#x17a;" horiz-adv-x="400" 
d="M12 0l9 57q58 79 129 165.5t156 180.5h-230q0 32 13.5 50.5t48.5 18.5h241q16 0 26 -6.5t10 -23.5v-3l-3 -26q-83 -91 -157 -176.5t-135 -166.5h195q25 0 36 -11t11 -29q0 -12 -5 -30h-345zM285 557q-19 -19 -44 -19q-11 0 -22 5t-16 10l90 112q12 15 25 23.5t33 8.5
q14 0 27.5 -7.5t21.5 -15.5z" />
    <glyph glyph-name="Zdotaccent" unicode="&#x17b;" horiz-adv-x="489" 
d="M397 71q30 0 42 -10.5t12 -33.5q0 -5 -1 -13t-3 -14h-448l8 59q96 134 204 268t223 271h-335q1 36 14 53.5t50 17.5h349q13 0 22.5 -5.5t9.5 -21.5q0 -3 -0.5 -6.5t-1.5 -8.5l-5 -22q-53 -60 -108 -126t-110 -134.5t-108 -137.5t-102 -136h288zM332 733q-23 0 -34.5 15
t-11.5 35q0 26 15.5 45t43.5 19q23 0 34.5 -15.5t11.5 -35.5q0 -26 -16 -44.5t-43 -18.5z" />
    <glyph glyph-name="zdotaccent" unicode="&#x17c;" horiz-adv-x="400" 
d="M12 0l9 57q58 79 129 165.5t156 180.5h-230q0 32 13.5 50.5t48.5 18.5h241q16 0 26 -6.5t10 -23.5v-3l-3 -26q-83 -91 -157 -176.5t-135 -166.5h195q25 0 36 -11t11 -29q0 -12 -5 -30h-345zM255 546q-23 0 -34.5 15t-11.5 35q0 26 15.5 45t43.5 19q23 0 34.5 -15.5
t11.5 -35.5q0 -26 -16 -44.5t-43 -18.5z" />
    <glyph glyph-name="Zcaron" unicode="&#x17d;" horiz-adv-x="489" 
d="M397 71q30 0 42 -10.5t12 -33.5q0 -5 -1 -13t-3 -14h-448l8 59q96 134 204 268t223 271h-335q1 36 14 53.5t50 17.5h349q13 0 22.5 -5.5t9.5 -21.5q0 -3 -0.5 -6.5t-1.5 -8.5l-5 -22q-53 -60 -108 -126t-110 -134.5t-108 -137.5t-102 -136h288zM336 787l58 54
q12 11 23.5 15t23.5 4q9 0 19 -3t15 -9l-92 -97q-13 -14 -24.5 -21t-29.5 -7q-20 0 -30.5 9t-18.5 23l-57 96q8 5 17.5 8t20.5 3q21 0 37 -22z" />
    <glyph glyph-name="zcaron" unicode="&#x17e;" horiz-adv-x="400" 
d="M12 0l9 57q58 79 129 165.5t156 180.5h-230q0 32 13.5 50.5t48.5 18.5h241q16 0 26 -6.5t10 -23.5v-3l-3 -26q-83 -91 -157 -176.5t-135 -166.5h195q25 0 36 -11t11 -29q0 -12 -5 -30h-345zM265 596l71 69q11 11 22.5 15t19.5 4q9 0 18.5 -3.5t14.5 -8.5l-100 -114
q-12 -14 -24 -21.5t-29 -7.5q-18 0 -28.5 8t-18.5 23l-59 114q17 10 36 10q10 0 19.5 -4.5t16.5 -15.5z" />
    <glyph glyph-name="longs" unicode="&#x17f;" horiz-adv-x="212" 
d="M128 15q-9 -54 -22 -95.5t-33.5 -69.5t-50 -42.5t-70.5 -14.5q-45 0 -75 15t-30 41q0 11 6.5 23.5t20.5 23.5q15 -17 33 -25.5t42 -8.5q21 0 36.5 10t26 26.5t17 38.5t10.5 47l88 537q15 91 61.5 143.5t131.5 52.5q46 0 75.5 -15t42.5 -32q8 -11 8.5 -22.5t-4.5 -22
t-15.5 -18t-23.5 -10.5q-26 52 -86 52q-25 0 -42.5 -9t-30 -24.5t-20 -37t-11.5 -45.5z" />
    <glyph glyph-name="florin" unicode="&#x192;" horiz-adv-x="549" 
d="M17 -46q31 0 56 6t44 20t33 38.5t24 60.5l80 290h-108l11 69h116l17 65q14 54 37 89t51.5 55t60 27.5t62.5 7.5q21 0 29 -10t8 -24q0 -19 -9 -32q-30 0 -54.5 -4.5t-43.5 -17.5t-33.5 -35.5t-24.5 -58.5l-16 -62h154l-11 -69h-163l-83 -304q-15 -53 -37 -87.5t-49 -55
t-58.5 -28.5t-64.5 -8q-21 0 -29 10.5t-8 24.5q0 19 9 33z" />
    <glyph glyph-name="Scommaaccent" unicode="&#x218;" horiz-adv-x="483" 
d="M458 631q10 -9 14 -19.5t4 -19.5q0 -13 -9 -26.5t-33 -22.5q-25 36 -57 50.5t-73 14.5q-54 0 -87 -27.5t-33 -69.5q0 -26 9.5 -45t26 -35t38.5 -29.5t48 -29.5q31 -19 56.5 -38t43.5 -40.5t27.5 -47.5t9.5 -60q0 -50 -17.5 -87.5t-48 -63t-73 -38t-92.5 -12.5
q-52 0 -97 14t-68 36q-9 9 -13 16.5t-4 18.5q0 29 33 52q30 -31 65.5 -47.5t86.5 -16.5q70 0 103.5 34t33.5 84q0 28 -9 48t-25.5 35.5t-38.5 29.5t-49 29q-27 16 -51.5 33.5t-42.5 38.5t-28.5 48t-10.5 63q0 42 17 75.5t46.5 57t68 35.5t82.5 12q29 0 53 -5.5t42.5 -13
t31 -16t20.5 -15.5zM188 -190q-20 -32 -56 -32q-16 0 -26 6l57 117q11 21 23 32t37 11q11 0 22 -3t18 -8z" />
    <glyph glyph-name="scommaaccent" unicode="&#x219;" horiz-adv-x="395" 
d="M182 -15q-94 0 -141 41q-15 13 -15 31q0 16 11 28l16 17q23 -23 52 -36.5t65 -13.5q26 0 43 7t27 17.5t14 24t4 25.5q0 29 -24 49t-55 40q-18 11 -35.5 24t-31.5 29t-22.5 36t-8.5 47q0 25 10.5 48.5t31 41.5t51.5 29t72 11q45 0 78 -16.5t48 -36.5q9 -12 9 -24
q0 -11 -6 -19t-16 -15l-15 -10q-20 31 -45 44t-57 13q-43 0 -60.5 -19t-17.5 -42q0 -16 6 -27.5t17.5 -21.5t27 -20.5t35.5 -23.5q27 -18 45 -34t29 -31.5t15.5 -33.5t4.5 -40q0 -29 -11 -54.5t-32 -44t-51 -29.5t-68 -11zM137 -190q-20 -32 -55 -32q-15 0 -25 6l57 117
q11 21 22.5 32t36.5 11q11 0 21.5 -3t17.5 -8z" />
    <glyph glyph-name="uni021A" unicode="&#x21a;" horiz-adv-x="517" 
d="M582 669q0 -37 -13.5 -54.5t-50.5 -17.5h-146l-99 -597h-86l99 597h-201q0 37 13.5 54.5t50.5 17.5h433zM185 -190q-20 -32 -56 -32q-16 0 -26 6l57 117q11 21 23 32t37 11q11 0 22 -3t18 -8z" />
    <glyph glyph-name="uni021B" unicode="&#x21b;" horiz-adv-x="333" 
d="M203 472h135l-12 -67h-134l-34 -211q-3 -17 -7 -43t-3 -44q1 -23 13 -39t41 -16q20 0 37.5 11t31.5 29l16 -15q13 -12 13 -29q0 -19 -22 -36q-33 -27 -94 -27q-62 0 -92.5 32t-30.5 93q0 7 1 17t3 21l76 466q10 2 18 2q32 0 44.5 -16t12.5 -42q0 -5 -1 -13t-2 -13z
M136 -190q-20 -32 -55 -32q-15 0 -25 6l57 117q11 21 22.5 32t36.5 11q11 0 21.5 -3t17.5 -8z" />
    <glyph glyph-name="dotlessj" unicode="&#x237;" horiz-adv-x="226" 
d="M134 11q-4 -25 -8.5 -51t-11.5 -51.5t-17 -48.5t-25 -41q-18 -21 -44 -33.5t-61 -12.5q-28 0 -37 11.5t-9 32.5q0 5 0.5 10t1.5 10h16q48 0 71 32q12 17 18 40.5t11 49.5l85 512q10 2 18 2q30 0 43 -17t13 -43q0 -5 -0.5 -12t-1.5 -12z" />
    <glyph glyph-name="apostrophe" unicode="&#x2bc;" horiz-adv-x="296" 
d="M73 526q21 10 40 25.5t25 43.5q-11 5 -19 15t-8 27q0 27 15.5 43t36.5 16q22 0 33.5 -13.5t11.5 -36.5q0 -24 -9 -49.5t-24 -46t-34 -34t-39 -13.5q-10 0 -18.5 5.5t-10.5 17.5z" />
    <glyph glyph-name="circumflex" unicode="&#x2c6;" horiz-adv-x="349" 
d="M190 627l-71 -69q-11 -11 -22 -15t-19 -4q-9 0 -18.5 3t-14.5 9l100 113q12 14 24 21.5t29 7.5q32 0 47 -30l59 -115q-8 -4 -17.5 -7t-18.5 -3q-10 0 -20 5t-17 16z" />
    <glyph glyph-name="caron" unicode="&#x2c7;" horiz-adv-x="349" 
d="M159 596l71 69q11 11 22.5 15t19.5 4q9 0 18.5 -3.5t14.5 -8.5l-100 -114q-12 -14 -24 -21.5t-29 -7.5q-18 0 -28.5 8t-18.5 23l-59 114q17 10 36 10q10 0 19.5 -4.5t16.5 -15.5z" />
    <glyph glyph-name="uni02C9" unicode="&#x2c9;" horiz-adv-x="349" 
d="M79 574q-25 0 -34.5 10.5t-9.5 27.5q0 4 1 11t3 14h231q25 0 34.5 -10.5t9.5 -27.5q0 -4 -1 -11t-3 -14h-231z" />
    <glyph glyph-name="breve" unicode="&#x2d8;" horiz-adv-x="349" 
d="M103 645q5 -32 20 -44.5t37 -12.5q25 0 43 14.5t34 49.5q9 20 18 25t23 5q20 0 34 -10q-21 -68 -58 -103t-99 -35q-61 0 -89 36.5t-26 104.5q17 7 29 7q18 0 24.5 -8.5t9.5 -28.5z" />
    <glyph glyph-name="dotaccent" unicode="&#x2d9;" horiz-adv-x="349" 
d="M167 546q-23 0 -34.5 15t-11.5 35q0 26 15.5 45t43.5 19q23 0 34.5 -15.5t11.5 -35.5q0 -26 -16 -44.5t-43 -18.5z" />
    <glyph glyph-name="ring" unicode="&#x2da;" horiz-adv-x="349" 
d="M280 642q0 -45 -28.5 -77t-77.5 -32q-24 0 -44 8.5t-33.5 23.5t-21 34.5t-7.5 41.5q0 46 28.5 78t77.5 32t77.5 -30t28.5 -79zM228 641q0 23 -11.5 42.5t-43.5 19.5q-27 0 -39.5 -19t-12.5 -42q0 -24 13.5 -42t39.5 -18t40 17.5t14 41.5z" />
    <glyph glyph-name="ogonek" unicode="&#x2db;" horiz-adv-x="349" 
d="M160 -125q0 -15 8 -22.5t20 -7.5q13 0 23 7t18 16q17 -11 17 -29q0 -11 -3 -16t-8 -11q-11 -11 -30 -17.5t-40 -6.5q-30 0 -52.5 18.5t-22.5 53.5q0 26 12 50.5t30 45t38.5 36t37.5 24.5l48 -8q-16 -10 -33 -25t-31 -33t-23 -37.5t-9 -37.5z" />
    <glyph glyph-name="tilde" unicode="&#x2dc;" horiz-adv-x="349" 
d="M114 589q-16 0 -32.5 -7t-33.5 -36q-15 7 -21 16.5t-6 19.5q0 13 7.5 25.5t21 22t32 15t39.5 5.5q19 0 34 -6t27.5 -12.5t24 -12.5t24.5 -6q20 0 35 10t32 39q27 -13 27 -35q0 -27 -26 -50.5t-74 -23.5q-18 0 -32 5.5t-27 12.5t-25 12.5t-27 5.5z" />
    <glyph glyph-name="hungarumlaut" unicode="&#x2dd;" horiz-adv-x="349" 
d="M77 557q-18 -19 -43 -19q-11 0 -21.5 5t-15.5 10l91 112q12 15 26 23.5t31 8.5q14 0 26.5 -7.5t20.5 -15.5zM236 557q-18 -19 -43 -19q-11 0 -21.5 5t-15.5 10l91 112q12 15 26 23.5t31 8.5q14 0 26.5 -7.5t20.5 -15.5z" />
    <glyph glyph-name="uni0394" unicode="&#x394;" horiz-adv-x="567" 
d="M345 561l-236 -492h320zM-9 0l328 663q19 9 43 9q23 0 34 -11.5t15 -29.5l115 -631h-535z" />
    <glyph glyph-name="Omega" unicode="&#x3a9;" horiz-adv-x="629" 
d="M341 0l10 67q42 23 75 61t55 86t33.5 102.5t11.5 110.5q0 39 -8.5 72t-26 57.5t-45 38.5t-64.5 14q-50 0 -90 -26t-68 -70t-43 -102t-15 -122q0 -30 3 -60t12 -58.5t25 -55t41 -48.5l-11 -67h-164q-28 0 -39 11t-11 30q0 14 5 29h131q-38 41 -58.5 99.5t-20.5 123.5
q0 72 20 141.5t59.5 124.5t97.5 89t134 34q58 0 100.5 -21t70.5 -56.5t41.5 -81.5t13.5 -97q0 -54 -12 -105.5t-34 -98t-52.5 -85.5t-66.5 -67h80q28 0 38.5 -11t10.5 -30q0 -8 -0.5 -14.5t-3.5 -14.5h-235z" />
    <glyph glyph-name="uni03BC" unicode="&#x3bc;" horiz-adv-x="508" 
d="M161 191q-2 -14 -3.5 -28t-1.5 -28q0 -37 16.5 -59.5t55.5 -22.5q21 0 42 9t38 26t29.5 40t17.5 52l48 291q10 2 18 2q30 0 43 -17t13 -43q0 -5 -0.5 -12t-1.5 -12l-45 -273q-3 -15 -3 -28q0 -40 31 -44q8 -2 22 0q11 0 19 4l6 -33q-15 -10 -36.5 -16t-43.5 -6
q-38 0 -57.5 17t-22.5 49q-49 -74 -132 -74q-50 0 -81 43l-40 -227h-82l112 670q10 2 18 2q30 0 43 -17t13 -43q0 -5 -0.5 -12t-1.5 -12z" />
    <glyph glyph-name="pi" unicode="&#x3c0;" horiz-adv-x="541" 
d="M418 -7q-44 0 -63.5 22t-20.5 60q0 12 2.5 27t4.5 30l45 271h-164l-68 -403h-84l67 403h-78l12 67h488l-11 -67h-79l-47 -285q-3 -21 -3 -35q2 -20 10 -30t31 -10q8 0 17.5 2t14.5 4l7 -33q-16 -11 -37.5 -17t-43.5 -6z" />
    <glyph glyph-name="Wgrave" unicode="&#x1e80;" horiz-adv-x="800" 
d="M579 0h-84l-52 384l-170 -384h-83l-94 665q8 3 19.5 5t20.5 2q26 0 38.5 -13.5t15.5 -39.5l64 -502l173 387l-20 162q24 6 40 6q26 0 36 -13.5t13 -39.5l59 -500l203 502q10 24 27 37.5t44 13.5q12 0 21 -2t17 -4zM336 822q10 14 25 24t30 10q23 0 46 -21l94 -89
q-10 -11 -22 -17t-23 -6q-8 0 -17.5 2.5t-17.5 9.5z" />
    <glyph glyph-name="wgrave" unicode="&#x1e81;" horiz-adv-x="645" 
d="M458 -3h-77l-44 241l-127 -241h-74l-73 467q21 9 40 9q24 0 35.5 -15t15.5 -41l43 -323l122 232l-26 139q19 8 37 8q25 0 36.5 -15.5t15.5 -40.5l51 -320l130 314q13 32 29.5 47t42.5 15q12 0 20.5 -2.5t16.5 -7.5zM229 675q9 8 23 15t28 7q17 0 27 -6.5t20 -23.5
l68 -115q-6 -5 -16.5 -9.5t-20.5 -4.5q-24 0 -38 19z" />
    <glyph glyph-name="Wacute" unicode="&#x1e82;" horiz-adv-x="800" 
d="M579 0h-84l-52 384l-170 -384h-83l-94 665q8 3 19.5 5t20.5 2q26 0 38.5 -13.5t15.5 -39.5l64 -502l173 387l-20 162q24 6 40 6q26 0 36 -13.5t13 -39.5l59 -500l203 502q10 24 27 37.5t44 13.5q12 0 21 -2t17 -4zM469 735q-20 -12 -41 -12q-14 0 -24 6.5t-15 16.5
l111 89q26 21 52 21q17 0 31 -12t19 -25z" />
    <glyph glyph-name="wacute" unicode="&#x1e83;" horiz-adv-x="645" 
d="M458 -3h-77l-44 241l-127 -241h-74l-73 467q21 9 40 9q24 0 35.5 -15t15.5 -41l43 -323l122 232l-26 139q19 8 37 8q25 0 36.5 -15.5t15.5 -40.5l51 -320l130 314q13 32 29.5 47t42.5 15q12 0 20.5 -2.5t16.5 -7.5zM373 557q-19 -19 -44 -19q-11 0 -22 5t-16 10l90 112
q12 15 25 23.5t33 8.5q14 0 27.5 -7.5t21.5 -15.5z" />
    <glyph glyph-name="Wdieresis" unicode="&#x1e84;" horiz-adv-x="800" 
d="M579 0h-84l-52 384l-170 -384h-83l-94 665q8 3 19.5 5t20.5 2q26 0 38.5 -13.5t15.5 -39.5l64 -502l173 387l-20 162q24 6 40 6q26 0 36 -13.5t13 -39.5l59 -500l203 502q10 24 27 37.5t44 13.5q12 0 21 -2t17 -4zM380 734q-21 0 -31.5 14t-10.5 32q0 24 14 41t40 17
q21 0 31.5 -14t10.5 -33q0 -23 -14.5 -40t-39.5 -17zM557 734q-21 0 -31.5 14t-10.5 32q0 24 14 41t40 17q21 0 31.5 -14t10.5 -33q0 -23 -14.5 -40t-39.5 -17z" />
    <glyph glyph-name="wdieresis" unicode="&#x1e85;" horiz-adv-x="645" 
d="M458 -3h-77l-44 241l-127 -241h-74l-73 467q21 9 40 9q24 0 35.5 -15t15.5 -41l43 -323l122 232l-26 139q19 8 37 8q25 0 36.5 -15.5t15.5 -40.5l51 -320l130 314q13 32 29.5 47t42.5 15q12 0 20.5 -2.5t16.5 -7.5zM266 555q-21 0 -31.5 14t-10.5 32q0 24 14 41t40 17
q21 0 31.5 -14t10.5 -33q0 -23 -14.5 -40t-39.5 -17zM443 555q-21 0 -31.5 14t-10.5 32q0 24 14 41t40 17q21 0 31.5 -14t10.5 -33q0 -23 -14.5 -40t-39.5 -17z" />
    <glyph glyph-name="Ygrave" unicode="&#x1ef2;" horiz-adv-x="494" 
d="M310 279l-46 -279h-86l45 276l-129 383q13 6 24.5 9.5t24.5 3.5q40 0 53 -42l84 -266l165 258q19 29 34.5 39.5t40.5 10.5q12 0 21.5 -3t19.5 -9zM189 822q10 14 25 24t30 10q23 0 46 -21l94 -89q-10 -11 -22 -17t-23 -6q-8 0 -17.5 2.5t-17.5 9.5z" />
    <glyph glyph-name="ygrave" unicode="&#x1ef3;" horiz-adv-x="437" 
d="M197 -86q-15 -30 -29 -55.5t-31.5 -44t-40 -28.5t-53.5 -10q-12 0 -27 2.5t-28.5 8.5t-23 17t-9.5 28q0 15 14 29l13 13q12 -17 28 -23.5t33 -6.5q28 0 46.5 23t43.5 75l26 54h-17l-79 468q12 5 21.5 7t20.5 2q30 0 40 -19.5t14 -48.5l43 -321l152 328q14 30 29.5 45.5
t41.5 15.5q23 0 40 -10zM140 675q9 8 23 15t28 7q17 0 27 -6.5t20 -23.5l68 -115q-6 -5 -16.5 -9.5t-20.5 -4.5q-24 0 -38 19z" />
    <glyph glyph-name="endash" unicode="&#x2013;" horiz-adv-x="500" 
d="M66 232q-27 0 -38.5 12t-11.5 32q0 5 1 13t4 16h444q27 0 38.5 -12t11.5 -32q0 -5 -1 -13t-4 -16h-444z" />
    <glyph glyph-name="emdash" unicode="&#x2014;" horiz-adv-x="1000" 
d="M66 232q-27 0 -38.5 12t-11.5 32q0 5 1 13t4 16h944q27 0 38.5 -12t11.5 -32q0 -5 -1 -13t-4 -16h-944z" />
    <glyph glyph-name="quoteleft" unicode="&#x2018;" horiz-adv-x="227" 
d="M271 672q-23 -11 -44.5 -29.5t-29.5 -49.5q13 -7 22 -17.5t9 -29.5q0 -31 -17.5 -49t-42.5 -18q-26 0 -37.5 18.5t-11.5 44.5t11 53.5t28 50.5t38 38t42 15q13 0 22 -6.5t11 -20.5z" />
    <glyph glyph-name="quoteright" unicode="&#x2019;" horiz-adv-x="227" 
d="M96 503q23 11 44.5 29.5t29.5 49.5q-13 7 -22 17.5t-9 29.5q0 31 17.5 49t42.5 18q26 0 37.5 -18.5t11.5 -44.5t-11 -53.5t-28 -50.5t-38 -38t-42 -15q-13 0 -22 6.5t-11 20.5z" />
    <glyph glyph-name="quotesinglbase" unicode="&#x201a;" horiz-adv-x="227" 
d="M3 -90q23 11 44.5 29.5t29.5 49.5q-13 7 -22 17.5t-9 29.5q0 31 17.5 49t42.5 18q26 0 37.5 -18.5t11.5 -44.5t-11 -53.5t-28 -50.5t-38 -38t-42 -15q-13 0 -22 6.5t-11 20.5z" />
    <glyph glyph-name="quotedblleft" unicode="&#x201c;" horiz-adv-x="389" 
d="M271 672q-23 -11 -44.5 -29.5t-29.5 -49.5q13 -7 22 -17.5t9 -29.5q0 -31 -17.5 -49t-42.5 -18q-26 0 -37.5 18.5t-11.5 44.5t11 53.5t28 50.5t38 38t42 15q13 0 22 -6.5t11 -20.5zM433 672q-23 -11 -44.5 -29.5t-29.5 -49.5q13 -7 22 -17.5t9 -29.5q0 -31 -17.5 -49
t-42.5 -18q-26 0 -37.5 18.5t-11.5 44.5t11 53.5t28 50.5t38 38t42 15q13 0 22 -6.5t11 -20.5z" />
    <glyph glyph-name="quotedblright" unicode="&#x201d;" horiz-adv-x="389" 
d="M96 503q23 11 44.5 29.5t29.5 49.5q-13 7 -22 17.5t-9 29.5q0 31 17.5 49t42.5 18q26 0 37.5 -18.5t11.5 -44.5t-11 -53.5t-28 -50.5t-38 -38t-42 -15q-13 0 -22 6.5t-11 20.5zM258 503q23 11 44.5 29.5t29.5 49.5q-13 7 -22 17.5t-9 29.5q0 31 17.5 49t42.5 18
q26 0 37.5 -18.5t11.5 -44.5t-11 -53.5t-28 -50.5t-38 -38t-42 -15q-13 0 -22 6.5t-11 20.5z" />
    <glyph glyph-name="quotedblbase" unicode="&#x201e;" horiz-adv-x="392" 
d="M3 -90q23 11 44.5 29.5t29.5 49.5q-13 7 -22 17.5t-9 29.5q0 31 17.5 49t42.5 18q26 0 37.5 -18.5t11.5 -44.5t-11 -53.5t-28 -50.5t-38 -38t-42 -15q-13 0 -22 6.5t-11 20.5zM168 -90q23 11 44.5 29.5t29.5 49.5q-13 7 -22 17.5t-9 29.5q0 31 17.5 49t42.5 18
q26 0 37.5 -18.5t11.5 -44.5t-11 -53.5t-28 -50.5t-38 -38t-42 -15q-13 0 -22 6.5t-11 20.5z" />
    <glyph glyph-name="dagger" unicode="&#x2020;" horiz-adv-x="421" 
d="M285 403l-87 -521h-76l86 521h-80q-28 0 -39 11t-11 31q0 5 1 12t4 15h137l32 197q6 2 11.5 2h10.5q23 0 34.5 -13t11.5 -33v-5.5t-1 -7.5l-23 -140h82q28 0 38.5 -10.5t10.5 -30.5q0 -5 -1 -12.5t-3 -15.5h-138z" />
    <glyph glyph-name="daggerdbl" unicode="&#x2021;" horiz-adv-x="421" 
d="M252 669q6 2 11.5 2h10.5q23 0 34.5 -13t11.5 -33v-5.5t-1 -7.5l-23 -136h82q28 0 38.5 -10.5t10.5 -30.5q0 -5 -1 -12.5t-3 -15.5h-138l-42 -251h82q28 0 38.5 -10.5t10.5 -30.5q0 -5 -1 -12.5t-3 -15.5h-138l-33 -205h-77l34 205h-81q-28 0 -39 11t-11 31q0 5 1 12
t4 15h137l42 251h-81q-28 0 -39 11t-11 31q0 5 1 12t4 15h137z" />
    <glyph glyph-name="bullet" unicode="&#x2022;" horiz-adv-x="400" 
d="M350 350q0 -27 -9.5 -50.5t-27 -41t-41 -28t-51.5 -10.5q-29 0 -52.5 10.5t-40.5 28t-26 41t-9 50.5t9 51t26 41.5t40.5 28t52.5 10.5q28 0 52 -10.5t41 -28t26.5 -41.5t9.5 -51z" />
    <glyph glyph-name="ellipsis" unicode="&#x2026;" horiz-adv-x="618" 
d="M88 -15q-25 0 -37 16.5t-12 37.5q0 28 17 48t46 20q25 0 37 -16.5t12 -37.5q0 -28 -17 -48t-46 -20zM288 -15q-25 0 -37 16.5t-12 37.5q0 28 17 48t46 20q25 0 37 -16.5t12 -37.5q0 -28 -17 -48t-46 -20zM488 -15q-25 0 -37 16.5t-12 37.5q0 28 17 48t46 20
q25 0 37 -16.5t12 -37.5q0 -28 -17 -48t-46 -20z" />
    <glyph glyph-name="perthousand" unicode="&#x2030;" horiz-adv-x="1088" 
d="M250 682q30 0 51.5 -11.5t35.5 -30t20.5 -43t6.5 -50.5q0 -39 -11 -78t-32.5 -69.5t-53 -49.5t-71.5 -19q-30 0 -51.5 11t-36 30t-21 43.5t-6.5 50.5q0 39 11 77.5t33 69t53 50t72 19.5zM242 625q-39 0 -64.5 -46.5t-25.5 -123.5q0 -32 14 -49.5t37 -17.5q21 0 37.5 14.5
t28 38t17.5 53.5t6 60q0 32 -12 51.5t-38 19.5zM604 335q30 0 51.5 -11.5t36 -30t21 -43t6.5 -50.5q0 -39 -11 -77.5t-32.5 -69t-53 -49.5t-71.5 -19q-30 0 -52 11t-36.5 29.5t-21 43t-6.5 50.5q0 39 11 77.5t33 69.5t53 50t72 19zM597 278q-39 0 -64.5 -45.5t-25.5 -120.5
q0 -34 12 -52.5t38 -18.5q21 0 37.5 14.5t28 38.5t17.5 53.5t6 59.5q0 32 -11.5 51.5t-37.5 19.5zM207 0h-79l443 638q15 21 28.5 32.5t36.5 11.5q20 0 26 -3t13 -5zM936 335q30 0 51.5 -11.5t36 -30t21 -43t6.5 -50.5q0 -39 -11 -77.5t-32.5 -69t-53 -49.5t-71.5 -19
q-30 0 -52 11t-36.5 29.5t-21 43t-6.5 50.5q0 39 11 77.5t33 69.5t53 50t72 19zM929 278q-39 0 -64.5 -45.5t-25.5 -120.5q0 -34 12 -52.5t38 -18.5q21 0 37.5 14.5t28 38.5t17.5 53.5t6 59.5q0 32 -11.5 51.5t-37.5 19.5z" />
    <glyph glyph-name="guilsinglleft" unicode="&#x2039;" horiz-adv-x="278" 
d="M158 276l69 -104q6 -9 8 -17.5t2 -15.5q0 -16 -8.5 -28t-20.5 -23l-106 134q-10 12 -16 23.5t-6 25.5q0 21 13.5 37t30.5 31l143 120q13 -21 13 -41q0 -26 -22 -47z" />
    <glyph glyph-name="guilsinglright" unicode="&#x203a;" horiz-adv-x="278" 
d="M162 272l-69 104q-6 8 -8.5 17t-2.5 16q0 16 9 28t21 23l106 -134q10 -12 16 -24t6 -25q0 -21 -13.5 -37.5t-30.5 -30.5l-144 -120q-5 10 -8.5 20t-3.5 21q0 27 22 48z" />
    <glyph glyph-name="fraction" unicode="&#x2044;" horiz-adv-x="79" 
d="M-102 0h-78l412 638q14 22 28 33t36 11q13 0 22 -2t17 -7z" />
    <glyph glyph-name="zerosuperior" unicode="&#x2070;" 
d="M237 628q-21 0 -40 -14.5t-32.5 -40t-21.5 -61.5t-8 -79q0 -33 12.5 -54.5t38.5 -21.5q44 0 73.5 52t29.5 142q0 34 -12.5 55.5t-39.5 21.5zM242 683q33 0 55 -12t35.5 -31.5t19.5 -44t6 -50.5q0 -44 -11 -88t-32.5 -78.5t-54.5 -56t-77 -21.5q-32 0 -54 11.5t-35.5 30.5
t-19.5 43t-6 49q0 43 10.5 87t32 80t54.5 58.5t77 22.5z" />
    <glyph glyph-name="foursuperior" unicode="&#x2074;" 
d="M229 433l27 155l-130 -155h103zM305 433q16 0 22 -6.5t6 -18.5q0 -5 -1.5 -11.5t-4.5 -13.5h-43l-12 -75h-63l12 75h-164l7 43l203 244q12 14 35 14q17 0 31 -8l-40 -243h12z" />
    <glyph glyph-name="fivesuperior" unicode="&#x2075;" 
d="M182 300q-23 0 -47.5 6.5t-46.5 24.5q-6 5 -11 11.5t-5 14.5q0 20 30 40q17 -20 36.5 -31t45.5 -11q28 0 50 19t22 65q0 28 -15 45t-47 17q-18 0 -32.5 -3.5t-27.5 -8.5l-23 12l38 178h191q-2 -27 -11 -39.5t-35 -12.5h-99l-18 -83q15 5 41 5q50 0 77.5 -30t27.5 -78
q0 -29 -9.5 -54.5t-27.5 -45t-44.5 -30.5t-59.5 -11z" />
    <glyph glyph-name="sixsuperior" unicode="&#x2076;" 
d="M75 429q0 46 13.5 91.5t40.5 81.5t68 58t97 22q18 0 25.5 -7t7.5 -18q0 -5 -1.5 -12t-6.5 -13h-27q-50 0 -84.5 -27t-52.5 -72q10 9 29 17.5t39 8.5q50 0 76 -33t26 -79q0 -27 -8 -53.5t-24.5 -47.5t-42.5 -33.5t-62 -12.5q-51 0 -82 33.5t-31 95.5zM138 430
q0 -40 15 -59t38 -19q32 0 50.5 22.5t18.5 67.5q0 28 -11 47t-40 19q-36 0 -53.5 -18t-17.5 -60z" />
    <glyph glyph-name="sevensuperior" unicode="&#x2077;" 
d="M160 307h-74l180 311h-171q3 28 13 43.5t38 15.5h177q14 0 19 -5.5t5 -14.5v-5l-2 -15z" />
    <glyph glyph-name="eightsuperior" unicode="&#x2078;" 
d="M226 634q-25 0 -42.5 -14.5t-17.5 -45.5q0 -20 13 -32.5t34 -12.5q23 0 42 15t19 46q0 20 -13 32t-35 12zM338 592q0 -36 -19 -57t-43 -33q49 -29 49 -78q0 -31 -11.5 -54t-30 -38.5t-43.5 -23t-52 -7.5q-54 0 -87.5 28t-33.5 73q0 41 23 65.5t53 38.5q-39 27 -39 67
q0 27 10 47.5t27 34.5t39.5 21t47.5 7q52 0 81 -25.5t29 -65.5zM190 351q29 0 49.5 18.5t20.5 53.5q0 23 -15 38.5t-41 15.5q-13 0 -26 -4.5t-23.5 -14t-17 -23t-6.5 -31.5q0 -23 16 -38t43 -15z" />
    <glyph glyph-name="ninesuperior" unicode="&#x2079;" 
d="M277 552q0 41 -15 60t-38 19q-32 0 -50.5 -23.5t-18.5 -66.5q0 -28 11.5 -47t39.5 -19q38 0 54.5 17t16.5 60zM123 351q52 0 86.5 27t52.5 72q-12 -11 -32 -18.5t-37 -7.5q-52 0 -78 32.5t-26 79.5q0 27 7.5 53.5t24 47.5t43 33.5t63.5 12.5q51 0 82.5 -33.5t31.5 -95.5
q0 -48 -14 -93.5t-41 -81t-67.5 -57t-95.5 -21.5q-18 0 -25.5 7t-7.5 18q0 5 1.5 12t6.5 13h25z" />
    <glyph glyph-name="zeroinferior" unicode="&#x2080;" 
d="M198 320q-21 0 -40 -14.5t-32.5 -40t-21.5 -61.5t-8 -79q0 -33 12.5 -54.5t38.5 -21.5q44 0 73.5 52t29.5 142q0 34 -12.5 55.5t-39.5 21.5zM203 375q33 0 55 -12t35.5 -31.5t19.5 -44t6 -50.5q0 -44 -11 -88t-32.5 -78.5t-54.5 -56t-77 -21.5q-32 0 -54 11.5t-35.5 30.5
t-19.5 43t-6 49q0 43 10.5 87t32 80t54.5 58.5t77 22.5z" />
    <glyph glyph-name="oneinferior" unicode="&#x2081;" 
d="M146 1l48 290l-106 -56q-7 8 -11.5 17.5t-4.5 17.5q0 13 6 20.5t19 14.5l108 60q8 5 17 8t20 3q22 0 33 -10l-61 -365h-68z" />
    <glyph glyph-name="twoinferior" unicode="&#x2082;" 
d="M27 1l7 48q37 29 71.5 58t61.5 57t43.5 55t16.5 51q0 21 -12.5 35.5t-36.5 14.5q-23 0 -42.5 -12.5t-33.5 -32.5h-10q-10 5 -16 13t-6 17q0 13 10 25q15 17 44 31t64 14q52 0 78.5 -26.5t26.5 -71.5q0 -29 -10 -53.5t-26 -45.5t-36 -39.5t-40 -37.5q-5 -5 -17 -15.5
t-35 -30.5h105q22 0 30.5 -8.5t8.5 -23.5q0 -3 -0.5 -9t-2.5 -13h-243z" />
    <glyph glyph-name="threeinferior" unicode="&#x2083;" 
d="M98 281q-10 5 -16 13t-6 17q0 13 10 25q14 15 42 27t60 12q53 0 80.5 -27.5t27.5 -62.5q0 -34 -19 -56.5t-47 -36.5q24 -12 35.5 -33.5t11.5 -44.5q0 -54 -36.5 -88t-102.5 -34q-24 0 -48.5 6.5t-46.5 24.5q-6 5 -11 11.5t-5 14.5q0 20 30 40q17 -20 36.5 -31t45.5 -11
q12 0 24 3t22.5 10.5t17 20t6.5 30.5q0 25 -14.5 40t-37.5 15h-30l8 51h28q10 0 22 3t22.5 10t17 19t6.5 29t-12 29.5t-38 12.5q-23 0 -42 -10.5t-34 -28.5h-7z" />
    <glyph glyph-name="fourinferior" unicode="&#x2084;" 
d="M195 125l27 155l-130 -155h103zM271 125q16 0 22 -6.5t6 -18.5q0 -5 -1.5 -11.5t-4.5 -13.5h-43l-12 -75h-63l12 75h-164l7 43l203 244q12 14 35 14q17 0 31 -8l-40 -243h12z" />
    <glyph glyph-name="fiveinferior" unicode="&#x2085;" 
d="M143 -8q-23 0 -47.5 6.5t-46.5 24.5q-6 5 -11 11.5t-5 14.5q0 20 30 40q17 -20 36.5 -31t45.5 -11q28 0 50 19t22 65q0 28 -15 45t-47 17q-18 0 -32.5 -3.5t-27.5 -8.5l-23 12l38 178h191q-2 -27 -11 -39.5t-35 -12.5h-99l-18 -83q15 5 41 5q50 0 77.5 -30t27.5 -78
q0 -29 -9.5 -54.5t-27.5 -45t-44.5 -30.5t-59.5 -11z" />
    <glyph glyph-name="sixinferior" unicode="&#x2086;" 
d="M46 121q0 46 13.5 91.5t40.5 81.5t68 58t97 22q18 0 25.5 -7t7.5 -18q0 -5 -1.5 -12t-6.5 -13h-27q-50 0 -84.5 -27t-52.5 -72q10 9 29 17.5t39 8.5q50 0 76 -33t26 -79q0 -27 -8 -53.5t-24.5 -47.5t-42.5 -33.5t-62 -12.5q-51 0 -82 33.5t-31 95.5zM109 122
q0 -40 15 -59t38 -19q32 0 50.5 22.5t18.5 67.5q0 28 -11 47t-40 19q-36 0 -53.5 -18t-17.5 -60z" />
    <glyph glyph-name="seveninferior" unicode="&#x2087;" 
d="M131 -1h-74l180 311h-171q3 28 13 43.5t38 15.5h177q14 0 19 -5.5t5 -14.5v-5l-2 -15z" />
    <glyph glyph-name="eightinferior" unicode="&#x2088;" 
d="M194 326q-25 0 -42.5 -14.5t-17.5 -45.5q0 -20 13 -32.5t34 -12.5q23 0 42 15t19 46q0 20 -13 32t-35 12zM306 284q0 -36 -19 -57t-43 -33q49 -29 49 -78q0 -31 -11.5 -54t-30 -38.5t-43.5 -23t-52 -7.5q-54 0 -87.5 28t-33.5 73q0 41 23 65.5t53 38.5q-39 27 -39 67
q0 27 10 47.5t27 34.5t39.5 21t47.5 7q52 0 81 -25.5t29 -65.5zM158 43q29 0 49.5 18.5t20.5 53.5q0 23 -15 38.5t-41 15.5q-13 0 -26 -4.5t-23.5 -14t-17 -23t-6.5 -31.5q0 -23 16 -38t43 -15z" />
    <glyph glyph-name="nineinferior" unicode="&#x2089;" 
d="M238 244q0 41 -15 60t-38 19q-32 0 -50.5 -23.5t-18.5 -66.5q0 -28 11.5 -47t39.5 -19q38 0 54.5 17t16.5 60zM84 43q52 0 86.5 27t52.5 72q-12 -11 -32 -18.5t-37 -7.5q-52 0 -78 32.5t-26 79.5q0 27 7.5 53.5t24 47.5t43 33.5t63.5 12.5q51 0 82.5 -33.5t31.5 -95.5
q0 -48 -14 -93.5t-41 -81t-67.5 -57t-95.5 -21.5q-18 0 -25.5 7t-7.5 18q0 5 1.5 12t6.5 13h25z" />
    <glyph glyph-name="Euro" unicode="&#x20ac;" horiz-adv-x="549" 
d="M500 42q-11 -10 -25.5 -20t-34.5 -18.5t-46.5 -13.5t-61.5 -5q-57 0 -97 19.5t-65.5 53t-37.5 78.5t-15 96h-71l9 53h62q1 20 3 41t5 41h-57l9 53h60q14 52 38 97.5t59 79.5t81.5 53.5t105.5 19.5q30 0 54 -6.5t41 -15.5t29 -19t18 -17q17 -20 17 -41q0 -17 -12 -30
t-35 -19q-19 40 -48.5 57.5t-73.5 17.5q-70 0 -116.5 -48t-68.5 -129h223l-9 -53h-226q-3 -20 -5 -40.5t-3 -41.5h221l-9 -53h-212q2 -37 10.5 -69t24.5 -55.5t40.5 -37t57.5 -13.5q48 0 83 19.5t67 52.5l14 -14q17 -17 17 -32q0 -11 -4.5 -21t-15.5 -20z" />
    <glyph glyph-name="afii61289" unicode="&#x2113;" horiz-adv-x="462" 
d="M220 289q54 60 85.5 123.5t31.5 132.5q0 48 -16 67.5t-38 19.5q-26 0 -44.5 -33t-18.5 -109v-201zM406 115l19.5 -19.5t20.5 -18.5q-27 -40 -65.5 -63t-90.5 -23q-70 0 -108 39.5t-38 127.5q-13 -10 -24.5 -18t-24.5 -17q-5 11 -11.5 22t-13.5 22q19 13 37 27.5t36 30.5
v212q0 71 9.5 119.5t28 78t45 42.5t61.5 13q51 0 84 -37.5t33 -106.5q0 -91 -48 -172.5t-136 -163.5v-20q0 -41 6 -66.5t16.5 -39.5t25 -19.5t31.5 -5.5q32 0 61.5 16.5t45.5 39.5z" />
    <glyph glyph-name="trademark" unicode="&#x2122;" horiz-adv-x="789" 
d="M455 679q17 0 25 -7t13 -18l96 -232l94 231q7 17 18 21.5t23 4.5q9 0 17.5 -2t14.5 -4l18 -363h-61l-11 253l-85 -196h-59l-81 186l-15 -243h-61l23 363q6 2 14.5 4t16.5 2zM367 678q2 -5 2 -11v-10q0 -13 -7.5 -24t-33.5 -11h-76v-312h-64v312h-111q-2 5 -2 11v10
q0 13 7.5 24t33.5 11h251z" />
    <glyph glyph-name="uni2126" unicode="&#x2126;" horiz-adv-x="629" 
d="M341 0l10 67q42 23 75 61t55 86t33.5 102.5t11.5 110.5q0 39 -8.5 72t-26 57.5t-45 38.5t-64.5 14q-50 0 -90 -26t-68 -70t-43 -102t-15 -122q0 -30 3 -60t12 -58.5t25 -55t41 -48.5l-11 -67h-164q-28 0 -39 11t-11 30q0 14 5 29h131q-38 41 -58.5 99.5t-20.5 123.5
q0 72 20 141.5t59.5 124.5t97.5 89t134 34q58 0 100.5 -21t70.5 -56.5t41.5 -81.5t13.5 -97q0 -54 -12 -105.5t-34 -98t-52.5 -85.5t-66.5 -67h80q28 0 38.5 -11t10.5 -30q0 -8 -0.5 -14.5t-3.5 -14.5h-235z" />
    <glyph glyph-name="estimated" unicode="&#x212e;" horiz-adv-x="702" 
d="M201 340v-230q75 -75 183 -75q79 0 137.5 35.5t106.5 116.5l44 -26q-29 -45 -59 -77.5t-64 -53.5t-74.5 -30.5t-90.5 -9.5q-75 0 -135 27.5t-102.5 74.5t-65.5 111t-23 137t23 137t65.5 111.5t102.5 74.5t135 27q73 0 133 -26t103 -72.5t67 -111t25 -140.5h-511zM569 386
v183q-79 76 -186 76q-109 0 -182 -76v-183h368z" />
    <glyph glyph-name="onethird" unicode="&#x2153;" horiz-adv-x="810" 
d="M178 309l48 290l-106 -56q-7 8 -11.5 17.5t-4.5 17.5q0 13 6 20.5t19 14.5l108 60q8 5 17 8t20 3q22 0 33 -10l-61 -365h-68zM222 0h-78l412 638q14 22 28 33t36 11q13 0 22 -2t17 -7zM561 281q-10 5 -16 13t-6 17q0 13 10 25q14 15 42 27t60 12q53 0 80.5 -27.5
t27.5 -62.5q0 -34 -19 -56.5t-47 -36.5q24 -12 35.5 -33.5t11.5 -44.5q0 -54 -36.5 -88t-102.5 -34q-24 0 -48.5 6.5t-46.5 24.5q-6 5 -11 11.5t-5 14.5q0 20 30 40q17 -20 36.5 -31t45.5 -11q12 0 24 3t22.5 10.5t17 20t6.5 30.5q0 25 -14.5 40t-37.5 15h-30l8 51h28
q10 0 22 3t22.5 10t17 19t6.5 29t-12 29.5t-38 12.5q-23 0 -42 -10.5t-34 -28.5h-7z" />
    <glyph glyph-name="twothirds" unicode="&#x2154;" horiz-adv-x="810" 
d="M79 309l7 48q37 29 71.5 58t61.5 57t43.5 55t16.5 51q0 21 -12.5 35.5t-36.5 14.5q-23 0 -42.5 -12.5t-33.5 -32.5h-10q-10 5 -16 13t-6 17q0 13 10 25q15 17 44 31t64 14q52 0 78.5 -26.5t26.5 -71.5q0 -29 -10 -53.5t-26 -45.5t-36 -39.5t-40 -37.5q-5 -5 -17 -15.5
t-35 -30.5h105q22 0 30.5 -8.5t8.5 -23.5q0 -3 -0.5 -9t-2.5 -13h-243zM255 0h-78l412 638q14 22 28 33t36 11q13 0 22 -2t17 -7zM561 281q-10 5 -16 13t-6 17q0 13 10 25q14 15 42 27t60 12q53 0 80.5 -27.5t27.5 -62.5q0 -34 -19 -56.5t-47 -36.5q24 -12 35.5 -33.5
t11.5 -44.5q0 -54 -36.5 -88t-102.5 -34q-24 0 -48.5 6.5t-46.5 24.5q-6 5 -11 11.5t-5 14.5q0 20 30 40q17 -20 36.5 -31t45.5 -11q12 0 24 3t22.5 10.5t17 20t6.5 30.5q0 25 -14.5 40t-37.5 15h-30l8 51h28q10 0 22 3t22.5 10t17 19t6.5 29t-12 29.5t-38 12.5
q-23 0 -42 -10.5t-34 -28.5h-7z" />
    <glyph glyph-name="onefifth" unicode="&#x2155;" horiz-adv-x="810" 
d="M178 309l48 290l-106 -56q-7 8 -11.5 17.5t-4.5 17.5q0 13 6 20.5t19 14.5l108 60q8 5 17 8t20 3q22 0 33 -10l-61 -365h-68zM225 0h-78l412 638q14 22 28 33t36 11q13 0 22 -2t17 -7zM606 -8q-23 0 -47.5 6.5t-46.5 24.5q-6 5 -11 11.5t-5 14.5q0 20 30 40
q17 -20 36.5 -31t45.5 -11q28 0 50 19t22 65q0 28 -15 45t-47 17q-18 0 -32.5 -3.5t-27.5 -8.5l-23 12l38 178h191q-2 -27 -11 -39.5t-35 -12.5h-99l-18 -83q15 5 41 5q50 0 77.5 -30t27.5 -78q0 -29 -9.5 -54.5t-27.5 -45t-44.5 -30.5t-59.5 -11z" />
    <glyph glyph-name="twofifths" unicode="&#x2156;" horiz-adv-x="810" 
d="M79 309l7 48q37 29 71.5 58t61.5 57t43.5 55t16.5 51q0 21 -12.5 35.5t-36.5 14.5q-23 0 -42.5 -12.5t-33.5 -32.5h-10q-10 5 -16 13t-6 17q0 13 10 25q15 17 44 31t64 14q52 0 78.5 -26.5t26.5 -71.5q0 -29 -10 -53.5t-26 -45.5t-36 -39.5t-40 -37.5q-5 -5 -17 -15.5
t-35 -30.5h105q22 0 30.5 -8.5t8.5 -23.5q0 -3 -0.5 -9t-2.5 -13h-243zM258 0h-78l412 638q14 22 28 33t36 11q13 0 22 -2t17 -7zM606 -8q-23 0 -47.5 6.5t-46.5 24.5q-6 5 -11 11.5t-5 14.5q0 20 30 40q17 -20 36.5 -31t45.5 -11q28 0 50 19t22 65q0 28 -15 45t-47 17
q-18 0 -32.5 -3.5t-27.5 -8.5l-23 12l38 178h191q-2 -27 -11 -39.5t-35 -12.5h-99l-18 -83q15 5 41 5q50 0 77.5 -30t27.5 -78q0 -29 -9.5 -54.5t-27.5 -45t-44.5 -30.5t-59.5 -11z" />
    <glyph glyph-name="threefifths" unicode="&#x2157;" horiz-adv-x="810" 
d="M150 589q-10 5 -16 13t-6 17q0 13 10 25q14 15 42 27t60 12q53 0 80.5 -27.5t27.5 -62.5q0 -34 -19 -56.5t-47 -36.5q24 -12 35.5 -33.5t11.5 -44.5q0 -54 -36.5 -88t-102.5 -34q-24 0 -48.5 6.5t-46.5 24.5q-6 5 -11 11.5t-5 14.5q0 20 30 40q17 -20 36.5 -31t45.5 -11
q12 0 24 3t22.5 10.5t17 20t6.5 30.5q0 25 -14.5 40t-37.5 15h-30l8 51h28q10 0 22 3t22.5 10t17 19t6.5 29t-12 29.5t-38 12.5q-23 0 -42 -10.5t-34 -28.5h-7zM242 0h-78l412 638q14 22 28 33t36 11q13 0 22 -2t17 -7zM606 -8q-23 0 -47.5 6.5t-46.5 24.5q-6 5 -11 11.5
t-5 14.5q0 20 30 40q17 -20 36.5 -31t45.5 -11q28 0 50 19t22 65q0 28 -15 45t-47 17q-18 0 -32.5 -3.5t-27.5 -8.5l-23 12l38 178h191q-2 -27 -11 -39.5t-35 -12.5h-99l-18 -83q15 5 41 5q50 0 77.5 -30t27.5 -78q0 -29 -9.5 -54.5t-27.5 -45t-44.5 -30.5t-59.5 -11z" />
    <glyph glyph-name="fourfifths" unicode="&#x2158;" horiz-adv-x="810" 
d="M247 433l27 155l-130 -155h103zM323 433q16 0 22 -6.5t6 -18.5q0 -5 -1.5 -11.5t-4.5 -13.5h-43l-12 -75h-63l12 75h-164l7 43l203 244q12 14 35 14q17 0 31 -8l-40 -243h12zM245 0h-78l412 638q14 22 28 33t36 11q13 0 22 -2t17 -7zM606 -8q-23 0 -47.5 6.5t-46.5 24.5
q-6 5 -11 11.5t-5 14.5q0 20 30 40q17 -20 36.5 -31t45.5 -11q28 0 50 19t22 65q0 28 -15 45t-47 17q-18 0 -32.5 -3.5t-27.5 -8.5l-23 12l38 178h191q-2 -27 -11 -39.5t-35 -12.5h-99l-18 -83q15 5 41 5q50 0 77.5 -30t27.5 -78q0 -29 -9.5 -54.5t-27.5 -45t-44.5 -30.5
t-59.5 -11z" />
    <glyph glyph-name="onesixth" unicode="&#x2159;" horiz-adv-x="810" 
d="M178 309l48 290l-106 -56q-7 8 -11.5 17.5t-4.5 17.5q0 13 6 20.5t19 14.5l108 60q8 5 17 8t20 3q22 0 33 -10l-61 -365h-68zM233 0h-78l412 638q14 22 28 33t36 11q13 0 22 -2t17 -7zM509 121q0 46 13.5 91.5t40.5 81.5t68 58t97 22q18 0 25.5 -7t7.5 -18q0 -5 -1.5 -12
t-6.5 -13h-27q-50 0 -84.5 -27t-52.5 -72q10 9 29 17.5t39 8.5q50 0 76 -33t26 -79q0 -27 -8 -53.5t-24.5 -47.5t-42.5 -33.5t-62 -12.5q-51 0 -82 33.5t-31 95.5zM572 122q0 -40 15 -59t38 -19q32 0 50.5 22.5t18.5 67.5q0 28 -11 47t-40 19q-36 0 -53.5 -18t-17.5 -60z
" />
    <glyph glyph-name="fivesixths" unicode="&#x215a;" horiz-adv-x="810" 
d="M195 300q-23 0 -47.5 6.5t-46.5 24.5q-6 5 -11 11.5t-5 14.5q0 20 30 40q17 -20 36.5 -31t45.5 -11q28 0 50 19t22 65q0 28 -15 45t-47 17q-18 0 -32.5 -3.5t-27.5 -8.5l-23 12l38 178h191q-2 -27 -11 -39.5t-35 -12.5h-99l-18 -83q15 5 41 5q50 0 77.5 -30t27.5 -78
q0 -29 -9.5 -54.5t-27.5 -45t-44.5 -30.5t-59.5 -11zM259 0h-78l412 638q14 22 28 33t36 11q13 0 22 -2t17 -7zM509 121q0 46 13.5 91.5t40.5 81.5t68 58t97 22q18 0 25.5 -7t7.5 -18q0 -5 -1.5 -12t-6.5 -13h-27q-50 0 -84.5 -27t-52.5 -72q10 9 29 17.5t39 8.5
q50 0 76 -33t26 -79q0 -27 -8 -53.5t-24.5 -47.5t-42.5 -33.5t-62 -12.5q-51 0 -82 33.5t-31 95.5zM572 122q0 -40 15 -59t38 -19q32 0 50.5 22.5t18.5 67.5q0 28 -11 47t-40 19q-36 0 -53.5 -18t-17.5 -60z" />
    <glyph glyph-name="oneeighth" unicode="&#x215b;" horiz-adv-x="810" 
d="M178 309l48 290l-106 -56q-7 8 -11.5 17.5t-4.5 17.5q0 13 6 20.5t19 14.5l108 60q8 5 17 8t20 3q22 0 33 -10l-61 -365h-68zM226 0h-78l412 638q14 22 28 33t36 11q13 0 22 -2t17 -7zM657 326q-25 0 -42.5 -14.5t-17.5 -45.5q0 -20 13 -32.5t34 -12.5q23 0 42 15t19 46
q0 20 -13 32t-35 12zM769 284q0 -36 -19 -57t-43 -33q49 -29 49 -78q0 -31 -11.5 -54t-30 -38.5t-43.5 -23t-52 -7.5q-54 0 -87.5 28t-33.5 73q0 41 23 65.5t53 38.5q-39 27 -39 67q0 27 10 47.5t27 34.5t39.5 21t47.5 7q52 0 81 -25.5t29 -65.5zM621 43q29 0 49.5 18.5
t20.5 53.5q0 23 -15 38.5t-41 15.5q-13 0 -26 -4.5t-23.5 -14t-17 -23t-6.5 -31.5q0 -23 16 -38t43 -15z" />
    <glyph glyph-name="threeeighths" unicode="&#x215c;" horiz-adv-x="810" 
d="M150 589q-10 5 -16 13t-6 17q0 13 10 25q14 15 42 27t60 12q53 0 80.5 -27.5t27.5 -62.5q0 -34 -19 -56.5t-47 -36.5q24 -12 35.5 -33.5t11.5 -44.5q0 -54 -36.5 -88t-102.5 -34q-24 0 -48.5 6.5t-46.5 24.5q-6 5 -11 11.5t-5 14.5q0 20 30 40q17 -20 36.5 -31t45.5 -11
q12 0 24 3t22.5 10.5t17 20t6.5 30.5q0 25 -14.5 40t-37.5 15h-30l8 51h28q10 0 22 3t22.5 10t17 19t6.5 29t-12 29.5t-38 12.5q-23 0 -42 -10.5t-34 -28.5h-7zM245 0h-78l412 638q14 22 28 33t36 11q13 0 22 -2t17 -7zM657 326q-25 0 -42.5 -14.5t-17.5 -45.5
q0 -20 13 -32.5t34 -12.5q23 0 42 15t19 46q0 20 -13 32t-35 12zM769 284q0 -36 -19 -57t-43 -33q49 -29 49 -78q0 -31 -11.5 -54t-30 -38.5t-43.5 -23t-52 -7.5q-54 0 -87.5 28t-33.5 73q0 41 23 65.5t53 38.5q-39 27 -39 67q0 27 10 47.5t27 34.5t39.5 21t47.5 7
q52 0 81 -25.5t29 -65.5zM621 43q29 0 49.5 18.5t20.5 53.5q0 23 -15 38.5t-41 15.5q-13 0 -26 -4.5t-23.5 -14t-17 -23t-6.5 -31.5q0 -23 16 -38t43 -15z" />
    <glyph glyph-name="fiveeighths" unicode="&#x215d;" horiz-adv-x="810" 
d="M195 300q-23 0 -47.5 6.5t-46.5 24.5q-6 5 -11 11.5t-5 14.5q0 20 30 40q17 -20 36.5 -31t45.5 -11q28 0 50 19t22 65q0 28 -15 45t-47 17q-18 0 -32.5 -3.5t-27.5 -8.5l-23 12l38 178h191q-2 -27 -11 -39.5t-35 -12.5h-99l-18 -83q15 5 41 5q50 0 77.5 -30t27.5 -78
q0 -29 -9.5 -54.5t-27.5 -45t-44.5 -30.5t-59.5 -11zM245 0h-78l412 638q14 22 28 33t36 11q13 0 22 -2t17 -7zM657 326q-25 0 -42.5 -14.5t-17.5 -45.5q0 -20 13 -32.5t34 -12.5q23 0 42 15t19 46q0 20 -13 32t-35 12zM769 284q0 -36 -19 -57t-43 -33q49 -29 49 -78
q0 -31 -11.5 -54t-30 -38.5t-43.5 -23t-52 -7.5q-54 0 -87.5 28t-33.5 73q0 41 23 65.5t53 38.5q-39 27 -39 67q0 27 10 47.5t27 34.5t39.5 21t47.5 7q52 0 81 -25.5t29 -65.5zM621 43q29 0 49.5 18.5t20.5 53.5q0 23 -15 38.5t-41 15.5q-13 0 -26 -4.5t-23.5 -14t-17 -23
t-6.5 -31.5q0 -23 16 -38t43 -15z" />
    <glyph glyph-name="seveneighths" unicode="&#x215e;" horiz-adv-x="810" 
d="M183 307h-74l180 311h-171q3 28 13 43.5t38 15.5h177q14 0 19 -5.5t5 -14.5v-5l-2 -15zM214 0h-78l412 638q14 22 28 33t36 11q13 0 22 -2t17 -7zM657 326q-25 0 -42.5 -14.5t-17.5 -45.5q0 -20 13 -32.5t34 -12.5q23 0 42 15t19 46q0 20 -13 32t-35 12zM769 284
q0 -36 -19 -57t-43 -33q49 -29 49 -78q0 -31 -11.5 -54t-30 -38.5t-43.5 -23t-52 -7.5q-54 0 -87.5 28t-33.5 73q0 41 23 65.5t53 38.5q-39 27 -39 67q0 27 10 47.5t27 34.5t39.5 21t47.5 7q52 0 81 -25.5t29 -65.5zM621 43q29 0 49.5 18.5t20.5 53.5q0 23 -15 38.5
t-41 15.5q-13 0 -26 -4.5t-23.5 -14t-17 -23t-6.5 -31.5q0 -23 16 -38t43 -15z" />
    <glyph glyph-name="partialdiff" unicode="&#x2202;" horiz-adv-x="502" 
d="M172 682q76 -7 132.5 -34t94 -69t55.5 -97.5t18 -119.5q0 -97 -19 -167.5t-53 -117t-80 -69t-101 -22.5q-33 0 -64 12t-54.5 36.5t-37.5 62t-14 88.5q0 75 18.5 131t50 92.5t72.5 54.5t85 18q32 0 61 -11.5t47 -31.5q-7 31 -23 61.5t-43.5 55t-67 41.5t-92.5 23zM227 52
q47 0 77.5 28t48 72.5t24 98t6.5 104.5q-10 24 -38 41t-69 17q-29 0 -55.5 -13t-46.5 -40.5t-32 -70t-12 -100.5q0 -66 26 -101.5t71 -35.5z" />
    <glyph glyph-name="Delta" unicode="&#x2206;" horiz-adv-x="564" 
d="M342 558l-233 -488h317zM-12 0l330 669h84l124 -669h-538z" />
    <glyph glyph-name="product" unicode="&#x220f;" horiz-adv-x="606" 
d="M383 -43l106 638h-241l-106 -638h-86l105 638h-75l12 74h559l-12 -74h-70l-106 -638h-86z" />
    <glyph glyph-name="summation" unicode="&#x2211;" horiz-adv-x="458" 
d="M-22 -122l11 66l255 346l-148 313l10 66h404l-12 -73h-309l145 -316l-246 -328h314l-11 -74h-413z" />
    <glyph glyph-name="minus" unicode="&#x2212;" horiz-adv-x="543" 
d="M103 301l13 72h363l-13 -72h-363z" />
    <glyph glyph-name="uni2215" unicode="&#x2215;" horiz-adv-x="355" 
d="M75 0h-85l328 623q14 26 29 38.5t41 12.5q20 0 36 -10z" />
    <glyph glyph-name="uni2219" unicode="&#x2219;" horiz-adv-x="258" 
d="M145 274q-25 0 -37 16.5t-12 37.5q0 28 17 48t46 20q25 0 37 -16.5t12 -37.5q0 -28 -17 -48t-46 -20z" />
    <glyph glyph-name="radical" unicode="&#x221a;" horiz-adv-x="511" 
d="M125 240h-70l10 69h122l54 -188l273 606l68 -30l-317 -697h-66z" />
    <glyph glyph-name="infinity" unicode="&#x221e;" horiz-adv-x="595" 
d="M511 371q0 36 -14.5 55t-39.5 19q-35 0 -59.5 -27.5t-44.5 -72.5q8 -39 26 -66t43 -27q22 0 38.5 10.5t27.5 27.5t17 38t6 43zM129 325q0 -35 15 -54.5t40 -19.5q35 0 59.5 27.5t43.5 72.5q-7 39 -25 66t-43 27q-23 0 -39.5 -10.5t-27.5 -27.5t-17 -38t-6 -43zM311 281
q-29 -47 -60 -68.5t-76 -21.5q-56 0 -86 34.5t-30 97.5q0 34 11 67t31 58.5t49.5 41t66.5 15.5q40 0 67 -21t46 -69q29 47 60 68.5t75 21.5q56 0 86 -33.5t30 -95.5q0 -35 -10.5 -68t-30.5 -59t-49.5 -42t-66.5 -16q-40 0 -67 21.5t-46 68.5z" />
    <glyph glyph-name="integral" unicode="&#x222b;" horiz-adv-x="339" 
d="M156 408q12 70 27.5 120t42.5 81.5t69.5 46t108.5 14.5l-12 -73q-29 0 -51.5 -6t-40 -21t-29 -40.5t-17.5 -64.5l-66 -398q-12 -71 -27.5 -120.5t-42.5 -81t-69.5 -46t-108.5 -14.5l12 73q29 0 51.5 6t40 21t29 40.5t17.5 64.5z" />
    <glyph glyph-name="approxequal" unicode="&#x2248;" horiz-adv-x="531" 
d="M189 395q-26 0 -50.5 -8t-46.5 -20l-23 61q23 14 57.5 26.5t69.5 12.5q24 0 51 -6t55 -13t55.5 -13t52.5 -6q27 0 51 8.5t47 21.5q10 -30 22 -60q-20 -16 -55.5 -28.5t-72.5 -12.5q-29 0 -57 6t-55 12.5t-52.5 12.5t-48.5 6zM157 203q-26 0 -50.5 -8t-46.5 -20l-23 61
q23 14 57.5 26.5t69.5 12.5q24 0 51 -6t55 -13t55.5 -13t52.5 -6q27 0 51 8.5t47 21.5q10 -30 22 -60q-20 -16 -55.5 -28.5t-72.5 -12.5q-29 0 -57 6t-55 12.5t-52.5 12.5t-48.5 6z" />
    <glyph glyph-name="notequal" unicode="&#x2260;" horiz-adv-x="549" 
d="M404 460h99l-12 -72h-132l-67 -109h181l-12 -72h-214l-79 -128l-48 31l60 97h-97l13 72h128l68 109h-179l13 72h211l76 122l48 -31z" />
    <glyph glyph-name="lessequal" unicode="&#x2264;" horiz-adv-x="549" 
d="M63 0l13 72h363l-13 -72h-363zM513 563l-14 -85l-300 -129l257 -132l-12 -78l-337 180l11 68z" />
    <glyph glyph-name="greaterequal" unicode="&#x2265;" horiz-adv-x="549" 
d="M62 0l13 72h363l-13 -72h-363zM83 139l14 86l300 129l-257 132l12 77l337 -180l-11 -68z" />
    <glyph glyph-name="lozenge" unicode="&#x25ca;" horiz-adv-x="503" 
d="M334 726l138 -373l-260 -375l-137 376zM312 577l-156 -225l78 -225l155 228z" />
    <glyph glyph-name="fi" unicode="&#xf001;" horiz-adv-x="488" 
d="M459 8q-12 -7 -29.5 -11t-30.5 -4q-42 0 -61.5 21t-18.5 56q0 5 0.5 10.5t1.5 11.5l52 313h-174l-69 -418q-7 -41 -18.5 -76t-31 -61.5t-49 -41.5t-72.5 -15q-30 0 -54.5 6.5t-38.5 19.5q-13 13 -13 29q0 11 3 17.5t10 14.5l16 16q15 -17 32.5 -25.5t41.5 -8.5
q21 0 36 9.5t25.5 26t17.5 39t11 47.5l88 537q7 44 23 80.5t41.5 62t61 39.5t82.5 14q51 0 83.5 -17t49.5 -40q5 -6 8 -13t3 -15q0 -15 -7.5 -24t-19.5 -16l-16 -9q-15 32 -41.5 49.5t-62.5 17.5q-56 0 -83.5 -32t-35.5 -85l-10 -61h260l-63 -377q-1 -6 -1.5 -11t-0.5 -10
q0 -15 6 -22.5t22 -7.5q8 0 19 3z" />
    <glyph glyph-name="fl" unicode="&#xf002;" horiz-adv-x="510" 
d="M337 405h-138l-69 -418q-7 -41 -18.5 -76t-31 -61.5t-49 -41.5t-72.5 -15q-30 0 -54.5 6.5t-38.5 19.5q-13 13 -13 29q0 11 3 17.5t10 14.5l16 16q15 -17 32.5 -25.5t41.5 -8.5q21 0 36 9.5t25.5 26t17.5 39t11 47.5l88 537q14 89 66.5 142.5t146.5 53.5q50 0 94.5 -16.5
t79.5 -44.5l-93 -561q-1 -6 -1.5 -11t-0.5 -10q0 -15 6 -22.5t22 -7.5q8 0 19 3l7 -39q-12 -7 -29.5 -11t-30.5 -4q-42 0 -61.5 21t-18.5 56q0 5 0.5 10.5t1.5 11.5l88 534q-17 13 -41 18.5t-45 5.5q-56 0 -86 -32t-38 -85l-10 -61h137z" />
    <glyph glyph-name="oneseventh" unicode="&#xf506;" horiz-adv-x="810" 
d="M178 309l48 290l-106 -56q-7 8 -11.5 17.5t-4.5 17.5q0 13 6 20.5t19 14.5l108 60q8 5 17 8t20 3q22 0 33 -10l-61 -365h-68zM215 0h-78l412 638q14 22 28 33t36 11q13 0 22 -2t17 -7zM594 -1h-74l180 311h-171q3 28 13 43.5t38 15.5h177q14 0 19 -5.5t5 -14.5v-5l-2 -15
z" />
    <glyph glyph-name="twosevenths" unicode="&#xf507;" horiz-adv-x="810" 
d="M79 309l7 48q37 29 71.5 58t61.5 57t43.5 55t16.5 51q0 21 -12.5 35.5t-36.5 14.5q-23 0 -42.5 -12.5t-33.5 -32.5h-10q-10 5 -16 13t-6 17q0 13 10 25q15 17 44 31t64 14q52 0 78.5 -26.5t26.5 -71.5q0 -29 -10 -53.5t-26 -45.5t-36 -39.5t-40 -37.5q-5 -5 -17 -15.5
t-35 -30.5h105q22 0 30.5 -8.5t8.5 -23.5q0 -3 -0.5 -9t-2.5 -13h-243zM246 0h-78l412 638q14 22 28 33t36 11q13 0 22 -2t17 -7zM594 -1h-74l180 311h-171q3 28 13 43.5t38 15.5h177q14 0 19 -5.5t5 -14.5v-5l-2 -15z" />
    <glyph glyph-name="threesevenths" unicode="&#xf508;" horiz-adv-x="810" 
d="M150 589q-10 5 -16 13t-6 17q0 13 10 25q14 15 42 27t60 12q53 0 80.5 -27.5t27.5 -62.5q0 -34 -19 -56.5t-47 -36.5q24 -12 35.5 -33.5t11.5 -44.5q0 -54 -36.5 -88t-102.5 -34q-24 0 -48.5 6.5t-46.5 24.5q-6 5 -11 11.5t-5 14.5q0 20 30 40q17 -20 36.5 -31t45.5 -11
q12 0 24 3t22.5 10.5t17 20t6.5 30.5q0 25 -14.5 40t-37.5 15h-30l8 51h28q10 0 22 3t22.5 10t17 19t6.5 29t-12 29.5t-38 12.5q-23 0 -42 -10.5t-34 -28.5h-7zM231 0h-78l412 638q14 22 28 33t36 11q13 0 22 -2t17 -7zM594 -1h-74l180 311h-171q3 28 13 43.5t38 15.5h177
q14 0 19 -5.5t5 -14.5v-5l-2 -15z" />
    <glyph glyph-name="foursevenths" unicode="&#xf509;" horiz-adv-x="810" 
d="M247 433l27 155l-130 -155h103zM323 433q16 0 22 -6.5t6 -18.5q0 -5 -1.5 -11.5t-4.5 -13.5h-43l-12 -75h-63l12 75h-164l7 43l203 244q12 14 35 14q17 0 31 -8l-40 -243h12zM236 0h-78l412 638q14 22 28 33t36 11q13 0 22 -2t17 -7zM594 -1h-74l180 311h-171
q3 28 13 43.5t38 15.5h177q14 0 19 -5.5t5 -14.5v-5l-2 -15z" />
    <glyph glyph-name="fivesevenths" unicode="&#xf50a;" horiz-adv-x="810" 
d="M195 300q-23 0 -47.5 6.5t-46.5 24.5q-6 5 -11 11.5t-5 14.5q0 20 30 40q17 -20 36.5 -31t45.5 -11q28 0 50 19t22 65q0 28 -15 45t-47 17q-18 0 -32.5 -3.5t-27.5 -8.5l-23 12l38 178h191q-2 -27 -11 -39.5t-35 -12.5h-99l-18 -83q15 5 41 5q50 0 77.5 -30t27.5 -78
q0 -29 -9.5 -54.5t-27.5 -45t-44.5 -30.5t-59.5 -11zM228 0h-78l412 638q14 22 28 33t36 11q13 0 22 -2t17 -7zM594 -1h-74l180 311h-171q3 28 13 43.5t38 15.5h177q14 0 19 -5.5t5 -14.5v-5l-2 -15z" />
    <glyph glyph-name="sixsevenths" unicode="&#xf50b;" horiz-adv-x="810" 
d="M98 429q0 46 13.5 91.5t40.5 81.5t68 58t97 22q18 0 25.5 -7t7.5 -18q0 -5 -1.5 -12t-6.5 -13h-27q-50 0 -84.5 -27t-52.5 -72q10 9 29 17.5t39 8.5q50 0 76 -33t26 -79q0 -27 -8 -53.5t-24.5 -47.5t-42.5 -33.5t-62 -12.5q-51 0 -82 33.5t-31 95.5zM161 430
q0 -40 15 -59t38 -19q32 0 50.5 22.5t18.5 67.5q0 28 -11 47t-40 19q-36 0 -53.5 -18t-17.5 -60zM237 0h-78l412 638q14 22 28 33t36 11q13 0 22 -2t17 -7zM594 -1h-74l180 311h-171q3 28 13 43.5t38 15.5h177q14 0 19 -5.5t5 -14.5v-5l-2 -15z" />
    <glyph glyph-name="oneninth" unicode="&#xf50c;" horiz-adv-x="810" 
d="M178 309l48 290l-106 -56q-7 8 -11.5 17.5t-4.5 17.5q0 13 6 20.5t19 14.5l108 60q8 5 17 8t20 3q22 0 33 -10l-61 -365h-68zM221 0h-78l412 638q14 22 28 33t36 11q13 0 22 -2t17 -7zM701 244q0 41 -15 60t-38 19q-32 0 -50.5 -23.5t-18.5 -66.5q0 -28 11.5 -47
t39.5 -19q38 0 54.5 17t16.5 60zM547 43q52 0 86.5 27t52.5 72q-12 -11 -32 -18.5t-37 -7.5q-52 0 -78 32.5t-26 79.5q0 27 7.5 53.5t24 47.5t43 33.5t63.5 12.5q51 0 82.5 -33.5t31.5 -95.5q0 -48 -14 -93.5t-41 -81t-67.5 -57t-95.5 -21.5q-18 0 -25.5 7t-7.5 18
q0 5 1.5 12t6.5 13h25z" />
    <glyph glyph-name="twoninths" unicode="&#xf50d;" horiz-adv-x="810" 
d="M79 309l7 48q37 29 71.5 58t61.5 57t43.5 55t16.5 51q0 21 -12.5 35.5t-36.5 14.5q-23 0 -42.5 -12.5t-33.5 -32.5h-10q-10 5 -16 13t-6 17q0 13 10 25q15 17 44 31t64 14q52 0 78.5 -26.5t26.5 -71.5q0 -29 -10 -53.5t-26 -45.5t-36 -39.5t-40 -37.5q-5 -5 -17 -15.5
t-35 -30.5h105q22 0 30.5 -8.5t8.5 -23.5q0 -3 -0.5 -9t-2.5 -13h-243zM253 0h-78l412 638q14 22 28 33t36 11q13 0 22 -2t17 -7zM701 244q0 41 -15 60t-38 19q-32 0 -50.5 -23.5t-18.5 -66.5q0 -28 11.5 -47t39.5 -19q38 0 54.5 17t16.5 60zM547 43q52 0 86.5 27t52.5 72
q-12 -11 -32 -18.5t-37 -7.5q-52 0 -78 32.5t-26 79.5q0 27 7.5 53.5t24 47.5t43 33.5t63.5 12.5q51 0 82.5 -33.5t31.5 -95.5q0 -48 -14 -93.5t-41 -81t-67.5 -57t-95.5 -21.5q-18 0 -25.5 7t-7.5 18q0 5 1.5 12t6.5 13h25z" />
    <glyph glyph-name="fourninths" unicode="&#xf50e;" horiz-adv-x="810" 
d="M247 433l27 155l-130 -155h103zM323 433q16 0 22 -6.5t6 -18.5q0 -5 -1.5 -11.5t-4.5 -13.5h-43l-12 -75h-63l12 75h-164l7 43l203 244q12 14 35 14q17 0 31 -8l-40 -243h12zM251 0h-78l412 638q14 22 28 33t36 11q13 0 22 -2t17 -7zM701 244q0 41 -15 60t-38 19
q-32 0 -50.5 -23.5t-18.5 -66.5q0 -28 11.5 -47t39.5 -19q38 0 54.5 17t16.5 60zM547 43q52 0 86.5 27t52.5 72q-12 -11 -32 -18.5t-37 -7.5q-52 0 -78 32.5t-26 79.5q0 27 7.5 53.5t24 47.5t43 33.5t63.5 12.5q51 0 82.5 -33.5t31.5 -95.5q0 -48 -14 -93.5t-41 -81
t-67.5 -57t-95.5 -21.5q-18 0 -25.5 7t-7.5 18q0 5 1.5 12t6.5 13h25z" />
    <glyph glyph-name="fiveninths" unicode="&#xf50f;" horiz-adv-x="810" 
d="M195 300q-23 0 -47.5 6.5t-46.5 24.5q-6 5 -11 11.5t-5 14.5q0 20 30 40q17 -20 36.5 -31t45.5 -11q28 0 50 19t22 65q0 28 -15 45t-47 17q-18 0 -32.5 -3.5t-27.5 -8.5l-23 12l38 178h191q-2 -27 -11 -39.5t-35 -12.5h-99l-18 -83q15 5 41 5q50 0 77.5 -30t27.5 -78
q0 -29 -9.5 -54.5t-27.5 -45t-44.5 -30.5t-59.5 -11zM241 0h-78l412 638q14 22 28 33t36 11q13 0 22 -2t17 -7zM701 244q0 41 -15 60t-38 19q-32 0 -50.5 -23.5t-18.5 -66.5q0 -28 11.5 -47t39.5 -19q38 0 54.5 17t16.5 60zM547 43q52 0 86.5 27t52.5 72q-12 -11 -32 -18.5
t-37 -7.5q-52 0 -78 32.5t-26 79.5q0 27 7.5 53.5t24 47.5t43 33.5t63.5 12.5q51 0 82.5 -33.5t31.5 -95.5q0 -48 -14 -93.5t-41 -81t-67.5 -57t-95.5 -21.5q-18 0 -25.5 7t-7.5 18q0 5 1.5 12t6.5 13h25z" />
    <glyph glyph-name="sevenninths" unicode="&#xf510;" horiz-adv-x="810" 
d="M183 307h-74l180 311h-171q3 28 13 43.5t38 15.5h177q14 0 19 -5.5t5 -14.5v-5l-2 -15zM204 0h-78l412 638q14 22 28 33t36 11q13 0 22 -2t17 -7zM701 244q0 41 -15 60t-38 19q-32 0 -50.5 -23.5t-18.5 -66.5q0 -28 11.5 -47t39.5 -19q38 0 54.5 17t16.5 60zM547 43
q52 0 86.5 27t52.5 72q-12 -11 -32 -18.5t-37 -7.5q-52 0 -78 32.5t-26 79.5q0 27 7.5 53.5t24 47.5t43 33.5t63.5 12.5q51 0 82.5 -33.5t31.5 -95.5q0 -48 -14 -93.5t-41 -81t-67.5 -57t-95.5 -21.5q-18 0 -25.5 7t-7.5 18q0 5 1.5 12t6.5 13h25z" />
    <glyph glyph-name="eightninths" unicode="&#xf511;" horiz-adv-x="810" 
d="M246 634q-25 0 -42.5 -14.5t-17.5 -45.5q0 -20 13 -32.5t34 -12.5q23 0 42 15t19 46q0 20 -13 32t-35 12zM358 592q0 -36 -19 -57t-43 -33q49 -29 49 -78q0 -31 -11.5 -54t-30 -38.5t-43.5 -23t-52 -7.5q-54 0 -87.5 28t-33.5 73q0 41 23 65.5t53 38.5q-39 27 -39 67
q0 27 10 47.5t27 34.5t39.5 21t47.5 7q52 0 81 -25.5t29 -65.5zM210 351q29 0 49.5 18.5t20.5 53.5q0 23 -15 38.5t-41 15.5q-13 0 -26 -4.5t-23.5 -14t-17 -23t-6.5 -31.5q0 -23 16 -38t43 -15zM249 0h-78l412 638q14 22 28 33t36 11q13 0 22 -2t17 -7zM701 244
q0 41 -15 60t-38 19q-32 0 -50.5 -23.5t-18.5 -66.5q0 -28 11.5 -47t39.5 -19q38 0 54.5 17t16.5 60zM547 43q52 0 86.5 27t52.5 72q-12 -11 -32 -18.5t-37 -7.5q-52 0 -78 32.5t-26 79.5q0 27 7.5 53.5t24 47.5t43 33.5t63.5 12.5q51 0 82.5 -33.5t31.5 -95.5
q0 -48 -14 -93.5t-41 -81t-67.5 -57t-95.5 -21.5q-18 0 -25.5 7t-7.5 18q0 5 1.5 12t6.5 13h25z" />
    <glyph glyph-name="zero.alt" unicode="&#xf800;" horiz-adv-x="527" 
d="M328 597q-42 0 -76.5 -29.5t-60 -81t-39.5 -120.5t-14 -148q0 -69 24.5 -114t78.5 -45q41 0 76 29t61 79.5t41 119.5t15 149q0 70 -25.5 115.5t-80.5 45.5zM337 670q52 0 87.5 -21t57.5 -55.5t31 -78t9 -88.5q0 -79 -17.5 -158t-53 -142t-89.5 -102.5t-127 -39.5
q-53 0 -88 21t-57 55t-31 77.5t-9 87.5q0 77 17.5 156t53 143t89.5 104.5t127 40.5z" />
    <glyph glyph-name="one.alt" unicode="&#xf801;" horiz-adv-x="405" 
d="M169 0l92 557l-152 -78q-7 11 -12.5 22.5t-5.5 22.5q0 14 8 23t22 17l161 88q23 13 46 13q21 0 34 -14l-108 -651h-85z" />
    <glyph glyph-name="two.alt" unicode="&#xf802;" horiz-adv-x="496" 
d="M376 70q30 0 42 -10.5t12 -33.5q0 -5 -1 -12t-3 -14h-413l10 65q31 26 69.5 57.5t78 66.5t77 73t66.5 77t46.5 77.5t17.5 74.5q0 54 -27 79.5t-77 25.5q-42 0 -78 -21.5t-66 -60.5l-19 10q-9 5 -14.5 14t-5.5 20t4.5 19.5t12.5 17.5q10 13 28 26.5t41.5 24.5t51.5 18
t60 7q86 0 131.5 -45t45.5 -123q0 -44 -16.5 -87t-44 -83.5t-62.5 -78.5t-71.5 -71.5t-71 -62t-61.5 -50.5h237z" />
    <glyph glyph-name="three.alt" unicode="&#xf803;" horiz-adv-x="490" 
d="M112 533q-20 10 -20 33q0 11 4.5 19.5t12.5 17.5q32 32 78.5 50t95.5 18q45 0 78.5 -12t56 -33t33.5 -49t11 -59q0 -35 -12 -63t-31 -49t-42.5 -36t-46.5 -24q50 -23 73 -61.5t23 -85.5q0 -46 -15 -85.5t-45 -68t-73.5 -44.5t-100.5 -16q-65 0 -104 17t-58 34
q-14 13 -18.5 23t-4.5 23q0 15 8.5 26t27.5 23q29 -35 63.5 -54.5t88.5 -19.5q25 0 51 7.5t46 24t33 42.5t13 62q0 30 -9.5 52t-25 36.5t-36 21.5t-42.5 7h-34l11 68h32q18 0 43 7t47 22.5t37.5 39.5t15.5 59q0 39 -26 65t-80 26q-48 0 -80 -20.5t-58 -54.5z" />
    <glyph glyph-name="four.alt" unicode="&#xf804;" horiz-adv-x="520" 
d="M332 241l48 288l-247 -288h199zM443 241q23 0 33 -9.5t10 -28.5q0 -12 -5 -30h-78l-28 -173h-83l28 173h-283l10 60l324 380q20 24 37.5 38t40.5 14q11 0 19 -3t15 -7l-69 -414h29z" />
    <glyph glyph-name="five.alt" unicode="&#xf805;" horiz-adv-x="505" 
d="M61 36q-14 12 -20 22.5t-6 23.5q0 15 8.5 26t27.5 23q29 -35 64 -54t87 -19q29 0 55.5 9t46 28.5t31 51.5t11.5 77q0 59 -34 92t-93 33q-35 0 -59.5 -5.5t-50.5 -15.5l-25 14l63 321h316q-1 -38 -14.5 -56t-51.5 -18h-189l-34 -182q14 3 34 6t44 3q44 0 78 -15.5
t57.5 -41.5t35.5 -60.5t12 -72.5q0 -50 -15 -93.5t-45 -76.5t-73.5 -52t-100.5 -19q-63 0 -101.5 17t-58.5 34z" />
    <glyph glyph-name="six.alt" unicode="&#xf806;" horiz-adv-x="526" 
d="M68 210q1 84 24.5 166.5t71 148t118.5 106t167 40.5q25 0 35.5 -8.5t10.5 -25.5q0 -15 -11 -35q-10 1 -19.5 1h-19.5q-47 0 -90 -16t-78 -45t-61.5 -70t-39.5 -91q26 25 63 38.5t70 13.5q43 0 75.5 -15.5t55 -41.5t34 -61t11.5 -75q0 -48 -13.5 -94t-41.5 -82
t-71.5 -57.5t-102.5 -21.5q-84 0 -136 58.5t-52 166.5zM151 212q0 -81 31 -119.5t80 -38.5q28 0 53 11t44 33.5t30 56t11 77.5q0 57 -27.5 94t-80.5 37q-41 0 -76.5 -18.5t-53.5 -43.5q-5 -17 -8 -37t-3 -52z" />
    <glyph glyph-name="seven.alt" unicode="&#xf807;" horiz-adv-x="464" 
d="M63 588q1 36 15 55.5t51 19.5h329q15 0 24 -6.5t9 -19.5v-4l-3 -22l-336 -611h-95l329 588h-323z" />
    <glyph glyph-name="eight.alt" unicode="&#xf808;" horiz-adv-x="534" 
d="M505 514q0 -33 -10 -59.5t-27 -47t-39 -35t-45 -24.5q49 -25 74.5 -63t25.5 -83q0 -55 -19 -96t-51 -68t-74 -40t-88 -13q-45 0 -82 13t-63.5 36t-41 56t-14.5 72q0 38 12 68.5t32.5 54t46.5 40t54 26.5q-44 27 -62.5 59.5t-18.5 67.5q0 47 17.5 83t47 60t67 36.5
t76.5 12.5q42 0 75.5 -11.5t57 -32.5t36.5 -49.5t13 -62.5zM297 383q24 0 46.5 8t40 24t28 39.5t10.5 55.5q0 42 -27 68t-76 26q-52 0 -87.5 -30.5t-35.5 -93.5q0 -41 28 -69t73 -28zM254 52q29 0 55 9.5t46 28t31.5 46t11.5 64.5q0 24 -8.5 44.5t-24 36t-37.5 24.5t-48 9
q-28 0 -54.5 -10t-46.5 -29t-32.5 -47t-12.5 -64q0 -49 31.5 -80.5t88.5 -31.5z" />
    <glyph glyph-name="nine.alt" unicode="&#xf809;" horiz-adv-x="527" 
d="M305 671q41 0 75.5 -14.5t59 -42.5t38.5 -69t14 -94q0 -87 -21.5 -171t-67 -150t-116 -106t-169.5 -40q-24 0 -35 9.5t-11 24.5q0 10 3 18.5t8 18.5q11 -1 22.5 -1h16.5q50 0 93 16.5t77 46t58 71t36 92.5q-26 -26 -62 -41t-69 -15q-43 0 -76.5 15t-56.5 41t-35 61.5
t-12 76.5q0 48 14.5 93.5t43 81t71.5 57t101 21.5zM270 293q41 0 76.5 20t53.5 46q5 17 7.5 35.5t2.5 49.5q0 81 -31.5 119t-79.5 38q-28 0 -53.5 -11t-44.5 -33t-30 -55.5t-11 -77.5q0 -57 29 -94t81 -37z" />
    <glyph glyph-name="zero.sups" unicode="&#xf80a;" 
d="M237 718q-21 0 -40 -14.5t-32.5 -40t-21.5 -61.5t-8 -79q0 -33 12.5 -54.5t38.5 -21.5q44 0 73.5 52t29.5 142q0 34 -12.5 55.5t-39.5 21.5zM242 773q33 0 55 -12t35.5 -31.5t19.5 -44t6 -50.5q0 -44 -11 -88t-32.5 -78.5t-54.5 -56t-77 -21.5q-32 0 -54 11.5t-35.5 30.5
t-19.5 43t-6 49q0 43 10.5 87t32 80t54.5 58.5t77 22.5z" />
    <glyph glyph-name="one.sups" unicode="&#xf80b;" 
d="M165 399l48 290l-106 -56q-7 8 -11.5 17.5t-4.5 17.5q0 13 6 20.5t19 14.5l108 60q8 5 17 8t20 3q22 0 33 -10l-61 -365h-68z" />
    <glyph glyph-name="two.sups" unicode="&#xf80c;" 
d="M56 399l7 48q37 29 71.5 58t61.5 57t43.5 55t16.5 51q0 21 -12.5 35.5t-36.5 14.5q-23 0 -42.5 -12.5t-33.5 -32.5h-10q-10 5 -16 13t-6 17q0 13 10 25q15 17 44 31t64 14q52 0 78.5 -26.5t26.5 -71.5q0 -29 -10 -53.5t-26 -45.5t-36 -39.5t-40 -37.5q-5 -5 -17 -15.5
t-35 -30.5h105q22 0 30.5 -8.5t8.5 -23.5q0 -3 -0.5 -9t-2.5 -13h-243z" />
    <glyph glyph-name="three.sups" unicode="&#xf80d;" 
d="M137 679q-10 5 -16 13t-6 17q0 13 10 25q14 15 42 27t60 12q53 0 80.5 -27.5t27.5 -62.5q0 -34 -19 -56.5t-47 -36.5q24 -12 35.5 -33.5t11.5 -44.5q0 -54 -36.5 -88t-102.5 -34q-24 0 -48.5 6.5t-46.5 24.5q-6 5 -11 11.5t-5 14.5q0 20 30 40q17 -20 36.5 -31t45.5 -11
q12 0 24 3t22.5 10.5t17 20t6.5 30.5q0 25 -14.5 40t-37.5 15h-30l8 51h28q10 0 22 3t22.5 10t17 19t6.5 29t-12 29.5t-38 12.5q-23 0 -42 -10.5t-34 -28.5h-7z" />
    <glyph glyph-name="four.sups" unicode="&#xf80e;" 
d="M229 523l27 155l-130 -155h103zM305 523q16 0 22 -6.5t6 -18.5q0 -5 -1.5 -11.5t-4.5 -13.5h-43l-12 -75h-63l12 75h-164l7 43l203 244q12 14 35 14q17 0 31 -8l-40 -243h12z" />
    <glyph glyph-name="five.sups" unicode="&#xf80f;" 
d="M182 390q-23 0 -47.5 6.5t-46.5 24.5q-6 5 -11 11.5t-5 14.5q0 20 30 40q17 -20 36.5 -31t45.5 -11q28 0 50 19t22 65q0 28 -15 45t-47 17q-18 0 -32.5 -3.5t-27.5 -8.5l-23 12l38 178h191q-2 -27 -11 -39.5t-35 -12.5h-99l-18 -83q15 5 41 5q50 0 77.5 -30t27.5 -78
q0 -29 -9.5 -54.5t-27.5 -45t-44.5 -30.5t-59.5 -11z" />
    <glyph glyph-name="six.sups" unicode="&#xf810;" 
d="M75 519q0 46 13.5 91.5t40.5 81.5t68 58t97 22q18 0 25.5 -7t7.5 -18q0 -5 -1.5 -12t-6.5 -13h-27q-50 0 -84.5 -27t-52.5 -72q10 9 29 17.5t39 8.5q50 0 76 -33t26 -79q0 -27 -8 -53.5t-24.5 -47.5t-42.5 -33.5t-62 -12.5q-51 0 -82 33.5t-31 95.5zM138 520
q0 -40 15 -59t38 -19q32 0 50.5 22.5t18.5 67.5q0 28 -11 47t-40 19q-36 0 -53.5 -18t-17.5 -60z" />
    <glyph glyph-name="seven.sups" unicode="&#xf811;" 
d="M160 397h-74l180 311h-171q3 28 13 43.5t38 15.5h177q14 0 19 -5.5t5 -14.5v-5l-2 -15z" />
    <glyph glyph-name="eight.sups" unicode="&#xf812;" 
d="M226 724q-25 0 -42.5 -14.5t-17.5 -45.5q0 -20 13 -32.5t34 -12.5q23 0 42 15t19 46q0 20 -13 32t-35 12zM338 682q0 -36 -19 -57t-43 -33q49 -29 49 -78q0 -31 -11.5 -54t-30 -38.5t-43.5 -23t-52 -7.5q-54 0 -87.5 28t-33.5 73q0 41 23 65.5t53 38.5q-39 27 -39 67
q0 27 10 47.5t27 34.5t39.5 21t47.5 7q52 0 81 -25.5t29 -65.5zM190 441q29 0 49.5 18.5t20.5 53.5q0 23 -15 38.5t-41 15.5q-13 0 -26 -4.5t-23.5 -14t-17 -23t-6.5 -31.5q0 -23 16 -38t43 -15z" />
    <glyph glyph-name="nine.sups" unicode="&#xf813;" 
d="M277 642q0 41 -15 60t-38 19q-32 0 -50.5 -23.5t-18.5 -66.5q0 -28 11.5 -47t39.5 -19q38 0 54.5 17t16.5 60zM123 441q52 0 86.5 27t52.5 72q-12 -11 -32 -18.5t-37 -7.5q-52 0 -78 32.5t-26 79.5q0 27 7.5 53.5t24 47.5t43 33.5t63.5 12.5q51 0 82.5 -33.5t31.5 -95.5
q0 -48 -14 -93.5t-41 -81t-67.5 -57t-95.5 -21.5q-18 0 -25.5 7t-7.5 18q0 5 1.5 12t6.5 13h25z" />
    <glyph glyph-name="zero.sinf" unicode="&#xf814;" 
d="M198 230q-21 0 -40 -14.5t-32.5 -40t-21.5 -61.5t-8 -79q0 -33 12.5 -54.5t38.5 -21.5q44 0 73.5 52t29.5 142q0 34 -12.5 55.5t-39.5 21.5zM203 285q33 0 55 -12t35.5 -31.5t19.5 -44t6 -50.5q0 -44 -11 -88t-32.5 -78.5t-54.5 -56t-77 -21.5q-32 0 -54 11.5t-35.5 30.5
t-19.5 43t-6 49q0 43 10.5 87t32 80t54.5 58.5t77 22.5z" />
    <glyph glyph-name="one.sinf" unicode="&#xf815;" 
d="M146 -89l48 290l-106 -56q-7 8 -11.5 17.5t-4.5 17.5q0 13 6 20.5t19 14.5l108 60q8 5 17 8t20 3q22 0 33 -10l-61 -365h-68z" />
    <glyph glyph-name="two.sinf" unicode="&#xf816;" 
d="M27 -89l7 48q37 29 71.5 58t61.5 57t43.5 55t16.5 51q0 21 -12.5 35.5t-36.5 14.5q-23 0 -42.5 -12.5t-33.5 -32.5h-10q-10 5 -16 13t-6 17q0 13 10 25q15 17 44 31t64 14q52 0 78.5 -26.5t26.5 -71.5q0 -29 -10 -53.5t-26 -45.5t-36 -39.5t-40 -37.5q-5 -5 -17 -15.5
t-35 -30.5h105q22 0 30.5 -8.5t8.5 -23.5q0 -3 -0.5 -9t-2.5 -13h-243z" />
    <glyph glyph-name="three.sinf" unicode="&#xf817;" 
d="M98 191q-10 5 -16 13t-6 17q0 13 10 25q14 15 42 27t60 12q53 0 80.5 -27.5t27.5 -62.5q0 -34 -19 -56.5t-47 -36.5q24 -12 35.5 -33.5t11.5 -44.5q0 -54 -36.5 -88t-102.5 -34q-24 0 -48.5 6.5t-46.5 24.5q-6 5 -11 11.5t-5 14.5q0 20 30 40q17 -20 36.5 -31t45.5 -11
q12 0 24 3t22.5 10.5t17 20t6.5 30.5q0 25 -14.5 40t-37.5 15h-30l8 51h28q10 0 22 3t22.5 10t17 19t6.5 29t-12 29.5t-38 12.5q-23 0 -42 -10.5t-34 -28.5h-7z" />
    <glyph glyph-name="four.sinf" unicode="&#xf818;" 
d="M195 35l27 155l-130 -155h103zM271 35q16 0 22 -6.5t6 -18.5q0 -5 -1.5 -11.5t-4.5 -13.5h-43l-12 -75h-63l12 75h-164l7 43l203 244q12 14 35 14q17 0 31 -8l-40 -243h12z" />
    <glyph glyph-name="five.sinf" unicode="&#xf819;" 
d="M143 -98q-23 0 -47.5 6.5t-46.5 24.5q-6 5 -11 11.5t-5 14.5q0 20 30 40q17 -20 36.5 -31t45.5 -11q28 0 50 19t22 65q0 28 -15 45t-47 17q-18 0 -32.5 -3.5t-27.5 -8.5l-23 12l38 178h191q-2 -27 -11 -39.5t-35 -12.5h-99l-18 -83q15 5 41 5q50 0 77.5 -30t27.5 -78
q0 -29 -9.5 -54.5t-27.5 -45t-44.5 -30.5t-59.5 -11z" />
    <glyph glyph-name="six.sinf" unicode="&#xf81a;" 
d="M46 31q0 46 13.5 91.5t40.5 81.5t68 58t97 22q18 0 25.5 -7t7.5 -18q0 -5 -1.5 -12t-6.5 -13h-27q-50 0 -84.5 -27t-52.5 -72q10 9 29 17.5t39 8.5q50 0 76 -33t26 -79q0 -27 -8 -53.5t-24.5 -47.5t-42.5 -33.5t-62 -12.5q-51 0 -82 33.5t-31 95.5zM109 32q0 -40 15 -59
t38 -19q32 0 50.5 22.5t18.5 67.5q0 28 -11 47t-40 19q-36 0 -53.5 -18t-17.5 -60z" />
    <glyph glyph-name="seven.sinf" unicode="&#xf81b;" 
d="M131 -91h-74l180 311h-171q3 28 13 43.5t38 15.5h177q14 0 19 -5.5t5 -14.5v-5l-2 -15z" />
    <glyph glyph-name="eight.sinf" unicode="&#xf81c;" 
d="M194 236q-25 0 -42.5 -14.5t-17.5 -45.5q0 -20 13 -32.5t34 -12.5q23 0 42 15t19 46q0 20 -13 32t-35 12zM306 194q0 -36 -19 -57t-43 -33q49 -29 49 -78q0 -31 -11.5 -54t-30 -38.5t-43.5 -23t-52 -7.5q-54 0 -87.5 28t-33.5 73q0 41 23 65.5t53 38.5q-39 27 -39 67
q0 27 10 47.5t27 34.5t39.5 21t47.5 7q52 0 81 -25.5t29 -65.5zM158 -47q29 0 49.5 18.5t20.5 53.5q0 23 -15 38.5t-41 15.5q-13 0 -26 -4.5t-23.5 -14t-17 -23t-6.5 -31.5q0 -23 16 -38t43 -15z" />
    <glyph glyph-name="nine.sinf" unicode="&#xf81d;" 
d="M238 154q0 41 -15 60t-38 19q-32 0 -50.5 -23.5t-18.5 -66.5q0 -28 11.5 -47t39.5 -19q38 0 54.5 17t16.5 60zM84 -47q52 0 86.5 27t52.5 72q-12 -11 -32 -18.5t-37 -7.5q-52 0 -78 32.5t-26 79.5q0 27 7.5 53.5t24 47.5t43 33.5t63.5 12.5q51 0 82.5 -33.5t31.5 -95.5
q0 -48 -14 -93.5t-41 -81t-67.5 -57t-95.5 -21.5q-18 0 -25.5 7t-7.5 18q0 5 1.5 12t6.5 13h25z" />
    <glyph glyph-name="i.locl" horiz-adv-x="228" 
d="M199 8q-12 -7 -29.5 -11t-30.5 -4q-42 0 -61.5 21t-18.5 56q0 5 0.5 10.5t1.5 11.5l63 379q10 2 18 2q30 0 43 -17t13 -43q0 -5 -0.5 -12t-1.5 -12l-49 -294q-1 -6 -1.5 -11t-0.5 -10q0 -15 6 -22.5t22 -7.5q8 0 19 3zM182 568q-23 0 -34.5 15t-11.5 35q0 26 15.5 45
t43.5 19q23 0 34.5 -15.5t11.5 -35.5q0 -26 -16 -44.5t-43 -18.5z" />
    <glyph glyph-name="kgreenlandic.case" horiz-adv-x="676" 
d="M463 645q25 26 58 26q12 0 23.5 -4.5t22.5 -15.5l-267 -293l177 -358q-12 -5 -24 -7t-20 -2q-23 0 -37.5 7.5t-25.5 28.5l-158 318l4 29zM135 0h-86l111 670q10 2 18 2q33 0 45 -16t12 -43q0 -5 -1 -13t-2 -13zM748 672q-23 -11 -44.5 -29.5t-29.5 -49.5q13 -7 22 -17.5
t9 -29.5q0 -31 -17.5 -49t-42.5 -18q-26 0 -37.5 18.5t-11.5 44.5t11 53.5t28 50.5t38 38t42 15q13 0 22 -6.5t11 -20.5z" />
    <glyph glyph-name="napostrophe.case" horiz-adv-x="691" 
d="M594 0h-77l-220 523l-85 -523h-80l110 666q16 6 36 6t33 -9.5t21 -29.5l205 -494l87 531q10 2 18 2q31 0 42.5 -15t11.5 -40q0 -5 -1.5 -15t-2.5 -15zM38 526q21 10 40 25.5t25 43.5q-11 5 -19 15t-8 27q0 27 15.5 43t36.5 16q22 0 33.5 -13.5t11.5 -36.5q0 -24 -9 -49.5
t-24 -46t-34 -34t-39 -13.5q-10 0 -18.5 5.5t-10.5 17.5z" />
    <glyph glyph-name="hungarumlaut.cap" horiz-adv-x="349" 
d="M61 734q-9 -6 -18 -9t-21 -3q-14 0 -22.5 6.5t-14.5 15.5l110 89q11 9 23.5 15.5t25.5 6.5q18 0 30 -12t17 -25zM234 734q-10 -6 -18.5 -9t-20.5 -3q-14 0 -23 6.5t-14 15.5l109 89q11 10 23.5 16t26.5 6q18 0 30 -12t17 -25z" />
    <glyph glyph-name="cedilla.cap" horiz-adv-x="349" 
d="M140 -215q-18 0 -27 8.5t-9 20.5q0 7 2.5 14t6.5 14q11 -4 25 -4q18 0 28.5 8t10.5 24q0 9 -4 16.5t-8.5 14.5t-8.5 15t-4 18q0 22 12 39t24 27h52q-11 -9 -20 -21.5t-9 -26.5q0 -9 5.5 -16.5t11.5 -16.5t11.5 -20t5.5 -27q0 -24 -9.5 -40.5t-25 -27t-34 -15t-36.5 -4.5z
" />
    <glyph glyph-name="tilde.cap" horiz-adv-x="349" 
d="M114 772q-16 0 -32.5 -7t-33.5 -36q-15 7 -21 16.5t-6 19.5q0 13 7.5 25.5t21 22t32 15t39.5 5.5q19 0 34 -6t27.5 -12.5t24 -12.5t24.5 -6q20 0 35 10t32 39q27 -13 27 -35q0 -27 -26 -50.5t-74 -23.5q-18 0 -32 5.5t-27 12.5t-25 12.5t-27 5.5z" />
    <glyph glyph-name="ogonek.cap" horiz-adv-x="349" 
d="M160 -125q0 -15 8 -22.5t20 -7.5q13 0 23 7t18 16q17 -11 17 -29q0 -11 -3 -16t-8 -11q-11 -11 -30 -17.5t-40 -6.5q-30 0 -52.5 18.5t-22.5 53.5q0 26 11 50.5t27 45t35 36t36 24.5l48 -16q-15 -9 -30.5 -23t-28 -31t-20.5 -35t-8 -36z" />
    <glyph glyph-name="ring.cap" horiz-adv-x="349" 
d="M280 806q0 -22 -7.5 -42t-21 -35t-33 -23.5t-44.5 -8.5q-50 0 -78 31.5t-28 76.5t28 77t78 32q25 0 44.5 -8.5t33 -23.5t21 -34.5t7.5 -41.5zM231 805q0 26 -15.5 45.5t-41.5 19.5t-42 -19t-16 -45t15.5 -45.5t42.5 -19.5q26 0 41.5 19t15.5 45z" />
    </font>
</defs>
</svg>
