<?xml version="1.0" standalone="no"?>
<!DOCTYPE svg PUBLIC "-//W3C//DTD SVG 1.1//EN" "http://www.w3.org/Graphics/SVG/1.1/DTD/svg11.dtd" >
<svg>
<metadata>
Created by FontForge 20110222 at Wed Oct  2 13:34:25 2013
 By Orthosie Webhosting
Copyright 2011 Dalton Maag Ltd. Modification of this file requires prior written permission from Dalton Maag Ltd.
</metadata>
<defs>
<font id="FocoBlackItalic" horiz-adv-x="390" >
  <font-face 
    font-family="FocoBlackItalic"
    font-weight="900"
    font-style="italic"
    font-stretch="normal"
    units-per-em="1000"
    panose-1="2 11 10 4 5 2 2 9 2 3"
    ascent="800"
    descent="-200"
    x-height="483"
    cap-height="677"
    bbox="-214 -253 1156 919"
    underline-thickness="20"
    underline-position="-113"
    slope="-9"
    unicode-range="U+0008-FB04"
  />
<missing-glyph horiz-adv-x="500" 
d="M50 0v750h400v-750h-400zM400 50v650h-300v-650h300z" />
    <glyph glyph-name="f_f" unicode="ff" horiz-adv-x="684" 
d="M102 469q8 53 23.5 98.5t44.5 78.5t75 52t115 19q44 0 77 -12.5t55 -32.5q12 9 27 17t34 14t43 10t56 4q46 0 86 -12t64 -34q16 -14 24.5 -32.5t8.5 -36.5q1 -35 -23 -58.5t-73 -29.5q-7 26 -26.5 42t-48.5 16q-63 0 -72 -64l-5 -32h145l-24 -149h-142l-53 -349
q-17 -107 -69.5 -160t-149.5 -53q-46 0 -86 9.5t-68 33.5q-52 -43 -138 -43q-32 0 -64 4t-62 19q-27 14 -39 34t-12 43q0 26 15 51.5t41 41.5q15 -18 36 -27t41 -9q34 0 49 14.5t20 48.5zM377 327h-108l-54 -352q-4 -25 -10 -46q4 -5 18 -10t32 -5q32 0 47 16t20 45z
M402 476q4 22 9 46t11 44q-8 5 -24 8t-29 3q-34 0 -52.5 -17.5t-23.5 -49.5l-5 -34h114z" />
    <glyph glyph-name="f_i" unicode="fi" horiz-adv-x="555" 
d="M102 469q8 54 24 99.5t46.5 78.5t79 51.5t120.5 18.5q46 0 88.5 -13.5t66.5 -35.5q16 -14 25.5 -32.5t9.5 -36.5q1 -35 -23 -58.5t-73 -29.5q-7 26 -30.5 43.5t-52.5 17.5q-39 0 -61 -17.5t-27 -49.5l-5 -29h291l-60 -357l-4 -28t-2 -28t1 -27t5 -26q-17 -8 -39.5 -14.5
t-54.5 -6.5q-57 0 -80 20.5t-22 62.5v11t1 11l39 233h-96l-53 -349q-17 -107 -68 -160t-148 -53q-32 0 -63 4t-61 19q-27 14 -39 34t-12 43q0 26 15 51.5t41 41.5q13 -18 31.5 -28.5t44.5 -10.5q34 0 49 15.5t20 47.5z" />
    <glyph glyph-name="f_l" unicode="fl" horiz-adv-x="572" 
d="M102 469q8 53 25.5 98.5t48.5 78.5t78.5 52t116.5 19q63 0 131 -21t123 -62l-86 -515l-4 -28t-2 -28t1 -27t5 -26q-17 -8 -39.5 -14.5t-54.5 -6.5q-57 0 -80 20.5t-22 62.5v11t1 11l78 461q-11 7 -22.5 12t-33.5 5q-63 0 -72 -65l-4 -31h78l-24 -149h-75l-53 -349
q-17 -107 -68.5 -160t-148.5 -53q-32 0 -62.5 4t-60.5 19q-27 14 -39 34t-12 43q0 26 15 51.5t41 41.5q15 -18 33 -28.5t43 -10.5q34 0 49 14.5t20 48.5z" />
    <glyph glyph-name="f_f_i" unicode="ffi" horiz-adv-x="852" 
d="M377 327h-108l-54 -352q-4 -25 -10 -46q4 -5 18 -10t32 -5q32 0 47 16t20 45zM402 476q4 22 9 46t11 44q-8 5 -24 8t-29 3q-34 0 -52.5 -17.5t-23.5 -49.5l-5 -34h114zM102 469q8 53 23.5 98.5t44.5 78.5t75 52t115 19q45 0 79 -13.5t54 -33.5q31 23 73 35t101 12
q46 0 89.5 -13.5t67.5 -35.5q16 -14 25.5 -32.5t9.5 -36.5q1 -35 -23 -58.5t-73 -29.5q-8 29 -31.5 45t-52.5 16q-39 0 -60 -15.5t-27 -50.5l-5 -30h291l-60 -357l-4 -28t-2 -28t1 -27t5 -26q-17 -8 -39.5 -14.5t-54.5 -6.5q-57 0 -80 20.5t-22 62.5v11t1 11l39 233h-96
l-53 -349q-17 -107 -69.5 -160t-149.5 -53q-46 0 -86 9.5t-68 33.5q-52 -43 -138 -43q-32 0 -64 4t-62 19q-27 14 -39 34t-12 43q0 26 15 51.5t41 41.5q12 -18 34 -28.5t42 -10.5q34 0 49 13.5t20 47.5z" />
    <glyph glyph-name="f_f_l" unicode="ffl" horiz-adv-x="870" 
d="M377 327h-108l-54 -352q-4 -25 -10 -46q4 -5 18 -10t32 -5q32 0 47 16t20 45zM402 476q4 22 9 46t11 44q-8 5 -24 8t-29 3q-34 0 -52.5 -17.5t-23.5 -49.5l-5 -34h114zM102 469q8 53 23.5 98.5t44.5 78.5t75 52t115 19q45 0 80 -14.5t55 -34.5q31 23 72.5 36t100.5 13
q63 0 132 -21.5t123 -60.5l-87 -516l-4 -28t-2 -28t1 -27t5 -26q-17 -8 -39.5 -14.5t-54.5 -6.5q-57 0 -80 20.5t-22 62.5q0 5 0.5 13.5t4.5 31.5l75 439q-7 5 -21 10.5t-36 5.5q-30 0 -48 -14t-23 -49l-5 -33h78l-23 -149h-76l-53 -349q-17 -107 -69.5 -160t-149.5 -53
q-46 0 -86 9.5t-68 33.5q-52 -43 -138 -43q-32 0 -64 4t-62 19q-27 14 -39 34t-12 43q0 26 15 51.5t41 41.5q12 -18 34 -28.5t42 -10.5q34 0 49 13.5t20 47.5z" />
    <glyph glyph-name=".notdef" horiz-adv-x="500" 
d="M50 0v750h400v-750h-400zM400 50v650h-300v-650h300z" />
    <glyph glyph-name=".null" horiz-adv-x="0" 
 />
    <glyph glyph-name=".null" horiz-adv-x="0" 
 />
    <glyph glyph-name=".null" horiz-adv-x="0" 
 />
    <glyph glyph-name="nonmarkingreturn" unicode="&#x9;" horiz-adv-x="194" 
 />
    <glyph glyph-name="nonmarkingreturn" unicode="&#xd;" horiz-adv-x="194" 
 />
    <glyph glyph-name="space" unicode=" " horiz-adv-x="194" 
 />
    <glyph glyph-name="exclam" unicode="!" horiz-adv-x="296" 
d="M150 664q17 4 34.5 6t42.5 2q31 0 51.5 -7t32 -19t16 -27t4.5 -31q0 -5 -0.5 -9.5t-1.5 -9.5l-60 -349q-17 -6 -31 -9t-38 -3q-23 0 -42.5 4t-34.5 14.5t-23.5 29t-8.5 47.5q0 15 3 35zM53 65q0 28 9 48t24 33.5t35 20t42 6.5q21 0 38 -7t28 -18.5t17 -26t6 -28.5
q0 -28 -9 -48t-24 -33.5t-35 -20t-42 -6.5t-38.5 7t-28 18.5t-17 26t-5.5 28.5z" />
    <glyph glyph-name="quotedbl" unicode="&#x22;" horiz-adv-x="363" 
d="M312 677q13 3 25.5 5t24.5 2q26 0 45 -12t19 -43q0 -10 -3 -23l-43 -200h-114zM124 677q13 3 25.5 5t24.5 2q26 0 45 -12t19 -43q0 -10 -3 -23l-43 -200h-114z" />
    <glyph glyph-name="numbersign" unicode="#" horiz-adv-x="654" 
d="M153 173h-111l29 97h109l26 98h-108l30 98h106l39 142h132l-39 -142h74l39 142h132l-39 -142h120l-31 -98h-117l-27 -98h118l-29 -97h-116l-41 -149h-132l42 149h-74l-42 -149h-132zM386 270l26 98h-74l-26 -98h74z" />
    <glyph glyph-name="dollar" unicode="$" horiz-adv-x="590" 
d="M193 -1q-23 5 -44 12.5t-38 17.5q-23 14 -36 34.5t-13 46.5q0 29 15.5 55.5t49.5 50.5q34 -38 74.5 -55.5t77.5 -17.5q25 0 41 8t16 35q0 11 -3.5 19.5t-12 17t-22 17.5t-34.5 21q-34 20 -61 40t-45.5 43.5t-28 52.5t-9.5 67q0 78 46 128t124 66l17 101h59l-16 -93h14
q7 0 14 -0.5t14 -0.5l16 94h59l-18 -104q30 -8 51.5 -19t33.5 -22q17 -16 24.5 -33t7.5 -33q0 -33 -21 -60.5t-63 -41.5q-25 32 -54 49.5t-64 17.5q-23 0 -35 -11t-12 -28q0 -20 21 -36.5t49 -32.5q45 -26 74.5 -49.5t47 -47.5t24.5 -51t7 -61q0 -44 -14 -78.5t-39 -59.5
t-59.5 -41t-75.5 -23l-14 -88h-59l13 82h-6q-8 0 -17 0.5t-18 1.5l-14 -84h-59z" />
    <glyph glyph-name="percent" unicode="%" horiz-adv-x="782" 
d="M553 616q11 15 22 27.5t25 21.5t32 14.5t43 5.5q15 0 36.5 -3t32.5 -9l-463 -673h-155zM209 327q-38 0 -64.5 12t-43.5 32.5t-25 46.5t-8 54q0 39 10.5 77t33 68t58 48.5t84.5 18.5q37 0 64 -12.5t43.5 -32.5t24.5 -46t8 -54q0 -41 -10.5 -79.5t-33 -68t-57.5 -47
t-84 -17.5zM220 419q17 0 27.5 15.5t16.5 35.5t8 40.5t2 31.5q0 17 -6.5 34t-27.5 17q-23 0 -38 -32.5t-15 -91.5q0 -18 6.5 -34t26.5 -16zM612 -18q-38 0 -64.5 12t-43.5 32.5t-25 46.5t-8 54q0 39 10.5 77t33 68t58 48.5t84.5 18.5q37 0 64 -12.5t43.5 -32.5t24.5 -46
t8 -54q0 -41 -10.5 -79.5t-33 -68t-57.5 -47t-84 -17.5zM623 74q17 0 27.5 15.5t16.5 35.5t8 40.5t2 31.5q0 17 -6.5 34t-27.5 17q-23 0 -38 -32.5t-15 -91.5q0 -18 6.5 -34t26.5 -16z" />
    <glyph glyph-name="ampersand" unicode="&#x26;" horiz-adv-x="730" 
d="M484 24q-40 -20 -82.5 -31t-94.5 -11q-57 0 -103 11.5t-78.5 35.5t-50.5 61t-18 89q0 42 12.5 76.5t35 62t53 49t66.5 37.5q-20 51 -20 92q0 34 12 67t37 59.5t64.5 42.5t95.5 16q41 0 81.5 -11t65.5 -42q23 -29 23 -59q0 -31 -26.5 -51.5t-65.5 -26.5q-14 28 -29 40
t-34 12q-25 0 -33.5 -14t-8.5 -36q0 -16 8.5 -40t23.5 -53.5t35.5 -62.5t45.5 -67q5 16 7 36t2 40q0 17 -1.5 36t-6.5 37h240l-21 -125h-69q-1 -46 -13 -85t-30 -71q26 -29 54.5 -56t56.5 -51q-22 -22 -58.5 -35.5t-82.5 -13.5q-23 0 -44 6.5t-38 23.5zM387 140
q-25 32 -51 66.5t-47 69.5q-25 -14 -38 -31.5t-13 -47.5q0 -35 25 -51.5t59 -16.5q15 0 32.5 2.5t32.5 8.5z" />
    <glyph glyph-name="quotesingle" unicode="'" horiz-adv-x="175" 
d="M124 677q13 3 25.5 5t24.5 2q26 0 45 -12t19 -43q0 -10 -3 -23l-43 -200h-114z" />
    <glyph glyph-name="parenleft" unicode="(" horiz-adv-x="361" 
d="M321 -105q-21 -11 -42 -15t-44 -4q-37 0 -64 17.5t-45.5 45t-30.5 62t-18.5 69t-8.5 65.5t-2 51q0 102 23 198t63.5 170t95 118.5t116.5 44.5q34 0 53 -7.5t33 -18.5q-54 -46 -91.5 -105.5t-61 -126.5t-33.5 -138t-10 -140q0 -72 15 -144t52 -142z" />
    <glyph glyph-name="parenright" unicode=")" horiz-adv-x="361" 
d="M-19 -98q54 46 91.5 105.5t61 126.5t33.5 138t10 140q0 72 -15 144t-52 142q21 11 42 15t44 4q37 0 64 -17.5t45.5 -45t30.5 -62t18.5 -69t8.5 -65.5t2 -51q0 -102 -23 -198t-63.5 -170t-95 -118.5t-116.5 -44.5q-34 0 -53 7.5t-33 18.5z" />
    <glyph glyph-name="asterisk" unicode="*" horiz-adv-x="382" 
d="M123 523q-6 2 -12 4.5t-8 4.5q-8 5 -14 12.5t-6 18.5q0 14 10 30q8 14 17.5 20t18.5 6q10 0 21 -6q3 -2 9.5 -7t11.5 -10l31 -28q18 -15 18 -30q0 -4 -5 -16q-9 -16 -28 -16q-9 0 -19 3zM168 483q9 4 23 4q10 0 19 -10t9 -23q0 -16 -17 -30l-34 -32q-11 -10 -18 -14.5
t-20 -4.5q-9 0 -19 6t-19 22t-9 28q0 19 14 27.5t31 13.5zM225 411q3 14 10 24t23 10q17 0 24.5 -10t10.5 -24l11 -46q1 -7 1.5 -13.5t0.5 -8.5q0 -15 -9.5 -27t-38.5 -12q-26 0 -36 11.5t-10 27.5q0 4 1 12.5t3 14.5zM316 424q-18 15 -18 30q0 4 5 16q9 16 28 16q8 0 19 -3
l45 -14q6 -2 12 -4.5t8 -4.5q8 -5 14 -12.5t6 -18.5q0 -14 -10 -30q-8 -14 -17.5 -20t-18.5 -6q-11 0 -21 6q-3 2 -9.5 7t-11.5 10zM350 600q5 5 10.5 8t7.5 5q9 6 20 6q9 0 19 -6t19 -22q9 -17 9 -28q0 -20 -20 -31q-3 -2 -11 -5t-14 -5l-40 -13q-9 -4 -21 -4q-18 0 -25 16
q-5 12 -5 17q0 16 17 30zM215 627q-2 7 -2.5 13t-0.5 9q0 15 9.5 27t38.5 12q26 0 36 -11.5t10 -27.5q0 -4 -1 -12.5t-3 -13.5l-9 -42q-3 -14 -10 -24t-23 -10q-17 0 -24.5 10.5t-10.5 24.5z" />
    <glyph glyph-name="plus" unicode="+" horiz-adv-x="590" 
d="M228 252h-159l27 160h159l30 181h175l-30 -181h160l-27 -160h-160l-30 -178h-175z" />
    <glyph glyph-name="comma" unicode="," horiz-adv-x="262" 
d="M-18 -87q16 3 32 10t28 17.5t19.5 22.5t7.5 26q0 13 -4.5 22t-9.5 18t-9.5 20.5t-4.5 29.5q0 12 4.5 27.5t15.5 28.5t29.5 22t45.5 9q24 0 40.5 -8t26.5 -21.5t14.5 -31t4.5 -36.5q0 -42 -15.5 -83.5t-47.5 -72.5q-23 -22 -56.5 -38.5t-64.5 -16.5q-25 0 -40.5 12
t-15.5 43z" />
    <glyph glyph-name="hyphen" unicode="-" horiz-adv-x="408" 
d="M312 367q26 0 43.5 -6.5t28 -17t15 -25t4.5 -30.5q0 -19 -4.5 -38.5t-10.5 -37.5h-228q-26 0 -43.5 6.5t-28 17t-15 25t-4.5 30.5q0 19 4.5 38.5t10.5 37.5h228z" />
    <glyph glyph-name="period" unicode="." horiz-adv-x="279" 
d="M44 65q0 28 8.5 48t23.5 33.5t34.5 20t41.5 6.5q21 0 37.5 -7t27.5 -18.5t16.5 -26t5.5 -28.5q0 -56 -32 -82t-76 -26q-22 0 -38 7t-27 18.5t-16.5 26t-5.5 28.5z" />
    <glyph glyph-name="slash" unicode="/" horiz-adv-x="396" 
d="M284 580q10 19 23 36.5t30.5 31t40.5 21t54 7.5q18 0 39.5 -4t35.5 -10l-342 -662h-182z" />
    <glyph glyph-name="zero" unicode="0" horiz-adv-x="590" 
d="M285 -15q-66 0 -109.5 24.5t-69 63t-36 85.5t-10.5 92q0 88 18.5 165t57.5 134t99 89.5t143 32.5q66 0 108.5 -25t67.5 -63.5t35 -86t10 -92.5q0 -92 -18.5 -168.5t-56.5 -132.5t-97.5 -87t-141.5 -31zM308 144q19 0 35.5 15.5t29.5 47.5t21 81t10 116q3 109 -53 109
q-38 0 -65.5 -63.5t-30.5 -197.5q-2 -56 12 -82t41 -26z" />
    <glyph glyph-name="one" unicode="1" horiz-adv-x="590" 
d="M307 428l-125 -58q-18 28 -30 53.5t-12 52.5q0 29 15 48t47 35l168 84q23 11 44.5 16.5t47.5 5.5q27 0 45 -6.5t28 -13.5l-109 -645h-191z" />
    <glyph glyph-name="two" unicode="2" horiz-adv-x="590" 
d="M70 133q29 21 79 57t100 79q25 22 47.5 44.5t39.5 45t27 44.5t10 42q0 70 -70 70q-21 0 -38 -4.5t-34 -14t-34.5 -24t-38.5 -34.5q-26 15 -44.5 39.5t-18.5 50.5q0 23 9.5 40.5t26.5 33.5q37 35 90.5 52t129.5 17q56 0 98.5 -15t71 -41t43 -61.5t14.5 -77.5
q0 -36 -10 -68t-26.5 -60t-39 -53.5t-47.5 -47.5q-29 -26 -60 -49.5t-60 -45.5h113q27 0 45.5 -6.5t29 -17.5t15 -26t4.5 -32t-3.5 -35t-8.5 -35h-481z" />
    <glyph glyph-name="three" unicode="3" horiz-adv-x="590" 
d="M236 403h68q17 0 32.5 3.5t27.5 11t19.5 19.5t7.5 29q0 22 -19 38t-51 16q-42 0 -77 -16.5t-64 -46.5q-25 14 -43.5 38t-18.5 47q0 39 27 65q38 35 90.5 49.5t114.5 14.5q52 0 94 -12t71.5 -34t45.5 -52.5t16 -67.5q0 -35 -10 -61t-26.5 -45t-37 -32t-40.5 -22
q44 -27 62 -62t18 -77q0 -45 -17 -85t-50 -70t-83 -48t-116 -18q-42 0 -78.5 6t-73.5 22q-28 12 -48.5 33t-22.5 49q-2 25 11.5 53t51.5 57q35 -40 70 -55.5t78 -15.5q16 0 31.5 4t28.5 12.5t21 22t8 33.5q0 61 -92 61h-47z" />
    <glyph glyph-name="four" unicode="4" horiz-adv-x="590" 
d="M72 265l265 322q14 17 29 31.5t33 25t41 16t53 5.5q29 0 52 -7.5t36 -16.5l-62 -372h17q35 0 47 -16.5t12 -42.5q0 -20 -4.5 -36.5t-9.5 -30.5h-84l-24 -143h-185l24 143h-261zM334 275l30 182h-7l-147 -182h124z" />
    <glyph glyph-name="five" unicode="5" horiz-adv-x="590" 
d="M196 663h388q0 -31 -3.5 -60t-15.5 -51t-35.5 -35t-63.5 -13h-140l-15 -84q16 4 33.5 6.5t37.5 2.5q41 0 73 -14.5t54 -40t32.5 -60.5t9.5 -76q-2 -65 -23.5 -113t-58 -79t-85 -46t-104.5 -15q-33 0 -68 5.5t-67 17.5q-36 14 -59 37t-23 58q0 23 14 49t49 53
q32 -35 66.5 -50t74.5 -15q43 0 65.5 25.5t22.5 63.5q0 34 -20.5 50.5t-58.5 16.5q-28 0 -49.5 -7t-43.5 -18l-61 29z" />
    <glyph glyph-name="six" unicode="6" horiz-adv-x="590" 
d="M284 395q17 14 45.5 27t62.5 13q45 0 79 -14.5t56.5 -40t33.5 -60.5t10 -76q-1 -54 -17.5 -101t-49 -82.5t-81.5 -55.5t-116 -20q-103 0 -164 60.5t-61 179.5q0 102 25.5 184t75 139t122 88t165.5 31q54 0 79.5 -21t25.5 -53q0 -18 -5.5 -38.5t-20.5 -41.5q-12 2 -32 4
t-41 2q-37 0 -68.5 -10t-56 -26.5t-41.5 -39.5t-26 -48zM274 282q-3 -9 -6 -26t-3 -33q0 -38 12.5 -61.5t38.5 -23.5q27 0 45.5 22.5t18.5 70.5q0 28 -11.5 47.5t-37.5 19.5q-17 0 -31.5 -3.5t-25.5 -12.5z" />
    <glyph glyph-name="seven" unicode="7" horiz-adv-x="590" 
d="M382 497h-289q1 33 5.5 63t17.5 53t38 36.5t67 13.5h342q30 0 40.5 -12t10.5 -32q0 -6 -0.5 -12t-1.5 -13l-11 -69l-323 -525h-202z" />
    <glyph glyph-name="eight" unicode="8" horiz-adv-x="590" 
d="M497 344q73 -49 73 -128q0 -61 -22 -105t-59 -72t-86 -41t-102 -13q-58 0 -102 14.5t-74 40.5t-45 62.5t-15 80.5q0 35 10 61.5t26.5 47t38 35.5t44.5 26q-27 23 -43 51t-16 61q0 51 19.5 90t53 64.5t77.5 38.5t94 13q54 0 95.5 -13.5t69.5 -37t42.5 -56t14.5 -71.5
q0 -27 -8 -49.5t-21 -41t-30 -33t-35 -25.5zM313 123q26 0 46 22t20 60q0 31 -16.5 47.5t-44.5 16.5q-26 0 -46.5 -22.5t-20.5 -60.5q0 -30 16.5 -46.5t45.5 -16.5zM354 415q21 0 36.5 18t15.5 49q0 25 -12.5 38.5t-34.5 13.5q-21 0 -37 -18.5t-16 -49.5q0 -24 12.5 -37.5
t35.5 -13.5z" />
    <glyph glyph-name="nine" unicode="9" horiz-adv-x="590" 
d="M116 141q12 -2 32 -4t41 -2q35 0 66 10.5t55.5 28t41 41t23.5 49.5q-23 -19 -51.5 -29.5t-66.5 -10.5t-69.5 14t-54.5 39t-35.5 60.5t-11.5 77.5q1 54 17.5 100.5t49 81t81.5 54.5t116 20q103 0 164 -60.5t61 -179.5q0 -102 -23 -184.5t-70 -140.5t-118.5 -89.5
t-168.5 -31.5q-54 0 -79.5 21t-25.5 53q0 18 5.5 39.5t20.5 42.5zM384 378q3 9 5.5 24t2.5 31q0 38 -12.5 61.5t-38.5 23.5q-27 0 -45.5 -21t-18.5 -69q0 -28 12 -47t38 -19q17 0 31.5 3.5t25.5 12.5z" />
    <glyph glyph-name="colon" unicode=":" horiz-adv-x="283" 
d="M44 65q0 28 8.5 48t23.5 33.5t34.5 20t41.5 6.5q21 0 37.5 -7t27.5 -18.5t16.5 -26t5.5 -28.5q0 -56 -32 -82t-76 -26q-22 0 -38 7t-27 18.5t-16.5 26t-5.5 28.5zM98 373q0 28 8.5 48t23.5 33.5t34.5 20t41.5 6.5q21 0 37.5 -7t27.5 -18.5t16.5 -26t5.5 -28.5
q0 -56 -32 -82t-76 -26q-22 0 -38 7t-27 18.5t-16.5 26t-5.5 28.5z" />
    <glyph glyph-name="semicolon" unicode=";" horiz-adv-x="278" 
d="M-18 -87q16 3 32 10t28 17.5t19.5 22.5t7.5 26q0 13 -4.5 22t-9.5 18t-9.5 20.5t-4.5 29.5q0 12 4.5 27.5t15.5 28.5t29.5 22t45.5 9q24 0 40.5 -8t26.5 -21.5t14.5 -31t4.5 -36.5q0 -42 -15.5 -83.5t-47.5 -72.5q-23 -22 -56.5 -38.5t-64.5 -16.5q-25 0 -40.5 12
t-15.5 43zM93 373q0 28 8.5 48t23.5 33.5t34.5 20t41.5 6.5q21 0 37.5 -7t27.5 -18.5t16.5 -26t5.5 -28.5q0 -56 -32 -82t-76 -26q-22 0 -38 7t-27 18.5t-16.5 26t-5.5 28.5z" />
    <glyph glyph-name="less" unicode="&#x3c;" horiz-adv-x="590" 
d="M113 391l513 176l-28 -172l-266 -87l235 -95l-29 -165l-452 184z" />
    <glyph glyph-name="equal" unicode="=" horiz-adv-x="590" 
d="M123 526h494l-27 -160h-494zM82 287h494l-27 -160h-493z" />
    <glyph glyph-name="greater" unicode="&#x3e;" horiz-adv-x="590" 
d="M77 228l266 87l-235 95l29 165l452 -184l-27 -159l-513 -176z" />
    <glyph glyph-name="question" unicode="?" horiz-adv-x="452" 
d="M104 65q0 28 9 48t24 33.5t35 20t42 6.5q21 0 38 -7t28 -18.5t17 -26t6 -28.5q0 -28 -9 -48t-24 -33.5t-35 -20t-42 -6.5t-38.5 7t-28 18.5t-17 26t-5.5 28.5zM307 208q-10 -3 -30.5 -4.5t-31.5 -1.5q-43 0 -70 17t-27 57q0 17 7.5 33t20 31t28 29t30.5 27
q11 10 23.5 20.5t23 22.5t17.5 25.5t7 28.5q0 16 -10.5 25.5t-36.5 9.5t-58 -16t-61 -46q-25 16 -42 39t-17 48q0 23 10.5 40.5t28.5 31.5q38 29 87.5 42.5t94.5 13.5q52 0 90 -12t63.5 -32.5t38 -48.5t14.5 -60t-7 -58.5t-24.5 -49t-34 -41t-36.5 -33.5q-20 -16 -37 -30
t-30 -30t-21 -34.5t-10 -43.5z" />
    <glyph glyph-name="at" unicode="@" horiz-adv-x="755" 
d="M360 179h-13q-45 0 -73 -21.5t-28 -70.5q0 -26 10.5 -44.5t29.5 -30t43.5 -16.5t53.5 -5q122 0 173 77.5t51 232.5q0 52 -18 93.5t-50 70.5t-77 44.5t-100 15.5q-39 0 -75.5 -9t-69 -24t-59.5 -35.5t-46 -43.5q-23 12 -41 29t-18 43q0 20 10 35.5t29 32.5
q54 46 126.5 68.5t150.5 22.5q97 0 169.5 -28.5t120.5 -76t71.5 -110.5t23.5 -132q0 -97 -23.5 -175t-70.5 -132.5t-117.5 -84t-164.5 -29.5q-131 0 -206.5 53.5t-75.5 157.5q0 48 20.5 83.5t54.5 59.5t78 35.5t91 11.5h33l3 14q5 31 -8 43.5t-39 12.5q-31 0 -60 -10.5
t-61 -41.5q-51 23 -51 61q0 16 6.5 27.5t17.5 22.5q15 15 35.5 25.5t44 18t47.5 11t46 3.5q91 0 133 -38.5t42 -107.5q0 -21 -5 -49l-18 -101q-3 -20 -3 -42q0 -31 5 -56q-23 -13 -40 -17.5t-34 -4.5q-48 0 -69 22.5t-11 72.5z" />
    <glyph glyph-name="A" unicode="A" horiz-adv-x="660" 
d="M309 655q27 10 59 15.5t61 5.5q54 0 86.5 -24t40.5 -74l87 -578h-191l-22 153h-171l-66 -153h-199zM413 281l-10 131q-1 14 -2.5 33.5t-1.5 37.5q0 8 0.5 15.5t1.5 13.5h-3q-3 -11 -7.5 -24t-9.5 -27t-9.5 -26.5t-8.5 -21.5l-54 -132h104z" />
    <glyph glyph-name="B" unicode="B" horiz-adv-x="567" 
d="M149 662q57 7 107.5 10t89.5 3q65 0 111 -13t75 -36t42 -54.5t13 -68.5q0 -52 -24 -88.5t-72 -62.5q37 -23 59.5 -56.5t22.5 -78.5q0 -63 -22.5 -105t-63.5 -66.5t-98 -35t-127 -10.5h-225zM273 134q57 0 82.5 22t25.5 67q0 29 -16.5 44t-45.5 15h-47q-6 -38 -12.5 -72
t-12.5 -76h26zM331 408q31 0 51 21t20 63q0 24 -13.5 37.5t-39.5 13.5q-11 0 -19.5 -0.5t-13.5 -1.5q-6 -36 -11.5 -65.5t-11.5 -67.5h38z" />
    <glyph glyph-name="C" unicode="C" horiz-adv-x="620" 
d="M548 449q-32 79 -117 79q-41 0 -71 -22t-49.5 -57.5t-29.5 -78.5t-10 -85q-1 -78 28 -111t78 -33q44 0 80 24t66 69q44 -21 64 -43.5t20 -52.5q0 -51 -50 -92q-45 -37 -101 -50.5t-110 -13.5q-77 0 -129.5 24t-85 63t-47 89.5t-14.5 103.5q0 44 8.5 93t26.5 95.5t46.5 89
t69.5 74.5t94.5 51t121.5 19q60 0 106.5 -16.5t74.5 -48.5q27 -29 27 -68q0 -41 -27 -64t-70 -38z" />
    <glyph glyph-name="D" unicode="D" horiz-adv-x="637" 
d="M148 662q78 10 126.5 12t80.5 2q84 0 141 -23t91.5 -60.5t49 -85.5t14.5 -99q0 -94 -24 -169.5t-72 -128.5t-119 -81.5t-165 -28.5h-234zM293 151q43 0 73 23.5t49 60t27.5 82.5t8.5 91q0 54 -24.5 86t-73.5 32h-13.5t-18.5 -2l-64 -373h36z" />
    <glyph glyph-name="E" unicode="E" horiz-adv-x="523" 
d="M150 671h442q1 -30 -2.5 -58t-15.5 -49t-35.5 -34t-62.5 -13h-157l-18 -101h188l-25 -153h-188l-19 -111h155q27 0 45.5 -6.5t29 -17.5t15 -26t4.5 -32t-3.5 -35t-8.5 -35h-457z" />
    <glyph glyph-name="F" unicode="F" horiz-adv-x="518" 
d="M150 671h447q1 -30 -2.5 -58t-15.5 -49t-35.5 -34t-62.5 -13h-162l-19 -106h193l-25 -153h-193l-44 -258h-194z" />
    <glyph glyph-name="G" unicode="G" horiz-adv-x="643" 
d="M468 361h73q31 0 51 -7t30.5 -19t14.5 -27t4 -31q0 -4 -0.5 -9t-1.5 -10l-29 -171q-38 -48 -105.5 -76.5t-158.5 -28.5q-77 0 -129.5 22.5t-85 61t-47 89.5t-14.5 107q0 44 9 93t27.5 95.5t48.5 89t71.5 74.5t95.5 51t122 19q60 0 107 -16.5t75 -48.5q27 -29 27 -68
q0 -41 -27 -64t-70 -38q-32 79 -118 79q-42 0 -73 -22.5t-52 -58.5t-31.5 -81.5t-10.5 -91.5q-1 -66 26.5 -100t75.5 -34q14 0 29.5 3.5t30.5 9.5z" />
    <glyph glyph-name="H" unicode="H" horiz-adv-x="649" 
d="M150 669q17 4 34.5 6t42.5 2q31 0 51.5 -7t32 -19t16 -27t4.5 -31q0 -4 -0.5 -9t-1.5 -10l-27 -157h159l42 252q17 4 34.5 6t42.5 2q31 0 51.5 -7t32 -19t16 -27t4.5 -31q0 -5 -0.5 -9.5t-1.5 -9.5l-97 -574h-195l44 261h-158l-44 -261h-195z" />
    <glyph glyph-name="I" unicode="I" horiz-adv-x="296" 
d="M150 669q17 4 34.5 6t42.5 2q31 0 51.5 -7t32 -19t16 -27t4.5 -31q0 -4 -0.5 -9t-1.5 -10l-97 -574h-195z" />
    <glyph glyph-name="J" unicode="J" horiz-adv-x="296" 
d="M150 669q17 4 34.5 6t42.5 2q31 0 51.5 -7t32 -19t16 -27t4.5 -31q0 -5 -0.5 -9.5t-1.5 -9.5l-93 -550q-9 -54 -24.5 -99t-41.5 -77q-31 -38 -73 -56.5t-95 -18.5q-56 0 -79 29.5t-23 70.5q0 17 3 37q41 -1 66.5 6t41.5 24q11 12 17.5 30.5t9.5 35.5z" />
    <glyph glyph-name="K" unicode="K" horiz-adv-x="626" 
d="M150 669q17 4 34.5 6t42.5 2q31 0 51.5 -7t32 -19t16 -27t4.5 -31q0 -5 -0.5 -9.5t-1.5 -9.5l-36 -211q10 32 30 62.5t49 64.5l89 109q31 38 67 57.5t72 19.5q32 0 62.5 -12.5t53.5 -36.5l-239 -284l146 -326q-30 -13 -61.5 -21.5t-65.5 -8.5q-44 0 -72.5 16t-47.5 60
l-56 130q-14 33 -24 62.5t-10 50.5v14l-54 -320h-195z" />
    <glyph glyph-name="L" unicode="L" horiz-adv-x="513" 
d="M150 669q17 4 34.5 6t42.5 2q31 0 51.5 -7t32 -19t16 -27t4.5 -31q0 -5 -0.5 -9.5t-1.5 -9.5l-70 -414h136q27 0 44.5 -7t28 -18.5t15 -27t4.5 -33.5t-3.5 -37t-8.5 -37h-438z" />
    <glyph glyph-name="M" unicode="M" horiz-adv-x="785" 
d="M176 664q13 4 37 8t53 4q54 0 77.5 -19.5t29.5 -51.5l52 -291h4l166 292q23 40 51.5 55t68.5 15q26 0 50 -3.5t37 -8.5l-65 -664h-186l38 336h-4l-125 -213h-130l-45 206h-4l-76 -329h-186z" />
    <glyph glyph-name="N" unicode="N" horiz-adv-x="650" 
d="M150 668q15 3 35.5 5.5t46.5 2.5q46 0 69 -18.5t34 -47.5l116 -302l60 360q16 4 32 6t40 2q31 0 50.5 -7t30.5 -19t15.5 -27t4.5 -31q0 -5 -0.5 -9t-1.5 -10l-96 -573h-157l-148 336l-57 -336h-187z" />
    <glyph glyph-name="O" unicode="O" horiz-adv-x="688" 
d="M337 -18q-71 0 -122 24t-83 63.5t-47 91t-15 107.5q0 75 22 149t67 133.5t113.5 96.5t162.5 37q71 0 121.5 -24t83 -63.5t47.5 -91.5t15 -107q0 -75 -22 -149t-67 -133.5t-113.5 -96.5t-162.5 -37zM354 138q33 0 60.5 20t47 56.5t30.5 87t11 111.5q0 55 -21 85t-64 30
q-33 0 -60.5 -20t-47 -56.5t-30.5 -87t-11 -111.5q0 -53 22 -84t63 -31z" />
    <glyph glyph-name="P" unicode="P" horiz-adv-x="571" 
d="M150 664q53 7 105.5 9.5t89.5 2.5q67 0 116 -14t81 -40t47.5 -62t15.5 -79q0 -73 -22 -124t-62 -83.5t-95.5 -47t-121.5 -14.5h-42l-36 -212h-189zM319 349q38 0 63.5 31.5t25.5 93.5q0 29 -17 47t-47 18q-15 0 -28 -1l-32 -189h35z" />
    <glyph glyph-name="Q" unicode="Q" horiz-adv-x="688" 
d="M300 -88q12 16 36 29t49 13q22 0 37 -7t28 -17.5t26.5 -23t32 -23.5t44.5 -19.5t64 -10.5q-6 -17 -14.5 -35.5t-22 -34.5t-35 -26t-52.5 -10q-37 0 -70 16t-58.5 41t-42.5 53.5t-22 54.5zM337 -18q-71 0 -122 24t-83 63.5t-47 91t-15 107.5q0 75 22 149t67 133.5
t113.5 96.5t162.5 37q71 0 121.5 -24t83 -63.5t47.5 -91.5t15 -107q0 -75 -22 -149t-67 -133.5t-113.5 -96.5t-162.5 -37zM354 138q33 0 60.5 20t47 56.5t30.5 87t11 111.5q0 55 -21 85t-64 30q-33 0 -60.5 -20t-47 -56.5t-30.5 -87t-11 -111.5q0 -53 22 -84t63 -31z" />
    <glyph glyph-name="R" unicode="R" horiz-adv-x="602" 
d="M150 664q53 7 106.5 9.5t90.5 2.5q133 0 197.5 -51.5t64.5 -138.5q0 -45 -9.5 -79t-26.5 -60t-40.5 -45t-50.5 -34l104 -251q-24 -12 -54 -21t-64 -9q-45 0 -72.5 15t-43.5 57l-60 161h-29l-37 -220h-189zM321 357q42 0 66.5 32.5t24.5 84.5q0 36 -19.5 50.5t-46.5 14.5
h-14t-15 -1l-31 -181h35z" />
    <glyph glyph-name="S" unicode="S" horiz-adv-x="523" 
d="M96 221q35 -40 73.5 -58t80.5 -18q58 0 58 49q0 20 -16.5 36t-56.5 39q-35 20 -62.5 41t-46.5 45.5t-29 54.5t-10 69q0 48 18 86t51 64.5t79 40.5t102 14q58 0 104.5 -16t69.5 -38q17 -16 25 -33.5t8 -34.5q0 -35 -22 -63t-64 -42q-26 32 -56 50.5t-65 18.5
q-28 0 -38 -10t-10 -27q0 -21 21.5 -37.5t50.5 -33.5q43 -26 73 -50t48.5 -50t26.5 -54.5t8 -61.5q0 -54 -20 -95t-55.5 -68.5t-83 -41.5t-101.5 -14q-22 0 -47 2.5t-49 8t-46 14t-39 20.5q-24 17 -36 36.5t-12 46.5q0 29 16.5 57t51.5 53z" />
    <glyph glyph-name="T" unicode="T" horiz-adv-x="587" 
d="M267 508h-187q1 31 5.5 60.5t17 52.5t36 36.5t64.5 13.5h468q1 -32 -3 -61.5t-16.5 -52t-37 -36t-64.5 -13.5h-87l-86 -508h-196z" />
    <glyph glyph-name="U" unicode="U" horiz-adv-x="633" 
d="M146 669q17 4 35 6t43 2q31 0 51.5 -7t32.5 -19t16.5 -27t4.5 -31q0 -5 -0.5 -9.5t-1.5 -9.5l-53 -307q-2 -14 -3.5 -27.5t-1.5 -27.5q0 -29 12 -50.5t48 -21.5q26 0 42.5 12t26 30.5t15 40t8.5 41.5l68 405q17 4 35 6t43 2q31 0 51.5 -7t32 -19t16 -27t4.5 -31
q0 -5 -0.5 -9.5t-1.5 -9.5l-61 -333q-23 -128 -93 -193.5t-202 -65.5q-68 0 -114.5 14t-75 39.5t-40.5 62t-12 81.5q0 20 2 41t6 44z" />
    <glyph glyph-name="V" unicode="V" horiz-adv-x="658" 
d="M97 661q21 5 44 9t48 4q23 0 43.5 -4.5t36.5 -15t26.5 -28t12.5 -43.5l34 -372h7l146 374q20 52 56 70.5t90 18.5q23 0 47.5 -4t46.5 -10l-323 -665h-216z" />
    <glyph glyph-name="W" unicode="W" horiz-adv-x="913" 
d="M90 655q23 8 50.5 13.5t54.5 5.5q46 0 74 -19.5t33 -66.5l37 -318h4l97 210l-27 182q31 6 58.5 10t47.5 4q51 0 72 -21t23 -60l21 -325h5l118 316q15 40 48.5 64t83.5 24q34 0 58 -4.5t42 -11.5l-314 -663h-157l-39 262h-4l-127 -262h-148z" />
    <glyph glyph-name="X" unicode="X" horiz-adv-x="601" 
d="M228 339l-134 302q32 15 61 23.5t57 9.5q46 1 73.5 -15t44.5 -63l40 -117l70 125q20 35 51.5 53.5t77.5 18.5q29 0 57.5 -8.5t55.5 -25.5l-233 -319l136 -310q-32 -15 -62.5 -20t-58.5 -6q-46 -1 -74.5 15.5t-44.5 66.5l-34 109l-106 -178h-220z" />
    <glyph glyph-name="Y" unicode="Y" horiz-adv-x="611" 
d="M228 228l-137 415q30 15 61.5 23t57.5 8q42 0 62.5 -17.5t29.5 -57.5l50 -187l105 195q17 31 46 50t83 19q26 0 53 -7t53 -23l-267 -417l-39 -229h-196z" />
    <glyph glyph-name="Z" unicode="Z" horiz-adv-x="560" 
d="M30 132q78 99 160.5 195t176.5 190h-276q1 30 7 57.5t19.5 49t37.5 34.5t62 13h346q36 0 47.5 -17.5t6.5 -46.5l-12 -77q-95 -96 -178.5 -188t-167.5 -190h189q27 0 45.5 -6.5t29 -17.5t15 -26t4.5 -32t-3.5 -35t-8.5 -35h-521z" />
    <glyph glyph-name="bracketleft" unicode="[" horiz-adv-x="353" 
d="M167 717h274l-24 -140h-105l-97 -574h106l-24 -139h-276z" />
    <glyph glyph-name="backslash" unicode="\" horiz-adv-x="388" 
d="M92 662q14 6 32 10t36 4q31 0 51 -7t32.5 -19.5t19 -30t10.5 -39.5l108 -580h-168z" />
    <glyph glyph-name="bracketright" unicode="]" horiz-adv-x="353" 
d="M8 4h105l97 574h-106l24 139h276l-146 -853h-274z" />
    <glyph glyph-name="asciicircum" unicode="^" horiz-adv-x="541" 
d="M296 667h153l110 -404h-156l-56 251l-144 -251h-156z" />
    <glyph glyph-name="underscore" unicode="_" horiz-adv-x="440" 
d="M-20 -100h440v-110h-440v110z" />
    <glyph glyph-name="grave" unicode="`" horiz-adv-x="465" 
d="M114 686q21 21 46.5 35t50.5 14q19 0 36 -9.5t31 -32.5l73 -124q-14 -14 -35 -22t-42 -8q-15 0 -28.5 5t-23.5 16z" />
    <glyph glyph-name="a" unicode="a" horiz-adv-x="539" 
d="M506 122q-2 -15 -3.5 -30.5t-1.5 -30.5q0 -36 6 -58q-17 -5 -38.5 -9t-46.5 -4q-42 0 -64.5 10t-36.5 44q-29 -33 -58.5 -45.5t-73.5 -12.5q-30 0 -56 12t-45.5 35t-30.5 58t-11 81q0 64 20 122.5t59 103t96 71t131 26.5q52 0 101 -10.5t106 -45.5zM351 335q-11 7 -27 7
q-22 0 -38.5 -15.5t-27 -38t-16 -49.5t-5.5 -49q0 -31 11 -45t30 -14q23 0 33 14.5t13 31.5z" />
    <glyph glyph-name="b" unicode="b" horiz-adv-x="544" 
d="M143 701q17 4 34.5 6t42.5 2q31 0 51 -7t31.5 -19t15.5 -27t4 -31q0 -4 -0.5 -8.5t-1.5 -10.5l-26 -146q23 19 48.5 27t60.5 8q31 0 57.5 -12t46 -35t30.5 -58t11 -81q0 -64 -20 -122.5t-59 -103t-96.5 -71t-132.5 -26.5q-53 0 -102.5 10.5t-106.5 45.5zM240 143
q13 -7 28 -7q23 0 40 16t28 39.5t16.5 50.5t5.5 50q0 32 -11.5 46.5t-31.5 14.5q-23 0 -33.5 -15t-13.5 -32z" />
    <glyph glyph-name="c" unicode="c" horiz-adv-x="467" 
d="M378 192q40 -8 63.5 -29t23.5 -56q0 -36 -32 -66q-16 -15 -36 -26t-42 -17.5t-44 -9.5t-41 -3q-58 0 -100 16.5t-69.5 45t-41 66.5t-13.5 80q0 61 19 116.5t55 96.5t89 65.5t121 24.5q35 0 73 -12t62 -35q15 -15 23.5 -33.5t8.5 -38.5q0 -38 -29.5 -59.5t-72.5 -26.5
q-9 32 -25 48t-43 16q-19 0 -35.5 -11.5t-28.5 -32.5t-19 -49.5t-7 -62.5q0 -30 13 -50.5t42 -20.5q32 0 53 19.5t33 44.5z" />
    <glyph glyph-name="d" unicode="d" horiz-adv-x="544" 
d="M356 339q-13 7 -29 7q-24 0 -40.5 -15t-26.5 -38t-14.5 -50t-4.5 -51q0 -63 39 -63q23 0 34 15t14 32zM417 701q17 4 34.5 6t42.5 2q31 0 51 -7t31 -19t15 -27t4 -31q0 -7 -2 -19l-81 -484q-2 -15 -3.5 -30.5t-1.5 -30.5q0 -36 6 -58q-17 -5 -39.5 -9t-47.5 -4
q-42 0 -64 10t-36 44q-29 -33 -58.5 -45.5t-73.5 -12.5q-30 0 -56.5 12.5t-47 35.5t-32.5 55.5t-12 71.5q0 70 18 131t52 106t81 71t106 26q44 0 77 -15z" />
    <glyph glyph-name="e" unicode="e" horiz-adv-x="484" 
d="M223 192q2 -33 19 -51t44 -18q34 0 57.5 14.5t42.5 45.5q36 -11 57.5 -29t21.5 -51q0 -24 -10.5 -41.5t-25.5 -29.5q-28 -23 -74 -35t-89 -12q-55 0 -96 16t-68 43.5t-40.5 65t-13.5 81.5q0 62 17.5 117.5t53.5 97t90 66t128 24.5q49 0 81 -13t51 -33t27 -43t8 -44
q0 -52 -22.5 -85t-57 -52t-77 -26.5t-82.5 -7.5h-42zM233 285q7 -1 11.5 -1h9.5q15 0 31 3.5t28.5 10t20.5 17.5t8 26q0 11 -7 19.5t-24 8.5q-29 0 -49.5 -21t-28.5 -63z" />
    <glyph glyph-name="f" unicode="f" horiz-adv-x="392" 
d="M102 469q8 53 23.5 98.5t44.5 78.5t75 52t115 19q46 0 86 -12t64 -34q16 -14 24.5 -32.5t8.5 -36.5q1 -35 -23 -58.5t-73 -29.5q-11 27 -29 41t-47 14q-63 0 -72 -64l-4 -29h145l-24 -149h-142l-53 -349q-17 -107 -69.5 -160t-149.5 -53q-32 0 -64 4t-62 19
q-27 14 -39 34t-12 43q0 26 15 51.5t41 41.5q15 -18 36 -27t41 -9q34 0 49 14.5t20 48.5z" />
    <glyph glyph-name="g" unicode="g" horiz-adv-x="539" 
d="M352 339q-13 7 -28 7q-23 0 -39.5 -14t-27 -35t-15.5 -46.5t-5 -48.5q0 -32 11.5 -46.5t31.5 -14.5q23 0 33 15t13 32zM300 33q-23 -19 -47.5 -26.5t-59.5 -7.5q-31 0 -57.5 10.5t-46 33t-30.5 57.5t-11 85q0 60 19.5 116.5t58 99.5t95.5 69t132 26q53 0 103 -10.5
t107 -45.5l-65 -383q-10 -55 -26 -106.5t-47.5 -91t-82.5 -63t-130 -23.5q-15 0 -33 0.5t-37 3t-38.5 7.5t-36.5 14q-32 15 -50 36.5t-18 51.5q0 29 19 56.5t51 41.5q27 -36 56.5 -53t75.5 -17q37 0 60.5 21t33.5 70z" />
    <glyph glyph-name="h" unicode="h" horiz-adv-x="538" 
d="M143 701q17 4 34.5 6t42.5 2q31 0 51.5 -7t31.5 -19t15.5 -27t4.5 -31q0 -8 -2 -19l-28 -169q19 22 50 40.5t78 18.5q32 0 55 -10.5t37.5 -29t21.5 -42.5t7 -51q0 -22 -3 -42t-7 -41l-27 -161l-4 -28t-2 -28t1 -27t5 -26q-17 -8 -42 -14.5t-57 -6.5q-55 0 -79 20.5
t-23 62.5q0 14 2 26l33 196q1 5 1.5 11t0.5 11q0 12 -5.5 19t-21.5 7q-23 0 -32.5 -14.5t-12.5 -31.5l-50 -296h-195z" />
    <glyph glyph-name="i" unicode="i" horiz-adv-x="274" 
d="M121 618q0 28 9 48t24 33.5t35 20t42 6.5q21 0 38 -7t28 -18.5t17 -26t6 -28.5q0 -28 -9 -48t-24 -33.5t-35 -20t-42 -6.5t-38.5 7t-28 18.5t-17 26t-5.5 28.5zM105 478q17 4 35.5 6t43.5 2q31 0 51.5 -7t31.5 -19t15.5 -27t4.5 -31q0 -5 -0.5 -9.5t-1.5 -9.5l-45 -264
l-4 -28t-2 -28t1 -27t5 -26q-17 -8 -42 -14.5t-57 -6.5q-57 0 -80 20.5t-22 62.5q0 14 2 28z" />
    <glyph glyph-name="j" unicode="j" horiz-adv-x="271" 
d="M105 478q17 4 35.5 6t43.5 2q31 0 51.5 -7t31.5 -19t15.5 -27t4.5 -31q0 -5 -0.5 -9t-1.5 -10l-49 -290q-5 -28 -11 -62t-15 -68t-20 -63t-24 -47q-29 -40 -67 -62t-97 -22q-53 0 -75 28t-22 67q0 17 3 35q33 1 53.5 8.5t34 23.5t21 42.5t14.5 66.5zM121 618q0 28 9 48
t24 33.5t35 20t42 6.5q21 0 38 -7t28 -18.5t17 -26t6 -28.5q0 -28 -9 -48t-24 -33.5t-35 -20t-42 -6.5t-38.5 7t-28 18.5t-17 26t-5.5 28.5z" />
    <glyph glyph-name="k" unicode="k" horiz-adv-x="562" 
d="M142 701q17 4 34.5 6t42.5 2q31 0 51.5 -7t31.5 -19t15.5 -27t4.5 -31q0 -5 -0.5 -9t-1.5 -10l-51 -303q5 11 16 27.5t22 28.5l69 78q12 14 24 25t26 18.5t31 11.5t39 4q32 0 56.5 -12t46.5 -32l-172 -197l65 -129q17 -32 33 -58.5t41 -44.5q-32 -20 -66.5 -27t-61.5 -7
q-42 0 -68.5 15t-42.5 46l-45 89q-8 16 -15.5 36t-12.5 39l-36 -214h-194z" />
    <glyph glyph-name="l" unicode="l" horiz-adv-x="274" 
d="M143 701q17 4 35.5 6t43.5 2q31 0 51 -7t31.5 -19t15.5 -27t4 -31q0 -5 -0.5 -9t-1.5 -10l-82 -487l-4 -28t-2 -28t1 -27t5 -26q-17 -8 -42 -14.5t-57 -6.5q-57 0 -80 20.5t-22 62.5q0 19 3 35z" />
    <glyph glyph-name="m" unicode="m" horiz-adv-x="789" 
d="M105 478q17 4 34 6t42 2q45 0 70 -13.5t30 -36.5q18 21 51 40.5t84 19.5q46 0 74 -17.5t38 -47.5q13 14 27 26t31 20.5t38.5 13.5t50.5 5q32 0 54.5 -10.5t36.5 -28.5t20.5 -42t6.5 -51q0 -22 -3 -42.5t-7 -41.5l-27 -161q-3 -18 -4.5 -30t-1.5 -26t1 -27t5 -26
q-17 -8 -42 -14.5t-57 -6.5q-57 0 -79.5 20.5t-21.5 62.5q0 8 0.5 14.5t1.5 13.5l33 194q1 5 1.5 11t0.5 11q0 12 -4 19t-20 7q-20 0 -29.5 -14.5t-12.5 -31.5l-3 -16l-47 -280h-194l49 294q1 5 1.5 11t0.5 11q0 12 -4 19t-20 7q-20 0 -29.5 -14.5t-12.5 -31.5l-50 -296
h-194z" />
    <glyph glyph-name="n" unicode="n" horiz-adv-x="538" 
d="M105 478q17 4 34.5 6t42.5 2q45 0 70 -13.5t30 -36.5q18 21 51.5 40.5t87.5 19.5q32 0 55 -10.5t37.5 -29t21.5 -42.5t7 -51q0 -22 -3 -42t-7 -41l-27 -161l-4 -28t-2 -28t1 -27t5 -26q-17 -8 -42 -14.5t-57 -6.5q-57 0 -80 20.5t-22 62.5q0 5 1 16.5t4 27.5l30 178
q1 5 1.5 11t0.5 11q0 13 -6 19.5t-21 6.5q-20 0 -31 -13t-14 -33l-50 -296h-195z" />
    <glyph glyph-name="o" unicode="o" horiz-adv-x="542" 
d="M280 128q22 0 36 18.5t22.5 44t12 51.5t3.5 42q0 29 -8.5 48.5t-34.5 19.5q-21 0 -35.5 -17.5t-23.5 -42.5t-12.5 -53t-3.5 -49q0 -28 9.5 -45t34.5 -17zM46 193q0 61 19.5 116.5t56.5 96.5t90.5 65.5t121.5 24.5q54 0 94 -16.5t66 -44.5t39 -65.5t13 -80.5
q0 -60 -17.5 -115t-52.5 -97t-88 -67t-125 -25q-58 0 -99 16.5t-67.5 44.5t-38.5 66t-12 81z" />
    <glyph glyph-name="p" unicode="p" horiz-adv-x="547" 
d="M105 478q17 3 34.5 5.5t42.5 2.5q89 0 101 -48q20 23 48.5 40.5t76.5 17.5q32 0 59 -13.5t46.5 -38t30.5 -59t11 -77.5q0 -59 -13.5 -116.5t-41 -103t-70.5 -73.5t-103 -28q-38 0 -62.5 11.5t-41.5 30.5l-42 -247h-194zM242 144q13 -7 30 -7q25 0 41.5 17.5t26 42
t13.5 51t4 43.5q0 63 -39 63q-23 0 -34 -15t-14 -32z" />
    <glyph glyph-name="q" unicode="q" horiz-adv-x="539" 
d="M299 21q-23 -19 -48 -26.5t-60 -7.5q-31 0 -57.5 12t-46 35t-30.5 58t-11 81q0 64 20 122.5t59 103t96.5 71t132.5 26.5q52 0 100.5 -11t105.5 -46l-111 -657h-191zM353 339q-13 7 -28 7q-23 0 -40 -16t-28 -39.5t-16.5 -50.5t-5.5 -50q0 -32 11.5 -46.5t31.5 -14.5
q23 0 33.5 15t13.5 32z" />
    <glyph glyph-name="r" unicode="r" horiz-adv-x="432" 
d="M105 478q17 4 34.5 6t42.5 2q45 0 70 -13.5t30 -36.5q20 26 47 43t71 17q38 0 59.5 -19.5t19.5 -58.5q-2 -37 -23.5 -71.5t-69.5 -62.5q-14 20 -27.5 31t-39.5 11q-23 0 -36 -13t-16 -30l-48 -283h-195z" />
    <glyph glyph-name="s" unicode="s" horiz-adv-x="439" 
d="M89 202q25 -37 49.5 -51t48.5 -14q10 0 18.5 4t8.5 16q0 18 -17.5 30.5t-49.5 34.5q-36 25 -59 51t-23 68q0 24 10 51t34.5 50t64.5 38.5t100 15.5q35 0 68.5 -8t59 -23t41 -36t15.5 -46q0 -34 -28.5 -59.5t-68.5 -29.5q-13 33 -33 47.5t-43 14.5q-9 0 -16 -5.5t-7 -15.5
q0 -7 4.5 -12.5t15 -13t26.5 -17.5t39 -26q24 -17 38.5 -32.5t23 -31.5t11.5 -32.5t3 -34.5q0 -26 -11.5 -52.5t-36 -48.5t-62.5 -35.5t-90 -13.5q-40 0 -77 6.5t-66 21.5q-32 17 -47.5 37.5t-15.5 49.5q0 35 18.5 59t53.5 43z" />
    <glyph glyph-name="t" unicode="t" horiz-adv-x="416" 
d="M127 630q17 4 35.5 6t43.5 2q31 0 51 -7t31.5 -19t15.5 -27t4 -31q0 -6 -2 -19l-10 -59h142l-24 -149h-143l-22 -133q-4 -23 5.5 -33.5t26.5 -10.5q18 0 32 11.5t25 29.5q43 -12 63 -34.5t16 -61.5q-3 -22 -12 -36t-24 -28q-51 -46 -138 -46q-41 0 -76 9t-61 29.5
t-40.5 52.5t-14.5 79q0 14 1.5 27.5t3.5 29.5z" />
    <glyph glyph-name="u" unicode="u" horiz-adv-x="534" 
d="M102 483q16 5 36 9t43 4q57 0 80.5 -20.5t22.5 -62.5q0 -5 -0.5 -11t-1.5 -11l-36 -212q-1 -5 -1.5 -11t-0.5 -11q0 -12 5.5 -19t21.5 -7q23 0 32.5 14.5t12.5 31.5l51 306q16 5 36 9t43 4q57 0 80.5 -20.5t22.5 -62.5q0 -5 -0.5 -11t-1.5 -11l-46 -269
q-2 -15 -3.5 -30.5t-1.5 -30.5q0 -36 6 -58q-17 -5 -38.5 -9t-46.5 -4q-42 0 -64.5 10t-36.5 44q-10 -11 -21 -21.5t-26.5 -18.5t-37.5 -13t-54 -5q-66 0 -99 35.5t-33 92.5q0 22 3 46t7 45z" />
    <glyph glyph-name="v" unicode="v" horiz-adv-x="517" 
d="M60 466q24 11 53 15.5t53 4.5q44 0 67 -28t25 -80l6 -209h2l81 218q15 43 47.5 71t78.5 28q28 0 53.5 -6t45.5 -14l-243 -472h-188z" />
    <glyph glyph-name="w" unicode="w" horiz-adv-x="732" 
d="M57 466q26 11 52 15.5t50 4.5q44 0 65 -28t26 -80l23 -206h3l63 133l-31 166q26 9 45.5 12t43.5 3t40 -7.5t26 -22t15.5 -34.5t7.5 -44l17 -206h3l67 215q13 45 42 72t74 27q28 0 51.5 -6t43.5 -14l-215 -472h-163l-27 144l-68 -144h-163z" />
    <glyph glyph-name="x" unicode="x" horiz-adv-x="512" 
d="M177 242l-113 223q26 9 58.5 15.5t59.5 6.5q22 0 38 -6.5t27 -17t19 -23.5t15 -27l23 -48l49 66q21 28 47 42t76 14q25 0 49 -7t43 -18l-198 -229l115 -225q-26 -9 -57.5 -13.5t-58.5 -4.5q-22 0 -38 6t-27 16.5t-19 23.5t-14 27l-22 47l-80 -110h-188z" />
    <glyph glyph-name="y" unicode="y" horiz-adv-x="517" 
d="M181 -6h-40l-81 472q24 10 51.5 15t51.5 5q45 0 67.5 -29t24.5 -79l10 -209h4l76 218q14 41 44.5 70t80.5 29q28 0 55 -6t47 -14l-252 -525q-17 -34 -35.5 -64.5t-42.5 -53.5t-56 -36.5t-76 -13.5q-33 0 -60.5 6t-41.5 15q-22 14 -30.5 31.5t-8.5 34.5q0 10 2.5 22.5
t10 25.5t20.5 25t33 22q18 -25 32.5 -32.5t27.5 -7.5q25 0 41.5 9.5t31.5 40.5z" />
    <glyph glyph-name="z" unicode="z" horiz-adv-x="473" 
d="M37 125q48 54 102.5 107.5t118.5 99.5h-182q0 36 4.5 64.5t18.5 47.5t39.5 29t68.5 10h237q38 0 55 -17t9 -57l-12 -56q-67 -51 -129 -98.5t-117 -103.5h104q59 0 82 -22.5t23 -60.5q0 -32 -12 -68h-432z" />
    <glyph glyph-name="braceleft" unicode="{" horiz-adv-x="399" 
d="M116 180q1 5 1 15q0 24 -14.5 37.5t-40.5 13.5l20 123q21 0 34.5 4.5t22.5 14.5t14 26t9 39l17 101q6 37 20 67t38 51.5t59.5 33t84.5 11.5q53 0 73 -18t20 -52q0 -17 -7.5 -36.5t-20.5 -37.5q-17 6 -33 6q-23 0 -41 -12.5t-23 -39.5l-16 -99q-8 -49 -30.5 -77t-60.5 -45
q29 -20 39 -45.5t10 -54.5q0 -17 -3 -35l-19 -108q-5 -29 5.5 -47.5t41.5 -18.5q10 0 17 1.5t17 3.5q17 -33 17 -62q0 -43 -32 -61.5t-87 -18.5q-75 0 -118 34.5t-43 99.5q0 16 3 34z" />
    <glyph glyph-name="bar" unicode="|" horiz-adv-x="251" 
d="M163 794h160l-168 -982h-160z" />
    <glyph glyph-name="braceright" unicode="}" horiz-adv-x="399" 
d="M139 149q8 49 30.5 77t60.5 45q-29 20 -39 45.5t-10 54.5q0 17 3 35l19 108q5 29 -5.5 47.5t-41.5 18.5q-10 0 -17 -1.5t-17 -3.5q-17 33 -17 62q0 43 32 61.5t87 18.5q75 0 118 -34.5t43 -99.5q0 -16 -3 -34l-26 -152q-1 -5 -1 -15q0 -24 14.5 -37.5t40.5 -13.5
l-20 -123q-41 0 -57 -19t-23 -65l-17 -101q-6 -37 -20 -67t-38 -51.5t-59.5 -33t-84.5 -11.5q-53 0 -73 17.5t-20 52.5q0 17 7.5 36.5t20.5 37.5q16 -6 33 -6q23 0 41 12.5t23 39.5z" />
    <glyph glyph-name="asciitilde" unicode="~" horiz-adv-x="482" 
d="M76 453q9 99 49 149.5t124 50.5q27 0 45 -9t35 -22q14 -11 28 -20.5t28 -9.5q26 0 37 16.5t15 44.5h132q-9 -99 -49 -149.5t-124 -50.5q-27 0 -45 9t-35 22q-14 11 -28 20.5t-28 9.5q-26 0 -37 -16.5t-15 -44.5h-132z" />
    <glyph glyph-name="uni00A0" unicode="&#xa0;" horiz-adv-x="194" 
 />
    <glyph glyph-name="exclamdown" unicode="&#xa1;" horiz-adv-x="296" 
d="M83 240q17 6 31 9t38 3q22 0 42 -4t35 -14.5t23.5 -29t8.5 -47.5q0 -16 -3 -35l-56 -326q-17 -4 -34.5 -6t-42.5 -2q-32 0 -52 7t-31.5 19t-16 27t-4.5 31q0 5 0.5 9.5t1.5 9.5zM100 367q0 28 9 48t24 33.5t35 20t42 6.5t38.5 -7t27.5 -18.5t17 -26t6 -28.5q0 -28 -9 -48
t-24 -33.5t-35 -20t-42 -6.5q-21 0 -38 7t-28 18.5t-17 26t-6 28.5z" />
    <glyph glyph-name="cent" unicode="&#xa2;" horiz-adv-x="590" 
d="M236 96q-61 25 -89.5 75.5t-28.5 113.5q0 51 13 97.5t38.5 85t62 66.5t84.5 42l16 95h59l-14 -86q6 0 12 0.5t13 0.5h8t9 -1l14 86h59l-16 -95q17 -6 33 -14.5t28 -20.5q32 -32 32 -72q0 -38 -29.5 -59.5t-72.5 -26.5q-18 64 -65 64q-24 0 -41 -14t-28.5 -37t-17 -51.5
t-5.5 -58.5q0 -28 11 -47t43 -19t53 19.5t33 44.5q40 -8 63.5 -29t23.5 -56q0 -36 -32 -66q-23 -22 -52 -34.5t-59 -17.5l-16 -99h-59l15 96q-22 0 -41 3l-16 -99h-59z" />
    <glyph glyph-name="sterling" unicode="&#xa3;" horiz-adv-x="590" 
d="M146 259h-61l22 132h61l9 55q20 118 87 171.5t193 53.5q41 0 81 -12.5t66 -41.5q14 -16 20 -31t5 -30q-1 -33 -25.5 -56.5t-58.5 -36.5q-19 32 -40.5 43.5t-53.5 11.5q-29 0 -53 -16t-31 -55l-10 -56h166l-22 -132h-166l-18 -107h150q27 0 45.5 -6.5t29 -17.5t15 -26
t4.5 -32t-3.5 -35t-8.5 -35h-447z" />
    <glyph glyph-name="currency" unicode="&#xa4;" horiz-adv-x="590" 
d="M120 249q-31 55 -31 119q0 62 28 114l-87 80l90 81l78 -73q29 17 62 25t67 8q35 0 68.5 -8t63.5 -26l87 82l90 -81l-96 -88q14 -26 20 -54t6 -57q0 -68 -31 -120l97 -91l-86 -83l-95 89q-29 -16 -61 -23t-65 -7q-31 0 -61.5 7t-58.5 22l-95 -89l-86 83zM327 245
q27 0 49 9.5t38 26.5t24.5 39.5t8.5 48.5t-8.5 49t-24.5 40t-38 26.5t-49 9.5t-49 -9.5t-37.5 -26.5t-24 -39.5t-8.5 -49.5q0 -26 8.5 -48.5t24.5 -39.5t37.5 -26.5t48.5 -9.5z" />
    <glyph glyph-name="yen" unicode="&#xa5;" horiz-adv-x="590" 
d="M182 152h-121l10 57h121l12 65h-122l10 57h77l-91 302q29 13 62 21t59 8q42 0 63.5 -21t29.5 -56l33 -176l89 176q15 32 45.5 54.5t78.5 22.5q26 0 54.5 -7t58.5 -18l-197 -306h81l-10 -57h-124l-12 -65h125l-10 -57h-124l-26 -152h-196z" />
    <glyph glyph-name="brokenbar" unicode="&#xa6;" horiz-adv-x="251" 
d="M163 794h160l-64 -375h-160zM64 215h160l-69 -403h-160z" />
    <glyph glyph-name="section" unicode="&#xa7;" horiz-adv-x="485" 
d="M240 328q-65 20 -99 53.5t-34 99.5q0 54 20 92.5t53 63t76 36t89 11.5q56 0 86.5 -10.5t50.5 -24.5q22 -15 28 -35t1 -40t-19 -38t-32 -30q-27 23 -53.5 35t-56.5 12q-13 0 -25 -2.5t-22 -8.5t-16.5 -16.5t-7.5 -26.5q-2 -21 9.5 -37t37.5 -24l106 -37q29 -10 39.5 -27
t10.5 -40q0 -20 -6.5 -40.5t-19.5 -34.5zM124 179q-29 10 -39.5 27t-10.5 40q0 20 6.5 40.5t19.5 34.5l216 -69q65 -20 99 -53.5t34 -99.5q0 -54 -20 -92.5t-53 -63t-76 -36t-89 -11.5q-56 0 -86.5 10.5t-50.5 24.5q-22 15 -28 35t-1 40t19 38t32 30q27 -23 53.5 -35
t56.5 -12q13 0 25 2t22 8t16.5 16.5t7.5 27.5q2 21 -9.5 37t-37.5 24z" />
    <glyph glyph-name="dieresis" unicode="&#xa8;" horiz-adv-x="465" 
d="M37 619q0 46 27.5 68t65.5 22q36 0 55.5 -21.5t19.5 -46.5q0 -46 -28 -68t-66 -22q-37 0 -55.5 21.5t-18.5 46.5zM260 619q0 46 28 68t66 22q36 0 55 -21.5t19 -46.5q0 -46 -27.5 -68t-65.5 -22q-37 0 -56 21.5t-19 46.5z" />
    <glyph glyph-name="copyright" unicode="&#xa9;" horiz-adv-x="814" 
d="M444 -55q-86 0 -152 29t-111.5 79t-69 118t-23.5 146q0 75 25.5 142.5t72 118.5t112.5 81t147 30t147 -30t112.5 -81t72 -118.5t25.5 -142.5t-25.5 -142.5t-72 -118.5t-113 -81t-147.5 -30zM446 5q67 0 121 26t92 69.5t59 100t21 116.5t-21 116.5t-59 99.5t-92 69
t-121 26t-121 -26t-92.5 -69t-59 -99.5t-20.5 -116.5t19.5 -116.5t56.5 -100t91.5 -69.5t125.5 -26zM568 238q6 -6 12.5 -15.5t12.5 -21t10 -22.5t4 -20q0 -19 -18 -37q-4 -4 -13 -10t-24 -12t-36 -10.5t-49 -4.5q-57 0 -100.5 17.5t-73 48.5t-44.5 74t-15 95q0 51 14.5 94
t43.5 75t72 50t100 18q54 0 85 -14t45 -26q8 -7 16 -17t8 -23q0 -14 -12.5 -35.5t-32.5 -40.5q-23 21 -44 32t-48 11t-45 -10t-29.5 -26.5t-16 -38.5t-4.5 -45t4.5 -45.5t15.5 -40t29 -28t46 -10.5q27 0 46.5 9t40.5 29z" />
    <glyph glyph-name="ordfeminine" unicode="&#xaa;" horiz-adv-x="464" 
d="M465 405q-2 -12 -3 -24.5t-1 -24.5q0 -26 5 -48q-14 -3 -31 -6.5t-37 -3.5q-32 0 -50.5 8t-29.5 36q-23 -27 -48 -37t-60 -10q-23 0 -44 9.5t-36.5 28.5t-25 47t-9.5 66q0 52 16.5 99.5t48 84t78 58t105.5 21.5q43 0 81 -8.5t84 -37.5zM343 583q-5 4 -10.5 5t-12.5 1
q-18 0 -31.5 -12.5t-22 -31.5t-13 -41t-4.5 -41q0 -26 9.5 -37.5t25.5 -11.5q18 0 26.5 12t10.5 26z" />
    <glyph glyph-name="guillemotleft" unicode="&#xab;" horiz-adv-x="558" 
d="M354 195q-16 17 -23 34.5t-7 35.5q0 34 15 59.5t46 49.5l168 132q17 -26 25 -44.5t8 -36.5q0 -16 -7.5 -40t-30.5 -47l-55 -58l40 -68q14 -25 14 -47q0 -29 -14 -54.5t-46 -57.5zM92 195q-16 17 -23 34.5t-7 35.5q0 34 15 59.5t46 49.5l168 132q17 -26 25 -44.5t8 -36.5
q0 -16 -7.5 -40t-30.5 -47l-55 -58l40 -68q14 -25 14 -47q0 -29 -14 -54.5t-46 -57.5z" />
    <glyph glyph-name="logicalnot" unicode="&#xac;" horiz-adv-x="590" 
d="M93 412h498l-54 -318h-173l27 158h-324z" />
    <glyph glyph-name="uni00AD" unicode="&#xad;" horiz-adv-x="408" 
d="M312 367q26 0 43.5 -6.5t28 -17t15 -25t4.5 -30.5q0 -19 -4.5 -38.5t-10.5 -37.5h-228q-26 0 -43.5 6.5t-28 17t-15 25t-4.5 30.5q0 19 4.5 38.5t10.5 37.5h228z" />
    <glyph glyph-name="registered" unicode="&#xae;" horiz-adv-x="814" 
d="M286 543q13 1 30 2.5t36 2.5t37 1.5t33 0.5q95 0 140 -39t45 -98q0 -48 -22.5 -78t-48.5 -48l101 -156q-23 -12 -41 -16.5t-33 -4.5q-22 0 -41.5 8.5t-33.5 30.5l-72 114h-15v-143h-115v423zM425 346q31 0 43.5 17t12.5 42q0 29 -16 42t-44 13h-10t-10 -1v-113h24z
M435 -57q-87 0 -153.5 30t-111 81.5t-67.5 119.5t-23 143t25.5 142.5t72 118.5t112.5 81t147 30t147 -30t112.5 -81t72 -118.5t25.5 -142.5t-25.5 -143t-72.5 -119.5t-113.5 -81.5t-147.5 -30zM435 5q67 0 121.5 26t93 69.5t59.5 100t21 116.5t-21 116.5t-59 99.5t-92 69
t-121 26t-121 -26t-92.5 -69t-59 -99.5t-20.5 -116.5t19 -116.5t56 -100t91 -69.5t125 -26z" />
    <glyph glyph-name="macron" unicode="&#xaf;" horiz-adv-x="465" 
d="M329 681q41 0 56 -18t15 -44q0 -15 -3.5 -30.5t-8.5 -29.5h-252q-41 0 -56 18.5t-15 44.5q0 14 3.5 29.5t8.5 29.5h252z" />
    <glyph glyph-name="degree" unicode="&#xb0;" horiz-adv-x="367" 
d="M77 552q0 30 11 57t30.5 47t47 31.5t60.5 11.5q34 0 61.5 -11t47 -30.5t30 -46.5t10.5 -59q0 -30 -11 -57t-30.5 -47t-47 -31.5t-60.5 -11.5q-34 0 -61.5 11.5t-47 31.5t-30 47t-10.5 57zM226 478q32 0 52 22t20 52q0 32 -20 53.5t-52 21.5q-30 0 -49.5 -21.5
t-19.5 -53.5q0 -30 19.5 -52t49.5 -22z" />
    <glyph glyph-name="plusminus" unicode="&#xb1;" horiz-adv-x="590" 
d="M58 160h152l29 168h-159l27 160h159l30 181h175l-30 -181h160l-27 -160h-160l-29 -168h149l-27 -160h-476z" />
    <glyph glyph-name="twosuperior" unicode="&#xb2;" 
d="M75 376q18 12 48 33t59.5 45.5t51 50t21.5 47.5q0 35 -35 35q-22 0 -40 -10.5t-44 -35.5q-19 11 -32 28t-13 33q0 15 7 25t18 21q18 17 50 30t84 13q34 0 60.5 -9.5t44.5 -25.5t27 -38t9 -47q0 -44 -21.5 -78t-53.5 -59l-59 -45h50q37 0 50 -15.5t13 -37.5
q0 -11 -2 -23.5t-5 -23.5h-301z" />
    <glyph glyph-name="threesuperior" unicode="&#xb3;" 
d="M182 525h42q22 0 31.5 10.5t9.5 23.5q0 12 -8 21.5t-31 9.5q-44 0 -81 -39q-18 11 -32.5 27.5t-14.5 30.5q0 24 20 42q23 22 55.5 31t70.5 9q65 0 104.5 -28t39.5 -76q0 -39 -21 -61.5t-49 -33.5q29 -19 39.5 -39t10.5 -46q0 -25 -11 -49t-32 -42.5t-52 -29.5t-72 -11
q-26 0 -49 3.5t-44 13.5q-19 8 -32 21.5t-15 30.5t8 35.5t38 39.5q22 -26 43 -35t44 -9t36 10.5t13 27.5q0 15 -10.5 24.5t-32.5 9.5h-30z" />
    <glyph glyph-name="acute" unicode="&#xb4;" horiz-adv-x="465" 
d="M194 689q19 23 36.5 34t42.5 11q27 0 47.5 -13t42.5 -39l-134 -122q-24 -21 -52 -21q-22 0 -40 9t-36 28z" />
    <glyph glyph-name="mu" unicode="&#xb5;" horiz-adv-x="562" 
d="M111 486h194l-46 -274q-3 -17 -3 -29q0 -23 8.5 -31.5t22.5 -8.5q23 0 32.5 17.5t15.5 54.5l46 271h195l-55 -330q-1 -4 -1 -7.5v-6.5q0 -25 21 -25q14 0 32 6l9 -112q-28 -12 -55.5 -16t-45.5 -4q-42 0 -65 11.5t-36 43.5q-15 -21 -36 -38t-59 -17q-29 0 -46.5 13
t-23.5 32l-38 -225h-180z" />
    <glyph glyph-name="paragraph" unicode="&#xb6;" horiz-adv-x="579" 
d="M260 235h-4q-78 0 -123.5 48.5t-45.5 132.5q0 64 20.5 112t55 79.5t78 47.5t90.5 16h239q25 0 37 -13t12 -35q0 -10 -1 -15l-123 -726h-115l117 692h-64l-117 -692h-115z" />
    <glyph glyph-name="periodcentered" unicode="&#xb7;" horiz-adv-x="281" 
d="M90 316q0 52 28.5 75t69.5 23q39 0 58 -22.5t19 -47.5q0 -52 -28.5 -75t-69.5 -23q-40 0 -58.5 22.5t-18.5 47.5z" />
    <glyph glyph-name="cedilla" unicode="&#xb8;" horiz-adv-x="465" 
d="M329 4q-21 -13 -28.5 -26.5t-7.5 -29.5q0 -11 6 -20t13 -18.5t13 -21.5t6 -27q0 -25 -10 -43.5t-26 -30.5t-37 -18t-42 -6q-15 0 -30 1.5t-27 6.5t-19 14t-7 24q0 10 5.5 22.5t13.5 23.5q19 -11 34 -11q30 0 30 25q0 9 -3 15.5t-7 13.5t-7 14t-3 16q0 29 14.5 46t33.5 30
h85z" />
    <glyph glyph-name="onesuperior" unicode="&#xb9;" 
d="M208 528l-97 -45q-25 36 -25 71q0 43 49 66l114 54q15 8 29 12.5t35 4.5q32 0 49 -23l-63 -379h-131z" />
    <glyph glyph-name="ordmasculine" unicode="&#xba;" horiz-adv-x="455" 
d="M285 414q18 0 29.5 14.5t18 34.5t9.5 40.5t3 32.5q0 22 -7.5 37.5t-27.5 15.5q-17 0 -29 -14t-19 -33.5t-10 -41.5t-3 -38q0 -20 8 -34t28 -14zM95 463q0 50 16 94.5t46 78.5t73.5 53.5t98.5 19.5q43 0 75.5 -13t53.5 -36t31.5 -53.5t10.5 -65.5q0 -48 -14 -92.5
t-42.5 -78.5t-71.5 -54.5t-101 -20.5q-47 0 -80.5 13t-54.5 36t-31 53.5t-10 65.5z" />
    <glyph glyph-name="guillemotright" unicode="&#xbb;" horiz-adv-x="558" 
d="M389 279l-40 68q-14 25 -14 47q0 29 14 54.5t46 57.5l133 -142q16 -17 23 -34.5t7 -35.5q0 -34 -15 -59.5t-46 -49.5l-168 -132q-17 26 -25 44.5t-8 36.5q0 16 7.5 40t30.5 47zM127 279l-40 68q-14 25 -14 47q0 29 14 54.5t46 57.5l133 -142q16 -17 23 -34.5t7 -35.5
q0 -34 -15 -59.5t-46 -49.5l-168 -132q-17 26 -25 44.5t-8 36.5q0 16 7.5 40t30.5 47z" />
    <glyph glyph-name="onequarter" unicode="&#xbc;" horiz-adv-x="900" 
d="M208 528l-97 -45q-25 36 -25 71q0 43 49 66l114 54q15 8 29 12.5t35 4.5q32 0 49 -23l-63 -379h-131zM578 616q10 16 20 28.5t23 21.5t30.5 14t42.5 5q15 0 33.5 -3t29.5 -9l-387 -673h-143zM552 153l165 201q17 20 38.5 34t59.5 14q19 0 34 -4.5t24 -9.5l-38 -229h3
q25 0 33.5 -11t8.5 -30q0 -12 -3 -24l-5 -20h-51l-12 -73h-121l11 73h-160zM714 160l18 109h-5l-90 -109h77z" />
    <glyph glyph-name="onehalf" unicode="&#xbd;" horiz-adv-x="900" 
d="M208 528l-97 -45q-25 36 -25 71q0 43 49 66l114 54q15 8 29 12.5t35 4.5q32 0 49 -23l-63 -379h-131zM538 616q10 16 20 28.5t23 21.5t30.5 14t42.5 5q15 0 33.5 -3t29.5 -9l-387 -673h-143zM554 88q18 12 48 33t59.5 45.5t51 50t21.5 47.5q0 35 -35 35q-22 0 -40 -10.5
t-44 -35.5q-19 11 -32 28t-13 33q0 15 7 25t18 21q18 17 50 30t84 13q34 0 60.5 -9.5t44.5 -25.5t27 -38t9 -47q0 -44 -21.5 -78t-53.5 -59l-59 -45h50q37 0 50 -15.5t13 -37.5q0 -11 -2 -23.5t-5 -23.5h-301z" />
    <glyph glyph-name="threequarters" unicode="&#xbe;" horiz-adv-x="900" 
d="M182 525h42q22 0 31.5 10.5t9.5 23.5q0 12 -8 21.5t-31 9.5q-44 0 -81 -39q-18 11 -32.5 27.5t-14.5 30.5q0 24 20 42q23 22 55.5 31t70.5 9q65 0 104.5 -28t39.5 -76q0 -39 -21 -61.5t-49 -33.5q29 -19 39.5 -39t10.5 -46q0 -25 -11 -49t-32 -42.5t-52 -29.5t-72 -11
q-26 0 -49 3.5t-44 13.5q-19 8 -32 21.5t-15 30.5t8 35.5t38 39.5q22 -26 43 -35t44 -9t36 10.5t13 27.5q0 15 -10.5 24.5t-32.5 9.5h-30zM589 616q10 16 20 28.5t23 21.5t30.5 14t42.5 5q15 0 33.5 -3t29.5 -9l-387 -673h-143zM552 153l165 201q17 20 38.5 34t59.5 14
q19 0 34 -4.5t24 -9.5l-38 -229h3q25 0 33.5 -11t8.5 -30q0 -12 -3 -24l-5 -20h-51l-12 -73h-121l11 73h-160zM714 160l18 109h-5l-90 -109h77z" />
    <glyph glyph-name="questiondown" unicode="&#xbf;" horiz-adv-x="452" 
d="M208 367q0 28 9 48t24 33.5t35 20t42 6.5t38.5 -7t27.5 -18.5t17 -26t6 -28.5q0 -28 -9 -48t-24 -33.5t-35 -20t-42 -6.5q-21 0 -38 7t-28 18.5t-17 26t-6 28.5zM4 -68q-2 31 7 58t24.5 49.5t34 41t36.5 33.5q19 16 36.5 30t30.5 30t21 34.5t10 43.5q10 3 30.5 4.5
t31.5 1.5q43 0 70 -17t27 -57q0 -17 -7.5 -33t-20 -31t-28 -29t-30.5 -27q-11 -10 -23.5 -20.5t-23 -22.5t-17.5 -25.5t-7 -28.5q0 -16 10.5 -25.5t36.5 -9.5t58 16t61 46q25 -16 42 -39t17 -48q0 -23 -10.5 -40.5t-28.5 -31.5q-38 -29 -87.5 -42.5t-94.5 -13.5
q-52 0 -90 12t-63.5 32.5t-38.5 48.5t-14 60z" />
    <glyph glyph-name="Agrave" unicode="&#xc0;" horiz-adv-x="660" 
d="M309 655q27 10 59 15.5t61 5.5q54 0 86.5 -24t40.5 -74l87 -578h-191l-22 153h-171l-66 -153h-199zM413 281l-10 131q-1 14 -2.5 33.5t-1.5 37.5q0 8 0.5 15.5t1.5 13.5h-3q-3 -11 -7.5 -24t-9.5 -27t-9.5 -26.5t-8.5 -21.5l-54 -132h104zM303 812q14 26 34 45.5t52 19.5
q23 0 41 -8.5t32 -22.5l93 -84q-14 -21 -33 -34t-42 -13q-12 0 -23 2.5t-25 11.5z" />
    <glyph glyph-name="Aacute" unicode="&#xc1;" horiz-adv-x="660" 
d="M309 655q27 10 59 15.5t61 5.5q54 0 86.5 -24t40.5 -74l87 -578h-191l-22 153h-171l-66 -153h-199zM413 281l-10 131q-1 14 -2.5 33.5t-1.5 37.5q0 8 0.5 15.5t1.5 13.5h-3q-3 -11 -7.5 -24t-9.5 -27t-9.5 -26.5t-8.5 -21.5l-54 -132h104zM408 846q17 15 36 23t42 8
q32 0 52.5 -19.5t34.5 -45.5l-144 -83q-14 -8 -26.5 -11t-24.5 -3q-23 0 -40 13t-31 34z" />
    <glyph glyph-name="Acircumflex" unicode="&#xc2;" horiz-adv-x="660" 
d="M309 655q27 10 59 15.5t61 5.5q54 0 86.5 -24t40.5 -74l87 -578h-191l-22 153h-171l-66 -153h-199zM413 281l-10 131q-1 14 -2.5 33.5t-1.5 37.5q0 8 0.5 15.5t1.5 13.5h-3q-3 -11 -7.5 -24t-9.5 -27t-9.5 -26.5t-8.5 -21.5l-54 -132h104zM350 841q20 23 43.5 32t49.5 9
t46 -8t32 -30l63 -110q-13 -11 -28 -15.5t-31 -4.5q-14 0 -26.5 4t-23.5 16l-43 46l-55 -47q-14 -11 -28.5 -15t-31.5 -4q-37 0 -57 20z" />
    <glyph glyph-name="Atilde" unicode="&#xc3;" horiz-adv-x="660" 
d="M309 655q27 10 59 15.5t61 5.5q54 0 86.5 -24t40.5 -74l87 -578h-191l-22 153h-171l-66 -153h-199zM413 281l-10 131q-1 14 -2.5 33.5t-1.5 37.5q0 8 0.5 15.5t1.5 13.5h-3q-3 -11 -7.5 -24t-9.5 -27t-9.5 -26.5t-8.5 -21.5l-54 -132h104zM291 730q-26 15 -34.5 32.5
t-8.5 36.5q0 15 9 29t24.5 25t36.5 18t44 7q22 0 39.5 -6t32 -13t27 -13t26.5 -6q16 0 35.5 6.5t40.5 35.5q26 -15 34.5 -32.5t8.5 -36.5q0 -18 -9 -32.5t-24.5 -25t-36.5 -16t-44 -5.5q-20 0 -37 6t-32 13t-29 13t-27 6q-16 0 -35.5 -6.5t-40.5 -35.5z" />
    <glyph glyph-name="Adieresis" unicode="&#xc4;" horiz-adv-x="660" 
d="M309 655q27 10 59 15.5t61 5.5q54 0 86.5 -24t40.5 -74l87 -578h-191l-22 153h-171l-66 -153h-199zM413 281l-10 131q-1 14 -2.5 33.5t-1.5 37.5q0 8 0.5 15.5t1.5 13.5h-3q-3 -11 -7.5 -24t-9.5 -27t-9.5 -26.5t-8.5 -21.5l-54 -132h104zM238 795q0 46 27.5 68t65.5 22
q36 0 55.5 -21.5t19.5 -46.5q0 -46 -28 -68t-66 -22q-37 0 -55.5 21.5t-18.5 46.5zM461 795q0 46 28 68t66 22q36 0 55 -21.5t19 -46.5q0 -46 -27.5 -68t-65.5 -22q-37 0 -56 21.5t-19 46.5z" />
    <glyph glyph-name="Aring" unicode="&#xc5;" horiz-adv-x="660" 
d="M309 655q11 4 23 7.5t25 5.5q-22 17 -33.5 42.5t-11.5 56.5q0 25 8 47.5t23.5 39t37.5 26.5t50 10q27 0 49 -10t37 -26.5t23.5 -38.5t8.5 -47q0 -33 -14 -60.5t-40 -43.5q50 -23 61 -86l87 -578h-191l-22 153h-171l-66 -153h-199zM413 281l-10 131q-1 14 -2.5 33.5
t-1.5 37.5q0 8 0.5 15.5t1.5 13.5h-3q-3 -11 -7.5 -24t-9.5 -27t-9.5 -26.5t-8.5 -21.5l-54 -132h104zM431 711q23 0 35.5 17t12.5 39q0 23 -12.5 40t-35.5 17t-36 -16.5t-13 -39.5t13 -40t36 -17z" />
    <glyph glyph-name="AE" unicode="&#xc6;" horiz-adv-x="907" 
d="M376 601q23 38 60.5 54t85.5 16h444q1 -30 -2.5 -58t-15.5 -49t-35.5 -34t-62.5 -13h-147l-18 -101h178l-25 -153h-178l-19 -111h145q27 0 45.5 -6.5t29 -17.5t15 -26t4.5 -32t-3.5 -35t-8.5 -35h-442l26 158h-151l-88 -158h-213zM474 286l39 232h-8
q-29 -56 -61.5 -110.5t-61.5 -105.5l-9 -16h101z" />
    <glyph glyph-name="Ccedilla" unicode="&#xc7;" horiz-adv-x="620" 
d="M231 -145q19 -11 34 -11q30 0 30 25q0 9 -3 15.5t-7 13.5t-7 14t-3 16q0 20 6.5 33t17.5 24q-63 7 -107 33t-71 64t-39 84.5t-12 95.5q0 44 8.5 93t26.5 95.5t46.5 89t69.5 74.5t94.5 51t121.5 19q60 0 106.5 -16.5t74.5 -48.5q27 -29 27 -68q0 -41 -27 -64t-70 -38
q-32 79 -117 79q-41 0 -71 -22t-49.5 -57.5t-29.5 -78.5t-10 -85q-1 -78 28 -111t78 -33q44 0 80 24t66 69q44 -21 64 -43.5t20 -52.5q0 -51 -50 -92q-38 -31 -83 -45t-91 -17q-11 -15 -11 -36q0 -11 6 -20t13 -18.5t13 -21.5t6 -27q0 -25 -10 -43.5t-26 -30.5t-37 -18
t-42 -6q-15 0 -30 1.5t-27 6.5t-19 14t-7 24q0 10 5.5 22.5t13.5 23.5z" />
    <glyph glyph-name="Egrave" unicode="&#xc8;" horiz-adv-x="523" 
d="M150 671h442q1 -30 -2.5 -58t-15.5 -49t-35.5 -34t-62.5 -13h-157l-18 -101h188l-25 -153h-188l-19 -111h155q27 0 45.5 -6.5t29 -17.5t15 -26t4.5 -32t-3.5 -35t-8.5 -35h-457zM218 812q14 26 34 45.5t52 19.5q23 0 41 -8.5t32 -22.5l93 -84q-14 -21 -33 -34t-42 -13
q-12 0 -23 2.5t-25 11.5z" />
    <glyph glyph-name="Eacute" unicode="&#xc9;" horiz-adv-x="523" 
d="M150 671h442q1 -30 -2.5 -58t-15.5 -49t-35.5 -34t-62.5 -13h-157l-18 -101h188l-25 -153h-188l-19 -111h155q27 0 45.5 -6.5t29 -17.5t15 -26t4.5 -32t-3.5 -35t-8.5 -35h-457zM368 846q17 15 36 23t42 8q32 0 52.5 -19.5t34.5 -45.5l-144 -83q-14 -8 -26.5 -11
t-24.5 -3q-23 0 -40 13t-31 34z" />
    <glyph glyph-name="Ecircumflex" unicode="&#xca;" horiz-adv-x="523" 
d="M150 671h442q1 -30 -2.5 -58t-15.5 -49t-35.5 -34t-62.5 -13h-157l-18 -101h188l-25 -153h-188l-19 -111h155q27 0 45.5 -6.5t29 -17.5t15 -26t4.5 -32t-3.5 -35t-8.5 -35h-457zM307 841q20 23 43.5 32t49.5 9t46 -8t32 -30l63 -110q-13 -11 -28 -15.5t-31 -4.5
q-14 0 -26.5 4t-23.5 16l-43 46l-55 -47q-14 -11 -28.5 -15t-31.5 -4q-37 0 -57 20z" />
    <glyph glyph-name="Edieresis" unicode="&#xcb;" horiz-adv-x="523" 
d="M150 671h442q1 -30 -2.5 -58t-15.5 -49t-35.5 -34t-62.5 -13h-157l-18 -101h188l-25 -153h-188l-19 -111h155q27 0 45.5 -6.5t29 -17.5t15 -26t4.5 -32t-3.5 -35t-8.5 -35h-457zM194 795q0 46 27.5 68t65.5 22q36 0 55.5 -21.5t19.5 -46.5q0 -46 -28 -68t-66 -22
q-37 0 -55.5 21.5t-18.5 46.5zM417 795q0 46 28 68t66 22q36 0 55 -21.5t19 -46.5q0 -46 -27.5 -68t-65.5 -22q-37 0 -56 21.5t-19 46.5z" />
    <glyph glyph-name="Igrave" unicode="&#xcc;" horiz-adv-x="296" 
d="M150 669q17 4 34.5 6t42.5 2q31 0 51.5 -7t32 -19t16 -27t4.5 -31q0 -4 -0.5 -9t-1.5 -10l-97 -574h-195zM118 812q14 26 34 45.5t52 19.5q23 0 41 -8.5t32 -22.5l93 -84q-14 -21 -33 -34t-42 -13q-12 0 -23 2.5t-25 11.5z" />
    <glyph glyph-name="Iacute" unicode="&#xcd;" horiz-adv-x="296" 
d="M150 669q17 4 34.5 6t42.5 2q31 0 51.5 -7t32 -19t16 -27t4.5 -31q0 -4 -0.5 -9t-1.5 -10l-97 -574h-195zM239 846q17 15 36 23t42 8q32 0 52.5 -19.5t34.5 -45.5l-144 -83q-14 -8 -26.5 -11t-24.5 -3q-23 0 -40 13t-31 34z" />
    <glyph glyph-name="Icircumflex" unicode="&#xce;" horiz-adv-x="296" 
d="M150 669q17 4 34.5 6t42.5 2q31 0 51.5 -7t32 -19t16 -27t4.5 -31q0 -4 -0.5 -9t-1.5 -10l-97 -574h-195zM166 841q20 23 43.5 32t49.5 9t46 -8t32 -30l63 -110q-13 -11 -28 -15.5t-31 -4.5q-14 0 -26.5 4t-23.5 16l-43 46l-55 -47q-14 -11 -28.5 -15t-31.5 -4
q-37 0 -57 20z" />
    <glyph glyph-name="Idieresis" unicode="&#xcf;" horiz-adv-x="296" 
d="M150 669q17 4 34.5 6t42.5 2q31 0 51.5 -7t32 -19t16 -27t4.5 -31q0 -4 -0.5 -9t-1.5 -10l-97 -574h-195zM58 795q0 46 27.5 68t65.5 22q36 0 55.5 -21.5t19.5 -46.5q0 -46 -28 -68t-66 -22q-37 0 -55.5 21.5t-18.5 46.5zM281 795q0 46 28 68t66 22q36 0 55 -21.5
t19 -46.5q0 -46 -27.5 -68t-65.5 -22q-37 0 -56 21.5t-19 46.5z" />
    <glyph glyph-name="Eth" unicode="&#xd0;" horiz-adv-x="637" 
d="M88 307h-67l13 80h68l46 275q78 10 126.5 12t80.5 2q84 0 141 -23t91.5 -60.5t49 -85.5t14.5 -99q0 -94 -24 -169.5t-72 -128.5t-119 -81.5t-165 -28.5h-234zM293 151q43 0 73 23.5t49 60t27.5 82.5t8.5 91q0 54 -24.5 86t-73.5 32h-13.5t-18.5 -2l-24 -137h87l-13 -80
h-87l-27 -156h36z" />
    <glyph glyph-name="Ntilde" unicode="&#xd1;" horiz-adv-x="650" 
d="M150 668q15 3 35.5 5.5t46.5 2.5q46 0 69 -18.5t34 -47.5l116 -302l60 360q16 4 32 6t40 2q31 0 50.5 -7t30.5 -19t15.5 -27t4.5 -31q0 -5 -0.5 -9t-1.5 -10l-96 -573h-157l-148 336l-57 -336h-187zM287 730q-26 15 -34.5 32.5t-8.5 36.5q0 15 9 29t24.5 25t36.5 18t44 7
q22 0 39.5 -6t32 -13t27 -13t26.5 -6q16 0 35.5 6.5t40.5 35.5q26 -15 34.5 -32.5t8.5 -36.5q0 -18 -9 -32.5t-24.5 -25t-36.5 -16t-44 -5.5q-20 0 -37 6t-32 13t-29 13t-27 6q-16 0 -35.5 -6.5t-40.5 -35.5z" />
    <glyph glyph-name="Ograve" unicode="&#xd2;" horiz-adv-x="688" 
d="M337 -18q-71 0 -122 24t-83 63.5t-47 91t-15 107.5q0 75 22 149t67 133.5t113.5 96.5t162.5 37q71 0 121.5 -24t83 -63.5t47.5 -91.5t15 -107q0 -75 -22 -149t-67 -133.5t-113.5 -96.5t-162.5 -37zM354 138q33 0 60.5 20t47 56.5t30.5 87t11 111.5q0 55 -21 85t-64 30
q-33 0 -60.5 -20t-47 -56.5t-30.5 -87t-11 -111.5q0 -53 22 -84t63 -31zM296 812q14 26 34 45.5t52 19.5q23 0 41 -8.5t32 -22.5l93 -84q-14 -21 -33 -34t-42 -13q-12 0 -23 2.5t-25 11.5z" />
    <glyph glyph-name="Oacute" unicode="&#xd3;" horiz-adv-x="688" 
d="M337 -18q-71 0 -122 24t-83 63.5t-47 91t-15 107.5q0 75 22 149t67 133.5t113.5 96.5t162.5 37q71 0 121.5 -24t83 -63.5t47.5 -91.5t15 -107q0 -75 -22 -149t-67 -133.5t-113.5 -96.5t-162.5 -37zM354 138q33 0 60.5 20t47 56.5t30.5 87t11 111.5q0 55 -21 85t-64 30
q-33 0 -60.5 -20t-47 -56.5t-30.5 -87t-11 -111.5q0 -53 22 -84t63 -31zM431 846q17 15 36 23t42 8q32 0 52.5 -19.5t34.5 -45.5l-144 -83q-14 -8 -26.5 -11t-24.5 -3q-23 0 -40 13t-31 34z" />
    <glyph glyph-name="Ocircumflex" unicode="&#xd4;" horiz-adv-x="688" 
d="M337 -18q-71 0 -122 24t-83 63.5t-47 91t-15 107.5q0 75 22 149t67 133.5t113.5 96.5t162.5 37q71 0 121.5 -24t83 -63.5t47.5 -91.5t15 -107q0 -75 -22 -149t-67 -133.5t-113.5 -96.5t-162.5 -37zM354 138q33 0 60.5 20t47 56.5t30.5 87t11 111.5q0 55 -21 85t-64 30
q-33 0 -60.5 -20t-47 -56.5t-30.5 -87t-11 -111.5q0 -53 22 -84t63 -31zM364 841q20 23 43.5 32t49.5 9t46 -8t32 -30l63 -110q-13 -11 -28 -15.5t-31 -4.5q-14 0 -26.5 4t-23.5 16l-43 46l-55 -47q-14 -11 -28.5 -15t-31.5 -4q-37 0 -57 20z" />
    <glyph glyph-name="Otilde" unicode="&#xd5;" horiz-adv-x="688" 
d="M337 -18q-71 0 -122 24t-83 63.5t-47 91t-15 107.5q0 75 22 149t67 133.5t113.5 96.5t162.5 37q71 0 121.5 -24t83 -63.5t47.5 -91.5t15 -107q0 -75 -22 -149t-67 -133.5t-113.5 -96.5t-162.5 -37zM354 138q33 0 60.5 20t47 56.5t30.5 87t11 111.5q0 55 -21 85t-64 30
q-33 0 -60.5 -20t-47 -56.5t-30.5 -87t-11 -111.5q0 -53 22 -84t63 -31zM303 730q-26 15 -34.5 32.5t-8.5 36.5q0 15 9 29t24.5 25t36.5 18t44 7q22 0 39.5 -6t32 -13t27 -13t26.5 -6q16 0 35.5 6.5t40.5 35.5q26 -15 34.5 -32.5t8.5 -36.5q0 -18 -9 -32.5t-24.5 -25
t-36.5 -16t-44 -5.5q-20 0 -37 6t-32 13t-29 13t-27 6q-16 0 -35.5 -6.5t-40.5 -35.5z" />
    <glyph glyph-name="Odieresis" unicode="&#xd6;" horiz-adv-x="688" 
d="M337 -18q-71 0 -122 24t-83 63.5t-47 91t-15 107.5q0 75 22 149t67 133.5t113.5 96.5t162.5 37q71 0 121.5 -24t83 -63.5t47.5 -91.5t15 -107q0 -75 -22 -149t-67 -133.5t-113.5 -96.5t-162.5 -37zM354 138q33 0 60.5 20t47 56.5t30.5 87t11 111.5q0 55 -21 85t-64 30
q-33 0 -60.5 -20t-47 -56.5t-30.5 -87t-11 -111.5q0 -53 22 -84t63 -31zM243 795q0 46 27.5 68t65.5 22q36 0 55.5 -21.5t19.5 -46.5q0 -46 -28 -68t-66 -22q-37 0 -55.5 21.5t-18.5 46.5zM466 795q0 46 28 68t66 22q36 0 55 -21.5t19 -46.5q0 -46 -27.5 -68t-65.5 -22
q-37 0 -56 21.5t-19 46.5z" />
    <glyph glyph-name="multiply" unicode="&#xd7;" horiz-adv-x="590" 
d="M70 213l144 128l-105 131l135 110l101 -125l142 125l98 -119l-143 -126l108 -133l-136 -110l-103 127l-143 -127z" />
    <glyph glyph-name="Oslash" unicode="&#xd8;" horiz-adv-x="688" 
d="M166 36q-51 40 -73.5 101.5t-22.5 130.5q0 75 22 149t67 133.5t113.5 96.5t162.5 37q67 0 118 -23l59 95l55 -30l-60 -97q50 -41 72.5 -102t22.5 -129q0 -75 -22 -149t-67 -133.5t-113.5 -96.5t-162.5 -37q-35 0 -63.5 5.5t-53.5 16.5l-67 -108l-55 30zM463 516
q-18 12 -45 12q-33 0 -60.5 -20t-47 -56.5t-30.5 -87t-11 -111.5q0 -12 1 -23t3 -21zM310 150q18 -12 44 -12q33 0 60.5 20t47 56.5t30.5 87t11 111.5q0 11 -1 21.5t-3 20.5z" />
    <glyph glyph-name="Ugrave" unicode="&#xd9;" horiz-adv-x="633" 
d="M146 669q17 4 35 6t43 2q31 0 51.5 -7t32.5 -19t16.5 -27t4.5 -31q0 -5 -0.5 -9.5t-1.5 -9.5l-53 -307q-2 -14 -3.5 -27.5t-1.5 -27.5q0 -29 12 -50.5t48 -21.5q26 0 42.5 12t26 30.5t15 40t8.5 41.5l68 405q17 4 35 6t43 2q31 0 51.5 -7t32 -19t16 -27t4.5 -31
q0 -5 -0.5 -9.5t-1.5 -9.5l-61 -333q-23 -128 -93 -193.5t-202 -65.5q-68 0 -114.5 14t-75 39.5t-40.5 62t-12 81.5q0 20 2 41t6 44zM235 812q14 26 34 45.5t52 19.5q23 0 41 -8.5t32 -22.5l93 -84q-14 -21 -33 -34t-42 -13q-12 0 -23 2.5t-25 11.5z" />
    <glyph glyph-name="Uacute" unicode="&#xda;" horiz-adv-x="633" 
d="M146 669q17 4 35 6t43 2q31 0 51.5 -7t32.5 -19t16.5 -27t4.5 -31q0 -5 -0.5 -9.5t-1.5 -9.5l-53 -307q-2 -14 -3.5 -27.5t-1.5 -27.5q0 -29 12 -50.5t48 -21.5q26 0 42.5 12t26 30.5t15 40t8.5 41.5l68 405q17 4 35 6t43 2q31 0 51.5 -7t32 -19t16 -27t4.5 -31
q0 -5 -0.5 -9.5t-1.5 -9.5l-61 -333q-23 -128 -93 -193.5t-202 -65.5q-68 0 -114.5 14t-75 39.5t-40.5 62t-12 81.5q0 20 2 41t6 44zM406 846q17 15 36 23t42 8q32 0 52.5 -19.5t34.5 -45.5l-144 -83q-14 -8 -26.5 -11t-24.5 -3q-23 0 -40 13t-31 34z" />
    <glyph glyph-name="Ucircumflex" unicode="&#xdb;" horiz-adv-x="633" 
d="M146 669q17 4 35 6t43 2q31 0 51.5 -7t32.5 -19t16.5 -27t4.5 -31q0 -5 -0.5 -9.5t-1.5 -9.5l-53 -307q-2 -14 -3.5 -27.5t-1.5 -27.5q0 -29 12 -50.5t48 -21.5q26 0 42.5 12t26 30.5t15 40t8.5 41.5l68 405q17 4 35 6t43 2q31 0 51.5 -7t32 -19t16 -27t4.5 -31
q0 -5 -0.5 -9.5t-1.5 -9.5l-61 -333q-23 -128 -93 -193.5t-202 -65.5q-68 0 -114.5 14t-75 39.5t-40.5 62t-12 81.5q0 20 2 41t6 44zM340 841q20 23 43.5 32t49.5 9t46 -8t32 -30l63 -110q-13 -11 -28 -15.5t-31 -4.5q-14 0 -26.5 4t-23.5 16l-43 46l-55 -47
q-14 -11 -28.5 -15t-31.5 -4q-37 0 -57 20z" />
    <glyph glyph-name="Udieresis" unicode="&#xdc;" horiz-adv-x="633" 
d="M146 669q17 4 35 6t43 2q31 0 51.5 -7t32.5 -19t16.5 -27t4.5 -31q0 -5 -0.5 -9.5t-1.5 -9.5l-53 -307q-2 -14 -3.5 -27.5t-1.5 -27.5q0 -29 12 -50.5t48 -21.5q26 0 42.5 12t26 30.5t15 40t8.5 41.5l68 405q17 4 35 6t43 2q31 0 51.5 -7t32 -19t16 -27t4.5 -31
q0 -5 -0.5 -9.5t-1.5 -9.5l-61 -333q-23 -128 -93 -193.5t-202 -65.5q-68 0 -114.5 14t-75 39.5t-40.5 62t-12 81.5q0 20 2 41t6 44zM226 795q0 46 27.5 68t65.5 22q36 0 55.5 -21.5t19.5 -46.5q0 -46 -28 -68t-66 -22q-37 0 -55.5 21.5t-18.5 46.5zM449 795q0 46 28 68
t66 22q36 0 55 -21.5t19 -46.5q0 -46 -27.5 -68t-65.5 -22q-37 0 -56 21.5t-19 46.5z" />
    <glyph glyph-name="Yacute" unicode="&#xdd;" horiz-adv-x="611" 
d="M228 228l-137 415q30 15 61.5 23t57.5 8q42 0 62.5 -17.5t29.5 -57.5l50 -187l105 195q17 31 46 50t83 19q26 0 53 -7t53 -23l-267 -417l-39 -229h-196zM413 846q17 15 36 23t42 8q32 0 52.5 -19.5t34.5 -45.5l-144 -83q-14 -8 -26.5 -11t-24.5 -3q-23 0 -40 13t-31 34z
" />
    <glyph glyph-name="Thorn" unicode="&#xde;" horiz-adv-x="571" 
d="M150 669q17 4 34.5 6t42.5 2q31 0 51.5 -7t31.5 -19t15.5 -27t4.5 -31q0 -5 -0.5 -9.5t-1.5 -9.5l-2 -13q11 2 17.5 2h8.5q56 0 100.5 -14t75.5 -40t47.5 -62t16.5 -79q0 -73 -22 -124t-62 -83.5t-95.5 -47t-121.5 -14.5h-42l-1 1l-17 -100h-194zM306 236q38 0 63.5 31.5
t25.5 93.5q0 29 -17 47t-47 18h-13.5t-14.5 -1l-32 -189h35z" />
    <glyph glyph-name="germandbls" unicode="&#xdf;" horiz-adv-x="670" 
d="M101 464q12 78 40 130.5t77 82.5q34 20 78 30t96 10q44 0 82 -11t66 -30.5t44 -45.5t16 -57q0 -39 -15 -65.5t-32.5 -47.5t-32.5 -40.5t-15 -44.5q0 -17 8.5 -30.5t21.5 -25.5t29 -24t31 -25q28 -23 45 -50.5t17 -69.5q0 -38 -15 -68.5t-41.5 -52t-61.5 -33t-75 -11.5
t-70.5 4.5t-58.5 18.5q-60 31 -60 84q0 33 17.5 56.5t50.5 40.5q12 -17 23.5 -27.5t22.5 -16t21 -7t20 -1.5q14 0 21.5 6.5t7.5 17.5t-7 21t-17 18t-20 15t-17 13q-20 16 -33 27.5t-21 23.5t-11.5 26t-3.5 34q0 32 14 53t30.5 39t30.5 38t14 50q0 23 -14 36.5t-37 13.5
q-39 0 -56.5 -26t-22.5 -64l-75 -501q-16 -107 -65.5 -160t-145.5 -53q-32 0 -64 4t-62 19q-27 14 -39 34t-12 43q0 26 15 51.5t41 41.5q15 -18 36 -27t41 -9q34 0 49 14.5t20 48.5z" />
    <glyph glyph-name="agrave" unicode="&#xe0;" horiz-adv-x="539" 
d="M506 122q-2 -15 -3.5 -30.5t-1.5 -30.5q0 -36 6 -58q-17 -5 -38.5 -9t-46.5 -4q-42 0 -64.5 10t-36.5 44q-29 -33 -58.5 -45.5t-73.5 -12.5q-30 0 -56 12t-45.5 35t-30.5 58t-11 81q0 64 20 122.5t59 103t96 71t131 26.5q52 0 101 -10.5t106 -45.5zM351 335q-11 7 -27 7
q-22 0 -38.5 -15.5t-27 -38t-16 -49.5t-5.5 -49q0 -31 11 -45t30 -14q23 0 33 14.5t13 31.5zM211 686q21 21 46.5 35t50.5 14q19 0 36 -9.5t31 -32.5l73 -124q-14 -14 -35 -22t-42 -8q-15 0 -28.5 5t-23.5 16z" />
    <glyph glyph-name="aacute" unicode="&#xe1;" horiz-adv-x="539" 
d="M506 122q-2 -15 -3.5 -30.5t-1.5 -30.5q0 -36 6 -58q-17 -5 -38.5 -9t-46.5 -4q-42 0 -64.5 10t-36.5 44q-29 -33 -58.5 -45.5t-73.5 -12.5q-30 0 -56 12t-45.5 35t-30.5 58t-11 81q0 64 20 122.5t59 103t96 71t131 26.5q52 0 101 -10.5t106 -45.5zM351 335q-11 7 -27 7
q-22 0 -38.5 -15.5t-27 -38t-16 -49.5t-5.5 -49q0 -31 11 -45t30 -14q23 0 33 14.5t13 31.5zM364 689q19 23 36.5 34t42.5 11q27 0 47.5 -13t42.5 -39l-134 -122q-24 -21 -52 -21q-22 0 -40 9t-36 28z" />
    <glyph glyph-name="acircumflex" unicode="&#xe2;" horiz-adv-x="539" 
d="M506 122q-2 -15 -3.5 -30.5t-1.5 -30.5q0 -36 6 -58q-17 -5 -38.5 -9t-46.5 -4q-42 0 -64.5 10t-36.5 44q-29 -33 -58.5 -45.5t-73.5 -12.5q-30 0 -56 12t-45.5 35t-30.5 58t-11 81q0 64 20 122.5t59 103t96 71t131 26.5q52 0 101 -10.5t106 -45.5zM351 335q-11 7 -27 7
q-22 0 -38.5 -15.5t-27 -38t-16 -49.5t-5.5 -49q0 -31 11 -45t30 -14q23 0 33 14.5t13 31.5zM276 683q21 26 42.5 39.5t53.5 13.5q34 0 55.5 -12t34.5 -39l58 -124q-15 -10 -30 -14.5t-29 -4.5q-20 0 -34 7t-27 27l-36 57l-58 -61q-14 -15 -34.5 -22.5t-41.5 -7.5
q-17 0 -31.5 5.5t-22.5 13.5z" />
    <glyph glyph-name="atilde" unicode="&#xe3;" horiz-adv-x="539" 
d="M506 122q-2 -15 -3.5 -30.5t-1.5 -30.5q0 -36 6 -58q-17 -5 -38.5 -9t-46.5 -4q-42 0 -64.5 10t-36.5 44q-29 -33 -58.5 -45.5t-73.5 -12.5q-30 0 -56 12t-45.5 35t-30.5 58t-11 81q0 64 20 122.5t59 103t96 71t131 26.5q52 0 101 -10.5t106 -45.5zM351 335q-11 7 -27 7
q-22 0 -38.5 -15.5t-27 -38t-16 -49.5t-5.5 -49q0 -31 11 -45t30 -14q23 0 33 14.5t13 31.5zM216 552q-26 15 -34.5 32.5t-8.5 36.5q0 15 9 29t24.5 25t36.5 18t44 7q22 0 39.5 -6t32 -13t27 -13t26.5 -6q16 0 35.5 6.5t40.5 35.5q26 -15 34.5 -32.5t8.5 -36.5
q0 -18 -9 -32.5t-24.5 -25t-36.5 -16t-44 -5.5q-20 0 -37 6t-32 13t-29 13t-27 6q-16 0 -35.5 -6.5t-40.5 -35.5z" />
    <glyph glyph-name="adieresis" unicode="&#xe4;" horiz-adv-x="539" 
d="M506 122q-2 -15 -3.5 -30.5t-1.5 -30.5q0 -36 6 -58q-17 -5 -38.5 -9t-46.5 -4q-42 0 -64.5 10t-36.5 44q-29 -33 -58.5 -45.5t-73.5 -12.5q-30 0 -56 12t-45.5 35t-30.5 58t-11 81q0 64 20 122.5t59 103t96 71t131 26.5q52 0 101 -10.5t106 -45.5zM351 335q-11 7 -27 7
q-22 0 -38.5 -15.5t-27 -38t-16 -49.5t-5.5 -49q0 -31 11 -45t30 -14q23 0 33 14.5t13 31.5zM166 619q0 46 27.5 68t65.5 22q36 0 55.5 -21.5t19.5 -46.5q0 -46 -28 -68t-66 -22q-37 0 -55.5 21.5t-18.5 46.5zM389 619q0 46 28 68t66 22q36 0 55 -21.5t19 -46.5
q0 -46 -27.5 -68t-65.5 -22q-37 0 -56 21.5t-19 46.5z" />
    <glyph glyph-name="aring" unicode="&#xe5;" horiz-adv-x="539" 
d="M506 122q-2 -15 -3.5 -30.5t-1.5 -30.5q0 -36 6 -58q-17 -5 -38.5 -9t-46.5 -4q-42 0 -64.5 10t-36.5 44q-29 -33 -58.5 -45.5t-73.5 -12.5q-30 0 -56 12t-45.5 35t-30.5 58t-11 81q0 64 20 122.5t59 103t96 71t131 26.5q52 0 101 -10.5t106 -45.5zM351 335q-11 7 -27 7
q-22 0 -38.5 -15.5t-27 -38t-16 -49.5t-5.5 -49q0 -31 11 -45t30 -14q23 0 33 14.5t13 31.5zM364 543q-28 0 -50 9.5t-37.5 26t-23.5 38.5t-8 47t8 47.5t23.5 39t37.5 26.5t50 10q27 0 49 -10t37 -26.5t23.5 -38.5t8.5 -47t-8.5 -47t-23.5 -38.5t-37 -26.5t-49 -10zM364 608
q23 0 35.5 17t12.5 39q0 23 -12.5 40t-35.5 17t-36 -16.5t-13 -39.5t13 -40t36 -17z" />
    <glyph glyph-name="ae" unicode="&#xe6;" horiz-adv-x="776" 
d="M515 192q2 -33 19 -51t44 -18q34 0 57.5 14.5t42.5 45.5q36 -11 57.5 -29t21.5 -51q0 -24 -10.5 -41.5t-25.5 -29.5q-28 -23 -74 -35t-89 -12q-59 0 -105 19t-69 64q-14 -17 -30 -31.5t-36.5 -26t-47 -18t-62.5 -6.5q-75 0 -119 46.5t-44 139.5q0 64 21 122.5t59 103
t92.5 71t121.5 26.5q39 0 68 -13.5t59 -39.5q18 12 34.5 21.5t35 17t41 11.5t52.5 4q49 0 81 -13t51 -33t27 -43t8 -44q0 -52 -22.5 -85t-57 -52t-77 -26.5t-82.5 -7.5h-42zM350 335q-11 7 -27 7q-22 0 -38.5 -15.5t-27 -38t-16 -49.5t-5.5 -49q0 -31 11 -45t30 -14
q23 0 33 14.5t13 31.5zM525 285q7 -1 11.5 -1h9.5q15 0 31 3.5t28.5 10t20.5 17.5t8 26q0 11 -7 19.5t-24 8.5q-29 0 -49.5 -21t-28.5 -63z" />
    <glyph glyph-name="ccedilla" unicode="&#xe7;" horiz-adv-x="467" 
d="M148 -145q19 -11 34 -11q30 0 30 25q0 9 -3 15.5t-7 13.5t-7 14t-3 16q0 21 8 35.5t20 25.5q-45 7 -77.5 25.5t-54 46t-32 61.5t-10.5 71q0 61 19 116.5t55 96.5t89 65.5t121 24.5q35 0 72.5 -11t62.5 -36q15 -15 23.5 -33.5t8.5 -38.5q0 -38 -29.5 -59.5t-72.5 -26.5
q-9 32 -25 48t-43 16q-19 0 -35.5 -11.5t-28.5 -32.5t-19 -49.5t-7 -62.5q0 -30 13 -50.5t42 -20.5q32 0 53 19.5t33 44.5q40 -8 63.5 -29t23.5 -56q0 -36 -32 -66q-26 -25 -60.5 -37.5t-69.5 -16.5q-8 -9 -11 -18.5t-3 -20.5t6 -20t13 -18.5t13 -21.5t6 -27
q0 -25 -10 -43.5t-26 -30.5t-37 -18t-42 -6q-15 0 -30 1.5t-27 6.5t-19 14t-7 24q0 10 5.5 22.5t13.5 23.5z" />
    <glyph glyph-name="egrave" unicode="&#xe8;" horiz-adv-x="484" 
d="M223 192q2 -33 19 -51t44 -18q34 0 57.5 14.5t42.5 45.5q36 -11 57.5 -29t21.5 -51q0 -24 -10.5 -41.5t-25.5 -29.5q-28 -23 -74 -35t-89 -12q-55 0 -96 16t-68 43.5t-40.5 65t-13.5 81.5q0 62 17.5 117.5t53.5 97t90 66t128 24.5q49 0 81 -13t51 -33t27 -43t8 -44
q0 -52 -22.5 -85t-57 -52t-77 -26.5t-82.5 -7.5h-42zM233 285q7 -1 11.5 -1h9.5q15 0 31 3.5t28.5 10t20.5 17.5t8 26q0 11 -7 19.5t-24 8.5q-29 0 -49.5 -21t-28.5 -63zM159 686q21 21 46.5 35t50.5 14q19 0 36 -9.5t31 -32.5l73 -124q-14 -14 -35 -22t-42 -8
q-15 0 -28.5 5t-23.5 16z" />
    <glyph glyph-name="eacute" unicode="&#xe9;" horiz-adv-x="484" 
d="M223 192q2 -33 19 -51t44 -18q34 0 57.5 14.5t42.5 45.5q36 -11 57.5 -29t21.5 -51q0 -24 -10.5 -41.5t-25.5 -29.5q-28 -23 -74 -35t-89 -12q-55 0 -96 16t-68 43.5t-40.5 65t-13.5 81.5q0 62 17.5 117.5t53.5 97t90 66t128 24.5q49 0 81 -13t51 -33t27 -43t8 -44
q0 -52 -22.5 -85t-57 -52t-77 -26.5t-82.5 -7.5h-42zM233 285q7 -1 11.5 -1h9.5q15 0 31 3.5t28.5 10t20.5 17.5t8 26q0 11 -7 19.5t-24 8.5q-29 0 -49.5 -21t-28.5 -63zM324 689q19 23 36.5 34t42.5 11q27 0 47.5 -13t42.5 -39l-134 -122q-24 -21 -52 -21q-22 0 -40 9
t-36 28z" />
    <glyph glyph-name="ecircumflex" unicode="&#xea;" horiz-adv-x="484" 
d="M223 192q2 -33 19 -51t44 -18q34 0 57.5 14.5t42.5 45.5q36 -11 57.5 -29t21.5 -51q0 -24 -10.5 -41.5t-25.5 -29.5q-28 -23 -74 -35t-89 -12q-55 0 -96 16t-68 43.5t-40.5 65t-13.5 81.5q0 62 17.5 117.5t53.5 97t90 66t128 24.5q49 0 81 -13t51 -33t27 -43t8 -44
q0 -52 -22.5 -85t-57 -52t-77 -26.5t-82.5 -7.5h-42zM233 285q7 -1 11.5 -1h9.5q15 0 31 3.5t28.5 10t20.5 17.5t8 26q0 11 -7 19.5t-24 8.5q-29 0 -49.5 -21t-28.5 -63zM245 683q21 26 42.5 39.5t53.5 13.5q34 0 55.5 -12t34.5 -39l58 -124q-15 -10 -30 -14.5t-29 -4.5
q-20 0 -34 7t-27 27l-36 57l-58 -61q-14 -15 -34.5 -22.5t-41.5 -7.5q-17 0 -31.5 5.5t-22.5 13.5z" />
    <glyph glyph-name="edieresis" unicode="&#xeb;" horiz-adv-x="484" 
d="M223 192q2 -33 19 -51t44 -18q34 0 57.5 14.5t42.5 45.5q36 -11 57.5 -29t21.5 -51q0 -24 -10.5 -41.5t-25.5 -29.5q-28 -23 -74 -35t-89 -12q-55 0 -96 16t-68 43.5t-40.5 65t-13.5 81.5q0 62 17.5 117.5t53.5 97t90 66t128 24.5q49 0 81 -13t51 -33t27 -43t8 -44
q0 -52 -22.5 -85t-57 -52t-77 -26.5t-82.5 -7.5h-42zM233 285q7 -1 11.5 -1h9.5q15 0 31 3.5t28.5 10t20.5 17.5t8 26q0 11 -7 19.5t-24 8.5q-29 0 -49.5 -21t-28.5 -63zM135 619q0 46 27.5 68t65.5 22q36 0 55.5 -21.5t19.5 -46.5q0 -46 -28 -68t-66 -22q-37 0 -55.5 21.5
t-18.5 46.5zM358 619q0 46 28 68t66 22q36 0 55 -21.5t19 -46.5q0 -46 -27.5 -68t-65.5 -22q-37 0 -56 21.5t-19 46.5z" />
    <glyph glyph-name="igrave" unicode="&#xec;" horiz-adv-x="274" 
d="M105 478q17 4 35.5 6t43.5 2q31 0 51.5 -7t31.5 -19t15.5 -27t4.5 -31q0 -5 -0.5 -9.5t-1.5 -9.5l-45 -264l-4 -28t-2 -28t1 -27t5 -26q-17 -8 -42 -14.5t-57 -6.5q-57 0 -80 20.5t-22 62.5v11t1 11zM54 686q21 21 46.5 35t50.5 14q19 0 36 -9.5t31 -32.5l73 -124
q-14 -14 -35 -22t-42 -8q-15 0 -28.5 5t-23.5 16z" />
    <glyph glyph-name="iacute" unicode="&#xed;" horiz-adv-x="274" 
d="M105 478q17 4 35.5 6t43.5 2q31 0 51.5 -7t31.5 -19t15.5 -27t4.5 -31q0 -5 -0.5 -9.5t-1.5 -9.5l-45 -264l-4 -28t-2 -28t1 -27t5 -26q-17 -8 -42 -14.5t-57 -6.5q-57 0 -80 20.5t-22 62.5v11t1 11zM200 689q19 23 36.5 34t42.5 11q27 0 47.5 -13t42.5 -39l-134 -122
q-24 -21 -52 -21q-22 0 -40 9t-36 28z" />
    <glyph glyph-name="icircumflex" unicode="&#xee;" horiz-adv-x="274" 
d="M105 478q17 4 35.5 6t43.5 2q31 0 51.5 -7t31.5 -19t15.5 -27t4.5 -31q0 -5 -0.5 -9.5t-1.5 -9.5l-45 -264l-4 -28t-2 -28t1 -27t5 -26q-17 -8 -42 -14.5t-57 -6.5q-57 0 -80 20.5t-22 62.5v11t1 11zM127 683q21 26 42.5 39.5t53.5 13.5q34 0 55.5 -12t34.5 -39l58 -124
q-15 -10 -30 -14.5t-29 -4.5q-20 0 -34 7t-27 27l-36 57l-58 -61q-14 -15 -34.5 -22.5t-41.5 -7.5q-17 0 -31.5 5.5t-22.5 13.5z" />
    <glyph glyph-name="idieresis" unicode="&#xef;" horiz-adv-x="274" 
d="M105 478q17 4 35.5 6t43.5 2q31 0 51.5 -7t31.5 -19t15.5 -27t4.5 -31q0 -5 -0.5 -9.5t-1.5 -9.5l-45 -264l-4 -28t-2 -28t1 -27t5 -26q-17 -8 -42 -14.5t-57 -6.5q-57 0 -80 20.5t-22 62.5v11t1 11zM21 619q0 46 27.5 68t65.5 22q36 0 55.5 -21.5t19.5 -46.5
q0 -46 -28 -68t-66 -22q-37 0 -55.5 21.5t-18.5 46.5zM244 619q0 46 28 68t66 22q36 0 55 -21.5t19 -46.5q0 -46 -27.5 -68t-65.5 -22q-37 0 -56 21.5t-19 46.5z" />
    <glyph glyph-name="eth" unicode="&#xf0;" horiz-adv-x="542" 
d="M180 513l60 56q-52 20 -110 19q-1 5 -1 9v9q0 58 30 84.5t78 26.5q44 0 92 -19l33 -15l70 65l42 -46l-58 -54q64 -51 101 -127t37 -164q0 -195 -77 -285t-219 -90q-41 0 -78.5 12t-66.5 37.5t-46 64.5t-17 92q0 69 19 118t50 80t70 45t79 14q24 0 53 -8t51 -22l5 4
q-8 33 -28.5 63.5t-51.5 53.5l-75 -69zM359 312q-10 7 -20.5 9.5t-23.5 2.5t-26 -6t-24 -21t-18.5 -40t-8.5 -63q-2 -39 11 -54.5t30 -15.5q26 0 40.5 15.5t22.5 41.5t11 60t6 71z" />
    <glyph glyph-name="ntilde" unicode="&#xf1;" horiz-adv-x="538" 
d="M105 478q17 4 34.5 6t42.5 2q45 0 70 -13.5t30 -36.5q18 21 51.5 40.5t87.5 19.5q32 0 55 -10.5t37.5 -29t21.5 -42.5t7 -51q0 -22 -3 -42t-7 -41l-27 -161l-4 -28t-2 -28t1 -27t5 -26q-17 -8 -42 -14.5t-57 -6.5q-57 0 -80 20.5t-22 62.5q0 5 1 16.5t4 27.5l30 178
q1 5 1.5 11t0.5 11q0 13 -6 19.5t-21 6.5q-20 0 -31 -13t-14 -33l-50 -296h-195zM196 552q-26 15 -34.5 32.5t-8.5 36.5q0 15 9 29t24.5 25t36.5 18t44 7q22 0 39.5 -6t32 -13t27 -13t26.5 -6q16 0 35.5 6.5t40.5 35.5q26 -15 34.5 -32.5t8.5 -36.5q0 -18 -9 -32.5
t-24.5 -25t-36.5 -16t-44 -5.5q-20 0 -37 6t-32 13t-29 13t-27 6q-16 0 -35.5 -6.5t-40.5 -35.5z" />
    <glyph glyph-name="ograve" unicode="&#xf2;" horiz-adv-x="542" 
d="M280 128q22 0 36 18.5t22.5 44t12 51.5t3.5 42q0 29 -8.5 48.5t-34.5 19.5q-21 0 -35.5 -17.5t-23.5 -42.5t-12.5 -53t-3.5 -49q0 -28 9.5 -45t34.5 -17zM46 193q0 61 19.5 116.5t56.5 96.5t90.5 65.5t121.5 24.5q54 0 94 -16.5t66 -44.5t39 -65.5t13 -80.5
q0 -60 -17.5 -115t-52.5 -97t-88 -67t-125 -25q-58 0 -99 16.5t-67.5 44.5t-38.5 66t-12 81zM189 686q21 21 46.5 35t50.5 14q19 0 36 -9.5t31 -32.5l73 -124q-14 -14 -35 -22t-42 -8q-15 0 -28.5 5t-23.5 16z" />
    <glyph glyph-name="oacute" unicode="&#xf3;" horiz-adv-x="542" 
d="M280 128q22 0 36 18.5t22.5 44t12 51.5t3.5 42q0 29 -8.5 48.5t-34.5 19.5q-21 0 -35.5 -17.5t-23.5 -42.5t-12.5 -53t-3.5 -49q0 -28 9.5 -45t34.5 -17zM46 193q0 61 19.5 116.5t56.5 96.5t90.5 65.5t121.5 24.5q54 0 94 -16.5t66 -44.5t39 -65.5t13 -80.5
q0 -60 -17.5 -115t-52.5 -97t-88 -67t-125 -25q-58 0 -99 16.5t-67.5 44.5t-38.5 66t-12 81zM316 689q19 23 36.5 34t42.5 11q27 0 47.5 -13t42.5 -39l-134 -122q-24 -21 -52 -21q-22 0 -40 9t-36 28z" />
    <glyph glyph-name="ocircumflex" unicode="&#xf4;" horiz-adv-x="542" 
d="M280 128q22 0 36 18.5t22.5 44t12 51.5t3.5 42q0 29 -8.5 48.5t-34.5 19.5q-21 0 -35.5 -17.5t-23.5 -42.5t-12.5 -53t-3.5 -49q0 -28 9.5 -45t34.5 -17zM46 193q0 61 19.5 116.5t56.5 96.5t90.5 65.5t121.5 24.5q54 0 94 -16.5t66 -44.5t39 -65.5t13 -80.5
q0 -60 -17.5 -115t-52.5 -97t-88 -67t-125 -25q-58 0 -99 16.5t-67.5 44.5t-38.5 66t-12 81zM257 683q21 26 42.5 39.5t53.5 13.5q34 0 55.5 -12t34.5 -39l58 -124q-15 -10 -30 -14.5t-29 -4.5q-20 0 -34 7t-27 27l-36 57l-58 -61q-14 -15 -34.5 -22.5t-41.5 -7.5
q-17 0 -31.5 5.5t-22.5 13.5z" />
    <glyph glyph-name="otilde" unicode="&#xf5;" horiz-adv-x="542" 
d="M280 128q22 0 36 18.5t22.5 44t12 51.5t3.5 42q0 29 -8.5 48.5t-34.5 19.5q-21 0 -35.5 -17.5t-23.5 -42.5t-12.5 -53t-3.5 -49q0 -28 9.5 -45t34.5 -17zM46 193q0 61 19.5 116.5t56.5 96.5t90.5 65.5t121.5 24.5q54 0 94 -16.5t66 -44.5t39 -65.5t13 -80.5
q0 -60 -17.5 -115t-52.5 -97t-88 -67t-125 -25q-58 0 -99 16.5t-67.5 44.5t-38.5 66t-12 81zM200 552q-26 15 -34.5 32.5t-8.5 36.5q0 15 9 29t24.5 25t36.5 18t44 7q22 0 39.5 -6t32 -13t27 -13t26.5 -6q16 0 35.5 6.5t40.5 35.5q26 -15 34.5 -32.5t8.5 -36.5
q0 -18 -9 -32.5t-24.5 -25t-36.5 -16t-44 -5.5q-20 0 -37 6t-32 13t-29 13t-27 6q-16 0 -35.5 -6.5t-40.5 -35.5z" />
    <glyph glyph-name="odieresis" unicode="&#xf6;" horiz-adv-x="542" 
d="M280 128q22 0 36 18.5t22.5 44t12 51.5t3.5 42q0 29 -8.5 48.5t-34.5 19.5q-21 0 -35.5 -17.5t-23.5 -42.5t-12.5 -53t-3.5 -49q0 -28 9.5 -45t34.5 -17zM46 193q0 61 19.5 116.5t56.5 96.5t90.5 65.5t121.5 24.5q54 0 94 -16.5t66 -44.5t39 -65.5t13 -80.5
q0 -60 -17.5 -115t-52.5 -97t-88 -67t-125 -25q-58 0 -99 16.5t-67.5 44.5t-38.5 66t-12 81zM165 619q0 46 27.5 68t65.5 22q36 0 55.5 -21.5t19.5 -46.5q0 -46 -28 -68t-66 -22q-37 0 -55.5 21.5t-18.5 46.5zM388 619q0 46 28 68t66 22q36 0 55 -21.5t19 -46.5
q0 -46 -27.5 -68t-65.5 -22q-37 0 -56 21.5t-19 46.5z" />
    <glyph glyph-name="divide" unicode="&#xf7;" horiz-adv-x="590" 
d="M203 112q0 25 8 43t21.5 30t31 17.5t36.5 5.5t34 -6.5t25 -16.5t15 -23t5 -25q0 -50 -29 -73t-68 -23q-19 0 -34 6.5t-25 16.5t-15 23t-5 25zM273 527q0 25 8 43t21.5 30t31 17.5t36.5 5.5t34 -6.5t25 -16.5t15 -23t5 -25q0 -50 -29 -73t-68 -23q-19 0 -34 6.5t-25 16.5
t-15 23t-5 25zM103 412h476l-27 -160h-476z" />
    <glyph glyph-name="oslash" unicode="&#xf8;" horiz-adv-x="542" 
d="M119 25q-38 29 -55.5 72.5t-17.5 95.5q0 61 19.5 116.5t56.5 96.5t90.5 65.5t121.5 24.5q23 0 44 -3.5t39 -9.5l53 82l52 -32l-51 -78q38 -29 56.5 -72t18.5 -94q0 -60 -17.5 -115t-52.5 -97t-88 -67t-125 -25q-26 0 -47.5 3.5t-41.5 9.5l-63 -98l-52 32zM334 345
q-11 7 -23 7q-21 0 -35 -16.5t-23 -41t-13 -52t-4 -48.5zM257 133q10 -5 23 -5q21 0 35.5 18t23 43t12 51.5t3.5 42.5z" />
    <glyph glyph-name="ugrave" unicode="&#xf9;" horiz-adv-x="534" 
d="M102 483q16 5 36 9t43 4q57 0 80.5 -20.5t22.5 -62.5q0 -5 -0.5 -11t-1.5 -11l-36 -212q-1 -5 -1.5 -11t-0.5 -11q0 -12 5.5 -19t21.5 -7q23 0 32.5 14.5t12.5 31.5l51 306q16 5 36 9t43 4q57 0 80.5 -20.5t22.5 -62.5q0 -5 -0.5 -11t-1.5 -11l-46 -269
q-2 -15 -3.5 -30.5t-1.5 -30.5q0 -36 6 -58q-17 -5 -38.5 -9t-46.5 -4q-42 0 -64.5 10t-36.5 44q-10 -11 -21 -21.5t-26.5 -18.5t-37.5 -13t-54 -5q-66 0 -99 35.5t-33 92.5q0 22 3 46t7 45zM178 686q21 21 46.5 35t50.5 14q19 0 36 -9.5t31 -32.5l73 -124q-14 -14 -35 -22
t-42 -8q-15 0 -28.5 5t-23.5 16z" />
    <glyph glyph-name="uacute" unicode="&#xfa;" horiz-adv-x="534" 
d="M102 483q16 5 36 9t43 4q57 0 80.5 -20.5t22.5 -62.5q0 -5 -0.5 -11t-1.5 -11l-36 -212q-1 -5 -1.5 -11t-0.5 -11q0 -12 5.5 -19t21.5 -7q23 0 32.5 14.5t12.5 31.5l51 306q16 5 36 9t43 4q57 0 80.5 -20.5t22.5 -62.5q0 -5 -0.5 -11t-1.5 -11l-46 -269
q-2 -15 -3.5 -30.5t-1.5 -30.5q0 -36 6 -58q-17 -5 -38.5 -9t-46.5 -4q-42 0 -64.5 10t-36.5 44q-10 -11 -21 -21.5t-26.5 -18.5t-37.5 -13t-54 -5q-66 0 -99 35.5t-33 92.5q0 22 3 46t7 45zM341 689q19 23 36.5 34t42.5 11q27 0 47.5 -13t42.5 -39l-134 -122
q-24 -21 -52 -21q-22 0 -40 9t-36 28z" />
    <glyph glyph-name="ucircumflex" unicode="&#xfb;" horiz-adv-x="534" 
d="M102 483q16 5 36 9t43 4q57 0 80.5 -20.5t22.5 -62.5q0 -5 -0.5 -11t-1.5 -11l-36 -212q-1 -5 -1.5 -11t-0.5 -11q0 -12 5.5 -19t21.5 -7q23 0 32.5 14.5t12.5 31.5l51 306q16 5 36 9t43 4q57 0 80.5 -20.5t22.5 -62.5q0 -5 -0.5 -11t-1.5 -11l-46 -269
q-2 -15 -3.5 -30.5t-1.5 -30.5q0 -36 6 -58q-17 -5 -38.5 -9t-46.5 -4q-42 0 -64.5 10t-36.5 44q-10 -11 -21 -21.5t-26.5 -18.5t-37.5 -13t-54 -5q-66 0 -99 35.5t-33 92.5q0 22 3 46t7 45zM258 683q21 26 42.5 39.5t53.5 13.5q34 0 55.5 -12t34.5 -39l58 -124
q-15 -10 -30 -14.5t-29 -4.5q-20 0 -34 7t-27 27l-36 57l-58 -61q-14 -15 -34.5 -22.5t-41.5 -7.5q-17 0 -31.5 5.5t-22.5 13.5z" />
    <glyph glyph-name="udieresis" unicode="&#xfc;" horiz-adv-x="534" 
d="M102 483q16 5 36 9t43 4q57 0 80.5 -20.5t22.5 -62.5q0 -5 -0.5 -11t-1.5 -11l-36 -212q-1 -5 -1.5 -11t-0.5 -11q0 -12 5.5 -19t21.5 -7q23 0 32.5 14.5t12.5 31.5l51 306q16 5 36 9t43 4q57 0 80.5 -20.5t22.5 -62.5q0 -5 -0.5 -11t-1.5 -11l-46 -269
q-2 -15 -3.5 -30.5t-1.5 -30.5q0 -36 6 -58q-17 -5 -38.5 -9t-46.5 -4q-42 0 -64.5 10t-36.5 44q-10 -11 -21 -21.5t-26.5 -18.5t-37.5 -13t-54 -5q-66 0 -99 35.5t-33 92.5q0 22 3 46t7 45zM142 619q0 46 27.5 68t65.5 22q36 0 55.5 -21.5t19.5 -46.5q0 -46 -28 -68
t-66 -22q-37 0 -55.5 21.5t-18.5 46.5zM365 619q0 46 28 68t66 22q36 0 55 -21.5t19 -46.5q0 -46 -27.5 -68t-65.5 -22q-37 0 -56 21.5t-19 46.5z" />
    <glyph glyph-name="yacute" unicode="&#xfd;" horiz-adv-x="517" 
d="M181 -6h-40l-81 472q24 10 51.5 15t51.5 5q45 0 67.5 -29t24.5 -79l10 -209h4l76 218q14 41 44.5 70t80.5 29q28 0 55 -6t47 -14l-252 -525q-17 -34 -35.5 -64.5t-42.5 -53.5t-56 -36.5t-76 -13.5q-33 0 -60.5 6t-41.5 15q-22 14 -30.5 31.5t-8.5 34.5q0 10 2.5 22.5
t10 25.5t20.5 25t33 22q18 -25 32.5 -32.5t27.5 -7.5q25 0 41.5 9.5t31.5 40.5zM315 689q19 23 36.5 34t42.5 11q27 0 47.5 -13t42.5 -39l-134 -122q-24 -21 -52 -21q-22 0 -40 9t-36 28z" />
    <glyph glyph-name="thorn" unicode="&#xfe;" horiz-adv-x="547" 
d="M142 701q17 4 34.5 6t42.5 2q31 0 51.5 -7t31.5 -19t15.5 -27t4.5 -31q0 -5 -0.5 -9.5t-1.5 -9.5l-26 -156q19 19 45.5 32.5t68.5 13.5q32 0 59 -13.5t46.5 -38t30.5 -59t11 -77.5q0 -59 -13.5 -116.5t-41 -103t-70.5 -73.5t-103 -28q-38 0 -62.5 11.5t-41.5 30.5
l-42 -247h-194zM242 144q13 -7 30 -7q25 0 41.5 17.5t26 42t13.5 51t4 43.5q0 63 -39 63q-23 0 -34 -15t-14 -32z" />
    <glyph glyph-name="ydieresis" unicode="&#xff;" horiz-adv-x="517" 
d="M181 -6h-40l-81 472q24 10 51.5 15t51.5 5q45 0 67.5 -29t24.5 -79l10 -209h4l76 218q14 41 44.5 70t80.5 29q28 0 55 -6t47 -14l-252 -525q-17 -34 -35.5 -64.5t-42.5 -53.5t-56 -36.5t-76 -13.5q-33 0 -60.5 6t-41.5 15q-22 14 -30.5 31.5t-8.5 34.5q0 10 2.5 22.5
t10 25.5t20.5 25t33 22q18 -25 32.5 -32.5t27.5 -7.5q25 0 41.5 9.5t31.5 40.5zM131 619q0 46 27.5 68t65.5 22q36 0 55.5 -21.5t19.5 -46.5q0 -46 -28 -68t-66 -22q-37 0 -55.5 21.5t-18.5 46.5zM354 619q0 46 28 68t66 22q36 0 55 -21.5t19 -46.5q0 -46 -27.5 -68
t-65.5 -22q-37 0 -56 21.5t-19 46.5z" />
    <glyph glyph-name="Amacron" unicode="&#x100;" horiz-adv-x="660" 
d="M309 655q27 10 59 15.5t61 5.5q54 0 86.5 -24t40.5 -74l87 -578h-191l-22 153h-171l-66 -153h-199zM413 281l-10 131q-1 14 -2.5 33.5t-1.5 37.5q0 8 0.5 15.5t1.5 13.5h-3q-3 -11 -7.5 -24t-9.5 -27t-9.5 -26.5t-8.5 -21.5l-54 -132h104zM518 854q41 0 56 -17t15 -43
q0 -15 -3.5 -29.5t-8.5 -28.5h-252q-41 0 -56 17.5t-15 43.5q0 14 3.5 28.5t8.5 28.5h252z" />
    <glyph glyph-name="amacron" unicode="&#x101;" horiz-adv-x="539" 
d="M506 122q-2 -15 -3.5 -30.5t-1.5 -30.5q0 -36 6 -58q-17 -5 -38.5 -9t-46.5 -4q-42 0 -64.5 10t-36.5 44q-29 -33 -58.5 -45.5t-73.5 -12.5q-30 0 -56 12t-45.5 35t-30.5 58t-11 81q0 64 20 122.5t59 103t96 71t131 26.5q52 0 101 -10.5t106 -45.5zM351 335q-11 7 -27 7
q-22 0 -38.5 -15.5t-27 -38t-16 -49.5t-5.5 -49q0 -31 11 -45t30 -14q23 0 33 14.5t13 31.5zM449 681q41 0 56 -18t15 -44q0 -15 -3.5 -30.5t-8.5 -29.5h-252q-41 0 -56 18.5t-15 44.5q0 14 3.5 29.5t8.5 29.5h252z" />
    <glyph glyph-name="Abreve" unicode="&#x102;" horiz-adv-x="660" 
d="M309 655q27 10 59 15.5t61 5.5q54 0 86.5 -24t40.5 -74l87 -578h-191l-22 153h-171l-66 -153h-199zM413 281l-10 131q-1 14 -2.5 33.5t-1.5 37.5q0 8 0.5 15.5t1.5 13.5h-3q-3 -11 -7.5 -24t-9.5 -27t-9.5 -26.5t-8.5 -21.5l-54 -132h104zM284 877q11 6 26.5 10t26.5 4
q16 0 25 -2.5t14.5 -7.5t8.5 -13t6 -19q5 -21 15 -32t30 -11q19 0 34 8.5t29 37.5q12 27 27 33t41 6q11 0 25 -4t27 -15q-26 -81 -72 -120t-118 -39q-71 0 -108 39.5t-37 124.5z" />
    <glyph glyph-name="abreve" unicode="&#x103;" horiz-adv-x="539" 
d="M506 122q-2 -15 -3.5 -30.5t-1.5 -30.5q0 -36 6 -58q-17 -5 -38.5 -9t-46.5 -4q-42 0 -64.5 10t-36.5 44q-29 -33 -58.5 -45.5t-73.5 -12.5q-30 0 -56 12t-45.5 35t-30.5 58t-11 81q0 64 20 122.5t59 103t96 71t131 26.5q52 0 101 -10.5t106 -45.5zM351 335q-11 7 -27 7
q-22 0 -38.5 -15.5t-27 -38t-16 -49.5t-5.5 -49q0 -31 11 -45t30 -14q23 0 33 14.5t13 31.5zM210 708q11 6 26.5 10t26.5 4q16 0 25 -2.5t14.5 -7.5t8.5 -13t6 -19q5 -21 15 -32t30 -11q19 0 34 8.5t29 37.5q12 27 27 33t41 6q11 0 25 -4t27 -15q-26 -81 -72 -120t-118 -39
q-71 0 -108 39.5t-37 124.5z" />
    <glyph glyph-name="Aogonek" unicode="&#x104;" horiz-adv-x="660" 
d="M309 655q27 10 59 15.5t61 5.5q54 0 86.5 -24t40.5 -74l87 -578q-49 -29 -75.5 -55t-26.5 -53q0 -14 7 -19.5t15 -5.5q11 0 21 4.5t23 15.5q25 -24 25 -49q0 -30 -27.5 -50t-81.5 -20q-51 0 -78 26.5t-27 65.5q0 38 24.5 74.5t69.5 65.5h-60l-22 153h-171l-66 -153h-199z
M413 281l-10 131q-1 14 -2.5 33.5t-1.5 37.5q0 8 0.5 15.5t1.5 13.5h-3q-3 -11 -7.5 -24t-9.5 -27t-9.5 -26.5t-8.5 -21.5l-54 -132h104z" />
    <glyph glyph-name="aogonek" unicode="&#x105;" horiz-adv-x="539" 
d="M506 122q-2 -15 -3.5 -30.5t-1.5 -30.5q0 -36 6 -58q-49 -29 -75.5 -56.5t-26.5 -54.5q0 -14 7 -19.5t15 -5.5q11 0 21 4.5t23 15.5q25 -24 25 -49q0 -30 -27.5 -50t-81.5 -20q-51 0 -76.5 25.5t-25.5 64.5q0 42 26.5 75.5t68.5 59.5q-22 5 -36 16t-23 35
q-29 -33 -58.5 -45.5t-73.5 -12.5q-30 0 -56 12t-45.5 35t-30.5 58t-11 81q0 64 20 122.5t59 103t96 71t131 26.5q52 0 101 -10.5t106 -45.5zM351 335q-11 7 -27 7q-22 0 -38.5 -15.5t-27 -38t-16 -49.5t-5.5 -49q0 -31 11 -45t30 -14q23 0 33 14.5t13 31.5z" />
    <glyph glyph-name="Cacute" unicode="&#x106;" horiz-adv-x="620" 
d="M548 449q-32 79 -117 79q-41 0 -71 -22t-49.5 -57.5t-29.5 -78.5t-10 -85q-1 -78 28 -111t78 -33q44 0 80 24t66 69q44 -21 64 -43.5t20 -52.5q0 -51 -50 -92q-45 -37 -101 -50.5t-110 -13.5q-77 0 -129.5 24t-85 63t-47 89.5t-14.5 103.5q0 44 8.5 93t26.5 95.5t46.5 89
t69.5 74.5t94.5 51t121.5 19q60 0 106.5 -16.5t74.5 -48.5q27 -29 27 -68q0 -41 -27 -64t-70 -38zM420 846q17 15 36 23t42 8q32 0 52.5 -19.5t34.5 -45.5l-144 -83q-14 -8 -26.5 -11t-24.5 -3q-23 0 -40 13t-31 34z" />
    <glyph glyph-name="cacute" unicode="&#x107;" horiz-adv-x="467" 
d="M378 192q40 -8 63.5 -29t23.5 -56q0 -36 -32 -66q-16 -15 -36 -26t-42 -17.5t-44 -9.5t-41 -3q-58 0 -100 16.5t-69.5 45t-41 66.5t-13.5 80q0 61 19 116.5t55 96.5t89 65.5t121 24.5q35 0 73 -12t62 -35q15 -15 23.5 -33.5t8.5 -38.5q0 -38 -29.5 -59.5t-72.5 -26.5
q-9 32 -25 48t-43 16q-19 0 -35.5 -11.5t-28.5 -32.5t-19 -49.5t-7 -62.5q0 -30 13 -50.5t42 -20.5q32 0 53 19.5t33 44.5zM342 689q19 23 36.5 34t42.5 11q27 0 47.5 -13t42.5 -39l-134 -122q-24 -21 -52 -21q-22 0 -40 9t-36 28z" />
    <glyph glyph-name="Ccircumflex" unicode="&#x108;" horiz-adv-x="620" 
d="M548 449q-32 79 -117 79q-41 0 -71 -22t-49.5 -57.5t-29.5 -78.5t-10 -85q-1 -78 28 -111t78 -33q44 0 80 24t66 69q44 -21 64 -43.5t20 -52.5q0 -51 -50 -92q-45 -37 -101 -50.5t-110 -13.5q-77 0 -129.5 24t-85 63t-47 89.5t-14.5 103.5q0 44 8.5 93t26.5 95.5t46.5 89
t69.5 74.5t94.5 51t121.5 19q60 0 106.5 -16.5t74.5 -48.5q27 -29 27 -68q0 -41 -27 -64t-70 -38zM360 841q20 23 43.5 32t49.5 9t46 -8t32 -30l63 -110q-13 -11 -28 -15.5t-31 -4.5q-14 0 -26.5 4t-23.5 16l-43 46l-55 -47q-14 -11 -28.5 -15t-31.5 -4q-37 0 -57 20z" />
    <glyph glyph-name="ccircumflex" unicode="&#x109;" horiz-adv-x="467" 
d="M378 192q40 -8 63.5 -29t23.5 -56q0 -36 -32 -66q-16 -15 -36 -26t-42 -17.5t-44 -9.5t-41 -3q-58 0 -100 16.5t-69.5 45t-41 66.5t-13.5 80q0 61 19 116.5t55 96.5t89 65.5t121 24.5q35 0 73 -12t62 -35q15 -15 23.5 -33.5t8.5 -38.5q0 -38 -29.5 -59.5t-72.5 -26.5
q-9 32 -25 48t-43 16q-19 0 -35.5 -11.5t-28.5 -32.5t-19 -49.5t-7 -62.5q0 -30 13 -50.5t42 -20.5q32 0 53 19.5t33 44.5zM261 683q21 26 42.5 39.5t53.5 13.5q34 0 55.5 -12t34.5 -39l58 -124q-15 -10 -30 -14.5t-29 -4.5q-20 0 -34 7t-27 27l-36 57l-58 -61
q-14 -15 -34.5 -22.5t-41.5 -7.5q-17 0 -31.5 5.5t-22.5 13.5z" />
    <glyph glyph-name="Cdotaccent" unicode="&#x10a;" horiz-adv-x="620" 
d="M548 449q-32 79 -117 79q-41 0 -71 -22t-49.5 -57.5t-29.5 -78.5t-10 -85q-1 -78 28 -111t78 -33q44 0 80 24t66 69q44 -21 64 -43.5t20 -52.5q0 -51 -50 -92q-45 -37 -101 -50.5t-110 -13.5q-77 0 -129.5 24t-85 63t-47 89.5t-14.5 103.5q0 44 8.5 93t26.5 95.5t46.5 89
t69.5 74.5t94.5 51t121.5 19q60 0 106.5 -16.5t74.5 -48.5q27 -29 27 -68q0 -41 -27 -64t-70 -38zM351 798q0 48 29 71t69 23q38 0 58.5 -23t20.5 -49q0 -48 -29 -71t-69 -23q-39 0 -59 23t-20 49z" />
    <glyph glyph-name="cdotaccent" unicode="&#x10b;" horiz-adv-x="467" 
d="M378 192q40 -8 63.5 -29t23.5 -56q0 -36 -32 -66q-16 -15 -36 -26t-42 -17.5t-44 -9.5t-41 -3q-58 0 -100 16.5t-69.5 45t-41 66.5t-13.5 80q0 61 19 116.5t55 96.5t89 65.5t121 24.5q35 0 73 -12t62 -35q15 -15 23.5 -33.5t8.5 -38.5q0 -38 -29.5 -59.5t-72.5 -26.5
q-9 32 -25 48t-43 16q-19 0 -35.5 -11.5t-28.5 -32.5t-19 -49.5t-7 -62.5q0 -30 13 -50.5t42 -20.5q32 0 53 19.5t33 44.5zM243 620q0 48 29 71t69 23q38 0 58.5 -23t20.5 -49q0 -48 -29 -71t-69 -23q-39 0 -59 23t-20 49z" />
    <glyph glyph-name="Ccaron" unicode="&#x10c;" horiz-adv-x="620" 
d="M548 449q-32 79 -117 79q-41 0 -71 -22t-49.5 -57.5t-29.5 -78.5t-10 -85q-1 -78 28 -111t78 -33q44 0 80 24t66 69q44 -21 64 -43.5t20 -52.5q0 -51 -50 -92q-45 -37 -101 -50.5t-110 -13.5q-77 0 -129.5 24t-85 63t-47 89.5t-14.5 103.5q0 44 8.5 93t26.5 95.5t46.5 89
t69.5 74.5t94.5 51t121.5 19q60 0 106.5 -16.5t74.5 -48.5q27 -29 27 -68q0 -41 -27 -64t-70 -38zM288 862q13 11 28 15.5t31 4.5q14 0 26 -4t23 -16l44 -48l56 49q14 11 28 15t31 4q37 0 57 -20l-90 -107q-20 -23 -43.5 -32t-49.5 -9t-46 8t-32 30z" />
    <glyph glyph-name="ccaron" unicode="&#x10d;" horiz-adv-x="467" 
d="M378 192q40 -8 63.5 -29t23.5 -56q0 -36 -32 -66q-16 -15 -36 -26t-42 -17.5t-44 -9.5t-41 -3q-58 0 -100 16.5t-69.5 45t-41 66.5t-13.5 80q0 61 19 116.5t55 96.5t89 65.5t121 24.5q35 0 73 -12t62 -35q15 -15 23.5 -33.5t8.5 -38.5q0 -38 -29.5 -59.5t-72.5 -26.5
q-9 32 -25 48t-43 16q-19 0 -35.5 -11.5t-28.5 -32.5t-19 -49.5t-7 -62.5q0 -30 13 -50.5t42 -20.5q32 0 53 19.5t33 44.5zM186 717q15 10 30 14.5t29 4.5q20 0 33.5 -7t26.5 -27l37 -59l59 63q14 15 34 22.5t41 7.5q17 0 31.5 -5.5t22.5 -13.5l-100 -122
q-21 -26 -42.5 -39.5t-53.5 -13.5q-34 0 -55.5 12t-34.5 39z" />
    <glyph glyph-name="Dcaron" unicode="&#x10e;" horiz-adv-x="637" 
d="M148 662q78 10 126.5 12t80.5 2q84 0 141 -23t91.5 -60.5t49 -85.5t14.5 -99q0 -94 -24 -169.5t-72 -128.5t-119 -81.5t-165 -28.5h-234zM293 151q43 0 73 23.5t49 60t27.5 82.5t8.5 91q0 54 -24.5 86t-73.5 32h-13.5t-18.5 -2l-64 -373h36zM223 862q13 11 28 15.5
t31 4.5q14 0 26 -4t23 -16l44 -48l56 49q14 11 28 15t31 4q37 0 57 -20l-90 -107q-20 -23 -43.5 -32t-49.5 -9t-46 8t-32 30z" />
    <glyph glyph-name="dcaron" unicode="&#x10f;" horiz-adv-x="670" 
d="M356 339q-13 7 -29 7q-24 0 -40.5 -15t-26.5 -38t-14.5 -50t-4.5 -51q0 -63 39 -63q23 0 34 15t14 32zM417 701q17 4 34.5 6t42.5 2q31 0 51 -7t31 -19t15 -27t4 -31q0 -7 -2 -19l-81 -484q-2 -15 -3.5 -30.5t-1.5 -30.5q0 -36 6 -58q-17 -5 -39.5 -9t-47.5 -4
q-42 0 -64 10t-36 44q-29 -33 -58.5 -45.5t-73.5 -12.5q-30 0 -56.5 12.5t-47 35.5t-32.5 55.5t-12 71.5q0 70 18 131t52 106t81 71t106 26q44 0 77 -15zM639 621q15 88 106 88q15 0 25 -1.5t20 -3.5l-53 -184q-11 -38 -38 -50.5t-63 -12.5q-6 0 -12 0.5t-11 1.5z" />
    <glyph glyph-name="Dcroat" unicode="&#x110;" horiz-adv-x="637" 
d="M88 307h-67l13 80h68l46 275q78 10 126.5 12t80.5 2q84 0 141 -23t91.5 -60.5t49 -85.5t14.5 -99q0 -94 -24 -169.5t-72 -128.5t-119 -81.5t-165 -28.5h-234zM293 151q43 0 73 23.5t49 60t27.5 82.5t8.5 91q0 54 -24.5 86t-73.5 32h-13.5t-18.5 -2l-24 -137h87l-13 -80
h-87l-27 -156h36z" />
    <glyph glyph-name="dcroat" unicode="&#x111;" horiz-adv-x="537" 
d="M232 602h161l17 99q17 4 34.5 6t42.5 2q31 0 51 -7t31 -19t15 -27t4 -31q0 -5 -0.5 -9.5t-1.5 -9.5l-1 -4h76l-13 -79h-76l-67 -401q-2 -15 -3.5 -30.5t-1.5 -30.5q0 -36 6 -58q-17 -5 -39.5 -9t-47.5 -4q-42 0 -64 10t-36 44q-29 -33 -58.5 -45.5t-73.5 -12.5
q-30 0 -56.5 12.5t-47 35.5t-32.5 55.5t-12 71.5q0 70 17.5 126.5t50 96t79 61t105.5 21.5q44 0 77 -15l12 72h-161zM344 311q-13 7 -29 7q-24 0 -39.5 -13.5t-25 -33t-13 -41.5t-3.5 -38q0 -63 39 -63q23 0 34 15t14 32z" />
    <glyph glyph-name="Emacron" unicode="&#x112;" horiz-adv-x="523" 
d="M150 671h442q1 -30 -2.5 -58t-15.5 -49t-35.5 -34t-62.5 -13h-157l-18 -101h188l-25 -153h-188l-19 -111h155q27 0 45.5 -6.5t29 -17.5t15 -26t4.5 -32t-3.5 -35t-8.5 -35h-457zM474 854q41 0 56 -17t15 -43q0 -15 -3.5 -29.5t-8.5 -28.5h-252q-41 0 -56 17.5t-15 43.5
q0 14 3.5 28.5t8.5 28.5h252z" />
    <glyph glyph-name="emacron" unicode="&#x113;" horiz-adv-x="484" 
d="M223 192q2 -33 19 -51t44 -18q34 0 57.5 14.5t42.5 45.5q36 -11 57.5 -29t21.5 -51q0 -24 -10.5 -41.5t-25.5 -29.5q-28 -23 -74 -35t-89 -12q-55 0 -96 16t-68 43.5t-40.5 65t-13.5 81.5q0 62 17.5 117.5t53.5 97t90 66t128 24.5q49 0 81 -13t51 -33t27 -43t8 -44
q0 -52 -22.5 -85t-57 -52t-77 -26.5t-82.5 -7.5h-42zM233 285q7 -1 11.5 -1h9.5q15 0 31 3.5t28.5 10t20.5 17.5t8 26q0 11 -7 19.5t-24 8.5q-29 0 -49.5 -21t-28.5 -63zM421 681q41 0 56 -18t15 -44q0 -15 -3.5 -30.5t-8.5 -29.5h-252q-41 0 -56 18.5t-15 44.5
q0 14 3.5 29.5t8.5 29.5h252z" />
    <glyph glyph-name="Ebreve" unicode="&#x114;" horiz-adv-x="523" 
d="M150 671h442q1 -30 -2.5 -58t-15.5 -49t-35.5 -34t-62.5 -13h-157l-18 -101h188l-25 -153h-188l-19 -111h155q27 0 45.5 -6.5t29 -17.5t15 -26t4.5 -32t-3.5 -35t-8.5 -35h-457zM233 877q11 6 26.5 10t26.5 4q16 0 25 -2.5t14.5 -7.5t8.5 -13t6 -19q5 -21 15 -32t30 -11
q19 0 34 8.5t29 37.5q12 27 27 33t41 6q11 0 25 -4t27 -15q-26 -81 -72 -120t-118 -39q-71 0 -108 39.5t-37 124.5z" />
    <glyph glyph-name="ebreve" unicode="&#x115;" horiz-adv-x="484" 
d="M223 192q2 -33 19 -51t44 -18q34 0 57.5 14.5t42.5 45.5q36 -11 57.5 -29t21.5 -51q0 -24 -10.5 -41.5t-25.5 -29.5q-28 -23 -74 -35t-89 -12q-55 0 -96 16t-68 43.5t-40.5 65t-13.5 81.5q0 62 17.5 117.5t53.5 97t90 66t128 24.5q49 0 81 -13t51 -33t27 -43t8 -44
q0 -52 -22.5 -85t-57 -52t-77 -26.5t-82.5 -7.5h-42zM233 285q7 -1 11.5 -1h9.5q15 0 31 3.5t28.5 10t20.5 17.5t8 26q0 11 -7 19.5t-24 8.5q-29 0 -49.5 -21t-28.5 -63zM182 708q11 6 26.5 10t26.5 4q16 0 25 -2.5t14.5 -7.5t8.5 -13t6 -19q5 -21 15 -32t30 -11
q19 0 34 8.5t29 37.5q12 27 27 33t41 6q11 0 25 -4t27 -15q-26 -81 -72 -120t-118 -39q-71 0 -108 39.5t-37 124.5z" />
    <glyph glyph-name="Edotaccent" unicode="&#x116;" horiz-adv-x="523" 
d="M150 671h442q1 -30 -2.5 -58t-15.5 -49t-35.5 -34t-62.5 -13h-157l-18 -101h188l-25 -153h-188l-19 -111h155q27 0 45.5 -6.5t29 -17.5t15 -26t4.5 -32t-3.5 -35t-8.5 -35h-457zM292 798q0 48 29 71t69 23q38 0 58.5 -23t20.5 -49q0 -48 -29 -71t-69 -23q-39 0 -59 23
t-20 49z" />
    <glyph glyph-name="edotaccent" unicode="&#x117;" horiz-adv-x="484" 
d="M223 192q2 -33 19 -51t44 -18q34 0 57.5 14.5t42.5 45.5q36 -11 57.5 -29t21.5 -51q0 -24 -10.5 -41.5t-25.5 -29.5q-28 -23 -74 -35t-89 -12q-55 0 -96 16t-68 43.5t-40.5 65t-13.5 81.5q0 62 17.5 117.5t53.5 97t90 66t128 24.5q49 0 81 -13t51 -33t27 -43t8 -44
q0 -52 -22.5 -85t-57 -52t-77 -26.5t-82.5 -7.5h-42zM233 285q7 -1 11.5 -1h9.5q15 0 31 3.5t28.5 10t20.5 17.5t8 26q0 11 -7 19.5t-24 8.5q-29 0 -49.5 -21t-28.5 -63zM248 620q0 48 29 71t69 23q38 0 58.5 -23t20.5 -49q0 -48 -29 -71t-69 -23q-39 0 -59 23t-20 49z" />
    <glyph glyph-name="Eogonek" unicode="&#x118;" horiz-adv-x="523" 
d="M150 671h442q1 -30 -2.5 -58t-15.5 -49t-35.5 -34t-62.5 -13h-157l-18 -101h188l-25 -153h-188l-19 -111h155q27 0 45.5 -6.5t29 -17.5t15 -26t4.5 -32t-3.5 -35t-8.5 -35q-49 -29 -75.5 -55t-26.5 -53q0 -14 7 -19.5t15 -5.5q11 0 21 4.5t23 15.5q25 -24 25 -49
q0 -30 -27.5 -50t-81.5 -20q-51 0 -78 26.5t-27 65.5q0 38 24.5 74.5t69.5 65.5h-326z" />
    <glyph glyph-name="eogonek" unicode="&#x119;" horiz-adv-x="484" 
d="M223 192q2 -33 19 -51t44 -18q34 0 57.5 14.5t42.5 45.5q36 -11 57.5 -29t21.5 -51q0 -24 -10.5 -41.5t-25.5 -29.5q-22 -19 -57 -30q-48 -28 -74 -55.5t-26 -54.5q0 -14 7 -19.5t15 -5.5q11 0 21 4.5t23 15.5q25 -24 25 -49q0 -30 -27.5 -50t-81.5 -20q-51 0 -76.5 25.5
t-25.5 64.5q0 40 23.5 71.5t61.5 56.5q-48 4 -83.5 21.5t-59 44.5t-35 62.5t-11.5 76.5q0 62 17.5 117.5t53.5 97t90 66t128 24.5q49 0 81 -13t51 -33t27 -43t8 -44q0 -52 -22.5 -85t-57 -52t-77 -26.5t-82.5 -7.5h-42zM233 285q7 -1 11.5 -1h9.5q15 0 31 3.5t28.5 10
t20.5 17.5t8 26q0 11 -7 19.5t-24 8.5q-29 0 -49.5 -21t-28.5 -63z" />
    <glyph glyph-name="Ecaron" unicode="&#x11a;" horiz-adv-x="523" 
d="M150 671h442q1 -30 -2.5 -58t-15.5 -49t-35.5 -34t-62.5 -13h-157l-18 -101h188l-25 -153h-188l-19 -111h155q27 0 45.5 -6.5t29 -17.5t15 -26t4.5 -32t-3.5 -35t-8.5 -35h-457zM234 862q13 11 28 15.5t31 4.5q14 0 26 -4t23 -16l44 -48l56 49q14 11 28 15t31 4
q37 0 57 -20l-90 -107q-20 -23 -43.5 -32t-49.5 -9t-46 8t-32 30z" />
    <glyph glyph-name="ecaron" unicode="&#x11b;" horiz-adv-x="484" 
d="M223 192q2 -33 19 -51t44 -18q34 0 57.5 14.5t42.5 45.5q36 -11 57.5 -29t21.5 -51q0 -24 -10.5 -41.5t-25.5 -29.5q-28 -23 -74 -35t-89 -12q-55 0 -96 16t-68 43.5t-40.5 65t-13.5 81.5q0 62 17.5 117.5t53.5 97t90 66t128 24.5q49 0 81 -13t51 -33t27 -43t8 -44
q0 -52 -22.5 -85t-57 -52t-77 -26.5t-82.5 -7.5h-42zM233 285q7 -1 11.5 -1h9.5q15 0 31 3.5t28.5 10t20.5 17.5t8 26q0 11 -7 19.5t-24 8.5q-29 0 -49.5 -21t-28.5 -63zM177 717q15 10 30 14.5t29 4.5q20 0 33.5 -7t26.5 -27l37 -59l59 63q14 15 34 22.5t41 7.5
q17 0 31.5 -5.5t22.5 -13.5l-100 -122q-21 -26 -42.5 -39.5t-53.5 -13.5q-34 0 -55.5 12t-34.5 39z" />
    <glyph glyph-name="Gcircumflex" unicode="&#x11c;" horiz-adv-x="643" 
d="M468 361h73q31 0 51 -7t30.5 -19t14.5 -27t4 -31q0 -4 -0.5 -9t-1.5 -10l-29 -171q-38 -48 -105.5 -76.5t-158.5 -28.5q-77 0 -129.5 22.5t-85 61t-47 89.5t-14.5 107q0 44 9 93t27.5 95.5t48.5 89t71.5 74.5t95.5 51t122 19q60 0 107 -16.5t75 -48.5q27 -29 27 -68
q0 -41 -27 -64t-70 -38q-32 79 -118 79q-42 0 -73 -22.5t-52 -58.5t-31.5 -81.5t-10.5 -91.5q-1 -66 26.5 -100t75.5 -34q14 0 29.5 3.5t30.5 9.5zM366 841q20 23 43.5 32t49.5 9t46 -8t32 -30l63 -110q-13 -11 -28 -15.5t-31 -4.5q-14 0 -26.5 4t-23.5 16l-43 46l-55 -47
q-14 -11 -28.5 -15t-31.5 -4q-37 0 -57 20z" />
    <glyph glyph-name="gcircumflex" unicode="&#x11d;" horiz-adv-x="539" 
d="M352 339q-13 7 -28 7q-23 0 -39.5 -14t-27 -35t-15.5 -46.5t-5 -48.5q0 -32 11.5 -46.5t31.5 -14.5q23 0 33 15t13 32zM300 33q-23 -19 -47.5 -26.5t-59.5 -7.5q-31 0 -57.5 10.5t-46 33t-30.5 57.5t-11 85q0 60 19.5 116.5t58 99.5t95.5 69t132 26q53 0 103 -10.5
t107 -45.5l-65 -383q-10 -55 -26 -106.5t-47.5 -91t-82.5 -63t-130 -23.5q-15 0 -33 0.5t-37 3t-38.5 7.5t-36.5 14q-32 15 -50 36.5t-18 51.5q0 29 19 56.5t51 41.5q27 -36 56.5 -53t75.5 -17q37 0 60.5 21t33.5 70zM285 683q21 26 42.5 39.5t53.5 13.5q34 0 55.5 -12
t34.5 -39l58 -124q-15 -10 -30 -14.5t-29 -4.5q-20 0 -34 7t-27 27l-36 57l-58 -61q-14 -15 -34.5 -22.5t-41.5 -7.5q-17 0 -31.5 5.5t-22.5 13.5z" />
    <glyph glyph-name="Gbreve" unicode="&#x11e;" horiz-adv-x="643" 
d="M468 361h73q31 0 51 -7t30.5 -19t14.5 -27t4 -31q0 -4 -0.5 -9t-1.5 -10l-29 -171q-38 -48 -105.5 -76.5t-158.5 -28.5q-77 0 -129.5 22.5t-85 61t-47 89.5t-14.5 107q0 44 9 93t27.5 95.5t48.5 89t71.5 74.5t95.5 51t122 19q60 0 107 -16.5t75 -48.5q27 -29 27 -68
q0 -41 -27 -64t-70 -38q-32 79 -118 79q-42 0 -73 -22.5t-52 -58.5t-31.5 -81.5t-10.5 -91.5q-1 -66 26.5 -100t75.5 -34q14 0 29.5 3.5t30.5 9.5zM296 877q11 6 26.5 10t26.5 4q16 0 25 -2.5t14.5 -7.5t8.5 -13t6 -19q5 -21 15 -32t30 -11q19 0 34 8.5t29 37.5q12 27 27 33
t41 6q11 0 25 -4t27 -15q-26 -81 -72 -120t-118 -39q-71 0 -108 39.5t-37 124.5z" />
    <glyph glyph-name="gbreve" unicode="&#x11f;" horiz-adv-x="539" 
d="M352 339q-13 7 -28 7q-23 0 -39.5 -14t-27 -35t-15.5 -46.5t-5 -48.5q0 -32 11.5 -46.5t31.5 -14.5q23 0 33 15t13 32zM300 33q-23 -19 -47.5 -26.5t-59.5 -7.5q-31 0 -57.5 10.5t-46 33t-30.5 57.5t-11 85q0 60 19.5 116.5t58 99.5t95.5 69t132 26q53 0 103 -10.5
t107 -45.5l-65 -383q-10 -55 -26 -106.5t-47.5 -91t-82.5 -63t-130 -23.5q-15 0 -33 0.5t-37 3t-38.5 7.5t-36.5 14q-32 15 -50 36.5t-18 51.5q0 29 19 56.5t51 41.5q27 -36 56.5 -53t75.5 -17q37 0 60.5 21t33.5 70zM213 708q11 6 26.5 10t26.5 4q16 0 25 -2.5t14.5 -7.5
t8.5 -13t6 -19q5 -21 15 -32t30 -11q19 0 34 8.5t29 37.5q12 27 27 33t41 6q11 0 25 -4t27 -15q-26 -81 -72 -120t-118 -39q-71 0 -108 39.5t-37 124.5z" />
    <glyph glyph-name="Gdotaccent" unicode="&#x120;" horiz-adv-x="643" 
d="M468 361h73q31 0 51 -7t30.5 -19t14.5 -27t4 -31q0 -4 -0.5 -9t-1.5 -10l-29 -171q-38 -48 -105.5 -76.5t-158.5 -28.5q-77 0 -129.5 22.5t-85 61t-47 89.5t-14.5 107q0 44 9 93t27.5 95.5t48.5 89t71.5 74.5t95.5 51t122 19q60 0 107 -16.5t75 -48.5q27 -29 27 -68
q0 -41 -27 -64t-70 -38q-32 79 -118 79q-42 0 -73 -22.5t-52 -58.5t-31.5 -81.5t-10.5 -91.5q-1 -66 26.5 -100t75.5 -34q14 0 29.5 3.5t30.5 9.5zM366 798q0 48 29 71t69 23q38 0 58.5 -23t20.5 -49q0 -48 -29 -71t-69 -23q-39 0 -59 23t-20 49z" />
    <glyph glyph-name="gdotaccent" unicode="&#x121;" horiz-adv-x="539" 
d="M352 339q-13 7 -28 7q-23 0 -39.5 -14t-27 -35t-15.5 -46.5t-5 -48.5q0 -32 11.5 -46.5t31.5 -14.5q23 0 33 15t13 32zM300 33q-23 -19 -47.5 -26.5t-59.5 -7.5q-31 0 -57.5 10.5t-46 33t-30.5 57.5t-11 85q0 60 19.5 116.5t58 99.5t95.5 69t132 26q53 0 103 -10.5
t107 -45.5l-65 -383q-10 -55 -26 -106.5t-47.5 -91t-82.5 -63t-130 -23.5q-15 0 -33 0.5t-37 3t-38.5 7.5t-36.5 14q-32 15 -50 36.5t-18 51.5q0 29 19 56.5t51 41.5q27 -36 56.5 -53t75.5 -17q37 0 60.5 21t33.5 70zM285 620q0 48 29 71t69 23q38 0 58.5 -23t20.5 -49
q0 -48 -29 -71t-69 -23q-39 0 -59 23t-20 49z" />
    <glyph glyph-name="Gcommaaccent" unicode="&#x122;" horiz-adv-x="643" 
d="M468 361h73q31 0 51 -7t30.5 -19t14.5 -27t4 -31q0 -4 -0.5 -9t-1.5 -10l-29 -171q-38 -48 -105.5 -76.5t-158.5 -28.5q-77 0 -129.5 22.5t-85 61t-47 89.5t-14.5 107q0 44 9 93t27.5 95.5t48.5 89t71.5 74.5t95.5 51t122 19q60 0 107 -16.5t75 -48.5q27 -29 27 -68
q0 -41 -27 -64t-70 -38q-32 79 -118 79q-42 0 -73 -22.5t-52 -58.5t-31.5 -81.5t-10.5 -91.5q-1 -66 26.5 -100t75.5 -34q14 0 29.5 3.5t30.5 9.5zM272 -106q15 29 34 43.5t50 14.5q18 0 35.5 -6t37.5 -21l-101 -138q-12 -17 -29.5 -23t-33.5 -6q-29 0 -56 17z" />
    <glyph glyph-name="gcommaaccent" unicode="&#x123;" horiz-adv-x="539" 
d="M352 339q-13 7 -28 7q-23 0 -39.5 -14t-27 -35t-15.5 -46.5t-5 -48.5q0 -32 11.5 -46.5t31.5 -14.5q23 0 33 15t13 32zM300 33q-23 -19 -47.5 -26.5t-59.5 -7.5q-31 0 -57.5 10.5t-46 33t-30.5 57.5t-11 85q0 60 19.5 116.5t58 99.5t95.5 69t132 26q53 0 103 -10.5
t107 -45.5l-65 -383q-10 -55 -26 -106.5t-47.5 -91t-82.5 -63t-130 -23.5q-15 0 -33 0.5t-37 3t-38.5 7.5t-36.5 14q-32 15 -50 36.5t-18 51.5q0 29 19 56.5t51 41.5q27 -36 56.5 -53t75.5 -17q37 0 60.5 21t33.5 70zM379 704q12 17 29.5 23t33.5 6q29 0 56 -17l-63 -119
q-15 -29 -34 -43.5t-50 -14.5q-18 0 -35.5 6t-37.5 21z" />
    <glyph glyph-name="Hcircumflex" unicode="&#x124;" horiz-adv-x="649" 
d="M150 669q17 4 34.5 6t42.5 2q31 0 51.5 -7t32 -19t16 -27t4.5 -31q0 -4 -0.5 -9t-1.5 -10l-27 -157h159l42 252q17 4 34.5 6t42.5 2q31 0 51.5 -7t32 -19t16 -27t4.5 -31q0 -5 -0.5 -9.5t-1.5 -9.5l-97 -574h-195l44 261h-158l-44 -261h-195zM346 841q20 23 43.5 32
t49.5 9t46 -8t32 -30l63 -110q-13 -11 -28 -15.5t-31 -4.5q-14 0 -26.5 4t-23.5 16l-43 46l-55 -47q-14 -11 -28.5 -15t-31.5 -4q-37 0 -57 20z" />
    <glyph glyph-name="hcircumflex" unicode="&#x125;" horiz-adv-x="538" 
d="M143 701q17 4 34.5 6t42.5 2q31 0 51.5 -7t31.5 -19t15.5 -27t4.5 -31q0 -8 -2 -19l-28 -169q19 22 50 40.5t78 18.5q32 0 55 -10.5t37.5 -29t21.5 -42.5t7 -51q0 -22 -3 -42t-7 -41l-27 -161l-4 -28t-2 -28t1 -27t5 -26q-17 -8 -42 -14.5t-57 -6.5q-55 0 -79 20.5
t-23 62.5q0 14 2 26l33 196q1 5 1.5 11t0.5 11q0 12 -5.5 19t-21.5 7q-23 0 -32.5 -14.5t-12.5 -31.5l-50 -296h-195zM230 874q20 23 43.5 32t49.5 9t46 -8t32 -30l63 -110q-13 -11 -28 -15.5t-31 -4.5q-14 0 -26.5 4t-23.5 16l-43 46l-55 -47q-14 -11 -28.5 -15t-31.5 -4
q-37 0 -57 20z" />
    <glyph glyph-name="Hbar" unicode="&#x126;" horiz-adv-x="649" 
d="M122 507h-65l12 74h66l15 88q17 4 34.5 6t42.5 2q31 0 51.5 -7t32 -19t16 -27t4.5 -31q0 -3 -0.5 -6t-0.5 -6h158l15 88q17 4 34.5 6t42.5 2q31 0 51.5 -7t32 -19t16 -27t4.5 -31q0 -3 -0.5 -6t-0.5 -6h57l-12 -74h-58l-85 -507h-195l44 261h-158l-44 -261h-195zM461 417
l15 90h-159l-15 -90h159z" />
    <glyph glyph-name="hbar" unicode="&#x127;" horiz-adv-x="535" 
d="M113 523h-77l13 79h77l17 99q17 4 34.5 6t42.5 2q31 0 51.5 -7t31.5 -19t15.5 -27t4.5 -31q0 -5 -0.5 -9.5t-1.5 -9.5l-1 -4h154l-13 -79h-154l-21 -126q19 21 49 40t79 19q32 0 55 -10.5t37.5 -29t21.5 -42.5t7 -51q0 -22 -3 -42t-7 -41l-20 -121l-4 -28t-2 -28t1 -27
t5 -26q-17 -8 -42 -14.5t-57 -6.5q-57 0 -80 20.5t-22 62.5v11t1 11l27 160q1 5 1.5 11t0.5 11q0 12 -5.5 19t-21.5 7q-23 0 -32.5 -14.5t-12.5 -31.5l-43 -256h-195z" />
    <glyph glyph-name="Itilde" unicode="&#x128;" horiz-adv-x="296" 
d="M150 669q17 4 34.5 6t42.5 2q31 0 51.5 -7t32 -19t16 -27t4.5 -31q0 -4 -0.5 -9t-1.5 -10l-97 -574h-195zM103 730q-26 15 -34.5 32.5t-8.5 36.5q0 15 9 29t24.5 25t36.5 18t44 7q22 0 39.5 -6t32 -13t27 -13t26.5 -6q16 0 35.5 6.5t40.5 35.5q26 -15 34.5 -32.5
t8.5 -36.5q0 -18 -9 -32.5t-24.5 -25t-36.5 -16t-44 -5.5q-20 0 -37 6t-32 13t-29 13t-27 6q-16 0 -35.5 -6.5t-40.5 -35.5z" />
    <glyph glyph-name="itilde" unicode="&#x129;" horiz-adv-x="274" 
d="M105 478q17 4 35.5 6t43.5 2q31 0 51.5 -7t31.5 -19t15.5 -27t4.5 -31q0 -5 -0.5 -9.5t-1.5 -9.5l-45 -264l-4 -28t-2 -28t1 -27t5 -26q-17 -8 -42 -14.5t-57 -6.5q-57 0 -80 20.5t-22 62.5v11t1 11zM60 552q-26 15 -34.5 32.5t-8.5 36.5q0 15 9 29t24.5 25t36.5 18t44 7
q22 0 39.5 -6t32 -13t27 -13t26.5 -6q16 0 35.5 6.5t40.5 35.5q26 -15 34.5 -32.5t8.5 -36.5q0 -18 -9 -32.5t-24.5 -25t-36.5 -16t-44 -5.5q-20 0 -37 6t-32 13t-29 13t-27 6q-16 0 -35.5 -6.5t-40.5 -35.5z" />
    <glyph glyph-name="Imacron" unicode="&#x12a;" horiz-adv-x="296" 
d="M150 669q17 4 34.5 6t42.5 2q31 0 51.5 -7t32 -19t16 -27t4.5 -31q0 -4 -0.5 -9t-1.5 -10l-97 -574h-195zM333 854q41 0 56 -17t15 -43q0 -15 -3.5 -29.5t-8.5 -28.5h-252q-41 0 -56 17.5t-15 43.5q0 14 3.5 28.5t8.5 28.5h252z" />
    <glyph glyph-name="imacron" unicode="&#x12b;" horiz-adv-x="274" 
d="M105 478q17 4 35.5 6t43.5 2q31 0 51.5 -7t31.5 -19t15.5 -27t4.5 -31q0 -5 -0.5 -9.5t-1.5 -9.5l-45 -264l-4 -28t-2 -28t1 -27t5 -26q-17 -8 -42 -14.5t-57 -6.5q-57 0 -80 20.5t-22 62.5v11t1 11zM289 681q41 0 56 -18t15 -44q0 -15 -3.5 -30.5t-8.5 -29.5h-252
q-41 0 -56 18.5t-15 44.5q0 14 3.5 29.5t8.5 29.5h252z" />
    <glyph glyph-name="Ibreve" unicode="&#x12c;" horiz-adv-x="296" 
d="M150 669q17 4 34.5 6t42.5 2q31 0 51.5 -7t32 -19t16 -27t4.5 -31q0 -4 -0.5 -9t-1.5 -10l-97 -574h-195zM100 877q11 6 26.5 10t26.5 4q16 0 25 -2.5t14.5 -7.5t8.5 -13t6 -19q5 -21 15 -32t30 -11q19 0 34 8.5t29 37.5q12 27 27 33t41 6q11 0 25 -4t27 -15
q-26 -81 -72 -120t-118 -39q-71 0 -108 39.5t-37 124.5z" />
    <glyph glyph-name="ibreve" unicode="&#x12d;" horiz-adv-x="274" 
d="M105 478q17 4 35.5 6t43.5 2q31 0 51.5 -7t31.5 -19t15.5 -27t4.5 -31q0 -5 -0.5 -9.5t-1.5 -9.5l-45 -264l-4 -28t-2 -28t1 -27t5 -26q-17 -8 -42 -14.5t-57 -6.5q-57 0 -80 20.5t-22 62.5v11t1 11zM55 708q11 6 26.5 10t26.5 4q16 0 25 -2.5t14.5 -7.5t8.5 -13t6 -19
q5 -21 15 -32t30 -11q19 0 34 8.5t29 37.5q12 27 27 33t41 6q11 0 25 -4t27 -15q-26 -81 -72 -120t-118 -39q-71 0 -108 39.5t-37 124.5z" />
    <glyph glyph-name="Iogonek" unicode="&#x12e;" horiz-adv-x="296" 
d="M150 669q17 4 34.5 6t42.5 2q31 0 51.5 -7t32 -19t16 -27t4.5 -31q0 -5 -0.5 -9.5t-1.5 -9.5l-97 -574q-49 -29 -75.5 -55t-26.5 -53q0 -14 7 -19.5t15 -5.5q11 0 21 4.5t23 15.5q25 -24 25 -49q0 -30 -27.5 -50t-81.5 -20q-51 0 -78 26.5t-27 65.5q0 38 24.5 74.5
t69.5 65.5h-64z" />
    <glyph glyph-name="iogonek" unicode="&#x12f;" horiz-adv-x="274" 
d="M105 478q17 4 35.5 6t43.5 2q31 0 51.5 -7t31.5 -19t15.5 -27t4.5 -31q0 -5 -0.5 -9.5t-1.5 -9.5l-45 -264l-4 -28t-2 -28t1 -27t5 -26q-1 -1 -2 -1q-48 -28 -74 -55.5t-26 -54.5q0 -14 7 -19.5t15 -5.5q11 0 21 4.5t23 15.5q25 -24 25 -49q0 -30 -27.5 -50t-81.5 -20
q-51 0 -76.5 25.5t-25.5 64.5t23 70.5t60 57.5q-34 6 -48.5 26t-13.5 53v11t1 11zM121 618q0 28 9 48t24 33.5t35 20t42 6.5q21 0 38 -7t28 -18.5t17 -26t6 -28.5q0 -28 -9 -48t-24 -33.5t-35 -20t-42 -6.5t-38.5 7t-28 18.5t-17 26t-5.5 28.5z" />
    <glyph glyph-name="Idotaccent" unicode="&#x130;" horiz-adv-x="296" 
d="M150 669q17 4 34.5 6t42.5 2q31 0 51.5 -7t32 -19t16 -27t4.5 -31q0 -4 -0.5 -9t-1.5 -10l-97 -574h-195zM173 798q0 48 29 71t69 23q38 0 58.5 -23t20.5 -49q0 -48 -29 -71t-69 -23q-39 0 -59 23t-20 49z" />
    <glyph glyph-name="dotlessi" unicode="&#x131;" horiz-adv-x="274" 
d="M105 478q17 4 35.5 6t43.5 2q31 0 51.5 -7t31.5 -19t15.5 -27t4.5 -31q0 -5 -0.5 -9.5t-1.5 -9.5l-45 -264l-4 -28t-2 -28t1 -27t5 -26q-17 -8 -42 -14.5t-57 -6.5q-57 0 -80 20.5t-22 62.5v11t1 11z" />
    <glyph glyph-name="IJ" unicode="&#x132;" horiz-adv-x="592" 
d="M150 669q17 4 34.5 6t42.5 2q31 0 51.5 -7t32 -19t16 -27t4.5 -31q0 -4 -0.5 -9t-1.5 -10l-97 -574h-195zM446 669q17 4 34.5 6t42.5 2q31 0 51.5 -7t32 -19t16 -27t4.5 -31q0 -5 -0.5 -9.5t-1.5 -9.5l-93 -550q-9 -54 -24.5 -99t-41.5 -77q-31 -38 -73 -56.5t-95 -18.5
q-56 0 -79 29.5t-23 70.5q0 17 3 37q41 -1 66.5 6t41.5 24q11 12 17.5 30.5t9.5 35.5z" />
    <glyph glyph-name="ij" unicode="&#x133;" horiz-adv-x="545" 
d="M121 618q0 28 9 48t24 33.5t35 20t42 6.5q21 0 38 -7t28 -18.5t17 -26t6 -28.5q0 -28 -9 -48t-24 -33.5t-35 -20t-42 -6.5t-38.5 7t-28 18.5t-17 26t-5.5 28.5zM105 478q17 4 35.5 6t43.5 2q31 0 51.5 -7t31.5 -19t15.5 -27t4.5 -31q0 -5 -0.5 -9.5t-1.5 -9.5l-45 -264
l-4 -28t-2 -28t1 -27t5 -26q-17 -8 -42 -14.5t-57 -6.5q-57 0 -80 20.5t-22 62.5q0 14 2 28zM379 478q17 4 35.5 6t43.5 2q31 0 51.5 -7t31.5 -19t15.5 -27t4.5 -31q0 -5 -0.5 -9t-1.5 -10l-49 -290q-5 -28 -11 -62t-15 -68t-20 -63t-24 -47q-29 -40 -67 -62t-97 -22
q-53 0 -75 28t-22 67q0 17 3 35q33 1 53.5 8.5t34 23.5t21 42.5t14.5 66.5zM395 618q0 28 9 48t24 33.5t35 20t42 6.5q21 0 38 -7t28 -18.5t17 -26t6 -28.5q0 -28 -9 -48t-24 -33.5t-35 -20t-42 -6.5t-38.5 7t-28 18.5t-17 26t-5.5 28.5z" />
    <glyph glyph-name="Jcircumflex" unicode="&#x134;" horiz-adv-x="296" 
d="M150 669q17 4 34.5 6t42.5 2q31 0 51.5 -7t32 -19t16 -27t4.5 -31q0 -5 -0.5 -9.5t-1.5 -9.5l-93 -550q-9 -54 -24.5 -99t-41.5 -77q-31 -38 -73 -56.5t-95 -18.5q-56 0 -79 29.5t-23 70.5q0 17 3 37q41 -1 66.5 6t41.5 24q11 12 17.5 30.5t9.5 35.5zM178 841
q20 23 43.5 32t49.5 9t46 -8t32 -30l63 -110q-13 -11 -28 -15.5t-31 -4.5q-14 0 -26.5 4t-23.5 16l-43 46l-55 -47q-14 -11 -28.5 -15t-31.5 -4q-37 0 -57 20z" />
    <glyph glyph-name="jcircumflex" unicode="&#x135;" horiz-adv-x="271" 
d="M105 478q17 4 35.5 6t43.5 2q31 0 51.5 -7t31.5 -19t15.5 -27t4.5 -31q0 -5 -0.5 -9.5t-1.5 -9.5l-49 -290q-5 -28 -11 -62t-15 -68t-20 -63t-24 -47q-29 -40 -67 -62t-97 -22q-53 0 -75 28t-22 67q0 17 3 35q33 1 53.5 8.5t34 23.5t21 42.5t14.5 66.5zM125 683
q21 26 42.5 39.5t53.5 13.5q34 0 55.5 -12t34.5 -39l58 -124q-15 -10 -30 -14.5t-29 -4.5q-20 0 -34 7t-27 27l-36 57l-58 -61q-14 -15 -34.5 -22.5t-41.5 -7.5q-17 0 -31.5 5.5t-22.5 13.5z" />
    <glyph glyph-name="Kcommaaccent" unicode="&#x136;" horiz-adv-x="626" 
d="M150 669q17 4 34.5 6t42.5 2q31 0 51.5 -7t32 -19t16 -27t4.5 -31q0 -5 -0.5 -9.5t-1.5 -9.5l-36 -211q10 32 30 62.5t49 64.5l89 109q31 38 67 57.5t72 19.5q32 0 62.5 -12.5t53.5 -36.5l-239 -284l146 -326q-30 -13 -61.5 -21.5t-65.5 -8.5q-44 0 -72.5 16t-47.5 60
l-56 130q-14 33 -24 62.5t-10 50.5v14l-54 -320h-195zM226 -106q15 29 34 43.5t50 14.5q18 0 35.5 -6t37.5 -21l-101 -138q-12 -17 -29.5 -23t-33.5 -6q-29 0 -56 17z" />
    <glyph glyph-name="kcommaaccent" unicode="&#x137;" horiz-adv-x="562" 
d="M142 701q17 4 34.5 6t42.5 2q31 0 51.5 -7t31.5 -19t15.5 -27t4.5 -31q0 -5 -0.5 -9t-1.5 -10l-51 -303q5 11 16 27.5t22 28.5l69 78q12 14 24 25t26 18.5t31 11.5t39 4q32 0 56.5 -12t46.5 -32l-172 -197l65 -129q17 -32 33 -58.5t41 -44.5q-32 -20 -66.5 -27t-61.5 -7
q-42 0 -68.5 15t-42.5 46l-45 89q-8 16 -15.5 36t-12.5 39l-36 -214h-194zM185 -106q15 29 34 43.5t50 14.5q18 0 35.5 -6t37.5 -21l-101 -138q-12 -17 -29.5 -23t-33.5 -6q-29 0 -56 17z" />
    <glyph glyph-name="kgreenlandic" unicode="&#x138;" horiz-adv-x="558" 
d="M104 478q17 4 34.5 6t42.5 2q31 0 51.5 -7t31.5 -19t15.5 -27t4.5 -31q0 -5 -0.5 -9.5t-1.5 -9.5l-16 -99q7 17 15.5 30t23.5 33l67 84q24 30 50 44.5t70 14.5q32 0 56.5 -12t46.5 -32l-170 -201l62 -119q17 -32 33 -58.5t41 -44.5q-32 -20 -66.5 -27t-61.5 -7
q-46 0 -71 16.5t-40 44.5l-42 77q-8 15 -16 39t-10 47l-36 -213h-194z" />
    <glyph glyph-name="Lacute" unicode="&#x139;" horiz-adv-x="513" 
d="M150 669q17 4 34.5 6t42.5 2q31 0 51.5 -7t32 -19t16 -27t4.5 -31q0 -5 -0.5 -9.5t-1.5 -9.5l-70 -414h136q27 0 44.5 -7t28 -18.5t15 -27t4.5 -33.5t-3.5 -37t-8.5 -37h-438zM254 846q17 15 36 23t42 8q32 0 52.5 -19.5t34.5 -45.5l-144 -83q-14 -8 -26.5 -11t-24.5 -3
q-23 0 -40 13t-31 34z" />
    <glyph glyph-name="lacute" unicode="&#x13a;" horiz-adv-x="274" 
d="M143 701q17 4 35.5 6t43.5 2q31 0 51 -7t31.5 -19t15.5 -27t4 -31q0 -5 -0.5 -9t-1.5 -10l-82 -487l-4 -28t-2 -28t1 -27t5 -26q-17 -8 -42 -14.5t-57 -6.5q-57 0 -80 20.5t-22 62.5q0 19 3 35zM244 872q17 15 36 23t42 8q32 0 52.5 -19.5t34.5 -45.5l-144 -83
q-14 -8 -26.5 -11t-24.5 -3q-23 0 -40 13t-31 34z" />
    <glyph glyph-name="Lcommaaccent" unicode="&#x13b;" horiz-adv-x="513" 
d="M150 669q17 4 34.5 6t42.5 2q31 0 51.5 -7t32 -19t16 -27t4.5 -31q0 -5 -0.5 -9.5t-1.5 -9.5l-70 -414h136q27 0 44.5 -7t28 -18.5t15 -27t4.5 -33.5t-3.5 -37t-8.5 -37h-438zM163 -106q15 29 34 43.5t50 14.5q18 0 35.5 -6t37.5 -21l-101 -138q-12 -17 -29.5 -23
t-33.5 -6q-29 0 -56 17z" />
    <glyph glyph-name="lcommaaccent" unicode="&#x13c;" horiz-adv-x="274" 
d="M143 701q17 4 35.5 6t43.5 2q31 0 51 -7t31.5 -19t15.5 -27t4 -31q0 -5 -0.5 -9t-1.5 -10l-82 -487l-4 -28t-2 -28t1 -27t5 -26q-17 -8 -42 -14.5t-57 -6.5q-57 0 -80 20.5t-22 62.5q0 19 3 35zM37 -106q15 29 34 43.5t50 14.5q18 0 35.5 -6t37.5 -21l-101 -138
q-12 -17 -29.5 -23t-33.5 -6q-29 0 -56 17z" />
    <glyph glyph-name="Lcaron" unicode="&#x13d;" horiz-adv-x="513" 
d="M150 669q17 4 34.5 6t42.5 2q31 0 51.5 -7t32 -19t16 -27t4.5 -31q0 -5 -0.5 -9.5t-1.5 -9.5l-70 -414h136q27 0 44.5 -7t28 -18.5t15 -27t4.5 -33.5t-3.5 -37t-8.5 -37h-438zM418 621q15 88 106 88q15 0 25 -1.5t20 -3.5l-53 -184q-11 -38 -38 -50.5t-63 -12.5
q-6 0 -12 0.5t-11 1.5z" />
    <glyph glyph-name="lcaron" unicode="&#x13e;" horiz-adv-x="400" 
d="M143 701q17 4 35.5 6t43.5 2q31 0 51 -7t31.5 -19t15.5 -27t4 -31q0 -5 -0.5 -9t-1.5 -10l-82 -487l-4 -28t-2 -28t1 -27t5 -26q-17 -8 -42 -14.5t-57 -6.5q-57 0 -80 20.5t-22 62.5q0 19 3 35zM368 621q15 88 106 88q15 0 25 -1.5t20 -3.5l-53 -184q-11 -38 -38 -50.5
t-63 -12.5q-6 0 -12 0.5t-11 1.5z" />
    <glyph glyph-name="Ldot" unicode="&#x13f;" horiz-adv-x="513" 
d="M150 669q17 4 34.5 6t42.5 2q31 0 51.5 -7t32 -19t16 -27t4.5 -31q0 -5 -0.5 -9.5t-1.5 -9.5l-70 -414h136q27 0 44.5 -7t28 -18.5t15 -27t4.5 -33.5t-3.5 -37t-8.5 -37h-438zM362 363q0 52 28.5 75t69.5 23q39 0 58 -22.5t19 -47.5q0 -52 -28.5 -75t-69.5 -23
q-40 0 -58.5 22.5t-18.5 47.5z" />
    <glyph glyph-name="ldot" unicode="&#x140;" horiz-adv-x="487" 
d="M143 701q17 4 35.5 6t43.5 2q31 0 51 -7t31.5 -19t15.5 -27t4 -31q0 -5 -0.5 -9t-1.5 -10l-82 -487l-4 -28t-2 -28t1 -27t5 -26q-17 -8 -42 -14.5t-57 -6.5q-57 0 -80 20.5t-22 62.5q0 19 3 35zM332 316q0 52 28.5 75t69.5 23q39 0 58 -22.5t19 -47.5q0 -52 -28.5 -75
t-69.5 -23q-40 0 -58.5 22.5t-18.5 47.5z" />
    <glyph glyph-name="Lslash" unicode="&#x141;" horiz-adv-x="513" 
d="M85 283l-74 -27l-24 76l113 42l50 295q17 4 34.5 6t42.5 2q31 0 51.5 -7t32 -19t16 -27t4.5 -31q0 -5 -0.5 -9.5t-1.5 -9.5l-21 -123l111 42l24 -77l-150 -56l-34 -200h136q27 0 44.5 -7t28 -18.5t15 -27t4.5 -33.5t-3.5 -37t-8.5 -37h-438z" />
    <glyph glyph-name="lslash" unicode="&#x142;" horiz-adv-x="410" 
d="M137 275l-65 -30l-37 70l118 54l57 332q17 4 35.5 6t43.5 2q31 0 51 -7t31.5 -19t15.5 -27t4 -31q0 -5 -0.5 -9.5t-1.5 -9.5l-24 -140l63 29l36 -70l-115 -53l-42 -253l-4 -28t-2 -28t1 -27t5 -26q-17 -8 -42 -14.5t-57 -6.5q-57 0 -80 20.5t-22 62.5v11t1 11z" />
    <glyph glyph-name="Nacute" unicode="&#x143;" horiz-adv-x="650" 
d="M150 668q15 3 35.5 5.5t46.5 2.5q46 0 69 -18.5t34 -47.5l116 -302l60 360q16 4 32 6t40 2q31 0 50.5 -7t30.5 -19t15.5 -27t4.5 -31q0 -5 -0.5 -9t-1.5 -10l-96 -573h-157l-148 336l-57 -336h-187zM417 846q17 15 36 23t42 8q32 0 52.5 -19.5t34.5 -45.5l-144 -83
q-14 -8 -26.5 -11t-24.5 -3q-23 0 -40 13t-31 34z" />
    <glyph glyph-name="nacute" unicode="&#x144;" horiz-adv-x="538" 
d="M105 478q17 4 34.5 6t42.5 2q45 0 70 -13.5t30 -36.5q18 21 51.5 40.5t87.5 19.5q32 0 55 -10.5t37.5 -29t21.5 -42.5t7 -51q0 -22 -3 -42t-7 -41l-27 -161l-4 -28t-2 -28t1 -27t5 -26q-17 -8 -42 -14.5t-57 -6.5q-57 0 -80 20.5t-22 62.5q0 5 1 16.5t4 27.5l30 178
q1 5 1.5 11t0.5 11q0 13 -6 19.5t-21 6.5q-20 0 -31 -13t-14 -33l-50 -296h-195zM334 689q19 23 36.5 34t42.5 11q27 0 47.5 -13t42.5 -39l-134 -122q-24 -21 -52 -21q-22 0 -40 9t-36 28z" />
    <glyph glyph-name="Ncommaaccent" unicode="&#x145;" horiz-adv-x="650" 
d="M150 668q15 3 35.5 5.5t46.5 2.5q46 0 69 -18.5t34 -47.5l116 -302l60 360q16 4 32 6t40 2q31 0 50.5 -7t30.5 -19t15.5 -27t4.5 -31q0 -5 -0.5 -9t-1.5 -10l-96 -573h-157l-148 336l-57 -336h-187zM229 -106q15 29 34 43.5t50 14.5q18 0 35.5 -6t37.5 -21l-101 -138
q-12 -17 -29.5 -23t-33.5 -6q-29 0 -56 17z" />
    <glyph glyph-name="ncommaaccent" unicode="&#x146;" horiz-adv-x="538" 
d="M105 478q17 4 34.5 6t42.5 2q45 0 70 -13.5t30 -36.5q18 21 51.5 40.5t87.5 19.5q32 0 55 -10.5t37.5 -29t21.5 -42.5t7 -51q0 -22 -3 -42t-7 -41l-27 -161l-4 -28t-2 -28t1 -27t5 -26q-17 -8 -42 -14.5t-57 -6.5q-57 0 -80 20.5t-22 62.5q0 5 1 16.5t4 27.5l30 178
q1 5 1.5 11t0.5 11q0 13 -6 19.5t-21 6.5q-20 0 -31 -13t-14 -33l-50 -296h-195zM172 -106q15 29 34 43.5t50 14.5q18 0 35.5 -6t37.5 -21l-101 -138q-12 -17 -29.5 -23t-33.5 -6q-29 0 -56 17z" />
    <glyph glyph-name="Ncaron" unicode="&#x147;" horiz-adv-x="650" 
d="M150 668q15 3 35.5 5.5t46.5 2.5q46 0 69 -18.5t34 -47.5l116 -302l60 360q16 4 32 6t40 2q31 0 50.5 -7t30.5 -19t15.5 -27t4.5 -31q0 -5 -0.5 -9t-1.5 -10l-96 -573h-157l-148 336l-57 -336h-187zM268 862q13 11 28 15.5t31 4.5q14 0 26 -4t23 -16l44 -48l56 49
q14 11 28 15t31 4q37 0 57 -20l-90 -107q-20 -23 -43.5 -32t-49.5 -9t-46 8t-32 30z" />
    <glyph glyph-name="ncaron" unicode="&#x148;" horiz-adv-x="538" 
d="M105 478q17 4 34.5 6t42.5 2q45 0 70 -13.5t30 -36.5q18 21 51.5 40.5t87.5 19.5q32 0 55 -10.5t37.5 -29t21.5 -42.5t7 -51q0 -22 -3 -42t-7 -41l-27 -161l-4 -28t-2 -28t1 -27t5 -26q-17 -8 -42 -14.5t-57 -6.5q-57 0 -80 20.5t-22 62.5q0 5 1 16.5t4 27.5l30 178
q1 5 1.5 11t0.5 11q0 13 -6 19.5t-21 6.5q-20 0 -31 -13t-14 -33l-50 -296h-195zM179 717q15 10 30 14.5t29 4.5q20 0 33.5 -7t26.5 -27l37 -59l59 63q14 15 34 22.5t41 7.5q17 0 31.5 -5.5t22.5 -13.5l-100 -122q-21 -26 -42.5 -39.5t-53.5 -13.5q-34 0 -55.5 12t-34.5 39z
" />
    <glyph glyph-name="napostrophe" unicode="&#x149;" horiz-adv-x="538" 
d="M105 478q17 4 34.5 6t42.5 2q45 0 70 -13.5t30 -36.5q18 21 51.5 40.5t87.5 19.5q32 0 55 -10.5t37.5 -29t21.5 -42.5t7 -51q0 -22 -3 -42t-7 -41l-27 -161l-4 -28t-2 -28t1 -27t5 -26q-17 -8 -42 -14.5t-57 -6.5q-57 0 -80 20.5t-22 62.5q0 5 1 16.5t4 27.5l30 178
q1 5 1.5 11t0.5 11q0 13 -6 19.5t-21 6.5q-20 0 -31 -13t-14 -33l-50 -296h-195zM88 567q26 5 47 21.5t21 37.5q0 11 -3.5 18t-7.5 14t-7.5 15.5t-3.5 23.5q0 10 3.5 21.5t12 22t23 17.5t36.5 7q38 0 52.5 -23t14.5 -53q0 -33 -12.5 -65.5t-36.5 -56.5q-18 -17 -44.5 -30
t-50.5 -13q-20 0 -32 9.5t-12 33.5z" />
    <glyph glyph-name="Eng" unicode="&#x14a;" horiz-adv-x="650" 
d="M150 668q15 3 35.5 5.5t46.5 2.5q46 0 69 -18.5t34 -47.5l116 -302l60 360q16 4 32 6t40 2q31 0 50.5 -7t30.5 -19t15.5 -27t4.5 -31q0 -5 -0.5 -9.5t-1.5 -9.5l-96 -573q-8 -47 -23.5 -85t-38.5 -67q-31 -38 -73 -56.5t-95 -18.5q-56 0 -79 29.5t-23 70.5q0 17 3 37
q41 -1 71 6t46 24q11 12 17.5 30.5t9.5 35.5l7 41l-127 289l-57 -336h-187z" />
    <glyph glyph-name="eng" unicode="&#x14b;" horiz-adv-x="538" 
d="M105 478q17 4 34.5 6t42.5 2q45 0 70 -13.5t30 -36.5q18 21 51.5 40.5t87.5 19.5q32 0 55 -10.5t37.5 -29t21.5 -42.5t7 -51q0 -22 -3 -42t-7 -41l-48 -278q-8 -45 -22 -85.5t-31 -63.5q-29 -40 -67 -62t-97 -22q-53 0 -75 28t-22 67q0 17 3 35q33 1 53.5 8.5t34 23.5
t21 42.5t14.5 66.5l43 254q1 5 1.5 11t0.5 11q0 12 -5.5 19t-21.5 7q-23 0 -32.5 -14.5t-12.5 -31.5l-50 -296h-195z" />
    <glyph glyph-name="Omacron" unicode="&#x14c;" horiz-adv-x="688" 
d="M337 -18q-71 0 -122 24t-83 63.5t-47 91t-15 107.5q0 75 22 149t67 133.5t113.5 96.5t162.5 37q71 0 121.5 -24t83 -63.5t47.5 -91.5t15 -107q0 -75 -22 -149t-67 -133.5t-113.5 -96.5t-162.5 -37zM354 138q33 0 60.5 20t47 56.5t30.5 87t11 111.5q0 55 -21 85t-64 30
q-33 0 -60.5 -20t-47 -56.5t-30.5 -87t-11 -111.5q0 -53 22 -84t63 -31zM540 854q41 0 56 -17t15 -43q0 -15 -3.5 -29.5t-8.5 -28.5h-252q-41 0 -56 17.5t-15 43.5q0 14 3.5 28.5t8.5 28.5h252z" />
    <glyph glyph-name="omacron" unicode="&#x14d;" horiz-adv-x="542" 
d="M280 128q22 0 36 18.5t22.5 44t12 51.5t3.5 42q0 29 -8.5 48.5t-34.5 19.5q-21 0 -35.5 -17.5t-23.5 -42.5t-12.5 -53t-3.5 -49q0 -28 9.5 -45t34.5 -17zM46 193q0 61 19.5 116.5t56.5 96.5t90.5 65.5t121.5 24.5q54 0 94 -16.5t66 -44.5t39 -65.5t13 -80.5
q0 -60 -17.5 -115t-52.5 -97t-88 -67t-125 -25q-58 0 -99 16.5t-67.5 44.5t-38.5 66t-12 81zM428 681q41 0 56 -18t15 -44q0 -15 -3.5 -30.5t-8.5 -29.5h-252q-41 0 -56 18.5t-15 44.5q0 14 3.5 29.5t8.5 29.5h252z" />
    <glyph glyph-name="Obreve" unicode="&#x14e;" horiz-adv-x="688" 
d="M337 -18q-71 0 -122 24t-83 63.5t-47 91t-15 107.5q0 75 22 149t67 133.5t113.5 96.5t162.5 37q71 0 121.5 -24t83 -63.5t47.5 -91.5t15 -107q0 -75 -22 -149t-67 -133.5t-113.5 -96.5t-162.5 -37zM354 138q33 0 60.5 20t47 56.5t30.5 87t11 111.5q0 55 -21 85t-64 30
q-33 0 -60.5 -20t-47 -56.5t-30.5 -87t-11 -111.5q0 -53 22 -84t63 -31zM295 877q11 6 26.5 10t26.5 4q16 0 25 -2.5t14.5 -7.5t8.5 -13t6 -19q5 -21 15 -32t30 -11q19 0 34 8.5t29 37.5q12 27 27 33t41 6q11 0 25 -4t27 -15q-26 -81 -72 -120t-118 -39q-71 0 -108 39.5
t-37 124.5z" />
    <glyph glyph-name="obreve" unicode="&#x14f;" horiz-adv-x="542" 
d="M280 128q22 0 36 18.5t22.5 44t12 51.5t3.5 42q0 29 -8.5 48.5t-34.5 19.5q-21 0 -35.5 -17.5t-23.5 -42.5t-12.5 -53t-3.5 -49q0 -28 9.5 -45t34.5 -17zM46 193q0 61 19.5 116.5t56.5 96.5t90.5 65.5t121.5 24.5q54 0 94 -16.5t66 -44.5t39 -65.5t13 -80.5
q0 -60 -17.5 -115t-52.5 -97t-88 -67t-125 -25q-58 0 -99 16.5t-67.5 44.5t-38.5 66t-12 81zM195 708q11 6 26.5 10t26.5 4q16 0 25 -2.5t14.5 -7.5t8.5 -13t6 -19q5 -21 15 -32t30 -11q19 0 34 8.5t29 37.5q12 27 27 33t41 6q11 0 25 -4t27 -15q-26 -81 -72 -120t-118 -39
q-71 0 -108 39.5t-37 124.5z" />
    <glyph glyph-name="Ohungarumlaut" unicode="&#x150;" horiz-adv-x="688" 
d="M337 -18q-71 0 -122 24t-83 63.5t-47 91t-15 107.5q0 75 22 149t67 133.5t113.5 96.5t162.5 37q71 0 121.5 -24t83 -63.5t47.5 -91.5t15 -107q0 -75 -22 -149t-67 -133.5t-113.5 -96.5t-162.5 -37zM354 138q33 0 60.5 20t47 56.5t30.5 87t11 111.5q0 55 -21 85t-64 30
q-33 0 -60.5 -20t-47 -56.5t-30.5 -87t-11 -111.5q0 -53 22 -84t63 -31zM339 843q18 14 35 22t40 8q32 0 50.5 -18.5t32.5 -44.5l-140 -81q-14 -8 -25.5 -11t-23.5 -3q-23 0 -38.5 13t-29.5 33zM585 843q18 14 35 22t40 8q32 0 50.5 -18.5t32.5 -44.5l-140 -81
q-14 -8 -25.5 -11t-23.5 -3q-23 0 -38.5 13t-29.5 33z" />
    <glyph glyph-name="ohungarumlaut" unicode="&#x151;" horiz-adv-x="542" 
d="M280 128q22 0 36 18.5t22.5 44t12 51.5t3.5 42q0 29 -8.5 48.5t-34.5 19.5q-21 0 -35.5 -17.5t-23.5 -42.5t-12.5 -53t-3.5 -49q0 -28 9.5 -45t34.5 -17zM46 193q0 61 19.5 116.5t56.5 96.5t90.5 65.5t121.5 24.5q54 0 94 -16.5t66 -44.5t39 -65.5t13 -80.5
q0 -60 -17.5 -115t-52.5 -97t-88 -67t-125 -25q-58 0 -99 16.5t-67.5 44.5t-38.5 66t-12 81zM260 680q17 21 33.5 31t39.5 10q25 0 43.5 -12t38.5 -35l-126 -116q-22 -19 -48 -19q-20 0 -36 8.5t-33 25.5zM467 680q17 21 33.5 31t39.5 10q25 0 43.5 -12t38.5 -35l-126 -116
q-22 -19 -48 -19q-20 0 -36 8.5t-33 25.5z" />
    <glyph glyph-name="OE" unicode="&#x152;" horiz-adv-x="917" 
d="M806 152q27 0 45.5 -6.5t29 -17.5t15 -26t4.5 -32t-3.5 -35t-8.5 -35h-558q-71 0 -120.5 22.5t-80.5 60.5t-45 88t-14 106q0 78 22 149.5t67 125.5t113.5 86.5t162.5 32.5h551q1 -30 -2.5 -58t-15.5 -49t-35.5 -34t-62.5 -13h-147l-18 -101h178l-25 -153h-178l-19 -111
h145zM466 152l62 365h-100q-78 0 -118.5 -64.5t-40.5 -186.5q0 -114 92 -114h105z" />
    <glyph glyph-name="oe" unicode="&#x153;" horiz-adv-x="791" 
d="M530 192q2 -33 19 -51t44 -18q34 0 57.5 14.5t42.5 45.5q36 -11 57.5 -29t21.5 -51q0 -24 -10.5 -41.5t-25.5 -29.5q-28 -23 -74 -35t-89 -12q-51 0 -85.5 14.5t-63.5 42.5q-32 -26 -69.5 -41.5t-91.5 -15.5q-58 0 -99 16.5t-67.5 44.5t-38.5 66t-12 81q0 61 19.5 116.5
t56.5 96.5t90.5 65.5t121.5 24.5q51 0 83 -13.5t58 -40.5q32 25 71.5 39.5t97.5 14.5q49 0 81 -13t51 -33t27 -43t8 -44q0 -52 -22.5 -85t-57 -52t-77 -26.5t-82.5 -7.5h-42zM280 128q22 0 36 18.5t22.5 44t12 51.5t3.5 42q0 29 -8.5 48.5t-34.5 19.5q-21 0 -35.5 -17.5
t-23.5 -42.5t-12.5 -53t-3.5 -49q0 -28 9.5 -45t34.5 -17zM540 285q7 -1 11.5 -1h9.5q15 0 31 3.5t28.5 10t20.5 17.5t8 26q0 11 -7 19.5t-24 8.5q-29 0 -49.5 -21t-28.5 -63z" />
    <glyph glyph-name="Racute" unicode="&#x154;" horiz-adv-x="602" 
d="M150 664q53 7 106.5 9.5t90.5 2.5q133 0 197.5 -51.5t64.5 -138.5q0 -45 -9.5 -79t-26.5 -60t-40.5 -45t-50.5 -34l104 -251q-24 -12 -54 -21t-64 -9q-45 0 -72.5 15t-43.5 57l-60 161h-29l-37 -220h-189zM321 357q42 0 66.5 32.5t24.5 84.5q0 36 -19.5 50.5t-46.5 14.5
h-14t-15 -1l-31 -181h35zM358 846q17 15 36 23t42 8q32 0 52.5 -19.5t34.5 -45.5l-144 -83q-14 -8 -26.5 -11t-24.5 -3q-23 0 -40 13t-31 34z" />
    <glyph glyph-name="racute" unicode="&#x155;" horiz-adv-x="432" 
d="M105 478q17 4 34.5 6t42.5 2q45 0 70 -13.5t30 -36.5q20 26 47 43t71 17q38 0 59.5 -19.5t19.5 -58.5q-2 -37 -23.5 -71.5t-69.5 -62.5q-14 20 -27.5 31t-39.5 11q-23 0 -36 -13t-16 -30l-48 -283h-195zM298 689q19 23 36.5 34t42.5 11q27 0 47.5 -13t42.5 -39l-134 -122
q-24 -21 -52 -21q-22 0 -40 9t-36 28z" />
    <glyph glyph-name="Rcommaaccent" unicode="&#x156;" horiz-adv-x="602" 
d="M150 664q53 7 106.5 9.5t90.5 2.5q133 0 197.5 -51.5t64.5 -138.5q0 -45 -9.5 -79t-26.5 -60t-40.5 -45t-50.5 -34l104 -251q-24 -12 -54 -21t-64 -9q-45 0 -72.5 15t-43.5 57l-60 161h-29l-37 -220h-189zM321 357q42 0 66.5 32.5t24.5 84.5q0 36 -19.5 50.5t-46.5 14.5
h-14t-15 -1l-31 -181h35zM209 -106q15 29 34 43.5t50 14.5q18 0 35.5 -6t37.5 -21l-101 -138q-12 -17 -29.5 -23t-33.5 -6q-29 0 -56 17z" />
    <glyph glyph-name="rcommaaccent" unicode="&#x157;" horiz-adv-x="432" 
d="M105 478q17 4 34.5 6t42.5 2q45 0 70 -13.5t30 -36.5q20 26 47 43t71 17q38 0 59.5 -19.5t19.5 -58.5q-2 -37 -23.5 -71.5t-69.5 -62.5q-14 20 -27.5 31t-39.5 11q-23 0 -36 -13t-16 -30l-48 -283h-195zM27 -106q15 29 34 43.5t50 14.5q18 0 35.5 -6t37.5 -21l-101 -138
q-12 -17 -29.5 -23t-33.5 -6q-29 0 -56 17z" />
    <glyph glyph-name="Rcaron" unicode="&#x158;" horiz-adv-x="602" 
d="M150 664q53 7 106.5 9.5t90.5 2.5q133 0 197.5 -51.5t64.5 -138.5q0 -45 -9.5 -79t-26.5 -60t-40.5 -45t-50.5 -34l104 -251q-24 -12 -54 -21t-64 -9q-45 0 -72.5 15t-43.5 57l-60 161h-29l-37 -220h-189zM321 357q42 0 66.5 32.5t24.5 84.5q0 36 -19.5 50.5t-46.5 14.5
h-14t-15 -1l-31 -181h35zM227 862q13 11 28 15.5t31 4.5q14 0 26 -4t23 -16l44 -48l56 49q14 11 28 15t31 4q37 0 57 -20l-90 -107q-20 -23 -43.5 -32t-49.5 -9t-46 8t-32 30z" />
    <glyph glyph-name="rcaron" unicode="&#x159;" horiz-adv-x="432" 
d="M105 478q17 4 34.5 6t42.5 2q45 0 70 -13.5t30 -36.5q20 26 47 43t71 17q38 0 59.5 -19.5t19.5 -58.5q-2 -37 -23.5 -71.5t-69.5 -62.5q-14 20 -27.5 31t-39.5 11q-23 0 -36 -13t-16 -30l-48 -283h-195zM136 717q15 10 30 14.5t29 4.5q20 0 33.5 -7t26.5 -27l37 -59
l59 63q14 15 34 22.5t41 7.5q17 0 31.5 -5.5t22.5 -13.5l-100 -122q-21 -26 -42.5 -39.5t-53.5 -13.5q-34 0 -55.5 12t-34.5 39z" />
    <glyph glyph-name="Sacute" unicode="&#x15a;" horiz-adv-x="523" 
d="M96 221q35 -40 73.5 -58t80.5 -18q58 0 58 49q0 20 -16.5 36t-56.5 39q-35 20 -62.5 41t-46.5 45.5t-29 54.5t-10 69q0 48 18 86t51 64.5t79 40.5t102 14q58 0 104.5 -16t69.5 -38q17 -16 25 -33.5t8 -34.5q0 -35 -22 -63t-64 -42q-26 32 -56 50.5t-65 18.5
q-28 0 -38 -10t-10 -27q0 -21 21.5 -37.5t50.5 -33.5q43 -26 73 -50t48.5 -50t26.5 -54.5t8 -61.5q0 -54 -20 -95t-55.5 -68.5t-83 -41.5t-101.5 -14q-22 0 -47 2.5t-49 8t-46 14t-39 20.5q-24 17 -36 36.5t-12 46.5q0 29 16.5 57t51.5 53zM357 846q17 15 36 23t42 8
q32 0 52.5 -19.5t34.5 -45.5l-144 -83q-14 -8 -26.5 -11t-24.5 -3q-23 0 -40 13t-31 34z" />
    <glyph glyph-name="sacute" unicode="&#x15b;" horiz-adv-x="439" 
d="M89 202q25 -37 49.5 -51t48.5 -14q10 0 18.5 4t8.5 16q0 18 -17.5 30.5t-49.5 34.5q-36 25 -59 51t-23 68q0 24 10 51t34.5 50t64.5 38.5t100 15.5q35 0 68.5 -8t59 -23t41 -36t15.5 -46q0 -34 -28.5 -59.5t-68.5 -29.5q-13 33 -33 47.5t-43 14.5q-9 0 -16 -5.5t-7 -15.5
q0 -7 4.5 -12.5t15 -13t26.5 -17.5t39 -26q24 -17 38.5 -32.5t23 -31.5t11.5 -32.5t3 -34.5q0 -26 -11.5 -52.5t-36 -48.5t-62.5 -35.5t-90 -13.5q-40 0 -77 6.5t-66 21.5q-32 17 -47.5 37.5t-15.5 49.5q0 35 18.5 59t53.5 43zM304 689q19 23 36.5 34t42.5 11q27 0 47.5 -13
t42.5 -39l-134 -122q-24 -21 -52 -21q-22 0 -40 9t-36 28z" />
    <glyph glyph-name="Scircumflex" unicode="&#x15c;" horiz-adv-x="523" 
d="M96 221q35 -40 73.5 -58t80.5 -18q58 0 58 49q0 20 -16.5 36t-56.5 39q-35 20 -62.5 41t-46.5 45.5t-29 54.5t-10 69q0 48 18 86t51 64.5t79 40.5t102 14q58 0 104.5 -16t69.5 -38q17 -16 25 -33.5t8 -34.5q0 -35 -22 -63t-64 -42q-26 32 -56 50.5t-65 18.5
q-28 0 -38 -10t-10 -27q0 -21 21.5 -37.5t50.5 -33.5q43 -26 73 -50t48.5 -50t26.5 -54.5t8 -61.5q0 -54 -20 -95t-55.5 -68.5t-83 -41.5t-101.5 -14q-22 0 -47 2.5t-49 8t-46 14t-39 20.5q-24 17 -36 36.5t-12 46.5q0 29 16.5 57t51.5 53zM276 841q20 23 43.5 32t49.5 9
t46 -8t32 -30l63 -110q-13 -11 -28 -15.5t-31 -4.5q-14 0 -26.5 4t-23.5 16l-43 46l-55 -47q-14 -11 -28.5 -15t-31.5 -4q-37 0 -57 20z" />
    <glyph glyph-name="scircumflex" unicode="&#x15d;" horiz-adv-x="439" 
d="M89 202q25 -37 49.5 -51t48.5 -14q10 0 18.5 4t8.5 16q0 18 -17.5 30.5t-49.5 34.5q-36 25 -59 51t-23 68q0 24 10 51t34.5 50t64.5 38.5t100 15.5q35 0 68.5 -8t59 -23t41 -36t15.5 -46q0 -34 -28.5 -59.5t-68.5 -29.5q-13 33 -33 47.5t-43 14.5q-9 0 -16 -5.5t-7 -15.5
q0 -7 4.5 -12.5t15 -13t26.5 -17.5t39 -26q24 -17 38.5 -32.5t23 -31.5t11.5 -32.5t3 -34.5q0 -26 -11.5 -52.5t-36 -48.5t-62.5 -35.5t-90 -13.5q-40 0 -77 6.5t-66 21.5q-32 17 -47.5 37.5t-15.5 49.5q0 35 18.5 59t53.5 43zM222 683q21 26 42.5 39.5t53.5 13.5
q34 0 55.5 -12t34.5 -39l58 -124q-15 -10 -30 -14.5t-29 -4.5q-20 0 -34 7t-27 27l-36 57l-58 -61q-14 -15 -34.5 -22.5t-41.5 -7.5q-17 0 -31.5 5.5t-22.5 13.5z" />
    <glyph glyph-name="Scedilla" unicode="&#x15e;" horiz-adv-x="523" 
d="M133 -145q19 -11 34 -11q30 0 30 25q0 9 -3 15.5t-7 13.5t-7 14t-3 16q0 20 7 34t18 25q-35 4 -68.5 14t-57.5 27t-36 36.5t-12 46.5q0 29 16.5 57t51.5 53q35 -40 73.5 -58t80.5 -18q58 0 58 49q0 20 -16.5 36t-56.5 39q-35 21 -62.5 41.5t-46.5 45t-29 54.5t-10 69
q0 48 18 86t51 64.5t79 40.5t102 14q66 0 110 -18t64 -36q17 -17 25 -34t8 -34q0 -35 -22 -63t-64 -42q-26 32 -56 50.5t-65 18.5q-28 0 -38 -10t-10 -27q0 -21 21.5 -37.5t50.5 -33.5q43 -26 73 -50t48.5 -50t26.5 -54.5t8 -61.5q0 -50 -17.5 -89t-48.5 -66.5t-73.5 -43
t-91.5 -19.5q-12 -15 -12 -36q0 -11 6 -20t13 -18.5t13 -21.5t6 -27q0 -25 -10 -43.5t-26 -30.5t-37 -18t-42 -6q-15 0 -30 1.5t-27 6.5t-19 14t-7 24q0 10 5.5 22.5t13.5 23.5z" />
    <glyph glyph-name="scedilla" unicode="&#x15f;" horiz-adv-x="439" 
d="M89 202q25 -37 49.5 -51t48.5 -14q10 0 18.5 4t8.5 16q0 18 -17.5 30.5t-49.5 34.5q-36 25 -59 51t-23 68q0 24 10 51t34.5 50t64.5 38.5t100 15.5q35 0 68.5 -8t59 -23t41 -36t15.5 -46q0 -34 -28.5 -59.5t-68.5 -29.5q-13 33 -33 47.5t-43 14.5q-9 0 -16 -5.5t-7 -15.5
q0 -7 4.5 -12.5t15 -13t26.5 -17.5t39 -26q24 -17 38.5 -32.5t23 -31.5t11.5 -32.5t3 -34.5q0 -26 -11.5 -52.5t-36 -48.5t-62.5 -35q-27 -10 -60 -13q-7 -8 -10 -17.5t-3 -20.5t6 -20t13 -18.5t13 -21.5t6 -27q0 -25 -10 -43.5t-26 -30.5t-37 -18t-42 -6q-15 0 -30 1.5
t-27 6.5t-19 14t-7 24q0 10 5.5 22.5t13.5 23.5q19 -11 34 -11q30 0 30 25q0 9 -3 15.5t-7 13.5t-7 14t-3 16q0 21 7.5 35t18.5 25q-12 2 -23 4q-37 6 -66 21q-32 17 -47.5 37.5t-15.5 49.5q0 35 18.5 59t53.5 43z" />
    <glyph glyph-name="Scaron" unicode="&#x160;" horiz-adv-x="523" 
d="M96 221q35 -40 73.5 -58t80.5 -18q58 0 58 49q0 20 -16.5 36t-56.5 39q-35 20 -62.5 41t-46.5 45.5t-29 54.5t-10 69q0 48 18 86t51 64.5t79 40.5t102 14q58 0 104.5 -16t69.5 -38q17 -16 25 -33.5t8 -34.5q0 -35 -22 -63t-64 -42q-26 32 -56 50.5t-65 18.5
q-28 0 -38 -10t-10 -27q0 -21 21.5 -37.5t50.5 -33.5q43 -26 73 -50t48.5 -50t26.5 -54.5t8 -61.5q0 -54 -20 -95t-55.5 -68.5t-83 -41.5t-101.5 -14q-22 0 -47 2.5t-49 8t-46 14t-39 20.5q-24 17 -36 36.5t-12 46.5q0 29 16.5 57t51.5 53zM201 862q13 11 28 15.5t31 4.5
q14 0 26 -4t23 -16l44 -48l56 49q14 11 28 15t31 4q37 0 57 -20l-90 -107q-20 -23 -43.5 -32t-49.5 -9t-46 8t-32 30z" />
    <glyph glyph-name="scaron" unicode="&#x161;" horiz-adv-x="439" 
d="M89 202q25 -37 49.5 -51t48.5 -14q10 0 18.5 4t8.5 16q0 18 -17.5 30.5t-49.5 34.5q-36 25 -59 51t-23 68q0 24 10 51t34.5 50t64.5 38.5t100 15.5q35 0 68.5 -8t59 -23t41 -36t15.5 -46q0 -34 -28.5 -59.5t-68.5 -29.5q-13 33 -33 47.5t-43 14.5q-9 0 -16 -5.5t-7 -15.5
q0 -7 4.5 -12.5t15 -13t26.5 -17.5t39 -26q24 -17 38.5 -32.5t23 -31.5t11.5 -32.5t3 -34.5q0 -26 -11.5 -52.5t-36 -48.5t-62.5 -35.5t-90 -13.5q-40 0 -77 6.5t-66 21.5q-32 17 -47.5 37.5t-15.5 49.5q0 35 18.5 59t53.5 43zM143 717q15 10 30 14.5t29 4.5q20 0 33.5 -7
t26.5 -27l37 -59l59 63q14 15 34 22.5t41 7.5q17 0 31.5 -5.5t22.5 -13.5l-100 -122q-21 -26 -42.5 -39.5t-53.5 -13.5q-34 0 -55.5 12t-34.5 39z" />
    <glyph glyph-name="uni0162" unicode="&#x162;" horiz-adv-x="587" 
d="M267 508h-187q1 31 5.5 60.5t17 52.5t36 36.5t64.5 13.5h468q1 -32 -3 -61.5t-16.5 -52t-37 -36t-64.5 -13.5h-87l-86 -508q-22 -7 -30 -22q-7 -14 -7 -28q0 -13 6 -22t13 -18.5t13 -21.5t6 -27q0 -25 -10 -43.5t-26 -30.5t-37 -18t-42 -6q-15 0 -30 1.5t-27 6.5t-19 14
t-7 24q0 10 5.5 22.5t13.5 23.5q19 -11 34 -11q30 0 30 25q0 9 -3 15.5t-10 19t-7 31.5q0 22 14 39q12 14 27 26h-103z" />
    <glyph glyph-name="uni0163" unicode="&#x163;" horiz-adv-x="416" 
d="M127 630q17 4 35.5 6t43.5 2q31 0 51 -7t31.5 -19t15.5 -27t4 -31q0 -6 -2 -19l-10 -59h142l-24 -149h-143l-22 -133q-4 -23 5.5 -33.5t26.5 -10.5q18 0 32 11.5t25 29.5q43 -12 63 -34.5t16 -61.5q-3 -22 -12 -36t-24 -28q-45 -40 -118 -45q-4 -4 -6 -8q-7 -14 -7 -30
q0 -11 6 -20t13 -18.5t13 -21.5t6 -27q0 -25 -10 -43.5t-26 -30.5t-37 -18t-42 -6q-15 0 -30 1.5t-27 6.5t-19 14t-7 24q0 10 5.5 22.5t13.5 23.5q19 -11 34 -11q30 0 30 25q0 9 -3 15.5t-7 13.5t-7 14t-3 16q0 29 14 46q8 9 16 17q-8 1 -16 3q-35 9 -61 29.5t-40.5 52.5
t-14.5 79q0 14 1.5 27.5t3.5 29.5z" />
    <glyph glyph-name="Tcaron" unicode="&#x164;" horiz-adv-x="587" 
d="M267 508h-187q1 31 5.5 60.5t17 52.5t36 36.5t64.5 13.5h468q1 -32 -3 -61.5t-16.5 -52t-37 -36t-64.5 -13.5h-87l-86 -508h-196zM248 862q13 11 28 15.5t31 4.5q14 0 26 -4t23 -16l44 -48l56 49q14 11 28 15t31 4q37 0 57 -20l-90 -107q-20 -23 -43.5 -32t-49.5 -9
t-46 8t-32 30z" />
    <glyph glyph-name="tcaron" unicode="&#x165;" horiz-adv-x="416" 
d="M388 684q15 88 106 88q15 0 25 -1.5t20 -3.5l-52 -167q-11 -38 -38 -50.5t-63 -12.5q-6 0 -12 0.5t-11 1.5zM127 630q17 4 35.5 6t43.5 2q31 0 51 -7t31.5 -19t15.5 -27t4 -31q0 -5 -0.5 -9.5t-1.5 -9.5l-10 -59h142l-24 -149h-143l-22 -133q-4 -23 5.5 -33.5t26.5 -10.5
q18 0 32 11.5t25 29.5q43 -12 63 -34.5t16 -61.5q-3 -22 -12.5 -36t-23.5 -28q-51 -46 -138 -46q-41 0 -76 9t-61 29.5t-40.5 52.5t-14.5 79q0 14 1.5 27.5t3.5 29.5z" />
    <glyph glyph-name="Tbar" unicode="&#x166;" horiz-adv-x="587" 
d="M220 230h-113l13 80h113l34 198h-187q1 31 5.5 60.5t17 52.5t36 36.5t64.5 13.5h468q1 -32 -3 -61.5t-16.5 -52t-37 -36t-64.5 -13.5h-87l-34 -198h121l-13 -80h-121l-39 -230h-196z" />
    <glyph glyph-name="tbar" unicode="&#x167;" horiz-adv-x="416" 
d="M127 630q17 4 35.5 6t43.5 2q31 0 51 -7t31.5 -19t15.5 -27t4 -31q0 -5 -0.5 -9.5t-1.5 -9.5l-9 -52h143l-19 -111h-142l-9 -54h142l-14 -80h-142l-7 -44q-4 -23 5.5 -33.5t26.5 -10.5q18 0 32 11.5t25 29.5q43 -12 63 -34.5t16 -61.5q-3 -22 -12.5 -36t-23.5 -28
q-51 -46 -138 -46q-41 0 -76 9t-61 29.5t-40.5 52.5t-14.5 79q0 14 1.5 27.5t3.5 29.5z" />
    <glyph glyph-name="Utilde" unicode="&#x168;" horiz-adv-x="633" 
d="M146 669q17 4 35 6t43 2q31 0 51.5 -7t32.5 -19t16.5 -27t4.5 -31q0 -5 -0.5 -9.5t-1.5 -9.5l-53 -307q-2 -14 -3.5 -27.5t-1.5 -27.5q0 -29 12 -50.5t48 -21.5q26 0 42.5 12t26 30.5t15 40t8.5 41.5l68 405q17 4 35 6t43 2q31 0 51.5 -7t32 -19t16 -27t4.5 -31
q0 -5 -0.5 -9.5t-1.5 -9.5l-61 -333q-23 -128 -93 -193.5t-202 -65.5q-68 0 -114.5 14t-75 39.5t-40.5 62t-12 81.5q0 20 2 41t6 44zM271 730q-26 15 -34.5 32.5t-8.5 36.5q0 15 9 29t24.5 25t36.5 18t44 7q22 0 39.5 -6t32 -13t27 -13t26.5 -6q16 0 35.5 6.5t40.5 35.5
q26 -15 34.5 -32.5t8.5 -36.5q0 -18 -9 -32.5t-24.5 -25t-36.5 -16t-44 -5.5q-20 0 -37 6t-32 13t-29 13t-27 6q-16 0 -35.5 -6.5t-40.5 -35.5z" />
    <glyph glyph-name="utilde" unicode="&#x169;" horiz-adv-x="534" 
d="M102 483q16 5 36 9t43 4q57 0 80.5 -20.5t22.5 -62.5q0 -5 -0.5 -11t-1.5 -11l-36 -212q-1 -5 -1.5 -11t-0.5 -11q0 -12 5.5 -19t21.5 -7q23 0 32.5 14.5t12.5 31.5l51 306q16 5 36 9t43 4q57 0 80.5 -20.5t22.5 -62.5q0 -5 -0.5 -11t-1.5 -11l-46 -269
q-2 -15 -3.5 -30.5t-1.5 -30.5q0 -36 6 -58q-17 -5 -38.5 -9t-46.5 -4q-42 0 -64.5 10t-36.5 44q-10 -11 -21 -21.5t-26.5 -18.5t-37.5 -13t-54 -5q-66 0 -99 35.5t-33 92.5q0 22 3 46t7 45zM200 552q-26 15 -34.5 32.5t-8.5 36.5q0 15 9 29t24.5 25t36.5 18t44 7
q22 0 39.5 -6t32 -13t27 -13t26.5 -6q16 0 35.5 6.5t40.5 35.5q26 -15 34.5 -32.5t8.5 -36.5q0 -18 -9 -32.5t-24.5 -25t-36.5 -16t-44 -5.5q-20 0 -37 6t-32 13t-29 13t-27 6q-16 0 -35.5 -6.5t-40.5 -35.5z" />
    <glyph glyph-name="Umacron" unicode="&#x16a;" horiz-adv-x="633" 
d="M146 669q17 4 35 6t43 2q31 0 51.5 -7t32.5 -19t16.5 -27t4.5 -31q0 -5 -0.5 -9.5t-1.5 -9.5l-53 -307q-2 -14 -3.5 -27.5t-1.5 -27.5q0 -29 12 -50.5t48 -21.5q26 0 42.5 12t26 30.5t15 40t8.5 41.5l68 405q17 4 35 6t43 2q31 0 51.5 -7t32 -19t16 -27t4.5 -31
q0 -5 -0.5 -9.5t-1.5 -9.5l-61 -333q-23 -128 -93 -193.5t-202 -65.5q-68 0 -114.5 14t-75 39.5t-40.5 62t-12 81.5q0 20 2 41t6 44zM506 854q41 0 56 -17t15 -43q0 -15 -3.5 -29.5t-8.5 -28.5h-252q-41 0 -56 17.5t-15 43.5q0 14 3.5 28.5t8.5 28.5h252z" />
    <glyph glyph-name="umacron" unicode="&#x16b;" horiz-adv-x="534" 
d="M102 483q16 5 36 9t43 4q57 0 80.5 -20.5t22.5 -62.5q0 -5 -0.5 -11t-1.5 -11l-36 -212q-1 -5 -1.5 -11t-0.5 -11q0 -12 5.5 -19t21.5 -7q23 0 32.5 14.5t12.5 31.5l51 306q16 5 36 9t43 4q57 0 80.5 -20.5t22.5 -62.5q0 -5 -0.5 -11t-1.5 -11l-46 -269
q-2 -15 -3.5 -30.5t-1.5 -30.5q0 -36 6 -58q-17 -5 -38.5 -9t-46.5 -4q-42 0 -64.5 10t-36.5 44q-10 -11 -21 -21.5t-26.5 -18.5t-37.5 -13t-54 -5q-66 0 -99 35.5t-33 92.5q0 22 3 46t7 45zM429 681q41 0 56 -18t15 -44q0 -15 -3.5 -30.5t-8.5 -29.5h-252q-41 0 -56 18.5
t-15 44.5q0 14 3.5 29.5t8.5 29.5h252z" />
    <glyph glyph-name="Ubreve" unicode="&#x16c;" horiz-adv-x="633" 
d="M146 669q17 4 35 6t43 2q31 0 51.5 -7t32.5 -19t16.5 -27t4.5 -31q0 -5 -0.5 -9.5t-1.5 -9.5l-53 -307q-2 -14 -3.5 -27.5t-1.5 -27.5q0 -29 12 -50.5t48 -21.5q26 0 42.5 12t26 30.5t15 40t8.5 41.5l68 405q17 4 35 6t43 2q31 0 51.5 -7t32 -19t16 -27t4.5 -31
q0 -5 -0.5 -9.5t-1.5 -9.5l-61 -333q-23 -128 -93 -193.5t-202 -65.5q-68 0 -114.5 14t-75 39.5t-40.5 62t-12 81.5q0 20 2 41t6 44zM264 877q11 6 26.5 10t26.5 4q16 0 25 -2.5t14.5 -7.5t8.5 -13t6 -19q5 -21 15 -32t30 -11q19 0 34 8.5t29 37.5q12 27 27 33t41 6
q11 0 25 -4t27 -15q-26 -81 -72 -120t-118 -39q-71 0 -108 39.5t-37 124.5z" />
    <glyph glyph-name="ubreve" unicode="&#x16d;" horiz-adv-x="534" 
d="M102 483q16 5 36 9t43 4q57 0 80.5 -20.5t22.5 -62.5q0 -5 -0.5 -11t-1.5 -11l-36 -212q-1 -5 -1.5 -11t-0.5 -11q0 -12 5.5 -19t21.5 -7q23 0 32.5 14.5t12.5 31.5l51 306q16 5 36 9t43 4q57 0 80.5 -20.5t22.5 -62.5q0 -5 -0.5 -11t-1.5 -11l-46 -269
q-2 -15 -3.5 -30.5t-1.5 -30.5q0 -36 6 -58q-17 -5 -38.5 -9t-46.5 -4q-42 0 -64.5 10t-36.5 44q-10 -11 -21 -21.5t-26.5 -18.5t-37.5 -13t-54 -5q-66 0 -99 35.5t-33 92.5q0 22 3 46t7 45zM181 708q11 6 26.5 10t26.5 4q16 0 25 -2.5t14.5 -7.5t8.5 -13t6 -19
q5 -21 15 -32t30 -11q19 0 34 8.5t29 37.5q12 27 27 33t41 6q11 0 25 -4t27 -15q-26 -81 -72 -120t-118 -39q-71 0 -108 39.5t-37 124.5z" />
    <glyph glyph-name="Uring" unicode="&#x16e;" horiz-adv-x="633" 
d="M146 669q17 4 35 6t43 2q31 0 51.5 -7t32.5 -19t16.5 -27t4.5 -31q0 -5 -0.5 -9.5t-1.5 -9.5l-53 -307q-2 -14 -3.5 -27.5t-1.5 -27.5q0 -29 12 -50.5t48 -21.5q26 0 42.5 12t26 30.5t15 40t8.5 41.5l68 405q17 4 35 6t43 2q31 0 51.5 -7t32 -19t16 -27t4.5 -31
q0 -5 -0.5 -9.5t-1.5 -9.5l-61 -333q-23 -128 -93 -193.5t-202 -65.5q-68 0 -114.5 14t-75 39.5t-40.5 62t-12 81.5q0 20 2 41t6 44zM406 675q-28 0 -50 9.5t-37.5 26t-23.5 38.5t-8 47t8 47.5t23.5 39t37.5 26.5t50 10q27 0 49 -10t37 -26.5t23.5 -38.5t8.5 -47t-8.5 -47
t-23.5 -38.5t-37 -26.5t-49 -10zM406 740q23 0 35.5 17t12.5 39q0 23 -12.5 40t-35.5 17t-36 -16.5t-13 -39.5t13 -40t36 -17z" />
    <glyph glyph-name="uring" unicode="&#x16f;" horiz-adv-x="534" 
d="M102 483q16 5 36 9t43 4q57 0 80.5 -20.5t22.5 -62.5q0 -5 -0.5 -11t-1.5 -11l-36 -212q-1 -5 -1.5 -11t-0.5 -11q0 -12 5.5 -19t21.5 -7q23 0 32.5 14.5t12.5 31.5l51 306q16 5 36 9t43 4q57 0 80.5 -20.5t22.5 -62.5q0 -5 -0.5 -11t-1.5 -11l-46 -269
q-2 -15 -3.5 -30.5t-1.5 -30.5q0 -36 6 -58q-17 -5 -38.5 -9t-46.5 -4q-42 0 -64.5 10t-36.5 44q-10 -11 -21 -21.5t-26.5 -18.5t-37.5 -13t-54 -5q-66 0 -99 35.5t-33 92.5q0 22 3 46t7 45zM342 543q-28 0 -50 9.5t-37.5 26t-23.5 38.5t-8 47t8 47.5t23.5 39t37.5 26.5
t50 10q27 0 49 -10t37 -26.5t23.5 -38.5t8.5 -47t-8.5 -47t-23.5 -38.5t-37 -26.5t-49 -10zM342 608q23 0 35.5 17t12.5 39q0 23 -12.5 40t-35.5 17t-36 -16.5t-13 -39.5t13 -40t36 -17z" />
    <glyph glyph-name="Uhungarumlaut" unicode="&#x170;" horiz-adv-x="633" 
d="M146 669q17 4 35 6t43 2q31 0 51.5 -7t32.5 -19t16.5 -27t4.5 -31q0 -5 -0.5 -9.5t-1.5 -9.5l-53 -307q-2 -14 -3.5 -27.5t-1.5 -27.5q0 -29 12 -50.5t48 -21.5q26 0 42.5 12t26 30.5t15 40t8.5 41.5l68 405q17 4 35 6t43 2q31 0 51.5 -7t32 -19t16 -27t4.5 -31
q0 -5 -0.5 -9.5t-1.5 -9.5l-61 -333q-23 -128 -93 -193.5t-202 -65.5q-68 0 -114.5 14t-75 39.5t-40.5 62t-12 81.5q0 20 2 41t6 44zM320 843q18 14 35 22t40 8q32 0 50.5 -18.5t32.5 -44.5l-140 -81q-14 -8 -25.5 -11t-23.5 -3q-23 0 -38.5 13t-29.5 33zM566 843
q18 14 35 22t40 8q32 0 50.5 -18.5t32.5 -44.5l-140 -81q-14 -8 -25.5 -11t-23.5 -3q-23 0 -38.5 13t-29.5 33z" />
    <glyph glyph-name="uhungarumlaut" unicode="&#x171;" horiz-adv-x="534" 
d="M102 483q16 5 36 9t43 4q57 0 80.5 -20.5t22.5 -62.5q0 -5 -0.5 -11t-1.5 -11l-36 -212q-1 -5 -1.5 -11t-0.5 -11q0 -12 5.5 -19t21.5 -7q23 0 32.5 14.5t12.5 31.5l51 306q16 5 36 9t43 4q57 0 80.5 -20.5t22.5 -62.5q0 -5 -0.5 -11t-1.5 -11l-46 -269
q-2 -15 -3.5 -30.5t-1.5 -30.5q0 -36 6 -58q-17 -5 -38.5 -9t-46.5 -4q-42 0 -64.5 10t-36.5 44q-10 -11 -21 -21.5t-26.5 -18.5t-37.5 -13t-54 -5q-66 0 -99 35.5t-33 92.5q0 22 3 46t7 45zM254 680q17 21 33.5 31t39.5 10q25 0 43.5 -12t38.5 -35l-126 -116
q-22 -19 -48 -19q-20 0 -36 8.5t-33 25.5zM461 680q17 21 33.5 31t39.5 10q25 0 43.5 -12t38.5 -35l-126 -116q-22 -19 -48 -19q-20 0 -36 8.5t-33 25.5z" />
    <glyph glyph-name="Uogonek" unicode="&#x172;" horiz-adv-x="633" 
d="M146 669q17 4 35 6t43 2q31 0 51.5 -7t32.5 -19t16.5 -27t4.5 -31q0 -5 -0.5 -9.5t-1.5 -9.5l-53 -307q-2 -14 -3.5 -27.5t-1.5 -27.5q0 -29 12 -50.5t48 -21.5q26 0 42.5 12t26 30.5t15 40t8.5 41.5l68 405q17 4 35 6t43 2q31 0 51.5 -7t32 -19t16 -27t4.5 -31
q0 -5 -0.5 -9.5t-1.5 -9.5l-61 -333q-17 -95 -59 -155t-116 -86q-49 -29 -75.5 -55t-26.5 -53q0 -14 7 -19.5t15 -5.5q11 0 21 4.5t23 15.5q25 -24 25 -49q0 -30 -27.5 -50t-81.5 -20q-51 0 -78 26.5t-27 65.5q0 32 18.5 64t52.5 59q-59 3 -98.5 18.5t-64 40.5t-35 60
t-10.5 77q0 20 2 41t6 44z" />
    <glyph glyph-name="uogonek" unicode="&#x173;" horiz-adv-x="534" 
d="M102 483q16 5 36 9t43 4q57 0 80.5 -20.5t22.5 -62.5q0 -5 -0.5 -11t-1.5 -11l-36 -212q-1 -5 -1.5 -11t-0.5 -11q0 -12 5.5 -19t21.5 -7q23 0 32.5 14.5t12.5 31.5l51 306q16 5 36 9t43 4q57 0 80.5 -20.5t22.5 -62.5q0 -5 -0.5 -11t-1.5 -11l-46 -269
q-2 -15 -3.5 -30.5t-1.5 -30.5q0 -36 6 -58q-49 -29 -75.5 -56.5t-26.5 -54.5q0 -14 7 -19.5t15 -5.5q11 0 21 4.5t23 15.5q25 -24 25 -49q0 -30 -27.5 -50t-81.5 -20q-51 0 -76.5 25.5t-25.5 64.5q0 42 26.5 75.5t68.5 59.5q-22 5 -36 16t-23 35q-10 -11 -21 -21.5
t-26.5 -18.5t-37.5 -13t-54 -5q-66 0 -99 35.5t-33 92.5q0 22 3 46t7 45z" />
    <glyph glyph-name="Wcircumflex" unicode="&#x174;" horiz-adv-x="913" 
d="M90 655q23 8 50.5 13.5t54.5 5.5q46 0 74 -19.5t33 -66.5l37 -318h4l97 210l-27 182q31 6 58.5 10t47.5 4q51 0 72 -21t23 -60l21 -325h5l118 316q15 40 48.5 64t83.5 24q34 0 58 -4.5t42 -11.5l-314 -663h-157l-39 262h-4l-127 -262h-148zM463 841q20 23 43.5 32t49.5 9
t46 -8t32 -30l63 -110q-13 -11 -28 -15.5t-31 -4.5q-14 0 -26.5 4t-23.5 16l-43 46l-55 -47q-14 -11 -28.5 -15t-31.5 -4q-37 0 -57 20z" />
    <glyph glyph-name="wcircumflex" unicode="&#x175;" horiz-adv-x="732" 
d="M57 466q26 11 52 15.5t50 4.5q44 0 65 -28t26 -80l23 -206h3l63 133l-31 166q26 9 45.5 12t43.5 3t40 -7.5t26 -22t15.5 -34.5t7.5 -44l17 -206h3l67 215q13 45 42 72t74 27q28 0 51.5 -6t43.5 -14l-215 -472h-163l-27 144l-68 -144h-163zM342 683q21 26 42.5 39.5
t53.5 13.5q34 0 55.5 -12t34.5 -39l58 -124q-15 -10 -30 -14.5t-29 -4.5q-20 0 -34 7t-27 27l-36 57l-58 -61q-14 -15 -34.5 -22.5t-41.5 -7.5q-17 0 -31.5 5.5t-22.5 13.5z" />
    <glyph glyph-name="Ycircumflex" unicode="&#x176;" horiz-adv-x="611" 
d="M228 228l-137 415q30 15 61.5 23t57.5 8q42 0 62.5 -17.5t29.5 -57.5l50 -187l105 195q17 31 46 50t83 19q26 0 53 -7t53 -23l-267 -417l-39 -229h-196zM318 841q20 23 43.5 32t49.5 9t46 -8t32 -30l63 -110q-13 -11 -28 -15.5t-31 -4.5q-14 0 -26.5 4t-23.5 16l-43 46
l-55 -47q-14 -11 -28.5 -15t-31.5 -4q-37 0 -57 20z" />
    <glyph glyph-name="ycircumflex" unicode="&#x177;" horiz-adv-x="517" 
d="M181 -6h-40l-81 472q24 10 51.5 15t51.5 5q45 0 67.5 -29t24.5 -79l10 -209h4l76 218q14 41 44.5 70t80.5 29q28 0 55 -6t47 -14l-252 -525q-17 -34 -35.5 -64.5t-42.5 -53.5t-56 -36.5t-76 -13.5q-33 0 -60.5 6t-41.5 15q-22 14 -30.5 31.5t-8.5 34.5q0 10 2.5 22.5
t10 25.5t20.5 25t33 22q18 -25 32.5 -32.5t27.5 -7.5q25 0 41.5 9.5t31.5 40.5zM245 683q21 26 42.5 39.5t53.5 13.5q34 0 55.5 -12t34.5 -39l58 -124q-15 -10 -30 -14.5t-29 -4.5q-20 0 -34 7t-27 27l-36 57l-58 -61q-14 -15 -34.5 -22.5t-41.5 -7.5q-17 0 -31.5 5.5
t-22.5 13.5z" />
    <glyph glyph-name="Ydieresis" unicode="&#x178;" horiz-adv-x="611" 
d="M228 228l-137 415q30 15 61.5 23t57.5 8q42 0 62.5 -17.5t29.5 -57.5l50 -187l105 195q17 31 46 50t83 19q26 0 53 -7t53 -23l-267 -417l-39 -229h-196zM208 795q0 46 27.5 68t65.5 22q36 0 55.5 -21.5t19.5 -46.5q0 -46 -28 -68t-66 -22q-37 0 -55.5 21.5t-18.5 46.5z
M431 795q0 46 28 68t66 22q36 0 55 -21.5t19 -46.5q0 -46 -27.5 -68t-65.5 -22q-37 0 -56 21.5t-19 46.5z" />
    <glyph glyph-name="Zacute" unicode="&#x179;" horiz-adv-x="560" 
d="M30 132q78 99 160.5 195t176.5 190h-276q1 30 7 57.5t19.5 49t37.5 34.5t62 13h346q36 0 47.5 -17.5t6.5 -46.5l-12 -77q-95 -96 -178.5 -188t-167.5 -190h189q27 0 45.5 -6.5t29 -17.5t15 -26t4.5 -32t-3.5 -35t-8.5 -35h-521zM378 846q17 15 36 23t42 8
q32 0 52.5 -19.5t34.5 -45.5l-144 -83q-14 -8 -26.5 -11t-24.5 -3q-23 0 -40 13t-31 34z" />
    <glyph glyph-name="zacute" unicode="&#x17a;" horiz-adv-x="473" 
d="M37 125q48 54 102.5 107.5t118.5 99.5h-182q0 36 4.5 64.5t18.5 47.5t39.5 29t68.5 10h237q38 0 55 -17t9 -57l-12 -56q-67 -51 -129 -98.5t-117 -103.5h104q59 0 82 -22.5t23 -60.5q0 -32 -12 -68h-432zM332 689q19 23 36.5 34t42.5 11q27 0 47.5 -13t42.5 -39
l-134 -122q-24 -21 -52 -21q-22 0 -40 9t-36 28z" />
    <glyph glyph-name="Zdotaccent" unicode="&#x17b;" horiz-adv-x="560" 
d="M30 132q78 99 160.5 195t176.5 190h-276q1 30 7 57.5t19.5 49t37.5 34.5t62 13h346q36 0 47.5 -17.5t6.5 -46.5l-12 -77q-95 -96 -178.5 -188t-167.5 -190h189q27 0 45.5 -6.5t29 -17.5t15 -26t4.5 -32t-3.5 -35t-8.5 -35h-521zM300 798q0 48 29 71t69 23q38 0 58.5 -23
t20.5 -49q0 -48 -29 -71t-69 -23q-39 0 -59 23t-20 49z" />
    <glyph glyph-name="zdotaccent" unicode="&#x17c;" horiz-adv-x="473" 
d="M37 125q48 54 102.5 107.5t118.5 99.5h-182q0 36 4.5 64.5t18.5 47.5t39.5 29t68.5 10h237q38 0 55 -17t9 -57l-12 -56q-67 -51 -129 -98.5t-117 -103.5h104q59 0 82 -22.5t23 -60.5q0 -32 -12 -68h-432zM238 620q0 48 29 71t69 23q38 0 58.5 -23t20.5 -49q0 -48 -29 -71
t-69 -23q-39 0 -59 23t-20 49z" />
    <glyph glyph-name="Zcaron" unicode="&#x17d;" horiz-adv-x="560" 
d="M30 132q78 99 160.5 195t176.5 190h-276q1 30 7 57.5t19.5 49t37.5 34.5t62 13h346q36 0 47.5 -17.5t6.5 -46.5l-12 -77q-95 -96 -178.5 -188t-167.5 -190h189q27 0 45.5 -6.5t29 -17.5t15 -26t4.5 -32t-3.5 -35t-8.5 -35h-521zM239 862q13 11 28 15.5t31 4.5q14 0 26 -4
t23 -16l44 -48l56 49q14 11 28 15t31 4q37 0 57 -20l-90 -107q-20 -23 -43.5 -32t-49.5 -9t-46 8t-32 30z" />
    <glyph glyph-name="zcaron" unicode="&#x17e;" horiz-adv-x="473" 
d="M37 125q48 54 102.5 107.5t118.5 99.5h-182q0 36 4.5 64.5t18.5 47.5t39.5 29t68.5 10h237q38 0 55 -17t9 -57l-12 -56q-67 -51 -129 -98.5t-117 -103.5h104q59 0 82 -22.5t23 -60.5q0 -32 -12 -68h-432zM176 717q15 10 30 14.5t29 4.5q20 0 33.5 -7t26.5 -27l37 -59
l59 63q14 15 34 22.5t41 7.5q17 0 31.5 -5.5t22.5 -13.5l-100 -122q-21 -26 -42.5 -39.5t-53.5 -13.5q-34 0 -55.5 12t-34.5 39z" />
    <glyph glyph-name="longs" unicode="&#x17f;" horiz-adv-x="275" 
d="M102 469q8 53 23.5 98.5t44.5 78.5t75 52t115 19q46 0 86 -12t64 -34q16 -14 24.5 -32.5t8.5 -36.5q1 -35 -23 -58.5t-73 -29.5q-11 27 -29 41t-47 14q-63 0 -72 -64l-78 -527q-17 -107 -69.5 -160t-149.5 -53q-32 0 -64 4t-62 19q-27 14 -39 34t-12 43q0 26 15 51.5
t41 41.5q15 -18 36 -27t41 -9q34 0 49 14.5t20 48.5z" />
    <glyph glyph-name="florin" unicode="&#x192;" horiz-adv-x="590" 
d="M7 20q24 0 46 4t41 16t34 33t24 55l46 168h-83l26 145h98l7 26q18 65 45.5 108.5t62 69.5t76 37t88.5 11q27 0 45.5 -7.5t30 -19.5t16 -28.5t4.5 -34.5q0 -16 -5 -32t-13 -32h-16q-23 0 -44.5 -4t-40 -14.5t-33 -30t-24.5 -49.5h147l-26 -145h-162l-56 -204
q-18 -65 -45.5 -108.5t-62 -69.5t-76.5 -37t-88 -11q-27 0 -46 7.5t-30 19.5t-15.5 28.5t-4.5 34.5q0 16 5 32t13 32h16z" />
    <glyph glyph-name="Scommaaccent" unicode="&#x218;" horiz-adv-x="523" 
d="M96 221q35 -40 73.5 -58t80.5 -18q58 0 58 49q0 20 -16.5 36t-56.5 39q-35 20 -62.5 41t-46.5 45.5t-29 54.5t-10 69q0 48 18 86t51 64.5t79 40.5t102 14q58 0 104.5 -16t69.5 -38q17 -16 25 -33.5t8 -34.5q0 -35 -22 -63t-64 -42q-26 32 -56 50.5t-65 18.5
q-28 0 -38 -10t-10 -27q0 -21 21.5 -37.5t50.5 -33.5q43 -26 73 -50t48.5 -50t26.5 -54.5t8 -61.5q0 -54 -20 -95t-55.5 -68.5t-83 -41.5t-101.5 -14q-22 0 -47 2.5t-49 8t-46 14t-39 20.5q-24 17 -36 36.5t-12 46.5q0 29 16.5 57t51.5 53zM156 -106q15 29 34 43.5t50 14.5
q18 0 35.5 -6t37.5 -21l-101 -138q-12 -17 -29.5 -23t-33.5 -6q-29 0 -56 17z" />
    <glyph glyph-name="scommaaccent" unicode="&#x219;" horiz-adv-x="439" 
d="M89 202q25 -37 49.5 -51t48.5 -14q10 0 18.5 4t8.5 16q0 18 -17.5 30.5t-49.5 34.5q-36 25 -59 51t-23 68q0 24 10 51t34.5 50t64.5 38.5t100 15.5q35 0 68.5 -8t59 -23t41 -36t15.5 -46q0 -34 -28.5 -59.5t-68.5 -29.5q-13 33 -33 47.5t-43 14.5q-9 0 -16 -5.5t-7 -15.5
q0 -7 4.5 -12.5t15 -13t26.5 -17.5t39 -26q24 -17 38.5 -32.5t23 -31.5t11.5 -32.5t3 -34.5q0 -26 -11.5 -52.5t-36 -48.5t-62.5 -35.5t-90 -13.5q-40 0 -77 6.5t-66 21.5q-32 17 -47.5 37.5t-15.5 49.5q0 35 18.5 59t53.5 43zM122 -106q15 29 34 43.5t50 14.5q18 0 35.5 -6
t37.5 -21l-101 -138q-12 -17 -29.5 -23t-33.5 -6q-29 0 -56 17z" />
    <glyph glyph-name="uni021A" unicode="&#x21a;" horiz-adv-x="587" 
d="M267 508h-187q1 31 5.5 60.5t17 52.5t36 36.5t64.5 13.5h468q1 -32 -3 -61.5t-16.5 -52t-37 -36t-64.5 -13.5h-87l-86 -508h-196zM178 -106q15 29 34 43.5t50 14.5q18 0 35.5 -6t37.5 -21l-101 -138q-12 -17 -29.5 -23t-33.5 -6q-29 0 -56 17z" />
    <glyph glyph-name="uni021B" unicode="&#x21b;" horiz-adv-x="416" 
d="M127 630q17 4 35.5 6t43.5 2q31 0 51 -7t31.5 -19t15.5 -27t4 -31q0 -6 -2 -19l-10 -59h142l-24 -149h-143l-22 -133q-4 -23 5.5 -33.5t26.5 -10.5q18 0 32 11.5t25 29.5q43 -12 63 -34.5t16 -61.5q-3 -22 -12 -36t-24 -28q-51 -46 -138 -46q-41 0 -76 9t-61 29.5
t-40.5 52.5t-14.5 79q0 14 1.5 27.5t3.5 29.5zM132 -106q15 29 34 43.5t50 14.5q18 0 35.5 -6t37.5 -21l-101 -138q-12 -17 -29.5 -23t-33.5 -6q-29 0 -56 17z" />
    <glyph glyph-name="dotlessj" unicode="&#x237;" horiz-adv-x="271" 
d="M105 478q17 4 35.5 6t43.5 2q31 0 51.5 -7t31.5 -19t15.5 -27t4.5 -31q0 -5 -0.5 -9.5t-1.5 -9.5l-49 -290q-5 -28 -11 -62t-15 -68t-20 -63t-24 -47q-29 -40 -67 -62t-97 -22q-53 0 -75 28t-22 67q0 17 3 35q33 1 53.5 8.5t34 23.5t21 42.5t14.5 66.5z" />
    <glyph glyph-name="apostrophe" unicode="&#x2bc;" horiz-adv-x="465" 
d="M139 507q26 5 47 21.5t21 37.5q0 11 -3.5 18t-7.5 14t-7.5 15.5t-3.5 23.5q0 10 3.5 21.5t12 22t23 17.5t36.5 7q38 0 52.5 -23t14.5 -53q0 -33 -12.5 -65.5t-36.5 -56.5q-18 -17 -44.5 -30t-50.5 -13q-20 0 -32 9.5t-12 33.5z" />
    <glyph glyph-name="circumflex" unicode="&#x2c6;" horiz-adv-x="465" 
d="M160 683q21 26 42.5 39.5t53.5 13.5q34 0 55.5 -12t34.5 -39l58 -124q-15 -10 -30 -14.5t-29 -4.5q-20 0 -34 7t-27 27l-36 57l-58 -61q-14 -15 -34.5 -22.5t-41.5 -7.5q-17 0 -31.5 5.5t-22.5 13.5z" />
    <glyph glyph-name="caron" unicode="&#x2c7;" horiz-adv-x="465" 
d="M60 717q15 10 30 14.5t29 4.5q20 0 33.5 -7t26.5 -27l37 -59l59 63q14 15 34 22.5t41 7.5q17 0 31.5 -5.5t22.5 -13.5l-100 -122q-21 -26 -42.5 -39.5t-53.5 -13.5q-34 0 -55.5 12t-34.5 39z" />
    <glyph glyph-name="uni02C9" unicode="&#x2c9;" horiz-adv-x="465" 
d="M329 681q41 0 56 -18t15 -44q0 -15 -3.5 -30.5t-8.5 -29.5h-252q-41 0 -56 18.5t-15 44.5q0 14 3.5 29.5t8.5 29.5h252z" />
    <glyph glyph-name="breve" unicode="&#x2d8;" horiz-adv-x="465" 
d="M65 708q11 6 26.5 10t26.5 4q16 0 25 -2.5t14.5 -7.5t8.5 -13t6 -19q5 -21 15 -32t30 -11q19 0 34 8.5t29 37.5q12 27 27 33t41 6q11 0 25 -4t27 -15q-26 -81 -72 -120t-118 -39q-71 0 -108 39.5t-37 124.5z" />
    <glyph glyph-name="dotaccent" unicode="&#x2d9;" horiz-adv-x="465" 
d="M144 620q0 48 29 71t69 23q38 0 58.5 -23t20.5 -49q0 -48 -29 -71t-69 -23q-39 0 -59 23t-20 49z" />
    <glyph glyph-name="ring" unicode="&#x2da;" horiz-adv-x="465" 
d="M233 543q-28 0 -50 9.5t-37.5 26t-23.5 38.5t-8 47t8 47.5t23.5 39t37.5 26.5t50 10q27 0 49 -10t37 -26.5t23.5 -38.5t8.5 -47t-8.5 -47t-23.5 -38.5t-37 -26.5t-49 -10zM233 608q23 0 35.5 17t12.5 39q0 23 -12.5 40t-35.5 17t-36 -16.5t-13 -39.5t13 -40t36 -17z" />
    <glyph glyph-name="ogonek" unicode="&#x2db;" horiz-adv-x="465" 
d="M343 3q-49 -29 -75.5 -56.5t-26.5 -54.5q0 -14 7 -19.5t15 -5.5q11 0 21 4.5t23 15.5q25 -24 25 -49q0 -30 -27.5 -50t-81.5 -20q-51 0 -76.5 25.5t-25.5 64.5q0 52 39.5 90.5t96.5 66.5z" />
    <glyph glyph-name="tilde" unicode="&#x2dc;" horiz-adv-x="465" 
d="M96 552q-26 15 -34.5 32.5t-8.5 36.5q0 15 9 29t24.5 25t36.5 18t44 7q22 0 39.5 -6t32 -13t27 -13t26.5 -6q16 0 35.5 6.5t40.5 35.5q26 -15 34.5 -32.5t8.5 -36.5q0 -18 -9 -32.5t-24.5 -25t-36.5 -16t-44 -5.5q-20 0 -37 6t-32 13t-29 13t-27 6q-16 0 -35.5 -6.5
t-40.5 -35.5z" />
    <glyph glyph-name="hungarumlaut" unicode="&#x2dd;" horiz-adv-x="465" 
d="M95 680q17 21 33.5 31t39.5 10q25 0 43.5 -12t38.5 -35l-126 -116q-22 -19 -48 -19q-20 0 -36 8.5t-33 25.5zM302 680q17 21 33.5 31t39.5 10q25 0 43.5 -12t38.5 -35l-126 -116q-22 -19 -48 -19q-20 0 -36 8.5t-33 25.5z" />
    <glyph glyph-name="uni0394" unicode="&#x394;" horiz-adv-x="664" 
d="M-6 0l317 655q27 10 59 15.5t61 5.5q54 0 86.5 -23.5t40.5 -74.5l89 -578h-653zM437 143l-31 275q-2 14 -3 33.5t-1 37.5q0 8 0.5 15.5t1.5 13.5h-3q-3 -11 -7.5 -24.5t-9.5 -27t-9.5 -26t-8.5 -21.5l-114 -276h185z" />
    <glyph glyph-name="Omega" unicode="&#x3a9;" horiz-adv-x="678" 
d="M123 0q-27 0 -45.5 6.5t-29 17.5t-15 26t-4.5 32t3.5 35t8.5 35h95q-33 42 -46 91.5t-13 84.5q0 70 21 134.5t63.5 113.5t106 78.5t148.5 29.5q65 0 115 -21.5t84.5 -57.5t52 -83.5t17.5 -99.5q0 -44 -7 -80.5t-21 -69t-37 -62t-54 -58.5h13q27 0 45.5 -6.5t29 -17.5
t15 -26t4.5 -32t-3.5 -35t-8.5 -35h-305l23 138q57 55 81.5 117.5t24.5 143.5q0 128 -83 128q-32 0 -57 -16.5t-42 -47.5t-26.5 -75t-9.5 -99q0 -12 2 -31t6 -40.5t11 -42.5t18 -37l-23 -138h-158z" />
    <glyph glyph-name="uni03BC" unicode="&#x3bc;" horiz-adv-x="588" 
d="M370 46q-14 -25 -35.5 -40t-54.5 -15q-25 0 -42 8.5t-30 22.5l-41 -240h-180l118 701q16 5 36 9t43 4q56 0 79.5 -20t23.5 -57v-13.5t-2 -14.5l-31 -179q-2 -10 -3 -18t-1 -15q0 -20 7.5 -28t22.5 -8q19 0 28.5 14t15.5 51l46 275q16 5 36 9t43 4q56 0 79.5 -20t23.5 -58
q0 -6 -0.5 -12.5t-1.5 -14.5l-32 -192q-2 -11 -4 -24t-2 -27q0 -18 7 -31.5t27 -13.5q8 0 17 0.5t13 2.5l6 -90q-26 -12 -50.5 -19t-64.5 -7q-27 0 -53.5 12t-43.5 44z" />
    <glyph glyph-name="pi" unicode="&#x3c0;" horiz-adv-x="655" 
d="M397 334h-64l-56 -334h-193l56 334h-79l25 149h605l-25 -149h-81l-25 -153q-2 -12 -2.5 -19.5t-0.5 -15.5q0 -18 7 -30.5t27 -12.5q8 0 17 0.5t13 2.5l6 -90q-26 -12 -59 -19t-74 -7q-69 0 -99 33.5t-31 87.5q0 8 0.5 21.5t2.5 21.5z" />
    <glyph glyph-name="Wgrave" unicode="&#x1e80;" horiz-adv-x="913" 
d="M90 655q23 8 50.5 13.5t54.5 5.5q46 0 74 -19.5t33 -66.5l37 -318h4l97 210l-27 182q31 6 58.5 10t47.5 4q51 0 72 -21t23 -60l21 -325h5l118 316q15 40 48.5 64t83.5 24q34 0 58 -4.5t42 -11.5l-314 -663h-157l-39 262h-4l-127 -262h-148zM368 812q14 26 34 45.5
t52 19.5q23 0 41 -8.5t32 -22.5l93 -84q-14 -21 -33 -34t-42 -13q-12 0 -23 2.5t-25 11.5z" />
    <glyph glyph-name="wgrave" unicode="&#x1e81;" horiz-adv-x="732" 
d="M57 466q26 11 52 15.5t50 4.5q44 0 65 -28t26 -80l23 -206h3l63 133l-31 166q26 9 45.5 12t43.5 3t40 -7.5t26 -22t15.5 -34.5t7.5 -44l17 -206h3l67 215q13 45 42 72t74 27q28 0 51.5 -6t43.5 -14l-215 -472h-163l-27 144l-68 -144h-163zM245 686q21 21 46.5 35t50.5 14
q19 0 36 -9.5t31 -32.5l73 -124q-14 -14 -35 -22t-42 -8q-15 0 -28.5 5t-23.5 16z" />
    <glyph glyph-name="Wacute" unicode="&#x1e82;" horiz-adv-x="913" 
d="M90 655q23 8 50.5 13.5t54.5 5.5q46 0 74 -19.5t33 -66.5l37 -318h4l97 210l-27 182q31 6 58.5 10t47.5 4q51 0 72 -21t23 -60l21 -325h5l118 316q15 40 48.5 64t83.5 24q34 0 58 -4.5t42 -11.5l-314 -663h-157l-39 262h-4l-127 -262h-148zM527 846q17 15 36 23t42 8
q32 0 52.5 -19.5t34.5 -45.5l-144 -83q-14 -8 -26.5 -11t-24.5 -3q-23 0 -40 13t-31 34z" />
    <glyph glyph-name="wacute" unicode="&#x1e83;" horiz-adv-x="732" 
d="M57 466q26 11 52 15.5t50 4.5q44 0 65 -28t26 -80l23 -206h3l63 133l-31 166q26 9 45.5 12t43.5 3t40 -7.5t26 -22t15.5 -34.5t7.5 -44l17 -206h3l67 215q13 45 42 72t74 27q28 0 51.5 -6t43.5 -14l-215 -472h-163l-27 144l-68 -144h-163zM422 689q19 23 36.5 34t42.5 11
q27 0 47.5 -13t42.5 -39l-134 -122q-24 -21 -52 -21q-22 0 -40 9t-36 28z" />
    <glyph glyph-name="Wdieresis" unicode="&#x1e84;" horiz-adv-x="913" 
d="M90 655q23 8 50.5 13.5t54.5 5.5q46 0 74 -19.5t33 -66.5l37 -318h4l97 210l-27 182q31 6 58.5 10t47.5 4q51 0 72 -21t23 -60l21 -325h5l118 316q15 40 48.5 64t83.5 24q34 0 58 -4.5t42 -11.5l-314 -663h-157l-39 262h-4l-127 -262h-148zM347 795q0 46 27.5 68t65.5 22
q36 0 55.5 -21.5t19.5 -46.5q0 -46 -28 -68t-66 -22q-37 0 -55.5 21.5t-18.5 46.5zM570 795q0 46 28 68t66 22q36 0 55 -21.5t19 -46.5q0 -46 -27.5 -68t-65.5 -22q-37 0 -56 21.5t-19 46.5z" />
    <glyph glyph-name="wdieresis" unicode="&#x1e85;" horiz-adv-x="732" 
d="M57 466q26 11 52 15.5t50 4.5q44 0 65 -28t26 -80l23 -206h3l63 133l-31 166q26 9 45.5 12t43.5 3t40 -7.5t26 -22t15.5 -34.5t7.5 -44l17 -206h3l67 215q13 45 42 72t74 27q28 0 51.5 -6t43.5 -14l-215 -472h-163l-27 144l-68 -144h-163zM242 619q0 46 27.5 68t65.5 22
q36 0 55.5 -21.5t19.5 -46.5q0 -46 -28 -68t-66 -22q-37 0 -55.5 21.5t-18.5 46.5zM465 619q0 46 28 68t66 22q36 0 55 -21.5t19 -46.5q0 -46 -27.5 -68t-65.5 -22q-37 0 -56 21.5t-19 46.5z" />
    <glyph glyph-name="Ygrave" unicode="&#x1ef2;" horiz-adv-x="611" 
d="M228 228l-137 415q30 15 61.5 23t57.5 8q42 0 62.5 -17.5t29.5 -57.5l50 -187l105 195q17 31 46 50t83 19q26 0 53 -7t53 -23l-267 -417l-39 -229h-196zM230 812q14 26 34 45.5t52 19.5q23 0 41 -8.5t32 -22.5l93 -84q-14 -21 -33 -34t-42 -13q-12 0 -23 2.5t-25 11.5z
" />
    <glyph glyph-name="ygrave" unicode="&#x1ef3;" horiz-adv-x="517" 
d="M181 -6h-40l-81 472q24 10 51.5 15t51.5 5q45 0 67.5 -29t24.5 -79l10 -209h4l76 218q14 41 44.5 70t80.5 29q28 0 55 -6t47 -14l-252 -525q-17 -34 -35.5 -64.5t-42.5 -53.5t-56 -36.5t-76 -13.5q-33 0 -60.5 6t-41.5 15q-22 14 -30.5 31.5t-8.5 34.5q0 10 2.5 22.5
t10 25.5t20.5 25t33 22q18 -25 32.5 -32.5t27.5 -7.5q25 0 41.5 9.5t31.5 40.5zM152 686q21 21 46.5 35t50.5 14q19 0 36 -9.5t31 -32.5l73 -124q-14 -14 -35 -22t-42 -8q-15 0 -28.5 5t-23.5 16z" />
    <glyph glyph-name="endash" unicode="&#x2013;" horiz-adv-x="500" 
d="M439 367q26 0 43.5 -6.5t28 -17t15 -25t4.5 -30.5q0 -19 -4.5 -38.5t-10.5 -37.5h-394q-26 0 -43.5 6.5t-28 17t-15 25t-4.5 30.5q0 19 4.5 38.5t10.5 37.5h394z" />
    <glyph glyph-name="emdash" unicode="&#x2014;" horiz-adv-x="1000" 
d="M939 367q26 0 43.5 -6.5t28 -17t15 -25t4.5 -30.5q0 -19 -4.5 -38.5t-10.5 -37.5h-894q-26 0 -43.5 6.5t-28 17t-15 25t-4.5 30.5q0 19 4.5 38.5t10.5 37.5h894z" />
    <glyph glyph-name="quoteleft" unicode="&#x2018;" horiz-adv-x="247" 
d="M340 654q-17 -3 -32.5 -10t-27.5 -17.5t-19.5 -23t-7.5 -25.5q0 -14 4.5 -22.5t9.5 -17.5t9.5 -20.5t4.5 -29.5q0 -12 -4.5 -27.5t-15.5 -28.5t-29.5 -22t-45.5 -9q-24 0 -40.5 8t-26.5 21.5t-14.5 31t-4.5 36.5q0 42 15.5 83.5t47.5 72.5q23 22 56.5 38.5t64.5 16.5
q25 0 40.5 -12t15.5 -43z" />
    <glyph glyph-name="quoteright" unicode="&#x2019;" horiz-adv-x="247" 
d="M65 456q16 3 32 10t28 17.5t19.5 22.5t7.5 26q0 13 -4.5 22t-9.5 18t-9.5 20.5t-4.5 29.5q0 12 4.5 27.5t15.5 28.5t29.5 22t45.5 9q24 0 40.5 -8t26.5 -21.5t14.5 -31t4.5 -36.5q0 -42 -15.5 -83.5t-47.5 -72.5q-23 -22 -56.5 -38.5t-64.5 -16.5q-25 0 -40.5 12
t-15.5 43z" />
    <glyph glyph-name="quotesinglbase" unicode="&#x201a;" horiz-adv-x="256" 
d="M-27 -83q16 3 32 10t28 17.5t19.5 22.5t7.5 26q0 13 -4.5 22t-9.5 18t-9.5 20.5t-4.5 29.5q0 12 4.5 27.5t15.5 28.5t29.5 22t45.5 9q24 0 40.5 -8t26.5 -21.5t14.5 -31t4.5 -36.5q0 -42 -15.5 -83.5t-47.5 -72.5q-23 -22 -56.5 -38.5t-64.5 -16.5q-25 0 -40.5 12
t-15.5 43z" />
    <glyph glyph-name="quotedblleft" unicode="&#x201c;" horiz-adv-x="484" 
d="M577 654q-17 -3 -32.5 -10t-27.5 -17.5t-19.5 -23t-7.5 -25.5q0 -14 4.5 -22.5t9.5 -17.5t9.5 -20.5t4.5 -29.5q0 -12 -4.5 -27.5t-15.5 -28.5t-29.5 -22t-45.5 -9q-24 0 -40.5 8t-26.5 21.5t-14.5 31t-4.5 36.5q0 42 15.5 83.5t47.5 72.5q23 22 56.5 38.5t64.5 16.5
q25 0 40.5 -12t15.5 -43zM340 654q-17 -3 -32.5 -10t-27.5 -17.5t-19.5 -23t-7.5 -25.5q0 -14 4.5 -22.5t9.5 -17.5t9.5 -20.5t4.5 -29.5q0 -12 -4.5 -27.5t-15.5 -28.5t-29.5 -22t-45.5 -9q-24 0 -40.5 8t-26.5 21.5t-14.5 31t-4.5 36.5q0 42 15.5 83.5t47.5 72.5
q23 22 56.5 38.5t64.5 16.5q25 0 40.5 -12t15.5 -43z" />
    <glyph glyph-name="quotedblright" unicode="&#x201d;" horiz-adv-x="484" 
d="M302 456q16 3 32 10t28 17.5t19.5 22.5t7.5 26q0 13 -4.5 22t-9.5 18t-9.5 20.5t-4.5 29.5q0 12 4.5 27.5t15.5 28.5t29.5 22t45.5 9q24 0 40.5 -8t26.5 -21.5t14.5 -31t4.5 -36.5q0 -42 -15.5 -83.5t-47.5 -72.5q-23 -22 -56.5 -38.5t-64.5 -16.5q-25 0 -40.5 12
t-15.5 43zM65 456q16 3 32 10t28 17.5t19.5 22.5t7.5 26q0 13 -4.5 22t-9.5 18t-9.5 20.5t-4.5 29.5q0 12 4.5 27.5t15.5 28.5t29.5 22t45.5 9q24 0 40.5 -8t26.5 -21.5t14.5 -31t4.5 -36.5q0 -42 -15.5 -83.5t-47.5 -72.5q-23 -22 -56.5 -38.5t-64.5 -16.5q-25 0 -40.5 12
t-15.5 43z" />
    <glyph glyph-name="quotedblbase" unicode="&#x201e;" horiz-adv-x="493" 
d="M210 -83q16 3 32 10t28 17.5t19.5 22.5t7.5 26q0 13 -4.5 22t-9.5 18t-9.5 20.5t-4.5 29.5q0 12 4.5 27.5t15.5 28.5t29.5 22t45.5 9q24 0 40.5 -8t26.5 -21.5t14.5 -31t4.5 -36.5q0 -42 -15.5 -83.5t-47.5 -72.5q-23 -22 -56.5 -38.5t-64.5 -16.5q-25 0 -40.5 12
t-15.5 43zM-27 -83q16 3 32 10t28 17.5t19.5 22.5t7.5 26q0 13 -4.5 22t-9.5 18t-9.5 20.5t-4.5 29.5q0 12 4.5 27.5t15.5 28.5t29.5 22t45.5 9q24 0 40.5 -8t26.5 -21.5t14.5 -31t4.5 -36.5q0 -42 -15.5 -83.5t-47.5 -72.5q-23 -22 -56.5 -38.5t-64.5 -16.5q-25 0 -40.5 12
t-15.5 43z" />
    <glyph glyph-name="dagger" unicode="&#x2020;" horiz-adv-x="469" 
d="M205 363h-47q-47 0 -64 21t-17 50q0 17 4 33.5t9 32.5h138l29 168q12 4 24.5 5.5t30.5 1.5q34 0 55 -21.5t20 -50.5v-4.5t-1 -6.5l-16 -92h51q47 0 63.5 -20.5t16.5 -49.5q0 -17 -4 -34t-9 -33h-141l-81 -481h-142z" />
    <glyph glyph-name="daggerdbl" unicode="&#x2021;" horiz-adv-x="469" 
d="M149 36h-46q-47 0 -64 21t-17 50q0 17 4 33.5t9 32.5h137l35 207h-47q-47 0 -64 21t-17 50q0 17 4 33.5t9 32.5h138l26 151q12 4 24.5 5.5t30.5 1.5q34 0 55 -21.5t20 -50.5v-4.5t-1 -6.5l-13 -75h51q47 0 63.5 -20.5t16.5 -49.5q0 -17 -4 -34t-9 -33h-141l-35 -207h52
q47 0 63.5 -20.5t16.5 -49.5q0 -17 -4 -34t-9 -33h-142l-26 -154h-142z" />
    <glyph glyph-name="bullet" unicode="&#x2022;" horiz-adv-x="367" 
d="M77 350q0 30 10 56t29 45.5t45.5 31t58.5 11.5t58.5 -11.5t45.5 -31t29.5 -45.5t10.5 -56q0 -29 -10.5 -55t-30 -45.5t-46 -31t-57.5 -11.5q-32 0 -58.5 11.5t-45.5 31t-29 45.5t-10 55z" />
    <glyph glyph-name="ellipsis" unicode="&#x2026;" horiz-adv-x="807" 
d="M308 65q0 28 8.5 48t23.5 33.5t34.5 20t41.5 6.5q21 0 37.5 -7t27.5 -18.5t16.5 -26t5.5 -28.5q0 -56 -32 -82t-76 -26q-22 0 -38 7t-27 18.5t-16.5 26t-5.5 28.5zM572 65q0 28 8.5 48t23.5 33.5t34.5 20t41.5 6.5q21 0 37.5 -7t27.5 -18.5t16.5 -26t5.5 -28.5
q0 -56 -32 -82t-76 -26q-22 0 -38 7t-27 18.5t-16.5 26t-5.5 28.5zM44 65q0 28 8.5 48t23.5 33.5t34.5 20t41.5 6.5q21 0 37.5 -7t27.5 -18.5t16.5 -26t5.5 -28.5q0 -56 -32 -82t-76 -26q-22 0 -38 7t-27 18.5t-16.5 26t-5.5 28.5z" />
    <glyph glyph-name="perthousand" unicode="&#x2030;" horiz-adv-x="1141" 
d="M553 616q11 15 22 27.5t25 21.5t32 14.5t43 5.5q15 0 36.5 -3t32.5 -9l-463 -673h-155zM209 327q-38 0 -64.5 12t-43.5 32.5t-25 46.5t-8 54q0 39 10.5 77t33 68t58 48.5t84.5 18.5q37 0 64 -12.5t43.5 -32.5t24.5 -46t8 -54q0 -41 -10.5 -79.5t-33 -68t-57.5 -47
t-84 -17.5zM220 419q17 0 27.5 15.5t16.5 35.5t8 40.5t2 31.5q0 17 -6.5 34t-27.5 17q-23 0 -38 -32.5t-15 -91.5q0 -18 6.5 -34t26.5 -16zM612 -18q-38 0 -64.5 12t-43.5 32.5t-25 46.5t-8 54q0 39 10.5 77t33 68t58 48.5t84.5 18.5q37 0 64 -12.5t43.5 -32.5t24.5 -46
t8 -54q0 -41 -10.5 -79.5t-33 -68t-57.5 -47t-84 -17.5zM623 74q17 0 27.5 15.5t16.5 35.5t8 40.5t2 31.5q0 17 -6.5 34t-27.5 17q-23 0 -38 -32.5t-15 -91.5q0 -18 6.5 -34t26.5 -16zM971 -18q-38 0 -64.5 12t-43.5 32.5t-25 46.5t-8 54q0 39 10.5 77t33 68t58 48.5
t84.5 18.5q37 0 64 -12.5t43.5 -32.5t24.5 -46t8 -54q0 -41 -10.5 -79.5t-33 -68t-57.5 -47t-84 -17.5zM982 74q17 0 27.5 15.5t16.5 35.5t8 40.5t2 31.5q0 17 -6.5 34t-27.5 17q-23 0 -38 -32.5t-15 -91.5q0 -18 6.5 -34t26.5 -16z" />
    <glyph glyph-name="guilsinglleft" unicode="&#x2039;" horiz-adv-x="296" 
d="M92 195q-16 17 -23 34.5t-7 35.5q0 34 15 59.5t46 49.5l168 132q17 -26 25 -44.5t8 -36.5q0 -16 -7.5 -40t-30.5 -47l-55 -58l40 -68q14 -25 14 -47q0 -29 -14 -54.5t-46 -57.5z" />
    <glyph glyph-name="guilsinglright" unicode="&#x203a;" horiz-adv-x="296" 
d="M127 279l-40 68q-14 25 -14 47q0 29 14 54.5t46 57.5l133 -142q16 -17 23 -34.5t7 -35.5q0 -34 -15 -59.5t-46 -49.5l-168 -132q-17 26 -25 44.5t-8 36.5q0 16 7.5 40t30.5 47z" />
    <glyph glyph-name="fraction" unicode="&#x2044;" horiz-adv-x="89" 
d="M137 616q10 16 20 28.5t23 21.5t30.5 14t42.5 5q15 0 33.5 -3t29.5 -9l-387 -673h-143z" />
    <glyph glyph-name="zerosuperior" unicode="&#x2070;" 
d="M212 275q-42 0 -70.5 14.5t-45 38t-23.5 51.5t-7 55q0 51 12 96.5t36.5 79.5t62 54t88.5 20q42 0 69.5 -14.5t44 -38t23.5 -52t7 -55.5q0 -52 -11.5 -97.5t-35.5 -79t-61.5 -53t-88.5 -19.5zM224 377q20 0 35.5 33t17.5 114q1 31 -5.5 44t-21.5 13q-20 0 -36 -33
t-18 -115q-1 -30 6 -43t22 -13z" />
    <glyph glyph-name="foursuperior" unicode="&#x2074;" 
d="M73 441l165 201q17 20 38.5 34t59.5 14q19 0 34 -4.5t24 -9.5l-38 -229h3q25 0 33.5 -11t8.5 -30q0 -12 -3 -24l-5 -20h-51l-12 -73h-121l11 73h-160zM235 448l18 109h-5l-90 -109h77z" />
    <glyph glyph-name="fivesuperior" unicode="&#x2075;" 
d="M150 681h244q0 -21 -2.5 -39t-10.5 -31.5t-23 -21t-41 -7.5h-79l-9 -45q8 1 17.5 2t20.5 1q51 0 79 -30t28 -78q0 -40 -12.5 -69.5t-34.5 -49t-52 -29t-66 -9.5q-23 0 -47 4t-45 13q-19 8 -32 21.5t-15 30.5t7.5 35.5t38.5 39.5q20 -23 40 -32t41 -9q22 0 33.5 13
t11.5 33q0 38 -44 38q-27 0 -56 -16l-37 18z" />
    <glyph glyph-name="sixsuperior" unicode="&#x2076;" 
d="M209 521q12 9 27.5 15.5t36.5 6.5q29 0 49.5 -9t33.5 -24t19 -35t6 -42q-1 -33 -10.5 -61.5t-29.5 -50t-50 -34t-72 -12.5q-66 0 -104 39.5t-38 108.5q0 61 16 110.5t46 84.5t74.5 54t101.5 19q37 0 53.5 -12t16.5 -37q0 -11 -4 -24t-15 -28q-10 2 -23 3t-25 1
q-26 0 -44 -6t-31 -16t-21 -23.5t-13 -27.5zM202 454q-2 -5 -3 -15t-1 -18q0 -48 28 -48q13 0 23.5 13.5t10.5 39.5q0 16 -5.5 28t-20.5 12q-8 0 -17.5 -3.5t-14.5 -8.5z" />
    <glyph glyph-name="sevensuperior" unicode="&#x2077;" 
d="M267 570h-168q1 21 3.5 41t11 35.5t25 25t43.5 9.5h206q21 0 27.5 -8t6.5 -19q0 -6 -2 -14l-7 -47l-179 -304h-136z" />
    <glyph glyph-name="eightsuperior" unicode="&#x2078;" 
d="M144 500q-20 15 -31 33t-11 44q0 27 12 48t32.5 36t47.5 22.5t58 7.5q68 0 101.5 -30t33.5 -75q0 -41 -19 -61.5t-41 -31.5q29 -15 40 -36t11 -49q0 -32 -13 -56.5t-35 -41.5t-51.5 -26t-62.5 -9q-77 0 -113 33.5t-36 83.5q0 23 6.5 40.5t17.5 30t24.5 22t28.5 15.5z
M220 365q12 0 23.5 12t11.5 34q0 35 -32 35q-12 0 -23.5 -12t-11.5 -34q0 -35 32 -35zM243 532q11 0 20.5 10.5t9.5 29.5q0 31 -27 31q-11 0 -21 -10.5t-10 -30.5q0 -30 28 -30z" />
    <glyph glyph-name="ninesuperior" unicode="&#x2079;" 
d="M101 376q10 -2 23.5 -3t25.5 -1q26 0 43.5 5.5t28.5 15.5t18 23t13 27q-13 -9 -27.5 -15.5t-36.5 -6.5q-29 0 -49.5 9t-34 24.5t-20 36t-6.5 42.5q1 33 11 61.5t30 50t51 34t73 12.5q65 0 104 -39.5t39 -108.5q0 -61 -14.5 -110.5t-44 -84.5t-73 -54t-101.5 -19
q-73 0 -73 49q0 11 4 24t16 28zM261 512q2 5 3 15t1 18q0 48 -29 48q-12 0 -23 -13.5t-11 -39.5q0 -16 6 -28.5t20 -12.5q8 0 18 4t15 9z" />
    <glyph glyph-name="zeroinferior" unicode="&#x2080;" 
d="M193 -13q-42 0 -70.5 14.5t-45 38t-23.5 51.5t-7 55q0 51 12 96.5t36.5 79.5t62 54t88.5 20q42 0 69.5 -14.5t44 -38t23.5 -52t7 -55.5q0 -52 -11.5 -97.5t-35.5 -79t-61.5 -53t-88.5 -19.5zM205 89q20 0 35.5 33t17.5 114q1 31 -5.5 44t-21.5 13q-20 0 -36 -33t-18 -115
q-1 -30 6 -43t22 -13z" />
    <glyph glyph-name="oneinferior" unicode="&#x2081;" 
d="M199 240l-97 -45q-25 36 -25 71q0 43 49 66l114 54q15 8 29 12.5t35 4.5q32 0 49 -23l-63 -379h-131z" />
    <glyph glyph-name="twoinferior" unicode="&#x2082;" 
d="M66 88q18 12 48 33t59.5 45.5t51 50t21.5 47.5q0 35 -35 35q-22 0 -40 -10.5t-44 -35.5q-19 11 -32 28t-13 33q0 15 7 25t18 21q18 17 50 30t84 13q34 0 60.5 -9.5t44.5 -25.5t27 -38t9 -47q0 -44 -21.5 -78t-53.5 -59l-59 -45h50q37 0 50 -15.5t13 -37.5q0 -11 -2 -23.5
t-5 -23.5h-301z" />
    <glyph glyph-name="threeinferior" unicode="&#x2083;" 
d="M163 237h42q22 0 31.5 10.5t9.5 23.5q0 12 -8 21.5t-31 9.5q-44 0 -81 -39q-18 11 -32.5 27.5t-14.5 30.5q0 24 20 42q23 22 55.5 31t70.5 9q65 0 104.5 -28t39.5 -76q0 -39 -21 -61.5t-49 -33.5q29 -19 39.5 -39t10.5 -46q0 -25 -11 -49t-32 -42.5t-52 -29.5t-72 -11
q-26 0 -49 3.5t-44 13.5q-19 8 -32 21.5t-15 30.5t8 35.5t38 39.5q22 -26 43 -35t44 -9t36 10.5t13 27.5q0 15 -10.5 24.5t-32.5 9.5h-30z" />
    <glyph glyph-name="fourinferior" unicode="&#x2084;" 
d="M44 153l165 201q17 20 38.5 34t59.5 14q19 0 34 -4.5t24 -9.5l-38 -229h3q25 0 33.5 -11t8.5 -30q0 -12 -3 -24l-5 -20h-51l-12 -73h-121l11 73h-160zM206 160l18 109h-5l-90 -109h77z" />
    <glyph glyph-name="fiveinferior" unicode="&#x2085;" 
d="M131 393h244q0 -21 -2.5 -39t-10.5 -31.5t-23 -21t-41 -7.5h-79l-9 -45q8 1 17.5 2t20.5 1q51 0 79 -30t28 -78q0 -40 -12.5 -69.5t-34.5 -49t-52 -29t-66 -9.5q-23 0 -47 4t-45 13q-19 8 -32 21.5t-15 30.5t7.5 35.5t38.5 39.5q20 -23 40 -32t41 -9q22 0 33.5 13
t11.5 33q0 38 -44 38q-27 0 -56 -16l-37 18z" />
    <glyph glyph-name="sixinferior" unicode="&#x2086;" 
d="M190 233q12 9 27.5 15.5t36.5 6.5q29 0 49.5 -9t33.5 -24t19 -35t6 -42q-1 -33 -10.5 -61.5t-29.5 -50t-50 -34t-72 -12.5q-66 0 -104 39.5t-38 108.5q0 61 16 110.5t46 84.5t74.5 54t101.5 19q37 0 53.5 -12t16.5 -37q0 -11 -4 -24t-15 -28q-10 2 -23 3t-25 1
q-26 0 -44 -6t-31 -16t-21 -23.5t-13 -27.5zM183 166q-2 -5 -3 -15t-1 -18q0 -48 28 -48q13 0 23.5 13.5t10.5 39.5q0 16 -5.5 28t-20.5 12q-8 0 -17.5 -3.5t-14.5 -8.5z" />
    <glyph glyph-name="seveninferior" unicode="&#x2087;" 
d="M244 282h-168q1 21 3.5 41t11 35.5t25 25t43.5 9.5h206q21 0 27.5 -8t6.5 -19q0 -6 -2 -14l-7 -47l-179 -304h-136z" />
    <glyph glyph-name="eightinferior" unicode="&#x2088;" 
d="M135 212q-20 15 -31 33t-11 44q0 27 12 48t32.5 36t47.5 22.5t58 7.5q68 0 101.5 -30t33.5 -75q0 -41 -19 -61.5t-41 -31.5q29 -15 40 -36t11 -49q0 -32 -13 -56.5t-35 -41.5t-51.5 -26t-62.5 -9q-77 0 -113 33.5t-36 83.5q0 23 6.5 40.5t17.5 30t24.5 22t28.5 15.5z
M211 77q12 0 23.5 12t11.5 34q0 35 -32 35q-12 0 -23.5 -12t-11.5 -34q0 -35 32 -35zM234 244q11 0 20.5 10.5t9.5 29.5q0 31 -27 31q-11 0 -21 -10.5t-10 -30.5q0 -30 28 -30z" />
    <glyph glyph-name="nineinferior" unicode="&#x2089;" 
d="M82 88q10 -2 23.5 -3t25.5 -1q26 0 43.5 5.5t28.5 15.5t18 23t13 27q-13 -9 -27.5 -15.5t-36.5 -6.5q-29 0 -49.5 9t-34 24.5t-20 36t-6.5 42.5q1 33 11 61.5t30 50t51 34t73 12.5q65 0 104 -39.5t39 -108.5q0 -61 -14.5 -110.5t-44 -84.5t-73 -54t-101.5 -19
q-73 0 -73 49q0 11 4 24t16 28zM242 224q2 5 3 15t1 18q0 48 -29 48q-12 0 -23 -13.5t-11 -39.5q0 -16 6 -28.5t20 -12.5q8 0 18 4t15 9z" />
    <glyph glyph-name="Euro" unicode="&#x20ac;" horiz-adv-x="590" 
d="M57 294h63q1 16 3 31.5t5 32.5h-58l9 57h62q15 50 40.5 96t63.5 81.5t89.5 57t118.5 21.5q59 0 95 -12t65 -43q14 -14 20 -31.5t6 -35.5q0 -41 -25.5 -62.5t-67.5 -35.5q-15 36 -38.5 50t-60.5 14t-67.5 -26.5t-46.5 -73.5h136l-9 -57h-142q-2 -15 -4 -31t-3 -33h136
l-9 -57h-125q2 -30 10 -48.5t19 -28t25 -13t28 -3.5q38 0 66 17t57 61q43 -21 62 -42.5t19 -51.5q0 -24 -14 -47.5t-39 -43.5q-42 -34 -89.5 -44.5t-98.5 -10.5q-65 0 -109.5 20.5t-72.5 55t-41.5 81t-15.5 98.5h-71z" />
    <glyph glyph-name="afii61289" unicode="&#x2113;" horiz-adv-x="456" 
d="M212 289q54 60 85.5 123.5t31.5 132.5q0 48 -16 67.5t-38 19.5q-26 0 -44.5 -33t-18.5 -109v-201zM135 437q0 71 9.5 119.5t28 78t45 42.5t61.5 13q51 0 84 -37.5t33 -106.5q0 -91 -48 -172.5t-136 -163.5v-20q0 -41 6 -66.5t16.5 -39.5t25 -19.5t31.5 -5.5
q32 0 61.5 16.5t45.5 39.5l19.5 -19.5t20.5 -18.5q-27 -40 -65.5 -63t-90.5 -23q-70 0 -108 39.5t-38 127.5q-13 -10 -24.5 -18t-24.5 -17q-5 11 -11.5 22t-13.5 22q19 13 37 27.5t36 30.5v212z" />
    <glyph glyph-name="trademark" unicode="&#x2122;" horiz-adv-x="834" 
d="M457 661q8 4 27.5 7t34.5 3q29 0 46 -12t24 -32l62 -183l61 181q9 26 30.5 36t40.5 10t36.5 -3t25.5 -7l19 -364h-112l-8 175l-47 -129h-98l-45 125l-9 -171h-113zM185 565h-98q-3 14 -4 27.5t-1 18.5q0 10 2.5 20t10 18t21.5 12.5t38 4.5h252q3 -12 4 -24.5t1 -17.5
q0 -10 -3 -20.5t-10.5 -19t-22 -14t-36.5 -5.5h-33v-268h-121v268z" />
    <glyph glyph-name="uni2126" unicode="&#x2126;" horiz-adv-x="678" 
d="M123 0q-27 0 -45.5 6.5t-29 17.5t-15 26t-4.5 32t3.5 35t8.5 35h95q-33 42 -46 91.5t-13 84.5q0 70 21 134.5t63.5 113.5t106 78.5t148.5 29.5q65 0 115 -21.5t84.5 -57.5t52 -83.5t17.5 -99.5q0 -44 -7 -80.5t-21 -69t-37 -62t-54 -58.5h13q27 0 45.5 -6.5t29 -17.5
t15 -26t4.5 -32t-3.5 -35t-8.5 -35h-305l23 138q57 55 81.5 117.5t24.5 143.5q0 128 -83 128q-32 0 -57 -16.5t-42 -47.5t-26.5 -75t-9.5 -99q0 -12 2 -31t6 -40.5t11 -42.5t18 -37l-23 -138h-158z" />
    <glyph glyph-name="estimated" unicode="&#x212e;" horiz-adv-x="742" 
d="M230 110q75 -75 183 -75q79 0 137.5 35.5t106.5 116.5l44 -26q-29 -45 -59 -77.5t-64 -53.5t-74.5 -30.5t-90.5 -9.5q-75 0 -135 27.5t-102.5 74.5t-65.5 111t-23 137t23 137t65.5 111.5t102.5 74.5t135 27q73 0 133 -26t103 -72.5t67 -111t25 -140.5h-511v-230zM598 386
v183q-79 76 -186 76q-109 0 -182 -76v-183h368z" />
    <glyph glyph-name="onethird" unicode="&#x2153;" horiz-adv-x="900" 
d="M208 528l-97 -45q-25 36 -25 71q0 43 49 66l114 54q15 8 29 12.5t35 4.5q32 0 49 -23l-63 -379h-131zM540 616q10 16 20 28.5t23 21.5t30.5 14t42.5 5q15 0 33.5 -3t29.5 -9l-387 -673h-143zM661 237h42q22 0 31.5 10.5t9.5 23.5q0 12 -8 21.5t-31 9.5q-44 0 -81 -39
q-18 11 -32.5 27.5t-14.5 30.5q0 24 20 42q23 22 55.5 31t70.5 9q65 0 104.5 -28t39.5 -76q0 -39 -21 -61.5t-49 -33.5q29 -19 39.5 -39t10.5 -46q0 -25 -11 -49t-32 -42.5t-52 -29.5t-72 -11q-26 0 -49 3.5t-44 13.5q-19 8 -32 21.5t-15 30.5t8 35.5t38 39.5q22 -26 43 -35
t44 -9t36 10.5t13 27.5q0 15 -10.5 24.5t-32.5 9.5h-30z" />
    <glyph glyph-name="twothirds" unicode="&#x2154;" horiz-adv-x="900" 
d="M75 376q18 12 48 33t59.5 45.5t51 50t21.5 47.5q0 35 -35 35q-22 0 -40 -10.5t-44 -35.5q-19 11 -32 28t-13 33q0 15 7 25t18 21q18 17 50 30t84 13q34 0 60.5 -9.5t44.5 -25.5t27 -38t9 -47q0 -44 -21.5 -78t-53.5 -59l-59 -45h50q37 0 50 -15.5t13 -37.5
q0 -11 -2 -23.5t-5 -23.5h-301zM575 616q10 16 20 28.5t23 21.5t30.5 14t42.5 5q15 0 33.5 -3t29.5 -9l-387 -673h-143zM661 237h42q22 0 31.5 10.5t9.5 23.5q0 12 -8 21.5t-31 9.5q-44 0 -81 -39q-18 11 -32.5 27.5t-14.5 30.5q0 24 20 42q23 22 55.5 31t70.5 9
q65 0 104.5 -28t39.5 -76q0 -39 -21 -61.5t-49 -33.5q29 -19 39.5 -39t10.5 -46q0 -25 -11 -49t-32 -42.5t-52 -29.5t-72 -11q-26 0 -49 3.5t-44 13.5q-19 8 -32 21.5t-15 30.5t8 35.5t38 39.5q22 -26 43 -35t44 -9t36 10.5t13 27.5q0 15 -10.5 24.5t-32.5 9.5h-30z" />
    <glyph glyph-name="onefifth" unicode="&#x2155;" horiz-adv-x="900" 
d="M208 528l-97 -45q-25 36 -25 71q0 43 49 66l114 54q15 8 29 12.5t35 4.5q32 0 49 -23l-63 -379h-131zM548 616q10 16 20 28.5t23 21.5t30.5 14t42.5 5q15 0 33.5 -3t29.5 -9l-387 -673h-143zM629 393h244q0 -21 -2.5 -39t-10.5 -31.5t-23 -21t-41 -7.5h-79l-9 -45
q8 1 17.5 2t20.5 1q51 0 79 -30t28 -78q0 -40 -12.5 -69.5t-34.5 -49t-52 -29t-66 -9.5q-23 0 -47 4t-45 13q-19 8 -32 21.5t-15 30.5t7.5 35.5t38.5 39.5q20 -23 40 -32t41 -9q22 0 33.5 13t11.5 33q0 38 -44 38q-27 0 -56 -16l-37 18z" />
    <glyph glyph-name="twofifths" unicode="&#x2156;" horiz-adv-x="900" 
d="M85 376q18 12 48 33t59.5 45.5t51 50t21.5 47.5q0 35 -35 35q-22 0 -40 -10.5t-44 -35.5q-19 11 -32 28t-13 33q0 15 7 25t18 21q18 17 50 30t84 13q34 0 60.5 -9.5t44.5 -25.5t27 -38t9 -47q0 -44 -21.5 -78t-53.5 -59l-59 -45h50q37 0 50 -15.5t13 -37.5
q0 -11 -2 -23.5t-5 -23.5h-301zM595 616q10 16 20 28.5t23 21.5t30.5 14t42.5 5q15 0 33.5 -3t29.5 -9l-387 -673h-143zM639 393h244q0 -21 -2.5 -39t-10.5 -31.5t-23 -21t-41 -7.5h-79l-9 -45q8 1 17.5 2t20.5 1q51 0 79 -30t28 -78q0 -40 -12.5 -69.5t-34.5 -49t-52 -29
t-66 -9.5q-23 0 -47 4t-45 13q-19 8 -32 21.5t-15 30.5t7.5 35.5t38.5 39.5q20 -23 40 -32t41 -9q22 0 33.5 13t11.5 33q0 38 -44 38q-27 0 -56 -16l-37 18z" />
    <glyph glyph-name="threefifths" unicode="&#x2157;" horiz-adv-x="900" 
d="M192 525h42q22 0 31.5 10.5t9.5 23.5q0 12 -8 21.5t-31 9.5q-44 0 -81 -39q-18 11 -32.5 27.5t-14.5 30.5q0 24 20 42q23 22 55.5 31t70.5 9q65 0 104.5 -28t39.5 -76q0 -39 -21 -61.5t-49 -33.5q29 -19 39.5 -39t10.5 -46q0 -25 -11 -49t-32 -42.5t-52 -29.5t-72 -11
q-26 0 -49 3.5t-44 13.5q-19 8 -32 21.5t-15 30.5t8 35.5t38 39.5q22 -26 43 -35t44 -9t36 10.5t13 27.5q0 15 -10.5 24.5t-32.5 9.5h-30zM572 616q10 16 20 28.5t23 21.5t30.5 14t42.5 5q15 0 33.5 -3t29.5 -9l-387 -673h-143zM639 393h244q0 -21 -2.5 -39t-10.5 -31.5
t-23 -21t-41 -7.5h-79l-9 -45q8 1 17.5 2t20.5 1q51 0 79 -30t28 -78q0 -40 -12.5 -69.5t-34.5 -49t-52 -29t-66 -9.5q-23 0 -47 4t-45 13q-19 8 -32 21.5t-15 30.5t7.5 35.5t38.5 39.5q20 -23 40 -32t41 -9q22 0 33.5 13t11.5 33q0 38 -44 38q-27 0 -56 -16l-37 18z" />
    <glyph glyph-name="fourfifths" unicode="&#x2158;" horiz-adv-x="900" 
d="M83 441l165 201q17 20 38.5 34t59.5 14q19 0 34 -4.5t24 -9.5l-38 -229h3q25 0 33.5 -11t8.5 -30q0 -12 -3 -24l-5 -20h-51l-12 -73h-121l11 73h-160zM245 448l18 109h-5l-90 -109h77zM588 616q10 16 20 28.5t23 21.5t30.5 14t42.5 5q15 0 33.5 -3t29.5 -9l-387 -673
h-143zM639 393h244q0 -21 -2.5 -39t-10.5 -31.5t-23 -21t-41 -7.5h-79l-9 -45q8 1 17.5 2t20.5 1q51 0 79 -30t28 -78q0 -40 -12.5 -69.5t-34.5 -49t-52 -29t-66 -9.5q-23 0 -47 4t-45 13q-19 8 -32 21.5t-15 30.5t7.5 35.5t38.5 39.5q20 -23 40 -32t41 -9q22 0 33.5 13
t11.5 33q0 38 -44 38q-27 0 -56 -16l-37 18z" />
    <glyph glyph-name="onesixth" unicode="&#x2159;" horiz-adv-x="900" 
d="M208 528l-97 -45q-25 36 -25 71q0 43 49 66l114 54q15 8 29 12.5t35 4.5q32 0 49 -23l-63 -379h-131zM558 616q10 16 20 28.5t23 21.5t30.5 14t42.5 5q15 0 33.5 -3t29.5 -9l-387 -673h-143zM688 233q12 9 27.5 15.5t36.5 6.5q29 0 49.5 -9t33.5 -24t19 -35t6 -42
q-1 -33 -10.5 -61.5t-29.5 -50t-50 -34t-72 -12.5q-66 0 -104 39.5t-38 108.5q0 61 16 110.5t46 84.5t74.5 54t101.5 19q37 0 53.5 -12t16.5 -37q0 -11 -4 -24t-15 -28q-10 2 -23 3t-25 1q-26 0 -44 -6t-31 -16t-21 -23.5t-13 -27.5zM681 166q-2 -5 -3 -15t-1 -18
q0 -48 28 -48q13 0 23.5 13.5t10.5 39.5q0 16 -5.5 28t-20.5 12q-8 0 -17.5 -3.5t-14.5 -8.5z" />
    <glyph glyph-name="fivesixths" unicode="&#x215a;" horiz-adv-x="900" 
d="M150 681h244q0 -21 -2.5 -39t-10.5 -31.5t-23 -21t-41 -7.5h-79l-9 -45q8 1 17.5 2t20.5 1q51 0 79 -30t28 -78q0 -40 -12.5 -69.5t-34.5 -49t-52 -29t-66 -9.5q-23 0 -47 4t-45 13q-19 8 -32 21.5t-15 30.5t7.5 35.5t38.5 39.5q20 -23 40 -32t41 -9q22 0 33.5 13
t11.5 33q0 38 -44 38q-27 0 -56 -16l-37 18zM570 616q10 16 20 28.5t23 21.5t30.5 14t42.5 5q15 0 33.5 -3t29.5 -9l-387 -673h-143zM688 233q12 9 27.5 15.5t36.5 6.5q29 0 49.5 -9t33.5 -24t19 -35t6 -42q-1 -33 -10.5 -61.5t-29.5 -50t-50 -34t-72 -12.5q-66 0 -104 39.5
t-38 108.5q0 61 16 110.5t46 84.5t74.5 54t101.5 19q37 0 53.5 -12t16.5 -37q0 -11 -4 -24t-15 -28q-10 2 -23 3t-25 1q-26 0 -44 -6t-31 -16t-21 -23.5t-13 -27.5zM681 166q-2 -5 -3 -15t-1 -18q0 -48 28 -48q13 0 23.5 13.5t10.5 39.5q0 16 -5.5 28t-20.5 12
q-8 0 -17.5 -3.5t-14.5 -8.5z" />
    <glyph glyph-name="oneeighth" unicode="&#x215b;" horiz-adv-x="900" 
d="M208 528l-97 -45q-25 36 -25 71q0 43 49 66l114 54q15 8 29 12.5t35 4.5q32 0 49 -23l-63 -379h-131zM549 616q10 16 20 28.5t23 21.5t30.5 14t42.5 5q15 0 33.5 -3t29.5 -9l-387 -673h-143zM623 212q-20 15 -31 33t-11 44q0 27 12 48t32.5 36t47.5 22.5t58 7.5
q68 0 101.5 -30t33.5 -75q0 -41 -19 -61.5t-41 -31.5q29 -15 40 -36t11 -49q0 -32 -13 -56.5t-35 -41.5t-51.5 -26t-62.5 -9q-77 0 -113 33.5t-36 83.5q0 23 6.5 40.5t17.5 30t24.5 22t28.5 15.5zM699 77q12 0 23.5 12t11.5 34q0 35 -32 35q-12 0 -23.5 -12t-11.5 -34
q0 -35 32 -35zM722 244q11 0 20.5 10.5t9.5 29.5q0 31 -27 31q-11 0 -21 -10.5t-10 -30.5q0 -30 28 -30z" />
    <glyph glyph-name="threeeighths" unicode="&#x215c;" horiz-adv-x="900" 
d="M182 525h42q22 0 31.5 10.5t9.5 23.5q0 12 -8 21.5t-31 9.5q-44 0 -81 -39q-18 11 -32.5 27.5t-14.5 30.5q0 24 20 42q23 22 55.5 31t70.5 9q65 0 104.5 -28t39.5 -76q0 -39 -21 -61.5t-49 -33.5q29 -19 39.5 -39t10.5 -46q0 -25 -11 -49t-32 -42.5t-52 -29.5t-72 -11
q-26 0 -49 3.5t-44 13.5q-19 8 -32 21.5t-15 30.5t8 35.5t38 39.5q22 -26 43 -35t44 -9t36 10.5t13 27.5q0 15 -10.5 24.5t-32.5 9.5h-30zM556 616q10 16 20 28.5t23 21.5t30.5 14t42.5 5q15 0 33.5 -3t29.5 -9l-387 -673h-143zM623 212q-20 15 -31 33t-11 44q0 27 12 48
t32.5 36t47.5 22.5t58 7.5q68 0 101.5 -30t33.5 -75q0 -41 -19 -61.5t-41 -31.5q29 -15 40 -36t11 -49q0 -32 -13 -56.5t-35 -41.5t-51.5 -26t-62.5 -9q-77 0 -113 33.5t-36 83.5q0 23 6.5 40.5t17.5 30t24.5 22t28.5 15.5zM699 77q12 0 23.5 12t11.5 34q0 35 -32 35
q-12 0 -23.5 -12t-11.5 -34q0 -35 32 -35zM722 244q11 0 20.5 10.5t9.5 29.5q0 31 -27 31q-11 0 -21 -10.5t-10 -30.5q0 -30 28 -30z" />
    <glyph glyph-name="fiveeighths" unicode="&#x215d;" horiz-adv-x="900" 
d="M150 681h244q0 -21 -2.5 -39t-10.5 -31.5t-23 -21t-41 -7.5h-79l-9 -45q8 1 17.5 2t20.5 1q51 0 79 -30t28 -78q0 -40 -12.5 -69.5t-34.5 -49t-52 -29t-66 -9.5q-23 0 -47 4t-45 13q-19 8 -32 21.5t-15 30.5t7.5 35.5t38.5 39.5q20 -23 40 -32t41 -9q22 0 33.5 13
t11.5 33q0 38 -44 38q-27 0 -56 -16l-37 18zM563 616q10 16 20 28.5t23 21.5t30.5 14t42.5 5q15 0 33.5 -3t29.5 -9l-387 -673h-143zM623 212q-20 15 -31 33t-11 44q0 27 12 48t32.5 36t47.5 22.5t58 7.5q68 0 101.5 -30t33.5 -75q0 -41 -19 -61.5t-41 -31.5q29 -15 40 -36
t11 -49q0 -32 -13 -56.5t-35 -41.5t-51.5 -26t-62.5 -9q-77 0 -113 33.5t-36 83.5q0 23 6.5 40.5t17.5 30t24.5 22t28.5 15.5zM699 77q12 0 23.5 12t11.5 34q0 35 -32 35q-12 0 -23.5 -12t-11.5 -34q0 -35 32 -35zM722 244q11 0 20.5 10.5t9.5 29.5q0 31 -27 31
q-11 0 -21 -10.5t-10 -30.5q0 -30 28 -30z" />
    <glyph glyph-name="seveneighths" unicode="&#x215e;" horiz-adv-x="900" 
d="M267 570h-168q1 21 3.5 41t11 35.5t25 25t43.5 9.5h206q21 0 27.5 -8t6.5 -19q0 -6 -2 -14l-7 -47l-179 -304h-136zM528 616q10 16 20 28.5t23 21.5t30.5 14t42.5 5q15 0 33.5 -3t29.5 -9l-387 -673h-143zM623 212q-20 15 -31 33t-11 44q0 27 12 48t32.5 36t47.5 22.5
t58 7.5q68 0 101.5 -30t33.5 -75q0 -41 -19 -61.5t-41 -31.5q29 -15 40 -36t11 -49q0 -32 -13 -56.5t-35 -41.5t-51.5 -26t-62.5 -9q-77 0 -113 33.5t-36 83.5q0 23 6.5 40.5t17.5 30t24.5 22t28.5 15.5zM699 77q12 0 23.5 12t11.5 34q0 35 -32 35q-12 0 -23.5 -12
t-11.5 -34q0 -35 32 -35zM722 244q11 0 20.5 10.5t9.5 29.5q0 31 -27 31q-11 0 -21 -10.5t-10 -30.5q0 -30 28 -30z" />
    <glyph glyph-name="partialdiff" unicode="&#x2202;" horiz-adv-x="551" 
d="M186 691q91 -5 160 -31t115.5 -69.5t69.5 -103t23 -130.5q0 -195 -77 -285t-219 -90q-41 0 -78.5 13t-66.5 39.5t-46 67t-17 96.5q0 68 19 120t51 87t74.5 52.5t89.5 17.5q22 0 43.5 -4t44.5 -15q-29 41 -80.5 68t-139.5 30zM365 333q-20 14 -46 14q-14 0 -28 -7t-26 -24
t-20 -46t-9 -74q-1 -39 14 -55.5t32 -16.5q27 0 43 20t24.5 51t11 68t4.5 70z" />
    <glyph glyph-name="Delta" unicode="&#x2206;" horiz-adv-x="640" 
d="M308 671h203l140 -671h-677zM433 143l-51 338l-152 -338h203z" />
    <glyph glyph-name="product" unicode="&#x220f;" horiz-adv-x="651" 
d="M136 517h-66l25 155h633l-25 -155h-67l-109 -639h-196l108 639h-107l-108 -639h-196z" />
    <glyph glyph-name="summation" unicode="&#x2211;" horiz-adv-x="502" 
d="M-29 -10l234 294l-137 274l18 113h484l-25 -154h-257l117 -248l-190 -237h252l-25 -154h-489z" />
    <glyph glyph-name="minus" unicode="&#x2212;" horiz-adv-x="590" 
d="M103 412h476l-27 -160h-476z" />
    <glyph glyph-name="uni2215" unicode="&#x2215;" horiz-adv-x="396" 
d="M284 580q10 19 23 36.5t30.5 31t40.5 21t54 7.5q18 0 39.5 -4t35.5 -10l-342 -662h-182z" />
    <glyph glyph-name="uni2219" unicode="&#x2219;" horiz-adv-x="290" 
d="M77 319q0 28 8.5 48t23.5 33.5t34.5 20t41.5 6.5q21 0 37.5 -7t27.5 -18.5t16.5 -26t5.5 -28.5q0 -56 -32 -82t-76 -26q-22 0 -38 7t-27 18.5t-16.5 26t-5.5 28.5z" />
    <glyph glyph-name="radical" unicode="&#x221a;" horiz-adv-x="585" 
d="M147 252h-90l26 160h184l51 -149l233 495l146 -57l-331 -701h-119z" />
    <glyph glyph-name="infinity" unicode="&#x221e;" horiz-adv-x="620" 
d="M435 359q4 -19 12.5 -32.5t22.5 -13.5q23 0 33 18t10 39q0 17 -9 26.5t-20 9.5q-16 0 -28 -13t-21 -34zM333 281q-35 -57 -73.5 -80.5t-92.5 -23.5t-87 40.5t-33 106.5q0 48 13 87.5t36 68t55 44.5t71 16q19 0 38 -4t36.5 -15.5t32.5 -32t26 -52.5q35 57 73.5 80.5
t92.5 23.5t87 -40.5t33 -106.5q0 -48 -13 -87.5t-36 -68t-55 -44.5t-71 -16q-20 0 -39 4t-36 15.5t-32 32t-26 52.5zM253 358q-4 19 -12.5 32.5t-22.5 13.5q-23 0 -33 -18t-10 -39q0 -17 9 -26.5t20 -9.5q16 0 28 13t21 34z" />
    <glyph glyph-name="integral" unicode="&#x222b;" horiz-adv-x="364" 
d="M-66 -39q54 0 82 23.5t36 71.5l64 377q11 61 35 106t64.5 75t99 44.5t136.5 16.5l-26 -158q-54 0 -80.5 -23.5t-34.5 -71.5l-63 -377q-21 -123 -101.5 -181t-237.5 -61z" />
    <glyph glyph-name="approxequal" unicode="&#x2248;" horiz-adv-x="578" 
d="M84 483q28 21 68 37.5t91 16.5q30 0 58 -5.5t54 -13.5q26 -7 47 -11t53 -4q26 0 51.5 9.5t54.5 26.5l44 -136q-28 -21 -69 -37.5t-93 -16.5q-30 0 -56.5 5t-53.5 13q-13 3 -23.5 5.5t-21.5 5t-24 3.5t-29 1q-27 0 -53.5 -9t-54.5 -26zM49 240q28 21 68 37.5t91 16.5
q30 0 57.5 -5.5t54.5 -13.5q25 -7 46 -11t53 -4q26 0 52 9.5t55 26.5l44 -136q-28 -21 -69 -37.5t-93 -16.5q-30 0 -57 5.5t-53 12.5q-13 3 -24 6t-22 5t-24 3t-29 1q-27 0 -53 -9t-54 -26z" />
    <glyph glyph-name="notequal" unicode="&#x2260;" horiz-adv-x="590" 
d="M138 127h-82l26 160h170l56 79h-212l27 160h298l85 120l75 -43l-55 -77h91l-27 -160h-177l-56 -79h219l-27 -160h-306l-85 -121l-75 43z" />
    <glyph glyph-name="lessequal" unicode="&#x2264;" horiz-adv-x="590" 
d="M115 489l513 163l-28 -172l-266 -74l235 -75l-29 -165l-452 164zM63 160h476l-27 -160h-476z" />
    <glyph glyph-name="greaterequal" unicode="&#x2265;" horiz-adv-x="590" 
d="M93 338l266 74l-235 75l29 165l452 -164l-27 -159l-513 -163zM64 160h476l-27 -160h-476z" />
    <glyph glyph-name="lozenge" unicode="&#x25ca;" horiz-adv-x="496" 
d="M67 357l274 363l152 -363l-275 -373zM351 359l-46 122l-99 -126l47 -131z" />
    <glyph glyph-name="fi" unicode="&#xf001;" horiz-adv-x="555" 
d="M102 469q8 54 24 99.5t46.5 78.5t79 51.5t120.5 18.5q46 0 88.5 -13.5t66.5 -35.5q16 -14 25.5 -32.5t9.5 -36.5q1 -35 -23 -58.5t-73 -29.5q-7 26 -30.5 43.5t-52.5 17.5q-39 0 -61 -17.5t-27 -49.5l-5 -29h291l-60 -357l-4 -28t-2 -28t1 -27t5 -26q-17 -8 -39.5 -14.5
t-54.5 -6.5q-57 0 -80 20.5t-22 62.5v11t1 11l39 233h-96l-53 -349q-17 -107 -68 -160t-148 -53q-32 0 -63 4t-61 19q-27 14 -39 34t-12 43q0 26 15 51.5t41 41.5q13 -18 31.5 -28.5t44.5 -10.5q34 0 49 15.5t20 47.5z" />
    <glyph glyph-name="fl" unicode="&#xf002;" horiz-adv-x="572" 
d="M102 469q8 53 25.5 98.5t48.5 78.5t78.5 52t116.5 19q63 0 131 -21t123 -62l-86 -515l-4 -28t-2 -28t1 -27t5 -26q-17 -8 -39.5 -14.5t-54.5 -6.5q-57 0 -80 20.5t-22 62.5v11t1 11l78 461q-11 7 -22.5 12t-33.5 5q-63 0 -72 -65l-4 -31h78l-24 -149h-75l-53 -349
q-17 -107 -68.5 -160t-148.5 -53q-32 0 -62.5 4t-60.5 19q-27 14 -39 34t-12 43q0 26 15 51.5t41 41.5q15 -18 33 -28.5t43 -10.5q34 0 49 14.5t20 48.5z" />
    <glyph glyph-name="oneseventh" unicode="&#xf506;" horiz-adv-x="900" 
d="M208 528l-97 -45q-25 36 -25 71q0 43 49 66l114 54q15 8 29 12.5t35 4.5q32 0 49 -23l-63 -379h-131zM530 616q10 16 20 28.5t23 21.5t30.5 14t42.5 5q15 0 33.5 -3t29.5 -9l-387 -673h-143zM736 282h-168q1 21 3.5 41t11 35.5t25 25t43.5 9.5h206q21 0 27.5 -8t6.5 -19
q0 -6 -2 -14l-7 -47l-179 -304h-136z" />
    <glyph glyph-name="twosevenths" unicode="&#xf507;" horiz-adv-x="900" 
d="M75 376q18 12 48 33t59.5 45.5t51 50t21.5 47.5q0 35 -35 35q-22 0 -40 -10.5t-44 -35.5q-19 11 -32 28t-13 33q0 15 7 25t18 21q18 17 50 30t84 13q34 0 60.5 -9.5t44.5 -25.5t27 -38t9 -47q0 -44 -21.5 -78t-53.5 -59l-59 -45h50q37 0 50 -15.5t13 -37.5
q0 -11 -2 -23.5t-5 -23.5h-301zM570 616q10 16 20 28.5t23 21.5t30.5 14t42.5 5q15 0 33.5 -3t29.5 -9l-387 -673h-143zM736 282h-168q1 21 3.5 41t11 35.5t25 25t43.5 9.5h206q21 0 27.5 -8t6.5 -19q0 -6 -2 -14l-7 -47l-179 -304h-136z" />
    <glyph glyph-name="threesevenths" unicode="&#xf508;" horiz-adv-x="900" 
d="M182 525h42q22 0 31.5 10.5t9.5 23.5q0 12 -8 21.5t-31 9.5q-44 0 -81 -39q-18 11 -32.5 27.5t-14.5 30.5q0 24 20 42q23 22 55.5 31t70.5 9q65 0 104.5 -28t39.5 -76q0 -39 -21 -61.5t-49 -33.5q29 -19 39.5 -39t10.5 -46q0 -25 -11 -49t-32 -42.5t-52 -29.5t-72 -11
q-26 0 -49 3.5t-44 13.5q-19 8 -32 21.5t-15 30.5t8 35.5t38 39.5q22 -26 43 -35t44 -9t36 10.5t13 27.5q0 15 -10.5 24.5t-32.5 9.5h-30zM548 616q10 16 20 28.5t23 21.5t30.5 14t42.5 5q15 0 33.5 -3t29.5 -9l-387 -673h-143zM736 282h-168q1 21 3.5 41t11 35.5t25 25
t43.5 9.5h206q21 0 27.5 -8t6.5 -19q0 -6 -2 -14l-7 -47l-179 -304h-136z" />
    <glyph glyph-name="foursevenths" unicode="&#xf509;" horiz-adv-x="900" 
d="M73 441l165 201q17 20 38.5 34t59.5 14q19 0 34 -4.5t24 -9.5l-38 -229h3q25 0 33.5 -11t8.5 -30q0 -12 -3 -24l-5 -20h-51l-12 -73h-121l11 73h-160zM235 448l18 109h-5l-90 -109h77zM565 616q10 16 20 28.5t23 21.5t30.5 14t42.5 5q15 0 33.5 -3t29.5 -9l-387 -673
h-143zM736 282h-168q1 21 3.5 41t11 35.5t25 25t43.5 9.5h206q21 0 27.5 -8t6.5 -19q0 -6 -2 -14l-7 -47l-179 -304h-136z" />
    <glyph glyph-name="fivesevenths" unicode="&#xf50a;" horiz-adv-x="900" 
d="M150 681h244q0 -21 -2.5 -39t-10.5 -31.5t-23 -21t-41 -7.5h-79l-9 -45q8 1 17.5 2t20.5 1q51 0 79 -30t28 -78q0 -40 -12.5 -69.5t-34.5 -49t-52 -29t-66 -9.5q-23 0 -47 4t-45 13q-19 8 -32 21.5t-15 30.5t7.5 35.5t38.5 39.5q20 -23 40 -32t41 -9q22 0 33.5 13
t11.5 33q0 38 -44 38q-27 0 -56 -16l-37 18zM549 616q10 16 20 28.5t23 21.5t30.5 14t42.5 5q15 0 33.5 -3t29.5 -9l-387 -673h-143zM736 282h-168q1 21 3.5 41t11 35.5t25 25t43.5 9.5h206q21 0 27.5 -8t6.5 -19q0 -6 -2 -14l-7 -47l-179 -304h-136z" />
    <glyph glyph-name="sixsevenths" unicode="&#xf50b;" horiz-adv-x="900" 
d="M209 521q12 9 27.5 15.5t36.5 6.5q29 0 49.5 -9t33.5 -24t19 -35t6 -42q-1 -33 -10.5 -61.5t-29.5 -50t-50 -34t-72 -12.5q-66 0 -104 39.5t-38 108.5q0 61 16 110.5t46 84.5t74.5 54t101.5 19q37 0 53.5 -12t16.5 -37q0 -11 -4 -24t-15 -28q-10 2 -23 3t-25 1
q-26 0 -44 -6t-31 -16t-21 -23.5t-13 -27.5zM202 454q-2 -5 -3 -15t-1 -18q0 -48 28 -48q13 0 23.5 13.5t10.5 39.5q0 16 -5.5 28t-20.5 12q-8 0 -17.5 -3.5t-14.5 -8.5zM550 616q10 16 20 28.5t23 21.5t30.5 14t42.5 5q15 0 33.5 -3t29.5 -9l-387 -673h-143zM736 282h-168
q1 21 3.5 41t11 35.5t25 25t43.5 9.5h206q21 0 27.5 -8t6.5 -19q0 -6 -2 -14l-7 -47l-179 -304h-136z" />
    <glyph glyph-name="oneninth" unicode="&#xf50c;" horiz-adv-x="900" 
d="M213 528l-97 -45q-25 36 -25 71q0 43 49 66l114 54q15 8 29 12.5t35 4.5q32 0 49 -23l-63 -379h-131zM542 616q10 16 20 28.5t23 21.5t30.5 14t42.5 5q15 0 33.5 -3t29.5 -9l-387 -673h-143zM585 88q10 -2 23.5 -3t25.5 -1q26 0 43.5 5.5t28.5 15.5t18 23t13 27
q-13 -9 -27.5 -15.5t-36.5 -6.5q-29 0 -49.5 9t-34 24.5t-20 36t-6.5 42.5q1 33 11 61.5t30 50t51 34t73 12.5q65 0 104 -39.5t39 -108.5q0 -61 -14.5 -110.5t-44 -84.5t-73 -54t-101.5 -19q-73 0 -73 49q0 11 4 24t16 28zM745 224q2 5 3 15t1 18q0 48 -29 48
q-12 0 -23 -13.5t-11 -39.5q0 -16 6 -28.5t20 -12.5q8 0 18 4t15 9z" />
    <glyph glyph-name="twoninths" unicode="&#xf50d;" horiz-adv-x="900" 
d="M80 376q18 12 48 33t59.5 45.5t51 50t21.5 47.5q0 35 -35 35q-22 0 -40 -10.5t-44 -35.5q-19 11 -32 28t-13 33q0 15 7 25t18 21q18 17 50 30t84 13q34 0 60.5 -9.5t44.5 -25.5t27 -38t9 -47q0 -44 -21.5 -78t-53.5 -59l-59 -45h50q37 0 50 -15.5t13 -37.5
q0 -11 -2 -23.5t-5 -23.5h-301zM574 616q10 16 20 28.5t23 21.5t30.5 14t42.5 5q15 0 33.5 -3t29.5 -9l-387 -673h-143zM585 88q10 -2 23.5 -3t25.5 -1q26 0 43.5 5.5t28.5 15.5t18 23t13 27q-13 -9 -27.5 -15.5t-36.5 -6.5q-29 0 -49.5 9t-34 24.5t-20 36t-6.5 42.5
q1 33 11 61.5t30 50t51 34t73 12.5q65 0 104 -39.5t39 -108.5q0 -61 -14.5 -110.5t-44 -84.5t-73 -54t-101.5 -19q-73 0 -73 49q0 11 4 24t16 28zM745 224q2 5 3 15t1 18q0 48 -29 48q-12 0 -23 -13.5t-11 -39.5q0 -16 6 -28.5t20 -12.5q8 0 18 4t15 9z" />
    <glyph glyph-name="fourninths" unicode="&#xf50e;" horiz-adv-x="900" 
d="M78 441l165 201q17 20 38.5 34t59.5 14q19 0 34 -4.5t24 -9.5l-38 -229h3q25 0 33.5 -11t8.5 -30q0 -12 -3 -24l-5 -20h-51l-12 -73h-121l11 73h-160zM240 448l18 109h-5l-90 -109h77zM574 616q10 16 20 28.5t23 21.5t30.5 14t42.5 5q15 0 33.5 -3t29.5 -9l-387 -673
h-143zM585 88q10 -2 23.5 -3t25.5 -1q26 0 43.5 5.5t28.5 15.5t18 23t13 27q-13 -9 -27.5 -15.5t-36.5 -6.5q-29 0 -49.5 9t-34 24.5t-20 36t-6.5 42.5q1 33 11 61.5t30 50t51 34t73 12.5q65 0 104 -39.5t39 -108.5q0 -61 -14.5 -110.5t-44 -84.5t-73 -54t-101.5 -19
q-73 0 -73 49q0 11 4 24t16 28zM745 224q2 5 3 15t1 18q0 48 -29 48q-12 0 -23 -13.5t-11 -39.5q0 -16 6 -28.5t20 -12.5q8 0 18 4t15 9z" />
    <glyph glyph-name="fiveninths" unicode="&#xf50f;" horiz-adv-x="900" 
d="M155 681h244q0 -21 -2.5 -39t-10.5 -31.5t-23 -21t-41 -7.5h-79l-9 -45q8 1 17.5 2t20.5 1q51 0 79 -30t28 -78q0 -40 -12.5 -69.5t-34.5 -49t-52 -29t-66 -9.5q-23 0 -47 4t-45 13q-19 8 -32 21.5t-15 30.5t7.5 35.5t38.5 39.5q20 -23 40 -32t41 -9q22 0 33.5 13
t11.5 33q0 38 -44 38q-27 0 -56 -16l-37 18zM562 616q10 16 20 28.5t23 21.5t30.5 14t42.5 5q15 0 33.5 -3t29.5 -9l-387 -673h-143zM585 88q10 -2 23.5 -3t25.5 -1q26 0 43.5 5.5t28.5 15.5t18 23t13 27q-13 -9 -27.5 -15.5t-36.5 -6.5q-29 0 -49.5 9t-34 24.5t-20 36
t-6.5 42.5q1 33 11 61.5t30 50t51 34t73 12.5q65 0 104 -39.5t39 -108.5q0 -61 -14.5 -110.5t-44 -84.5t-73 -54t-101.5 -19q-73 0 -73 49q0 11 4 24t16 28zM745 224q2 5 3 15t1 18q0 48 -29 48q-12 0 -23 -13.5t-11 -39.5q0 -16 6 -28.5t20 -12.5q8 0 18 4t15 9z" />
    <glyph glyph-name="sevenninths" unicode="&#xf510;" horiz-adv-x="900" 
d="M272 570h-168q1 21 3.5 41t11 35.5t25 25t43.5 9.5h206q21 0 27.5 -8t6.5 -19q0 -6 -2 -14l-7 -47l-179 -304h-136zM540 616q10 16 20 28.5t23 21.5t30.5 14t42.5 5q15 0 33.5 -3t29.5 -9l-387 -673h-143zM585 88q10 -2 23.5 -3t25.5 -1q26 0 43.5 5.5t28.5 15.5t18 23
t13 27q-13 -9 -27.5 -15.5t-36.5 -6.5q-29 0 -49.5 9t-34 24.5t-20 36t-6.5 42.5q1 33 11 61.5t30 50t51 34t73 12.5q65 0 104 -39.5t39 -108.5q0 -61 -14.5 -110.5t-44 -84.5t-73 -54t-101.5 -19q-73 0 -73 49q0 11 4 24t16 28zM745 224q2 5 3 15t1 18q0 48 -29 48
q-12 0 -23 -13.5t-11 -39.5q0 -16 6 -28.5t20 -12.5q8 0 18 4t15 9z" />
    <glyph glyph-name="eightninths" unicode="&#xf511;" horiz-adv-x="900" 
d="M149 500q-20 15 -31 33t-11 44q0 27 12 48t32.5 36t47.5 22.5t58 7.5q68 0 101.5 -30t33.5 -75q0 -41 -19 -61.5t-41 -31.5q29 -15 40 -36t11 -49q0 -32 -13 -56.5t-35 -41.5t-51.5 -26t-62.5 -9q-77 0 -113 33.5t-36 83.5q0 23 6.5 40.5t17.5 30t24.5 22t28.5 15.5z
M225 365q12 0 23.5 12t11.5 34q0 35 -32 35q-12 0 -23.5 -12t-11.5 -34q0 -35 32 -35zM248 532q11 0 20.5 10.5t9.5 29.5q0 31 -27 31q-11 0 -21 -10.5t-10 -30.5q0 -30 28 -30zM563 616q10 16 20 28.5t23 21.5t30.5 14t42.5 5q15 0 33.5 -3t29.5 -9l-387 -673h-143zM585 88
q10 -2 23.5 -3t25.5 -1q26 0 43.5 5.5t28.5 15.5t18 23t13 27q-13 -9 -27.5 -15.5t-36.5 -6.5q-29 0 -49.5 9t-34 24.5t-20 36t-6.5 42.5q1 33 11 61.5t30 50t51 34t73 12.5q65 0 104 -39.5t39 -108.5q0 -61 -14.5 -110.5t-44 -84.5t-73 -54t-101.5 -19q-73 0 -73 49
q0 11 4 24t16 28zM745 224q2 5 3 15t1 18q0 48 -29 48q-12 0 -23 -13.5t-11 -39.5q0 -16 6 -28.5t20 -12.5q8 0 18 4t15 9z" />
    <glyph glyph-name="zero.alt" unicode="&#xf800;" horiz-adv-x="582" 
d="M291 -15q-66 0 -109.5 24.5t-69 63t-36 85.5t-10.5 92q0 88 18.5 165t57.5 134t99 89.5t143 32.5q66 0 108.5 -25t67.5 -63.5t35 -86t10 -92.5q0 -92 -18.5 -168.5t-56.5 -132.5t-97.5 -87t-141.5 -31zM314 144q19 0 35.5 15.5t29.5 47.5t21 81t10 116q3 109 -53 109
q-38 0 -65.5 -63.5t-30.5 -197.5q-2 -56 12 -82t41 -26z" />
    <glyph glyph-name="one.alt" unicode="&#xf801;" horiz-adv-x="457" 
d="M253 428l-125 -58q-18 28 -30 53.5t-12 52.5q0 29 15 48t47 35l168 84q23 11 44.5 16.5t47.5 5.5q27 0 45 -6.5t28 -13.5l-109 -645h-191z" />
    <glyph glyph-name="two.alt" unicode="&#xf802;" horiz-adv-x="548" 
d="M61 133q29 21 79 57t100 79q25 22 47.5 44.5t39.5 45t27 44.5t10 42q0 70 -70 70q-21 0 -38 -4.5t-34 -14t-34.5 -24t-38.5 -34.5q-26 15 -44.5 39.5t-18.5 50.5q0 23 9.5 40.5t26.5 33.5q37 35 90.5 52t129.5 17q56 0 98.5 -15t71 -41t43 -61.5t14.5 -77.5
q0 -36 -10 -68t-26.5 -60t-39 -53.5t-47.5 -47.5q-29 -26 -60 -49.5t-60 -45.5h113q27 0 45.5 -6.5t29 -17.5t15 -26t4.5 -32t-3.5 -35t-8.5 -35h-481z" />
    <glyph glyph-name="three.alt" unicode="&#xf803;" horiz-adv-x="563" 
d="M229 403h68q17 0 32.5 3.5t27.5 11t19.5 19.5t7.5 29q0 22 -19 38t-51 16q-42 0 -77 -16.5t-64 -46.5q-25 14 -43.5 38t-18.5 47q0 39 27 65q38 35 90.5 49.5t114.5 14.5q52 0 94 -12t71.5 -34t45.5 -52.5t16 -67.5q0 -35 -10 -61t-26.5 -45t-37 -32t-40.5 -22
q44 -27 62 -62t18 -77q0 -45 -17 -85t-50 -70t-83 -48t-116 -18q-42 0 -78.5 6t-73.5 22q-28 12 -48.5 33t-22.5 49q-2 25 11.5 53t51.5 57q35 -40 70 -55.5t78 -15.5q16 0 31.5 4t28.5 12.5t21 22t8 33.5q0 61 -92 61h-47z" />
    <glyph glyph-name="four.alt" unicode="&#xf804;" horiz-adv-x="582" 
d="M70 265l265 322q14 17 29 31.5t33 25t41 16t53 5.5q29 0 52 -7.5t36 -16.5l-62 -372h17q35 0 47 -16.5t12 -42.5q0 -20 -4.5 -36.5t-9.5 -30.5h-84l-24 -143h-185l24 143h-261zM332 275l30 182h-7l-147 -182h124z" />
    <glyph glyph-name="five.alt" unicode="&#xf805;" horiz-adv-x="554" 
d="M181 663h388q0 -31 -3.5 -60t-15.5 -51t-35.5 -35t-63.5 -13h-140l-15 -84q16 4 33.5 6.5t37.5 2.5q41 0 73 -14.5t54 -40t32.5 -60.5t9.5 -76q-2 -65 -23.5 -113t-58 -79t-85 -46t-104.5 -15q-33 0 -68 5.5t-67 17.5q-36 14 -59 37t-23 58q0 23 14 49t49 53
q32 -35 66.5 -50t74.5 -15q43 0 65.5 25.5t22.5 63.5q0 34 -20.5 50.5t-58.5 16.5q-28 0 -49.5 -7t-43.5 -18l-61 29z" />
    <glyph glyph-name="six.alt" unicode="&#xf806;" horiz-adv-x="582" 
d="M286 395q17 14 45.5 27t62.5 13q45 0 79 -14.5t56.5 -40t33.5 -60.5t10 -76q-1 -54 -17.5 -101t-49 -82.5t-81.5 -55.5t-116 -20q-103 0 -164 60.5t-61 179.5q0 102 25.5 184t75 139t122 88t165.5 31q54 0 79.5 -21t25.5 -53q0 -18 -5.5 -38.5t-20.5 -41.5q-12 2 -32 4
t-41 2q-37 0 -68.5 -10t-56 -26.5t-41.5 -39.5t-26 -48zM276 282q-3 -9 -6 -26t-3 -33q0 -38 12.5 -61.5t38.5 -23.5q27 0 45.5 22.5t18.5 70.5q0 28 -11.5 47.5t-37.5 19.5q-17 0 -31.5 -3.5t-25.5 -12.5z" />
    <glyph glyph-name="seven.alt" unicode="&#xf807;" horiz-adv-x="548" 
d="M373 497h-289q1 33 5.5 63t17.5 53t38 36.5t67 13.5h342q30 0 40.5 -12t10.5 -32q0 -6 -0.5 -12t-1.5 -13l-11 -69l-323 -525h-202z" />
    <glyph glyph-name="eight.alt" unicode="&#xf808;" horiz-adv-x="582" 
d="M495 344q73 -49 73 -128q0 -61 -22 -105t-59 -72t-86 -41t-102 -13q-58 0 -102 14.5t-74 40.5t-45 62.5t-15 80.5q0 35 10 61.5t26.5 47t38 35.5t44.5 26q-27 23 -43 51t-16 61q0 51 19.5 90t53 64.5t77.5 38.5t94 13q54 0 95.5 -13.5t69.5 -37t42.5 -56t14.5 -71.5
q0 -27 -8 -49.5t-21 -41t-30 -33t-35 -25.5zM311 123q26 0 46 22t20 60q0 31 -16.5 47.5t-44.5 16.5q-26 0 -46.5 -22.5t-20.5 -60.5q0 -30 16.5 -46.5t45.5 -16.5zM352 415q21 0 36.5 18t15.5 49q0 25 -12.5 38.5t-34.5 13.5q-21 0 -37 -18.5t-16 -49.5q0 -24 12.5 -37.5
t35.5 -13.5z" />
    <glyph glyph-name="nine.alt" unicode="&#xf809;" horiz-adv-x="577" 
d="M115 141q12 -2 32 -4t41 -2q35 0 66 10.5t55.5 28t41 41t23.5 49.5q-23 -19 -51.5 -29.5t-66.5 -10.5t-69.5 14t-54.5 39t-35.5 60.5t-11.5 77.5q1 54 17.5 100.5t49 81t81.5 54.5t116 20q103 0 164 -60.5t61 -179.5q0 -102 -23 -184.5t-70 -140.5t-118.5 -89.5
t-168.5 -31.5q-54 0 -79.5 21t-25.5 53q0 18 5.5 39.5t20.5 42.5zM383 378q3 9 5.5 24t2.5 31q0 38 -12.5 61.5t-38.5 23.5q-27 0 -45.5 -21t-18.5 -69q0 -28 12 -47t38 -19q17 0 31.5 3.5t25.5 12.5z" />
    <glyph glyph-name="zero.sups" unicode="&#xf80a;" 
d="M212 395q-42 0 -70.5 14.5t-45 38t-23.5 51.5t-7 55q0 51 12 96.5t36.5 79.5t62 54t88.5 20q42 0 69.5 -14.5t44 -38t23.5 -52t7 -55.5q0 -52 -11.5 -97.5t-35.5 -79t-61.5 -53t-88.5 -19.5zM224 497q20 0 35.5 33t17.5 114q1 31 -5.5 44t-21.5 13q-20 0 -36 -33
t-18 -115q-1 -30 6 -43t22 -13z" />
    <glyph glyph-name="one.sups" unicode="&#xf80b;" 
d="M208 648l-97 -45q-25 36 -25 71q0 43 49 66l114 54q15 8 29 12.5t35 4.5q32 0 49 -23l-63 -379h-131z" />
    <glyph glyph-name="two.sups" unicode="&#xf80c;" 
d="M75 496q18 12 48 33t59.5 45.5t51 50t21.5 47.5q0 35 -35 35q-22 0 -40 -10.5t-44 -35.5q-19 11 -32 28t-13 33q0 15 7 25t18 21q18 17 50 30t84 13q34 0 60.5 -9.5t44.5 -25.5t27 -38t9 -47q0 -44 -21.5 -78t-53.5 -59l-59 -45h50q37 0 50 -15.5t13 -37.5
q0 -11 -2 -23.5t-5 -23.5h-301z" />
    <glyph glyph-name="three.sups" unicode="&#xf80d;" 
d="M182 645h42q22 0 31.5 10.5t9.5 23.5q0 12 -8 21.5t-31 9.5q-44 0 -81 -39q-18 11 -32.5 27.5t-14.5 30.5q0 24 20 42q23 22 55.5 31t70.5 9q65 0 104.5 -28t39.5 -76q0 -39 -21 -61.5t-49 -33.5q29 -19 39.5 -39t10.5 -46q0 -25 -11 -49t-32 -42.5t-52 -29.5t-72 -11
q-26 0 -49 3.5t-44 13.5q-19 8 -32 21.5t-15 30.5t8 35.5t38 39.5q22 -26 43 -35t44 -9t36 10.5t13 27.5q0 15 -10.5 24.5t-32.5 9.5h-30z" />
    <glyph glyph-name="four.sups" unicode="&#xf80e;" 
d="M73 561l165 201q17 20 38.5 34t59.5 14q19 0 34 -4.5t24 -9.5l-38 -229h3q25 0 33.5 -11t8.5 -30q0 -12 -3 -24l-5 -20h-51l-12 -73h-121l11 73h-160zM235 568l18 109h-5l-90 -109h77z" />
    <glyph glyph-name="five.sups" unicode="&#xf80f;" 
d="M150 801h244q0 -21 -2.5 -39t-10.5 -31.5t-23 -21t-41 -7.5h-79l-9 -45q8 1 17.5 2t20.5 1q51 0 79 -30t28 -78q0 -40 -12.5 -69.5t-34.5 -49t-52 -29t-66 -9.5q-23 0 -47 4t-45 13q-19 8 -32 21.5t-15 30.5t7.5 35.5t38.5 39.5q20 -23 40 -32t41 -9q22 0 33.5 13
t11.5 33q0 38 -44 38q-27 0 -56 -16l-37 18z" />
    <glyph glyph-name="six.sups" unicode="&#xf810;" 
d="M209 641q12 9 27.5 15.5t36.5 6.5q29 0 49.5 -9t33.5 -24t19 -35t6 -42q-1 -33 -10.5 -61.5t-29.5 -50t-50 -34t-72 -12.5q-66 0 -104 39.5t-38 108.5q0 61 16 110.5t46 84.5t74.5 54t101.5 19q37 0 53.5 -12t16.5 -37q0 -11 -4 -24t-15 -28q-10 2 -23 3t-25 1
q-26 0 -44 -6t-31 -16t-21 -23.5t-13 -27.5zM202 574q-2 -5 -3 -15t-1 -18q0 -48 28 -48q13 0 23.5 13.5t10.5 39.5q0 16 -5.5 28t-20.5 12q-8 0 -17.5 -3.5t-14.5 -8.5z" />
    <glyph glyph-name="seven.sups" unicode="&#xf811;" 
d="M267 690h-168q1 21 3.5 41t11 35.5t25 25t43.5 9.5h206q21 0 27.5 -8t6.5 -19q0 -6 -2 -14l-7 -47l-179 -304h-136z" />
    <glyph glyph-name="eight.sups" unicode="&#xf812;" 
d="M144 620q-20 15 -31 33t-11 44q0 27 12 48t32.5 36t47.5 22.5t58 7.5q68 0 101.5 -30t33.5 -75q0 -41 -19 -61.5t-41 -31.5q29 -15 40 -36t11 -49q0 -32 -13 -56.5t-35 -41.5t-51.5 -26t-62.5 -9q-77 0 -113 33.5t-36 83.5q0 23 6.5 40.5t17.5 30t24.5 22t28.5 15.5z
M220 485q12 0 23.5 12t11.5 34q0 35 -32 35q-12 0 -23.5 -12t-11.5 -34q0 -35 32 -35zM243 652q11 0 20.5 10.5t9.5 29.5q0 31 -27 31q-11 0 -21 -10.5t-10 -30.5q0 -30 28 -30z" />
    </font>
</defs>
</svg>
