<?xml version="1.0" standalone="no"?>
<!DOCTYPE svg PUBLIC "-//W3C//DTD SVG 1.1//EN" "http://www.w3.org/Graphics/SVG/1.1/DTD/svg11.dtd" >
<svg>
<metadata>
Created by FontForge 20110222 at Wed Oct  2 13:34:00 2013
 By Orthosie Webhosting
Copyright 2011 Dalton Maag Ltd. Modification of this file requires prior written permission from Dalton Maag Ltd.
</metadata>
<defs>
<font id="FocoBoldItalic" horiz-adv-x="370" >
  <font-face 
    font-family="FocoBoldItalic"
    font-weight="700"
    font-style="italic"
    font-stretch="normal"
    units-per-em="1000"
    panose-1="2 11 8 4 5 2 2 9 2 3"
    ascent="800"
    descent="-200"
    x-height="476"
    cap-height="674"
    bbox="-196 -231 1120 928"
    underline-thickness="20"
    underline-position="-113"
    slope="-9"
    unicode-range="U+0008-FB04"
  />
<missing-glyph horiz-adv-x="500" 
d="M50 0v750h400v-750h-400zM400 50v650h-300v-650h300z" />
    <glyph glyph-name="f_f" unicode="ff" horiz-adv-x="656" 
d="M158 -10q-2 -15 -4 -23.5t-6 -22.5q10 -22 34.5 -34.5t48.5 -12.5q18 0 32.5 4t25 14.5t18 29.5t12.5 50l63 378h-161zM402 494q3 19 7.5 38.5t10.5 36.5q-14 18 -36 31.5t-54 13.5q-34 0 -55 -18t-30 -74l-7 -46h161zM514 373l-63 -383q-17 -111 -68 -156t-133 -45
q-57 0 -91.5 18t-57.5 41q-50 -59 -142 -59q-20 0 -42.5 4t-42 13t-32.5 24.5t-13 38.5q0 18 11.5 35.5t35.5 31.5q14 -20 31.5 -30.5t42.5 -10.5q32 0 49.5 24.5t25.5 70.5l88 528q9 56 27.5 94t45 61.5t61 33.5t77.5 10q45 0 84 -15.5t65 -41.5q30 29 68 43t96 14
q41 0 71.5 -10t48.5 -27q23 -21 23 -50q0 -20 -16.5 -39.5t-49.5 -29.5q-11 24 -27.5 39t-46.5 17q-51 0 -72.5 -26t-30.5 -80l-6 -35h162l-17 -103h-162z" />
    <glyph glyph-name="f_i" unicode="fi" horiz-adv-x="509" 
d="M158 -10q-15 -95 -62 -148t-137 -53q-20 0 -42.5 4t-42 13t-32.5 24.5t-13 38.5q0 18 11.5 35.5t35.5 31.5q14 -20 31.5 -30.5t42.5 -10.5q32 0 49.5 24.5t25.5 70.5l87 523q9 54 29.5 93t50.5 63.5t68.5 36t83.5 11.5q58 0 90 -15t50 -31q14 -11 22.5 -27.5t8.5 -33.5
q0 -20 -17.5 -40t-50.5 -30q-5 12 -12 26t-19 25t-29 18.5t-40 7.5q-51 0 -72.5 -26t-30.5 -80l-6 -35h266l-59 -355q-2 -11 -3 -22.5t-1 -23.5q0 -19 2.5 -38t7.5 -33q-17 -10 -33.5 -14t-35.5 -4q-41 0 -60.5 16t-19.5 59q0 4 0.5 10.5t1.5 11.5l47 290h-130z" />
    <glyph glyph-name="f_l" unicode="fl" horiz-adv-x="523" 
d="M158 -10q-15 -95 -62 -148t-137 -53q-20 0 -42.5 4t-42 13t-32.5 24.5t-13 38.5q0 18 11.5 35.5t35.5 31.5q14 -20 31.5 -30.5t42.5 -10.5q32 0 49.5 24.5t25.5 70.5l87 523q18 109 74.5 156.5t146.5 47.5q62 0 112.5 -19t99.5 -54l-88 -523q-2 -11 -3 -22.5t-1 -23.5
q0 -19 2.5 -38t7.5 -33q-17 -10 -33.5 -14t-35.5 -4q-41 0 -60.5 16t-19.5 59q0 4 0.5 10.5t1.5 11.5l85 512q-8 6 -22 14t-40 8q-45 0 -65.5 -26t-29.5 -80l-6 -35h95l-17 -103h-95z" />
    <glyph glyph-name="f_f_i" unicode="ffi" horiz-adv-x="802" 
d="M113 518q9 56 27.5 94t45 61.5t61 33.5t77.5 10q45 0 84 -15.5t65 -41.5q30 29 68 43t96 14t90 -15t50 -31q14 -11 22.5 -27.5t8.5 -33.5q0 -20 -17.5 -40t-50.5 -30q-5 12 -12 26t-19 25t-29 18.5t-40 7.5q-51 0 -72.5 -26t-30.5 -80l-6 -35h266l-59 -355
q-2 -11 -3 -22.5t-1 -23.5q0 -19 2.5 -38t7.5 -33q-17 -10 -33.5 -14t-35.5 -4q-41 0 -60.5 16t-19.5 59q0 4 0.5 10.5t1.5 11.5l47 290h-130l-63 -383q-17 -111 -68 -156t-133 -45q-57 0 -91.5 18t-57.5 41q-50 -59 -142 -59q-20 0 -42.5 4t-42 13t-32.5 24.5t-13 38.5
q0 18 11.5 35.5t35.5 31.5q14 -20 31.5 -30.5t42.5 -10.5q32 0 49.5 24.5t25.5 70.5zM158 -10q-2 -15 -4 -23.5t-6 -22.5q10 -22 34.5 -34.5t48.5 -12.5q18 0 32.5 4t25 14.5t18 29.5t12.5 50l63 378h-161zM402 494q3 19 7.5 38.5t10.5 36.5q-14 18 -36 31.5t-54 13.5
q-34 0 -55 -18t-30 -74l-7 -46h161z" />
    <glyph glyph-name="f_f_l" unicode="ffl" horiz-adv-x="816" 
d="M632 717q62 0 109.5 -19t96.5 -54l-88 -523q-2 -11 -3 -22.5t-1 -23.5q0 -19 2.5 -38t7.5 -33q-17 -10 -33.5 -14t-35.5 -4q-41 0 -60.5 16t-19.5 59q0 4 0.5 10.5t1.5 11.5l85 512q-8 6 -22 13.5t-40 8.5q-45 0 -65.5 -26t-29.5 -80l-6 -35h95l-17 -103h-95l-63 -383
q-17 -111 -68 -156t-133 -45q-57 0 -91.5 18t-57.5 41q-50 -59 -142 -59q-20 0 -42.5 4t-42 13t-32.5 24.5t-13 38.5q0 18 11.5 35.5t35.5 31.5q14 -20 31.5 -30.5t42.5 -10.5q32 0 49.5 24.5t25.5 70.5l88 528q9 56 27.5 94t45 61.5t61 33.5t77.5 10q45 0 84 -15.5
t65 -41.5q30 29 65.5 43t93.5 14zM158 -10q-2 -15 -4 -23.5t-6 -22.5q10 -22 34.5 -34.5t48.5 -12.5q18 0 32.5 4t25 14.5t18 29.5t12.5 50l63 378h-161zM402 494q3 19 7.5 38.5t10.5 36.5q-14 18 -36 31.5t-54 13.5q-34 0 -55 -18t-30 -74l-7 -46h161z" />
    <glyph glyph-name=".notdef" horiz-adv-x="500" 
d="M50 0v750h400v-750h-400zM400 50v650h-300v-650h300z" />
    <glyph glyph-name=".null" horiz-adv-x="0" 
 />
    <glyph glyph-name=".null" horiz-adv-x="0" 
 />
    <glyph glyph-name=".null" horiz-adv-x="0" 
 />
    <glyph glyph-name="nonmarkingreturn" unicode="&#x9;" horiz-adv-x="209" 
 />
    <glyph glyph-name="nonmarkingreturn" unicode="&#xd;" horiz-adv-x="209" 
 />
    <glyph glyph-name="space" unicode=" " horiz-adv-x="209" 
 />
    <glyph glyph-name="exclam" unicode="!" horiz-adv-x="262" 
d="M104 -15q-32 0 -50 20.5t-18 44.5q0 47 24.5 69.5t58.5 22.5q32 0 50 -20.5t18 -44.5q0 -47 -24.5 -69.5t-58.5 -22.5zM144 670q12 2 24.5 3t22.5 1q41 0 58 -19.5t17 -48.5q0 -6 -0.5 -12t-1.5 -12l-65 -392q-12 -2 -24.5 -3t-22.5 -1q-41 0 -58 19.5t-17 48.5
q0 6 0.5 12t1.5 12z" />
    <glyph glyph-name="quotedbl" unicode="&#x22;" horiz-adv-x="351" 
d="M281 678q7 2 17 3t18 1q32 0 44.5 -12.5t12.5 -35.5q0 -5 -1 -10l-2 -10l-40 -189h-91zM119 678q7 2 17 3t18 1q32 0 44.5 -12.5t12.5 -35.5q0 -5 -1 -10l-2 -10l-40 -189h-91z" />
    <glyph glyph-name="numbersign" unicode="#" horiz-adv-x="612" 
d="M432 178l-42 -152h-96l42 152h-97l-42 -152h-96l42 152h-116l20 80h118l34 123h-116l20 80h118l40 145h96l-40 -145h97l40 145h96l-40 -145h119l-20 -80h-121l-34 -123h119l-20 -80h-121zM392 381h-97l-34 -123h97z" />
    <glyph glyph-name="dollar" unicode="$" horiz-adv-x="549" 
d="M247 92q29 0 49 8t32 20.5t17.5 28.5t5.5 32q0 17 -5.5 30.5t-18.5 26t-34 26.5t-51 32q-64 38 -101 79.5t-37 106.5q0 74 43 120t119 60l17 97h66l-16 -91q19 0 37 -3l16 94h66l-19 -110q20 -8 34.5 -16t22.5 -15q26 -22 26 -50q0 -24 -17 -46.5t-42 -33.5
q-27 32 -59.5 50.5t-76.5 18.5q-45 0 -66 -17.5t-21 -46.5q0 -19 8.5 -34t22.5 -27.5t33 -24t39 -23.5q40 -24 68.5 -46.5t46.5 -45.5t26.5 -48t8.5 -55q0 -80 -42.5 -130t-118.5 -67l-16 -96h-66l14 87h-23q-6 0 -13 1l-15 -88h-66l16 96q-28 6 -48.5 15t-35.5 20
q-17 13 -25.5 25.5t-8.5 31.5q0 24 14.5 44.5t35.5 34.5q33 -33 70 -52t88 -19z" />
    <glyph glyph-name="percent" unicode="%" horiz-adv-x="801" 
d="M247 0h-113l435 627q17 25 36 40.5t49 15.5q34 0 58 -11zM247 684q34 0 58.5 -12.5t40.5 -32.5t23.5 -46t7.5 -54q0 -40 -11 -78t-33 -68t-55 -48t-76 -18q-35 0 -59.5 12t-40.5 32.5t-23.5 46.5t-7.5 54q0 39 11.5 77t34 68t55.5 48.5t75 18.5zM277 548q0 10 -1.5 20.5
t-6 19.5t-12 14.5t-20.5 5.5q-27 0 -46 -38.5t-19 -106.5q0 -10 1.5 -20.5t5.5 -19t12 -14t20 -5.5q20 0 33 17.5t20.5 41.5t10 48t2.5 37zM641 341q34 0 58.5 -12.5t40.5 -32.5t23.5 -46t7.5 -54q0 -40 -11 -78t-33 -68t-55 -48t-76 -18q-35 0 -59.5 12t-40.5 32.5
t-23.5 46.5t-7.5 54q0 39 11.5 77t34 68t55.5 48.5t75 18.5zM671 205q0 10 -1.5 20.5t-6 19.5t-12 14.5t-20.5 5.5q-27 0 -46 -38.5t-19 -106.5q0 -10 1.5 -20.5t5.5 -19t12 -14t20 -5.5q20 0 33 17.5t20.5 41.5t10 48t2.5 37z" />
    <glyph glyph-name="ampersand" unicode="&#x26;" horiz-adv-x="631" 
d="M347 577q-34 0 -50.5 -21.5t-16.5 -50.5q0 -27 10.5 -59t30 -68t45.5 -75t58 -79q6 19 9.5 40.5t3.5 45.5q0 29 -4.5 57t-12.5 50h221l-15 -91h-92q2 -11 2.5 -23.5t0.5 -20.5q0 -38 -10 -75.5t-29 -71.5q25 -29 51.5 -57.5t53.5 -57.5q-17 -18 -35 -24.5t-39 -6.5
q-22 0 -39 5t-33 21l-32 34q-35 -29 -79.5 -45.5t-96.5 -16.5q-44 0 -82.5 11t-67.5 33.5t-46 57t-17 82.5q0 40 13.5 75.5t35 64.5t48.5 52t54 38q-10 28 -15.5 54t-5.5 49q0 36 10 68t32 56.5t56.5 38.5t83.5 14q35 0 61 -10t43.5 -25.5t26 -33.5t8.5 -33q0 -26 -15.5 -42
t-49.5 -26q-11 28 -29 47t-46 19zM266 95q51 0 93 31q-35 44 -68.5 90.5t-60.5 94.5q-25 -17 -47 -47t-22 -74q0 -45 25.5 -70t79.5 -25z" />
    <glyph glyph-name="quotesingle" unicode="'" horiz-adv-x="189" 
d="M119 678q7 2 17 3t18 1q32 0 44.5 -12.5t12.5 -35.5q0 -5 -1 -10l-2 -10l-40 -189h-91z" />
    <glyph glyph-name="parenleft" unicode="(" horiz-adv-x="358" 
d="M387 714q16 0 27.5 -2.5t16.5 -6.5q-54 -49 -91.5 -111t-60.5 -132t-33 -145.5t-10 -151.5q0 -72 13.5 -143.5t45.5 -133.5q-10 -6 -23 -8.5t-24 -2.5q-29 0 -51 16t-38 41.5t-26.5 58t-17 65.5t-9 63t-2.5 51q0 64 10 129t28 125t43.5 112.5t57 91.5t68 61.5t76.5 22.5z
" />
    <glyph glyph-name="parenright" unicode=")" horiz-adv-x="358" 
d="M-6 -123q-16 0 -27.5 2.5t-16.5 6.5q54 49 91.5 111t60.5 132t33 145.5t10 151.5q0 72 -13.5 143.5t-45.5 133.5q10 6 23 8.5t24 2.5q43 0 71 -34t44.5 -81.5t22.5 -97.5t6 -82q0 -64 -10 -129t-28 -125t-43.5 -112.5t-57 -91.5t-68 -61.5t-76.5 -22.5z" />
    <glyph glyph-name="asterisk" unicode="*" horiz-adv-x="417" 
d="M105 554q-16 7 -16 27q0 11 7 24q13 24 33 24q7 0 14 -4q9 -6 21 -16l32 -29q18 -17 18 -29q0 -6 -3 -12q-4 -7 -9 -9t-11 -2q-13 0 -22 4l-38 12l-13.5 4.5t-12.5 5.5zM143 401q-8 -5 -17 -5q-18 0 -32 23q-8 14 -8 26q0 17 14 25q5 2 10 4.5t15 5.5l41 13q15 5 21 5
q15 0 22 -13q3 -6 3 -11q0 -8 -5.5 -15t-12.5 -13l-30 -27q-4 -5 -10 -10.5t-11 -7.5zM297 360q0 -13 -9 -23t-31 -10q-21 0 -31 8.5t-10 21.5q0 12 4 27l9 42q3 16 9 24.5t19 8.5q14 0 19 -10t7 -22l9 -40q2 -5 3.5 -13.5t1.5 -13.5zM368 403q-5 2 -11 7.5t-10 10.5l-31 27
q-7 6 -12 12.5t-5 14.5q0 6 3 12q7 13 22 13q6 0 21 -5l41 -13q9 -3 14.5 -5.5t10.5 -4.5q14 -8 14 -24q0 -12 -9 -27q-7 -12 -15.5 -17t-16.5 -5q-9 0 -16 4zM408 553q-5 -3 -13 -5.5t-13 -4.5l-39 -12q-9 -4 -22 -4q-6 0 -11 2t-9 9q-3 6 -3 13q0 8 5 14t14 14l31 29
q10 9 18.5 14.5t17.5 5.5q18 0 32 -24q8 -14 8 -24q0 -9 -4.5 -16t-11.5 -11zM298 672q0 -5 -1.5 -13.5t-3.5 -13.5l-9 -40q-2 -12 -7 -22t-19 -10q-13 0 -19 8.5t-9 24.5l-9 42q-4 15 -4 27q0 13 10 21.5t31 8.5q22 0 31 -10t9 -23z" />
    <glyph glyph-name="plus" unicode="+" horiz-adv-x="549" 
d="M346 281l-28 -171h-117l28 171h-156l19 109h156l28 172h117l-28 -172h156l-19 -109h-156z" />
    <glyph glyph-name="comma" unicode="," horiz-adv-x="230" 
d="M102 139q32 0 50.5 -21.5t18.5 -58.5q0 -31 -13 -64.5t-34 -61t-48 -45.5t-55 -18q-40 0 -46 33q26 12 50 32t34 58q-15 11 -25.5 24.5t-10.5 39.5q0 40 23.5 61t55.5 21z" />
    <glyph glyph-name="hyphen" unicode="-" horiz-adv-x="421" 
d="M140 207q-41 0 -57.5 19.5t-15.5 45.5q0 11 2 25t7 27h220q41 0 57.5 -19t15.5 -45q0 -11 -2 -25.5t-7 -27.5h-220z" />
    <glyph glyph-name="period" unicode="." horiz-adv-x="232" 
d="M91 -15q-32 0 -50 20.5t-18 44.5q0 47 24.5 69.5t58.5 22.5q32 0 50 -20.5t18 -44.5q0 -47 -24.5 -69.5t-58.5 -22.5z" />
    <glyph glyph-name="slash" unicode="/" horiz-adv-x="371" 
d="M107 0h-127l313 604q19 36 42 53.5t61 17.5q17 0 31 -3.5t24 -8.5z" />
    <glyph glyph-name="zero" unicode="0" horiz-adv-x="549" 
d="M330 559q-32 0 -58.5 -26t-46 -71t-30 -106t-10.5 -131q1 -60 18 -93.5t61 -33.5q30 0 57 25.5t47 70.5t31 106t11 131q-1 60 -18 94t-62 34zM346 671q58 0 96 -22.5t61 -58.5t32 -80t9 -87q-1 -81 -17.5 -159.5t-52 -140.5t-91 -100t-133.5 -38q-58 0 -96 22.5t-61 58.5
t-32 80t-9 87q1 79 18 157.5t53 141t91 101t132 38.5z" />
    <glyph glyph-name="one" unicode="1" horiz-adv-x="549" 
d="M219 0l83 499l-138 -67q-11 17 -20 34.5t-9 35.5q0 37 42 59l151 79q20 11 41 18t42 7q27 0 48 -17l-108 -648h-132z" />
    <glyph glyph-name="two" unicode="2" horiz-adv-x="549" 
d="M33 0l15 94q51 42 104 85.5t113 103.5q21 22 40.5 45t34.5 46.5t23.5 47t8.5 47.5q0 89 -80 89q-43 0 -77 -23t-59 -49q-23 11 -34.5 28.5t-11.5 36.5q0 29 25 53q31 29 77 48t112 19q85 0 134.5 -48.5t49.5 -131.5q0 -68 -27.5 -123t-86.5 -116q-39 -41 -78 -74.5
t-86 -70.5h161q46 0 65 -16.5t19 -48.5q0 -12 -2 -24t-5 -18h-435z" />
    <glyph glyph-name="three" unicode="3" horiz-adv-x="549" 
d="M83 21q-23 15 -33.5 30t-11.5 35q-1 22 13 42.5t34 36.5q16 -17 31.5 -30t32 -22t37 -13.5t47.5 -4.5q48 0 78.5 27t30.5 74q0 44 -22 70t-70 26h-43l17 101h43q18 0 37.5 4.5t36 15t27.5 29t11 47.5q0 32 -21.5 52t-60.5 20q-41 0 -75.5 -21t-59.5 -47q-23 11 -37.5 28
t-14.5 35q0 27 25 51q29 26 75 45t109 19q48 0 83.5 -13.5t59 -35.5t35.5 -50t12 -56q0 -43 -13.5 -72.5t-32.5 -49.5t-39.5 -31.5t-35.5 -17.5q49 -25 67.5 -62t18.5 -82q0 -50 -16.5 -90t-48 -68t-76.5 -43t-101 -15q-57 0 -91.5 10.5t-57.5 25.5z" />
    <glyph glyph-name="four" unicode="4" horiz-adv-x="549" 
d="M37 159l15 89l300 354q22 28 46.5 45.5t59.5 17.5q12 0 27 -4.5t26 -12.5l-65 -388h27q28 0 39 -12.5t11 -36.5q0 -30 -10 -52h-84l-26 -159h-129l26 159h-263zM317 261l35 211l-179 -211h144z" />
    <glyph glyph-name="five" unicode="5" horiz-adv-x="549" 
d="M249 -15q-61 0 -95.5 10.5t-57.5 24.5q-47 27 -48 66q-1 22 13 42.5t34 36.5q33 -35 67 -52.5t84 -17.5q54 0 83 34t29 92q0 50 -27.5 74.5t-75.5 24.5q-56 0 -103 -23l-44 22l70 344h344q-1 -32 -6 -53.5t-17 -34.5t-31.5 -18.5t-47.5 -5.5h-150l-26 -140q14 3 31 5
t31 2q49 0 84.5 -16.5t57.5 -43.5t32.5 -62.5t10.5 -74.5q0 -47 -15.5 -90t-45.5 -75.5t-75.5 -51.5t-105.5 -19z" />
    <glyph glyph-name="six" unicode="6" horiz-adv-x="549" 
d="M71 216q0 83 23 164.5t70 146t118 104.5t168 40q37 0 51 -15t14 -36q0 -15 -4 -27t-11 -24q-27 3 -53 3q-47 0 -83.5 -14t-64 -38t-47 -56.5t-32.5 -69.5q29 25 60 34.5t62 9.5q43 0 74.5 -16t51.5 -43.5t30 -64t10 -77.5q0 -53 -14.5 -99t-44 -80.5t-74.5 -54.5
t-106 -20q-91 0 -144.5 59t-53.5 174zM277 87q44 0 74.5 35t30.5 110q0 43 -20 73t-62 30q-30 0 -54.5 -11.5t-40.5 -30.5q-4 -14 -6.5 -32.5t-2.5 -42.5q0 -59 18.5 -95t62.5 -36z" />
    <glyph glyph-name="seven" unicode="7" horiz-adv-x="549" 
d="M388 549h-294q1 64 23 89t79 25h306q27 0 36 -12.5t5 -35.5l-6 -40l-312 -575h-148z" />
    <glyph glyph-name="eight" unicode="8" horiz-adv-x="549" 
d="M529 506q0 -29 -9 -53.5t-23.5 -44.5t-33 -35.5t-38.5 -27.5q44 -26 64 -61.5t20 -76.5q0 -59 -19.5 -101t-53 -69t-78 -39.5t-93.5 -12.5q-48 0 -87.5 13.5t-67 38t-42.5 58.5t-15 76q0 36 11.5 64.5t30 51t41.5 38t47 26.5q-34 25 -52 57t-18 64q0 49 18.5 86t49 62
t70.5 38t83 13q45 0 81.5 -12.5t61.5 -34t38.5 -52t13.5 -66.5zM312 398q36 0 63.5 25t27.5 74q0 35 -20.5 56t-55.5 21q-37 0 -64 -25.5t-27 -74.5q0 -34 20 -55t56 -21zM270 85q22 0 42 7.5t35.5 22.5t24.5 37.5t9 52.5q0 41 -24.5 66.5t-68.5 25.5q-45 0 -78 -31t-33 -90
q0 -40 24 -65.5t69 -25.5z" />
    <glyph glyph-name="nine" unicode="9" horiz-adv-x="549" 
d="M317 671q91 0 144.5 -59t53.5 -174q0 -85 -21 -166.5t-67 -145.5t-117.5 -103.5t-173.5 -39.5q-37 0 -51 15t-14 36q0 15 4 27t11 24q27 -3 53 -3q49 0 86.5 14.5t65.5 38.5t46 56.5t28 68.5q-29 -25 -59.5 -34.5t-61.5 -9.5q-42 0 -73.5 16t-52 43.5t-30.5 64t-10 77.5
q0 52 15 98t45 80.5t74.5 55t104.5 20.5zM286 319q30 0 54.5 11.5t40.5 30.5q4 14 6.5 32.5t2.5 42.5q0 59 -18.5 95t-62.5 36t-74.5 -35t-30.5 -110q0 -43 20 -73t62 -30z" />
    <glyph glyph-name="colon" unicode=":" horiz-adv-x="232" 
d="M91 -15q-32 0 -50 20.5t-18 44.5q0 47 24.5 69.5t58.5 22.5q32 0 50 -20.5t18 -44.5q0 -47 -24.5 -69.5t-58.5 -22.5zM148 344q-32 0 -50 20.5t-18 44.5q0 47 24.5 69.5t58.5 22.5q32 0 50 -20.5t18 -44.5q0 -47 -24.5 -69.5t-58.5 -22.5z" />
    <glyph glyph-name="semicolon" unicode=";" horiz-adv-x="232" 
d="M102 139q32 0 50.5 -21.5t18.5 -58.5q0 -31 -13 -64.5t-34 -61t-48 -45.5t-55 -18q-40 0 -46 33q26 12 50 32t34 58q-15 11 -25.5 24.5t-10.5 39.5q0 40 23.5 61t55.5 21zM148 344q-32 0 -50 20.5t-18 44.5q0 47 24.5 69.5t58.5 22.5q32 0 50 -20.5t18 -44.5
q0 -47 -24.5 -69.5t-58.5 -22.5z" />
    <glyph glyph-name="less" unicode="&#x3c;" horiz-adv-x="549" 
d="M508 431l-281 -113l244 -111l-19 -114l-363 179l18 108l422 176z" />
    <glyph glyph-name="equal" unicode="=" horiz-adv-x="549" 
d="M489 282l-19 -113h-398l19 113h398zM524 492l-19 -113h-398l19 113h398z" />
    <glyph glyph-name="greater" unicode="&#x3e;" horiz-adv-x="549" 
d="M81 221l281 113l-244 111l19 114l363 -179l-18 -108l-422 -176z" />
    <glyph glyph-name="question" unicode="?" horiz-adv-x="426" 
d="M249 568q-38 0 -68.5 -16.5t-56.5 -45.5q-23 11 -34.5 28.5t-11.5 36.5q0 29 25 53q29 26 71.5 41.5t96.5 15.5q38 0 70 -10t55.5 -29.5t37 -48.5t13.5 -66q0 -35 -10.5 -64t-26.5 -52.5t-34 -42t-34 -31.5q-20 -17 -37 -31.5t-30.5 -29.5t-22 -34t-11.5 -45
q-9 -3 -20 -4t-19 -1q-32 0 -45.5 13.5t-13.5 41.5q0 13 3 25.5t11.5 26.5t23 30t37.5 36l36 30t32.5 32t23.5 36.5t9 43.5q0 61 -70 61zM155 -15q-32 0 -50 20.5t-18 44.5q0 47 24.5 69.5t58.5 22.5q32 0 50 -20.5t18 -44.5q0 -47 -24.5 -69.5t-58.5 -22.5z" />
    <glyph glyph-name="at" unicode="@" horiz-adv-x="724" 
d="M333 636q93 0 160 -27.5t110.5 -74.5t64.5 -108.5t21 -129.5q0 -96 -24.5 -173.5t-70 -132t-111 -84t-146.5 -29.5q-123 0 -189 51t-66 151q0 46 18.5 81.5t49.5 60t71.5 37.5t83.5 13h25.5t28.5 -2l3 19q5 32 -7.5 54t-52.5 22q-38 0 -64.5 -15t-51.5 -41q-44 20 -44 49
q0 23 24 44q22 20 61 36t90 16q79 0 116.5 -39.5t37.5 -102.5q0 -10 -1 -20.5t-3 -21.5l-21 -121q-2 -8 -3 -18t-1 -20q0 -23 2.5 -37.5t4.5 -21.5q-25 -15 -55 -15q-34 0 -48.5 12t-14.5 45q0 3 0.5 11.5t1.5 12.5l13 74q-7 1 -18 1.5t-17 0.5q-57 0 -89.5 -28t-32.5 -86
q0 -62 42.5 -87.5t110.5 -25.5q55 0 99 21t75 62.5t48 104t17 145.5q0 55 -17 100.5t-50 77.5t-80.5 49.5t-108.5 17.5q-76 0 -136 -30.5t-104 -76.5q-50 24 -50 58q0 27 33 53q56 45 126 66.5t139 21.5z" />
    <glyph glyph-name="A" unicode="A" horiz-adv-x="598" 
d="M558 0h-138l-21 143h-209l-61 -143h-139l312 658q13 6 30 11t34 5q34 0 55.5 -15t28.5 -52zM235 251h148l-35 264z" />
    <glyph glyph-name="B" unicode="B" horiz-adv-x="550" 
d="M31 0l110 665q48 5 88.5 8t82.5 3q61 0 103 -13.5t67.5 -36t36.5 -52t11 -60.5q0 -48 -24.5 -91t-84.5 -71q40 -18 67 -53.5t27 -88.5q0 -59 -22 -99.5t-62 -65t-94.5 -35t-118.5 -10.5h-187zM225 99q79 0 115.5 27.5t36.5 83.5q0 42 -23 64.5t-71 22.5h-75l-32 -198h49z
M399 504q0 36 -23 55.5t-65 19.5q-12 0 -31 -0.5t-25 -1.5l-31 -183h71q45 0 74.5 27t29.5 83z" />
    <glyph glyph-name="C" unicode="C" horiz-adv-x="588" 
d="M498 183q23 -17 35.5 -34.5t12.5 -34.5q0 -28 -15.5 -47.5t-43.5 -36.5q-30 -19 -75 -33t-99 -14q-64 0 -110.5 21t-77 58t-45.5 88t-15 112q0 73 21 148t63.5 135.5t108.5 99t156 38.5q66 0 109.5 -24t64.5 -56q7 -11 9.5 -22.5t2.5 -22.5q0 -29 -18.5 -48.5
t-53.5 -27.5q-18 42 -47 66t-81 24q-41 0 -76.5 -21t-61.5 -62t-41.5 -101.5t-15.5 -139.5q0 -32 8 -60t23.5 -48.5t38 -32.5t51.5 -12t54 7.5t46.5 20t39.5 28.5t32 32z" />
    <glyph glyph-name="D" unicode="D" horiz-adv-x="615" 
d="M329 569q-48 0 -70 -3l-76 -460h57q56 0 98 24t69.5 66t41.5 99t14 123q0 31 -9 59t-26 48t-42 32t-57 12zM323 676q75 0 128.5 -20t87 -56t49 -85.5t15.5 -107.5q0 -75 -20 -148t-66 -130.5t-119.5 -93t-179.5 -35.5h-187l110 663q64 9 108.5 11t73.5 2z" />
    <glyph glyph-name="E" unicode="E" horiz-adv-x="482" 
d="M361 107q46 0 65 -16.5t19 -48.5q0 -12 -2 -24t-5 -18h-407l111 670h388q-1 -30 -6 -50.5t-16.5 -33t-29.5 -18t-45 -5.5h-174l-27 -165h195l-18 -107h-195l-30 -184h177z" />
    <glyph glyph-name="F" unicode="F" horiz-adv-x="475" 
d="M142 670h388q-1 -30 -6 -50.5t-16.5 -33t-29.5 -18t-45 -5.5h-174l-28 -172h196l-18 -107h-196l-47 -284h-135z" />
    <glyph glyph-name="G" unicode="G" horiz-adv-x="622" 
d="M414 683q66 0 109.5 -24t64.5 -56q7 -11 9.5 -22.5t2.5 -22.5q0 -29 -18.5 -48.5t-53.5 -27.5q-18 42 -47 66t-81 24q-41 0 -76.5 -21t-61.5 -62t-41.5 -101.5t-15.5 -139.5q0 -32 8 -60t23.5 -48.5t38 -32.5t51.5 -12q33 0 59 9.5t50 27.5l20 121h-104l17 105h232
l-45 -273q-25 -28 -55 -47.5t-62 -31.5t-64 -17.5t-61 -5.5q-64 0 -110.5 21t-77 58t-45.5 88t-15 112q0 73 21 148t63.5 135.5t108.5 99t156 38.5z" />
    <glyph glyph-name="H" unicode="H" horiz-adv-x="607" 
d="M142 670q12 2 24.5 3t22.5 1q41 0 58 -19.5t17 -48.5q0 -6 -0.5 -12t-1.5 -12l-30 -184h219l45 272q12 2 24.5 3t22.5 1q41 0 58 -19.5t17 -48.5q0 -6 -0.5 -12t-1.5 -12l-96 -582h-135l48 290h-219l-48 -290h-135z" />
    <glyph glyph-name="I" unicode="I" horiz-adv-x="253" 
d="M166 0h-135l111 670q12 2 24.5 3t22.5 1q41 0 58 -19.5t17 -48.5q0 -6 -0.5 -12t-1.5 -12z" />
    <glyph glyph-name="J" unicode="J" horiz-adv-x="253" 
d="M-40 -201q-36 0 -54 16t-18 54q0 7 1 16.5t3 19.5q31 0 56 5t42 20t28 36t16 52l108 652q12 2 24.5 3t22.5 1q41 0 58 -19.5t17 -48.5q0 -6 -0.5 -12t-1.5 -12l-92 -551q-10 -51 -25.5 -99t-49.5 -82q-24 -24 -60 -37.5t-75 -13.5z" />
    <glyph glyph-name="K" unicode="K" horiz-adv-x="543" 
d="M163 0h-132l111 670q12 2 24 3t22 1q41 0 57 -19.5t16 -48.5q0 -6 -0.5 -12t-1.5 -12l-35 -213q3 10 10.5 21.5t15 21.5t14 17.5t9.5 10.5l160 180q27 30 50.5 42t49.5 12t46 -8.5t30 -21.5l-265 -304l178 -330q-20 -12 -38 -16.5t-37 -4.5q-34 0 -56.5 11t-38.5 38
l-106 193q-11 20 -19.5 40t-11.5 42z" />
    <glyph glyph-name="L" unicode="L" horiz-adv-x="487" 
d="M184 108h177q46 0 65 -16.5t19 -48.5q0 -12 -2 -24.5t-5 -18.5h-407l111 670q12 2 25 3t23 1q41 0 57.5 -19.5t16.5 -48.5q0 -6 -0.5 -12t-1.5 -12z" />
    <glyph glyph-name="M" unicode="M" horiz-adv-x="733" 
d="M231 674q33 0 47.5 -17t19.5 -42l79 -345l194 344q18 32 40 46t49 14q20 0 38 -2.5t26 -7.5l-64 -664h-126l43 431l-167 -291h-110l-69 281q-11 -50 -23.5 -103.5t-24.5 -107.5t-24 -107.5t-23 -102.5h-125l153 664q11 3 29 6.5t38 3.5z" />
    <glyph glyph-name="N" unicode="N" horiz-adv-x="605" 
d="M504 670q11 2 22 3t20 1q39 0 54.5 -19.5t15.5 -48.5q0 -6 -0.5 -12t-1.5 -12l-96 -582h-112l-179 443l-72 -443h-124l110 667q11 2 25.5 4.5t31.5 2.5q35 0 52 -16.5t29 -45.5l151 -384z" />
    <glyph glyph-name="O" unicode="O" horiz-adv-x="655" 
d="M408 683q64 0 108.5 -22t72.5 -58.5t41 -85t13 -101.5q0 -77 -20 -154t-61.5 -139t-105 -101t-151.5 -39q-65 0 -110.5 22t-74.5 58.5t-42 85t-13 101.5q0 76 20.5 153.5t63 139.5t107 101t152.5 39zM317 95q36 0 69 23.5t59 67t41.5 105.5t15.5 139q0 62 -26.5 102
t-82.5 40q-39 0 -73.5 -23t-60 -66.5t-40 -105.5t-14.5 -141q0 -63 26.5 -102t85.5 -39z" />
    <glyph glyph-name="P" unicode="P" horiz-adv-x="547" 
d="M203 239l-40 -239h-132l109 665q47 6 91.5 8.5t85.5 2.5q63 0 108.5 -14.5t75 -39.5t43.5 -59t14 -73q0 -68 -22.5 -116t-63 -78t-98 -43.5t-126.5 -13.5h-45zM416 486q0 45 -31.5 67t-76.5 22q-14 0 -28.5 -0.5t-22.5 -2.5l-37 -227h49q33 0 60 7t46.5 23.5t30 43.5
t10.5 67z" />
    <glyph glyph-name="Q" unicode="Q" horiz-adv-x="655" 
d="M278 -68q13 12 28 16.5t32 4.5q23 0 38.5 -7.5t30.5 -19.5q20 -17 51.5 -32.5t84.5 -17.5q-4 -39 -27 -60.5t-61 -21.5q-29 0 -56.5 13t-51 33.5t-41.5 44.5t-28 47zM408 683q64 0 108.5 -22t72.5 -58.5t41 -85t13 -101.5q0 -77 -20 -154t-61.5 -139t-105 -101
t-151.5 -39q-65 0 -110.5 22t-74.5 58.5t-42 85t-13 101.5q0 76 20.5 153.5t63 139.5t107 101t152.5 39zM317 95q36 0 69 23.5t59 67t41.5 105.5t15.5 139q0 62 -26.5 102t-82.5 40q-39 0 -73.5 -23t-60 -66.5t-40 -105.5t-14.5 -141q0 -63 26.5 -102t85.5 -39z" />
    <glyph glyph-name="R" unicode="R" horiz-adv-x="544" 
d="M205 256l-42 -256h-132l110 666q45 5 87 7.5t81 2.5q63 0 108 -13.5t73.5 -37.5t41.5 -56.5t13 -69.5q0 -91 -40.5 -145.5t-113.5 -77.5l108 -266q-20 -11 -38.5 -16t-40.5 -5q-38 0 -55.5 15.5t-32.5 53.5l-77 198h-50zM402 490q0 38 -29 60.5t-72 22.5
q-14 0 -25.5 -0.5t-18.5 -1.5l-35 -211h40q31 0 57 6.5t44.5 21.5t28.5 40t10 62z" />
    <glyph glyph-name="S" unicode="S" horiz-adv-x="512" 
d="M234 96q25 0 43.5 7.5t30.5 19.5t17.5 27t5.5 30q0 17 -5 30.5t-17 27t-32 27.5t-51 31q-67 37 -101 81.5t-34 113.5q0 45 17.5 80.5t48.5 60.5t73 38t91 13q31 0 56.5 -5t46 -12.5t35 -16.5t23.5 -16q25 -21 25 -49q0 -26 -17 -48.5t-42 -33.5q-27 31 -59 48.5t-77 17.5
q-38 0 -60.5 -19.5t-22.5 -46.5q0 -38 26 -61.5t70 -48.5q43 -25 72 -48t46.5 -46.5t24.5 -48.5t7 -55q0 -51 -17.5 -90.5t-49.5 -66.5t-76 -40.5t-97 -13.5q-66 0 -109.5 12t-69.5 31q-18 13 -26.5 26t-8.5 32q0 25 15.5 46.5t36.5 35.5q34 -34 71.5 -52t89.5 -18z" />
    <glyph glyph-name="T" unicode="T" horiz-adv-x="540" 
d="M401 558l-92 -558h-135l92 558h-191q1 64 23 88t79 24h429q-1 -32 -6 -53.5t-17 -34.5t-31.5 -18.5t-47.5 -5.5h-103z" />
    <glyph glyph-name="U" unicode="U" horiz-adv-x="607" 
d="M496 670q12 2 24.5 3t22.5 1q41 0 58 -19.5t17 -48.5q0 -6 -0.5 -12t-1.5 -12l-54 -325q-11 -68 -31.5 -119t-53.5 -85.5t-80.5 -52t-111.5 -17.5q-61 0 -102.5 15.5t-67 42.5t-36.5 64t-11 81q0 19 2 39t5 40l67 405q12 2 25 3t23 1q41 0 57.5 -19.5t16.5 -48.5
q0 -6 -0.5 -12t-1.5 -12l-52 -314q-4 -21 -5 -38.5t-1 -33.5q0 -53 21 -77.5t71 -24.5q30 0 51.5 8.5t37 28t25.5 50t17 75.5z" />
    <glyph glyph-name="V" unicode="V" horiz-adv-x="584" 
d="M339 0h-149l-100 663q10 4 28 7.5t41 3.5q38 0 55.5 -19t22.5 -55l55 -436l196 439q16 35 39 53t61 18q15 0 30.5 -2.5t35.5 -8.5z" />
    <glyph glyph-name="W" unicode="W" horiz-adv-x="836" 
d="M602 0h-114l-44 328l-147 -328h-113l-94 660q13 6 33 10t35 4q36 0 53.5 -16.5t21.5 -48.5l48 -415l139 307l-20 162q19 5 36.5 8t31.5 3q38 0 52.5 -17t17.5 -49l39 -406l164 398q14 32 37.5 53t59.5 21q22 0 38 -3.5t30 -8.5z" />
    <glyph glyph-name="X" unicode="X" horiz-adv-x="538" 
d="M-26 0l246 339l-126 312q21 10 42.5 16.5t44.5 6.5q26 0 43.5 -13t26.5 -36l67 -179l120 168q23 31 45 45.5t54 14.5q40 0 71 -20l-239 -323l127 -326q-20 -8 -41 -12t-38 -4q-39 0 -56.5 15.5t-28.5 45.5l-60 174l-150 -224h-148z" />
    <glyph glyph-name="Y" unicode="Y" horiz-adv-x="540" 
d="M352 260l-43 -260h-135l43 259l-132 392q20 10 41 16.5t43 6.5q52 0 68 -49l70 -231l137 219q20 32 43.5 46.5t55.5 14.5q21 0 36.5 -5.5t30.5 -15.5z" />
    <glyph glyph-name="Z" unicode="Z" horiz-adv-x="514" 
d="M526 670q27 0 36 -12.5t5 -35.5l-7 -42q-102 -117 -199.5 -235t-186.5 -234h224q46 0 65 -16t19 -48q0 -12 -2 -26.5t-5 -20.5h-475l15 90q38 53 83 111.5t94 118.5t100 120.5t102 118.5h-299q1 32 6 53.5t17 34t31 18t48 5.5h329z" />
    <glyph glyph-name="bracketleft" unicode="[" horiz-adv-x="359" 
d="M45 -136l141 853h238l-17 -99h-111l-108 -656h111l-16 -98h-238z" />
    <glyph glyph-name="backslash" unicode="\" horiz-adv-x="368" 
d="M65 665q10 5 26.5 8.5t33.5 3.5q34 0 49.5 -18.5t23.5 -52.5l130 -606h-120z" />
    <glyph glyph-name="bracketright" unicode="]" horiz-adv-x="359" 
d="M354 717l-141 -853h-238l17 99h111l108 656h-111l16 98h238z" />
    <glyph glyph-name="asciicircum" unicode="^" horiz-adv-x="498" 
d="M366 284l-55 260l-144 -260h-116l219 383h129l82 -383h-115z" />
    <glyph glyph-name="underscore" unicode="_" horiz-adv-x="478" 
d="M-4 -180v80h404v-80h-404z" />
    <glyph glyph-name="grave" unicode="`" horiz-adv-x="364" 
d="M83 680q14 12 35.5 22t39.5 10q21 0 34 -9.5t24 -28.5l65 -118q-11 -8 -28.5 -13t-29.5 -5q-32 0 -51 26z" />
    <glyph glyph-name="a" unicode="a" horiz-adv-x="516" 
d="M314 52q-23 -30 -54.5 -48.5t-75.5 -18.5q-41 0 -67.5 13.5t-42 37t-22 56.5t-6.5 72q0 62 19.5 120t56 103t87.5 72.5t114 27.5q40 0 88 -12.5t91 -38.5l-52 -315q-3 -15 -3 -33q0 -22 3.5 -44.5t10.5 -39.5q-17 -10 -36 -14t-38 -4q-32 0 -51 15.5t-22 50.5zM316 387
q-26 0 -50 -15.5t-43 -44t-30.5 -69.5t-11.5 -92q0 -79 54 -79q18 0 33 8.5t27 22.5t20 32.5t11 39.5l31 185q-20 12 -41 12z" />
    <glyph glyph-name="b" unicode="b" horiz-adv-x="519" 
d="M220 82q28 0 52.5 15.5t43.5 44t30 70t11 92.5q0 84 -59 84q-33 0 -59 -26.5t-32 -63.5l-35 -209q10 -5 22 -6t26 -1zM143 705q12 2 24 3t22 1q41 0 57 -19.5t16 -48.5q0 -6 -0.5 -12t-1.5 -12l-29 -177q20 20 50.5 33.5t70.5 13.5q43 0 70.5 -15.5t44 -41t23 -59
t6.5 -70.5q0 -62 -19.5 -119t-56 -101t-89 -70t-117.5 -26q-45 0 -92 10.5t-90 36.5z" />
    <glyph glyph-name="c" unicode="c" horiz-adv-x="451" 
d="M387 323q-14 33 -33 47t-53 14q-28 0 -51 -16.5t-38.5 -45t-24 -66t-8.5 -80.5q1 -46 23 -67t51 -21q32 0 57.5 17t44.5 44q28 -11 41 -27t13 -34q0 -32 -34 -60q-18 -15 -51 -29t-87 -14t-90.5 16.5t-59 44t-32 63.5t-9.5 75q0 61 18 116.5t52 96.5t83 65.5t111 24.5
q51 0 82.5 -16.5t47.5 -41.5q12 -20 12 -35q1 -27 -18.5 -43.5t-46.5 -27.5z" />
    <glyph glyph-name="d" unicode="d" horiz-adv-x="524" 
d="M322 52q-24 -35 -60.5 -51t-71.5 -16q-41 0 -68.5 13.5t-44 37t-24 56.5t-7.5 72q0 65 19.5 123.5t55 103t84.5 70.5t109 26q15 0 36 -4.5t34 -11.5l39 234q12 2 24 3t22 1q41 0 57 -19.5t16 -48.5q0 -6 -0.5 -12t-1.5 -12l-82 -496q-3 -15 -3 -33q0 -22 3.5 -44.5
t10.5 -39.5q-17 -10 -36 -14t-38 -4q-32 0 -51 15.5t-22 50.5zM368 375q-10 6 -24 9t-28 3q-56 0 -93.5 -56.5t-37.5 -164.5q0 -79 57 -79q19 0 35 8.5t28 22.5t20.5 32.5t11.5 39.5z" />
    <glyph glyph-name="e" unicode="e" horiz-adv-x="481" 
d="M376 150q51 -26 51 -63q0 -21 -12 -36t-26 -25q-22 -15 -56.5 -28t-91.5 -13q-55 0 -92 16.5t-60 44t-33 63.5t-10 75q0 61 19 116.5t54 96.5t86 65.5t116 24.5q35 0 62 -10t45.5 -27t28 -40t9.5 -50q0 -56 -25 -90.5t-63 -54.5t-83 -27t-85 -7h-18t-16 1v-6
q0 -23 7.5 -40t19 -28t26 -16.5t28.5 -5.5q41 0 70 19t49 45zM215 261q23 0 46 5t42 15.5t30.5 26t11.5 36.5q0 17 -10 29.5t-35 12.5q-43 0 -72.5 -34t-42.5 -90q9 -1 15.5 -1h14.5z" />
    <glyph glyph-name="f" unicode="f" horiz-adv-x="363" 
d="M326 614q-34 0 -52.5 -18.5t-26.5 -65.5l-9 -54h146l-17 -103h-146l-63 -383q-15 -95 -62 -148t-137 -53q-20 0 -42.5 4t-42 13t-32.5 24.5t-13 38.5q0 18 11.5 35.5t35.5 31.5q14 -20 31.5 -30.5t42.5 -10.5q32 0 49.5 24.5t25.5 70.5l87 523q16 109 71 156.5t145 47.5
q41 0 71.5 -10t48.5 -27q23 -21 23 -50q0 -20 -16.5 -39.5t-49.5 -29.5q-11 24 -28 38.5t-51 14.5z" />
    <glyph glyph-name="g" unicode="g" horiz-adv-x="521" 
d="M367 375q-20 12 -47 12q-24 0 -48.5 -14.5t-43.5 -42t-31 -67.5t-12 -91q0 -79 57 -79q19 0 35 8.5t28 22.5t20.5 32.5t11.5 39.5zM187 -227q-49 0 -83 9t-62 32q-14 11 -20.5 23t-7.5 25q-2 22 11.5 43t35.5 34q19 -26 50 -44.5t76 -18.5q51 0 81.5 32.5t39.5 94.5l6 41
q-23 -25 -56 -39t-68 -14q-41 0 -68.5 13.5t-44 37t-24 56.5t-7.5 72q0 62 20.5 119t58 101t89 70.5t113.5 26.5q45 0 92 -12.5t90 -38.5l-66 -399q-23 -138 -88 -201t-168 -63z" />
    <glyph glyph-name="h" unicode="h" horiz-adv-x="512" 
d="M233 431q23 23 54 39.5t78 16.5q45 0 73 -20t39 -51q10 -29 10 -64q0 -18 -2 -35.5t-5 -34.5l-47 -282h-135l47 282q2 11 3 21t1 20q0 23 -10.5 39t-42.5 16t-56 -27t-31 -69l-47 -282h-135l117 705q12 2 24 3t22 1q41 0 58.5 -19.5t17.5 -48.5q0 -6 -0.5 -12t-1.5 -12z
" />
    <glyph glyph-name="i" unicode="i" horiz-adv-x="246" 
d="M105 473q12 2 24.5 3t22.5 1q41 0 58.5 -19.5t17.5 -48.5q0 -6 -0.5 -12t-1.5 -12l-44 -264q-2 -11 -3 -22.5t-1 -23.5q0 -19 2.5 -38t7.5 -33q-17 -10 -33.5 -14t-35.5 -4q-41 0 -60.5 16t-19.5 59q0 4 0.5 10.5t1.5 11.5zM189 556q-32 0 -49 20t-17 47q0 42 24 64
t57 22q32 0 49 -20t17 -50q0 -39 -24 -61t-57 -22z" />
    <glyph glyph-name="j" unicode="j" horiz-adv-x="247" 
d="M106 473q12 2 24.5 3t22.5 1q41 0 58.5 -19.5t17.5 -48.5q0 -6 -0.5 -12t-1.5 -12l-63 -376q-14 -78 -35.5 -125t-56.5 -77q-20 -17 -48 -27.5t-56 -10.5q-31 0 -53.5 15t-22.5 50q0 7 1 16t3 18h10q29 0 49 7.5t37 25.5q14 14 21 36t13 57zM190 556q-32 0 -49 20t-17 46
q0 43 24 65t57 22q32 0 49 -20t17 -46q0 -43 -24 -65t-57 -22z" />
    <glyph glyph-name="k" unicode="k" horiz-adv-x="482" 
d="M227 310q17 23 36 43l86 95q18 20 35.5 28t41.5 8q26 0 43.5 -10t32.5 -26l-171 -189l78 -149q9 -17 26 -42.5t43 -42.5q-14 -14 -39.5 -24.5t-54.5 -10.5q-17 0 -31 3t-26 10.5t-23 21t-22 35.5l-53 102q-5 11 -16 33t-13 45l-40 -240h-133l117 705q12 2 24 3t22 1
q40 0 57 -19.5t17 -48.5q0 -6 -0.5 -12t-1.5 -12l-57 -343q6 15 22 36z" />
    <glyph glyph-name="l" unicode="l" horiz-adv-x="248" 
d="M144 705q12 2 24.5 3t22.5 1q41 0 58 -19.5t17 -48.5q0 -6 -0.5 -12t-1.5 -12l-82 -496q-2 -11 -3 -22.5t-1 -23.5q0 -19 2.5 -38t7.5 -33q-17 -10 -33.5 -14t-35.5 -4q-41 0 -60.5 16t-19.5 59q0 4 0.5 10.5t1.5 11.5z" />
    <glyph glyph-name="m" unicode="m" horiz-adv-x="763" 
d="M552 378q-17 0 -31 -9t-24.5 -23t-17.5 -31t-9 -33l-47 -282h-135l47 282q2 11 3 21t1 18q0 57 -48 57q-25 0 -49.5 -25.5t-32.5 -70.5l-47 -282h-135l78 473q23 4 50 4q28 0 45 -12t26 -41q23 25 56 44t83 19q43 0 66 -19t34 -51q15 16 30 29t33 22t40.5 14t51.5 5
q44 -1 70.5 -21t37.5 -50q10 -29 10 -64q0 -18 -2 -35.5t-5 -34.5l-47 -282h-135l47 282q3 19 3 38q0 29 -10.5 43.5t-36.5 14.5z" />
    <glyph glyph-name="n" unicode="n" horiz-adv-x="512" 
d="M162 0h-135l78 473q23 4 50 4q28 0 45 -12t26 -41q23 25 56 44t83 19q45 0 73 -20t39 -51q10 -29 10 -64q0 -18 -2 -35.5t-5 -34.5l-47 -282h-135l47 282q2 11 3 21t1 20q0 23 -10.5 39t-42.5 16t-56 -27t-31 -69z" />
    <glyph glyph-name="o" unicode="o" horiz-adv-x="515" 
d="M232 -15q-53 0 -88.5 16.5t-57 44t-31 63.5t-9.5 75q0 61 17 116.5t50 96.5t81.5 65.5t111.5 24.5q51 0 86.5 -16.5t57.5 -44t32 -63.5t10 -75q0 -59 -15.5 -114t-47.5 -97t-81 -67t-116 -25zM179 178q0 -46 18.5 -68.5t46.5 -22.5q23 0 44 13.5t36.5 39.5t24.5 64.5
t9 88.5q0 46 -18.5 68.5t-46.5 22.5q-23 0 -44 -13.5t-36.5 -39.5t-24.5 -64.5t-9 -88.5z" />
    <glyph glyph-name="p" unicode="p" horiz-adv-x="522" 
d="M152 477q24 0 43 -9t30 -41q20 22 52.5 41t77.5 19q40 0 68 -15t44.5 -41.5t24 -61t7.5 -73.5q0 -62 -17.5 -118.5t-49.5 -99t-77 -68t-99 -25.5q-32 0 -55 9t-39 20l-38 -232h-132l113 691q12 2 24.5 3t22.5 1zM232 85q25 0 48.5 13.5t41 40.5t28 67t10.5 93
q0 45 -18 66t-46 21q-17 0 -31.5 -8.5t-26 -22t-19.5 -30t-10 -32.5l-33 -195q11 -8 22.5 -10.5t33.5 -2.5z" />
    <glyph glyph-name="q" unicode="q" horiz-adv-x="522" 
d="M270 -218l41 253q-23 -25 -54.5 -37.5t-66.5 -12.5q-41 0 -68.5 13.5t-44 37t-24 56.5t-7.5 72q0 62 19.5 120t56 103t89 72.5t117.5 27.5q45 0 92 -12.5t90 -38.5l-108 -654h-132zM368 375q-20 12 -47 12q-28 0 -52.5 -15.5t-43 -44t-29.5 -69.5t-11 -92q0 -79 57 -79
q19 0 35 8.5t28 22.5t20.5 32.5t11.5 39.5z" />
    <glyph glyph-name="r" unicode="r" horiz-adv-x="407" 
d="M356 321q-14 52 -62 52q-29 0 -53.5 -24t-32.5 -73l-46 -276h-135l78 473q23 4 50 4q60 0 72 -58q23 25 53 45t74 20q23 0 38 -6.5t23.5 -16.5t12 -22.5t3.5 -24.5q0 -35 -20 -56.5t-55 -36.5z" />
    <glyph glyph-name="s" unicode="s" horiz-adv-x="405" 
d="M189 -15q-56 0 -87 8.5t-56 24.5q-17 11 -26.5 24t-9.5 27q0 24 12 40.5t32 30.5q29 -28 55 -40t55 -12q34 0 47.5 13.5t13.5 33.5q0 21 -22 39.5t-49 37.5q-16 11 -31.5 23t-27.5 27t-19.5 35t-7.5 46q0 24 10 49.5t33 46.5t59.5 34.5t90.5 13.5q16 0 34.5 -3.5
t36.5 -9.5t33.5 -15t25.5 -21q15 -18 15 -39t-15.5 -38t-39.5 -25q-18 28 -45 42t-50 14q-25 0 -39.5 -9t-14.5 -32q0 -12 8 -22.5t21.5 -21t31 -23t36.5 -27.5q35 -29 50 -58t15 -64q0 -28 -10 -55t-31 -48t-54 -34t-80 -13z" />
    <glyph glyph-name="t" unicode="t" horiz-adv-x="374" 
d="M312 18q-24 -18 -53 -25.5t-65 -7.5q-75 0 -112 39t-37 108q0 12 1.5 25t3.5 27l73 438q12 2 24 3t22 1q41 0 58.5 -19.5t17.5 -48.5q0 -6 -0.5 -12t-1.5 -12l-9 -58h128l-17 -103h-128l-32 -196q-2 -10 -3 -18.5t-1 -16.5q0 -52 46 -52q23 0 40 14t31 33
q26 -11 37 -26.5t11 -32.5q0 -15 -8 -30.5t-26 -29.5z" />
    <glyph glyph-name="u" unicode="u" horiz-adv-x="515" 
d="M313 52q-20 -25 -50.5 -46t-80.5 -21q-52 0 -82.5 22t-41.5 53q-10 29 -10 64q0 18 2 35.5t5 34.5l46 279q12 2 24.5 3t22.5 1q41 0 58.5 -19.5t17.5 -48.5q0 -6 -0.5 -12t-1.5 -12l-32 -191q-3 -17 -3 -35q0 -28 11 -50t40 -22q16 0 30.5 9t26 23.5t20 34t11.5 40.5
l47 279q12 2 24 3t22 1q41 0 58.5 -19.5t17.5 -48.5q0 -6 -0.5 -12t-1.5 -12l-44 -264q-3 -15 -3 -33q0 -22 3.5 -44.5t10.5 -39.5q-17 -10 -36 -14t-38 -4q-32 0 -51 15.5t-22 50.5z" />
    <glyph glyph-name="v" unicode="v" horiz-adv-x="453" 
d="M262 0h-142l-72 463q35 14 72 14q21 0 34.5 -7.5t22 -20.5t12.5 -30t6 -36l20 -239l104 242q17 41 42 66t63 25q20 0 37 -4t28 -10z" />
    <glyph glyph-name="w" unicode="w" horiz-adv-x="655" 
d="M468 0h-102l-35 200q-28 -51 -53 -100t-53 -100h-98l-79 463q37 14 66 14q30 0 48 -13t23 -44l34 -259l85 163l-25 141q20 7 33.5 9.5t28.5 2.5q29 0 46 -17.5t21 -46.5l33 -242l88 223q18 45 41 64t61 19q20 0 33 -3.5t27 -10.5z" />
    <glyph glyph-name="x" unicode="x" horiz-adv-x="436" 
d="M247 336l55 79q22 31 44.5 46.5t60.5 15.5q20 0 35.5 -5t29.5 -13l-175 -223l98 -233q-29 -13 -63 -13q-33 0 -55.5 12t-33.5 41l-37 96l-98 -139h-138l190 244l-97 218q16 7 34.5 11.5t38.5 4.5q33 0 49.5 -14.5t27.5 -41.5z" />
    <glyph glyph-name="y" unicode="y" horiz-adv-x="459" 
d="M46 -123q18 0 31 6t23.5 18.5t20.5 31t21 44.5l8 18h-28l-75 468q35 14 72 14q21 0 34.5 -7.5t22 -20.5t12.5 -30t6 -36l21 -254l106 257q17 41 42 66t63 25q20 0 37 -4t28 -10l-245 -520q-17 -35 -33 -66t-37.5 -54t-50 -36.5t-69.5 -13.5q-32 0 -53.5 5.5t-34.5 13.5
q-19 12 -28.5 25t-9.5 30q0 36 47 67q14 -20 33 -28.5t36 -8.5z" />
    <glyph glyph-name="z" unicode="z" horiz-adv-x="420" 
d="M6 0l15 90q59 75 116.5 144t124.5 137h-199q0 52 19 78.5t72 26.5h228q25 0 38.5 -10t13.5 -36q0 -8 -2 -20.5t-4 -23.5q-70 -71 -134 -138.5t-121 -142.5h140q41 0 57 -16t16 -42q0 -20 -8 -47h-372z" />
    <glyph glyph-name="braceleft" unicode="{" horiz-adv-x="390" 
d="M298 436q-8 -51 -29.5 -83t-63.5 -51q28 -13 40 -38t12 -58q0 -18 -3 -37l-22 -131q-1 -6 -1.5 -13t-0.5 -12q0 -27 15.5 -39.5t37.5 -13.5q9 0 19.5 1t22.5 4q5 -13 9 -24t4 -24q0 -29 -21 -43.5t-67 -14.5q-73 0 -110 32t-37 101q0 17 3 35l24 147q2 8 2 14.5v13.5
q0 27 -12.5 42t-38.5 15l15 92q42 0 57.5 24.5t23.5 78.5l15 94q5 34 15 64.5t30 54t52 37t82 13.5q38 0 55 -12t17 -37q0 -17 -7 -31t-15 -23q-6 2 -14.5 3.5t-17.5 1.5q-23 0 -43.5 -13.5t-27.5 -52.5z" />
    <glyph glyph-name="bar" unicode="|" horiz-adv-x="232" 
d="M1 -188l160 982h114l-160 -982h-114z" />
    <glyph glyph-name="braceright" unicode="}" horiz-adv-x="390" 
d="M133 140q8 51 29.5 83t63.5 51q-28 13 -40 38t-12 58q0 17 3 37l22 131q1 6 1.5 13t0.5 12q0 27 -15.5 39.5t-37.5 13.5q-9 0 -19.5 -1t-22.5 -4q-5 13 -9 24t-4 24q0 29 21 43.5t67 14.5q73 0 110 -32t37 -101q0 -17 -3 -35l-24 -147q-2 -8 -2 -14.5v-13.5
q0 -27 12.5 -42t38.5 -15l-15 -92q-42 0 -57.5 -24.5t-23.5 -78.5l-15 -94q-5 -34 -15 -64.5t-30 -54t-52.5 -37t-81.5 -13.5q-38 0 -55 12t-17 37q0 17 7 31t15 23q6 -2 14.5 -3.5t17.5 -1.5q23 0 43.5 13.5t27.5 52.5z" />
    <glyph glyph-name="asciitilde" unicode="~" horiz-adv-x="462" 
d="M229 656q26 0 45 -11.5t35 -25t30.5 -25t31.5 -11.5q21 0 33 19t21 53h91q-3 -36 -13 -67t-28.5 -54t-45.5 -36.5t-63 -13.5q-26 0 -46.5 11.5t-37 25t-30.5 25t-28 11.5q-21 0 -33 -19t-21 -53h-91q3 36 13 67t28.5 54t45.5 36.5t63 13.5z" />
    <glyph glyph-name="uni00A0" unicode="&#xa0;" horiz-adv-x="209" 
 />
    <glyph glyph-name="exclamdown" unicode="&#xa1;" horiz-adv-x="262" 
d="M173 476q32 0 50 -20.5t18 -44.5q0 -47 -24.5 -69.5t-58.5 -22.5q-32 0 -50 20.5t-18 44.5q0 47 24.5 69.5t58.5 22.5zM133 -209q-12 -2 -24.5 -3t-22.5 -1q-41 0 -58 19.5t-17 48.5q0 6 0.5 12t1.5 12l65 392q12 2 24.5 3t22.5 1q41 0 58 -19.5t17 -48.5q0 -6 -0.5 -12
t-1.5 -12z" />
    <glyph glyph-name="cent" unicode="&#xa2;" horiz-adv-x="549" 
d="M211 107q-28 12 -47.5 31t-32 43t-18 51t-5.5 56q0 48 11 91.5t32 79t52 62t72 41.5l20 122h61l-18 -107q9 1 18 1.5t18 0.5h11l18 105h61l-20 -117q21 -8 35.5 -20t24.5 -26q12 -20 12 -35q1 -27 -18 -42t-46 -26q-14 33 -33.5 47t-53.5 14q-30 0 -54 -15t-40 -41
t-24 -62t-8 -79q1 -44 25 -65.5t53 -21.5q32 0 58 17t45 44q28 -11 40.5 -27.5t12.5 -34.5q0 -32 -34 -60q-11 -8 -25.5 -16.5t-34.5 -15.5l-19 -119h-61l18 108h-32q-6 0 -15 1l-18 -109h-61z" />
    <glyph glyph-name="sterling" unicode="&#xa3;" horiz-adv-x="549" 
d="M407 106q46 0 65 -16t19 -48q0 -12 -2 -24t-5 -18h-391l46 275h-61l15 95h61l14 86q8 46 24.5 85.5t44.5 68.5t69.5 45t99.5 16q57 0 89.5 -17t44.5 -32q11 -14 15 -25.5t4 -23.5q0 -20 -16 -39.5t-49 -29.5q-14 25 -36.5 41.5t-55.5 16.5q-48 0 -70 -28.5t-30 -75.5
l-14 -88h176l-15 -95h-176l-28 -169h162z" />
    <glyph glyph-name="currency" unicode="&#xa4;" horiz-adv-x="549" 
d="M424 341q0 60 -34 100t-97 40t-97 -39.5t-34 -100.5q0 -60 35 -99.5t96 -39.5q63 0 97 39.5t34 99.5zM492 84l-75 72q-56 -36 -125 -36q-66 0 -121 34l-74 -70l-65 63l75 71q-18 26 -27 58t-9 64q0 68 35 121l-71 66l67 62l66 -62q55 36 125 36q69 0 128 -38l71 69
l67 -63l-76 -71q17 -26 24.5 -56t7.5 -62q0 -33 -8.5 -64.5t-25.5 -57.5l76 -73z" />
    <glyph glyph-name="yen" unicode="&#xa5;" horiz-adv-x="549" 
d="M68 142l10 63h122l12 74h-123l10 63h91l-101 295q20 10 41 16.5t43 6.5q26 0 40.5 -13t21.5 -36l62 -209l125 198q20 32 44.5 46.5t56.5 14.5q21 0 36.5 -5.5t30.5 -15.5l-202 -298h95l-10 -63h-127l-12 -74h128l-10 -63h-128l-23 -142h-135l23 142h-121z" />
    <glyph glyph-name="brokenbar" unicode="&#xa6;" horiz-adv-x="232" 
d="M100 419l61 375h114l-61 -375h-114zM181 215l-66 -403h-114l66 403h114z" />
    <glyph glyph-name="section" unicode="&#xa7;" horiz-adv-x="479" 
d="M46 -53q-21 21 -21 48q0 20 14.5 39.5t46.5 29.5q20 -28 46.5 -43.5t61.5 -15.5q30 0 49 13t19 40q0 16 -7 28.5t-20 23.5t-31 21.5t-40 24.5q-46 28 -75 59.5t-29 81.5q0 42 20.5 77.5t65.5 67.5q-9 14 -14.5 32.5t-5.5 47.5q0 40 15.5 70t42 50.5t62.5 30.5t77 10
q35 0 71.5 -10t62.5 -34q21 -21 21 -48q0 -20 -14 -38.5t-46 -28.5q-20 28 -42 43t-57 15q-29 0 -50 -13t-21 -42q0 -16 6.5 -27.5t19 -21.5t30.5 -20.5t41 -24.5t42 -27.5t33 -29.5t21.5 -35.5t7.5 -44.5q0 -44 -20 -79.5t-65 -69.5q10 -15 16 -35.5t6 -46.5
q0 -40 -15.5 -70.5t-42 -51t-62 -31t-76.5 -10.5q-35 0 -76.5 10.5t-67.5 34.5zM335 267q0 19 -8.5 32.5t-22.5 24.5t-32.5 21.5t-38.5 23.5q-8 5 -14 9t-13 8q-33 -27 -33 -60q0 -19 8.5 -33t22.5 -26t32.5 -23t38.5 -24l23 -16q17 14 27 29.5t10 33.5z" />
    <glyph glyph-name="dieresis" unicode="&#xa8;" horiz-adv-x="354" 
d="M123 557q-27 0 -41.5 17t-14.5 37q0 39 20 58t49 19q27 0 41.5 -17t14.5 -37q0 -39 -20 -58t-49 -19zM313 557q-27 0 -41.5 17t-14.5 37q0 39 20 58t49 19q27 0 41.5 -17t14.5 -37q0 -39 -20 -58t-49 -19z" />
    <glyph glyph-name="copyright" unicode="&#xa9;" horiz-adv-x="818" 
d="M776 325q0 -74 -24.5 -139.5t-69.5 -115t-109 -78.5t-143 -29q-81 0 -145 28.5t-108.5 77.5t-67.5 115t-23 141q0 73 24 138.5t69 114.5t108.5 78t143.5 29q79 0 143 -29t109 -78t69 -114.5t24 -138.5zM718 325q0 60 -20 115t-57 97.5t-90 67.5t-119 25t-119 -25
t-90 -67.5t-57 -97.5t-20 -115t19 -115.5t55.5 -98t90 -68t121.5 -25.5q66 0 119 25.5t90 68t57 98t20 115.5zM573 141q-12 -10 -43.5 -25t-83.5 -15q-44 0 -83 13.5t-68.5 41.5t-46.5 71t-17 102q0 58 18 101t48 71.5t68.5 42.5t79.5 14q42 0 70 -8.5t46 -20.5
q20 -13 27 -24t7 -22q0 -15 -11 -30t-24 -29q-21 24 -45.5 37.5t-62.5 13.5q-60 0 -87 -40t-27 -104q0 -30 6 -56.5t20 -46t36.5 -31t55.5 -11.5q21 0 37.5 5t29 12t21.5 15t14 13q4 -5 10 -12t11.5 -15t9.5 -16t4 -14q0 -9 -4.5 -16.5t-15.5 -16.5z" />
    <glyph glyph-name="ordfeminine" unicode="&#xaa;" horiz-adv-x="432" 
d="M299 349q-18 -23 -44 -37t-60 -14q-30 0 -51 10.5t-34.5 29t-19.5 43.5t-6 54q0 48 15.5 92.5t44.5 79t70 55.5t91 21q14 0 32 -2.5t36.5 -7.5t37.5 -12.5t35 -17.5l-40 -240q-3 -20 -1 -46t10 -44q-13 -8 -29 -11t-30 -3q-26 0 -40.5 12t-16.5 38zM297 601
q-45 0 -75.5 -39t-30.5 -118q0 -60 44 -60q28 0 48.5 23.5t25.5 55.5l21 129q-15 9 -33 9z" />
    <glyph glyph-name="guillemotleft" unicode="&#xab;" horiz-adv-x="503" 
d="M396 276l60 -95q12 -20 12 -39q0 -24 -14 -42.5t-34 -32.5l-117 140q-24 28 -24 59q0 25 14.5 47t36.5 40l159 129q10 -17 15 -32t5 -32q0 -39 -30 -66zM173 276l60 -95q12 -20 12 -39q0 -24 -14 -42.5t-34 -32.5l-117 140q-24 28 -24 59q0 25 14.5 47t36.5 40l159 129
q10 -17 15 -32t5 -32q0 -39 -30 -66z" />
    <glyph glyph-name="logicalnot" unicode="&#xac;" horiz-adv-x="549" 
d="M362 135l28 168h-322l19 113h439l-47 -281h-117z" />
    <glyph glyph-name="uni00AD" unicode="&#xad;" horiz-adv-x="421" 
d="M140 207q-41 0 -57.5 19.5t-15.5 45.5q0 11 2 25t7 27h220q41 0 57.5 -19t15.5 -45q0 -11 -2 -25.5t-7 -27.5h-220z" />
    <glyph glyph-name="registered" unicode="&#xae;" horiz-adv-x="818" 
d="M611 130q-30 -14 -51 -14q-18 0 -34 8t-27 26l-81 131h-38v-157h-85v419q27 2 64 4t64 2q88 0 128.5 -35.5t40.5 -92.5q0 -26 -7 -46t-19 -35t-27.5 -26t-31.5 -18zM501 415q0 66 -79 66q-14 0 -24 -0.5t-18 -1.5v-133h47q38 0 56 18.5t18 50.5zM776 325
q0 -74 -24.5 -139.5t-69.5 -115.5t-109 -79t-143 -29q-83 0 -147 29t-107.5 79t-66.5 115.5t-23 139.5q0 73 24 138.5t69 114.5t108.5 78t143.5 29q79 0 143 -29t109 -78t69 -114.5t24 -138.5zM717 325q0 60 -20 115t-57 97.5t-90 67.5t-119 25t-119 -25t-89.5 -67.5
t-56.5 -97.5t-20 -115t19 -115.5t55 -98t89 -68t121 -25.5q66 0 119.5 25.5t90.5 68t57 98t20 115.5z" />
    <glyph glyph-name="macron" unicode="&#xaf;" horiz-adv-x="364" 
d="M88 568q-30 0 -42.5 14t-11.5 34q0 8 1.5 19t5.5 21h235q30 0 42.5 -14t11.5 -34q0 -8 -1.5 -19t-5.5 -21h-235z" />
    <glyph glyph-name="degree" unicode="&#xb0;" horiz-adv-x="395" 
d="M372 558q0 -29 -10 -54t-28.5 -43.5t-44.5 -29.5t-57 -11q-32 0 -58 11t-44 29.5t-28 43.5t-10 54q0 28 10 53.5t28.5 44t44 29.5t57.5 11q64 0 102 -39t38 -99zM308 558q0 33 -21.5 55.5t-54.5 22.5q-32 0 -52.5 -22.5t-20.5 -55.5q0 -32 20.5 -55t52.5 -23
q33 0 54.5 23t21.5 55z" />
    <glyph glyph-name="plusminus" unicode="&#xb1;" horiz-adv-x="549" 
d="M41 0l18 109h141l29 172h-156l19 109h156l28 172h117l-28 -172h156l-19 -109h-156l-29 -172h144l-18 -109h-402z" />
    <glyph glyph-name="twosuperior" unicode="&#xb2;" 
d="M58 301l12 64q17 14 42 33.5t51 42.5q19 16 36 32.5t30.5 33t21.5 32t8 29.5q0 19 -10.5 30.5t-31.5 11.5q-24 0 -43 -13.5t-32 -27.5q-19 8 -28.5 18t-9.5 25q0 8 4.5 18.5t15.5 18.5q15 14 44 26t71 12q53 0 84.5 -27.5t31.5 -77.5q0 -38 -15.5 -69.5t-50.5 -66.5
q-8 -7 -19 -17t-23.5 -20t-24 -19t-18.5 -15h75q31 0 44 -11.5t13 -32.5q0 -6 -2.5 -15t-4.5 -15h-271z" />
    <glyph glyph-name="threesuperior" unicode="&#xb3;" 
d="M121 653q17 14 45.5 24t66.5 10q30 0 53 -8.5t39 -22t24 -30t8 -33.5q0 -37 -19 -60.5t-48 -37.5q26 -14 36.5 -35t10.5 -45q0 -29 -11.5 -52.5t-32.5 -40t-49.5 -25t-62.5 -8.5q-35 0 -58.5 6.5t-37.5 14.5q-17 10 -24 20t-7 21q0 14 10 28t27 25q22 -22 41.5 -31
t48.5 -9q23 0 41 11.5t18 37.5q0 21 -13 34t-39 13h-33l12 68h34q23 0 42.5 11t19.5 40q0 14 -11.5 24.5t-34.5 10.5t-45.5 -13t-33.5 -27q-37 16 -37 45q0 18 20 34z" />
    <glyph glyph-name="acute" unicode="&#xb4;" horiz-adv-x="364" 
d="M182 564q-12 -12 -27 -19t-32 -7q-14 0 -31 6t-25 14l91 115q15 20 30.5 29.5t41.5 9.5q18 0 37.5 -11t29.5 -23z" />
    <glyph glyph-name="mu" unicode="&#xb5;" horiz-adv-x="563" 
d="M478 139q-2 -8 -3 -15.5t-1 -12.5q0 -25 20 -25q17 0 36 7l5 -82q-19 -9 -42 -15t-43 -6q-32 0 -50 11.5t-28 40.5q-20 -23 -49 -37.5t-69 -14.5q-29 0 -50 10t-32 27l-35 -216h-126l109 665h135l-46 -276q-3 -18 -3 -32q0 -71 58 -71q22 0 37 8.5t25.5 23t17 34
t10.5 41.5l45 272h135z" />
    <glyph glyph-name="paragraph" unicode="&#xb6;" horiz-adv-x="542" 
d="M236 255q-74 0 -117.5 46.5t-43.5 126.5q0 61 20 106.5t52.5 76t74.5 45.5t86 15h204q25 0 37 -13t12 -35q0 -10 -1 -15l-120 -726h-92l117 707h-78l-117 -707h-92l62 373h-4z" />
    <glyph glyph-name="periodcentered" unicode="&#xb7;" horiz-adv-x="286" 
d="M156 250q-32 0 -49 20t-17 43q0 46 24 68t57 22q32 0 49 -20t17 -43q0 -46 -24 -68t-57 -22z" />
    <glyph glyph-name="cedilla" unicode="&#xb8;" horiz-adv-x="364" 
d="M149 -227q-27 0 -38.5 12t-11.5 28q0 18 13 36q9 -5 18.5 -6t17.5 -1q16 0 23.5 8.5t7.5 19.5q0 9 -4 16t-8.5 13.5t-8 14t-3.5 17.5q0 21 12 40t26 31h70q-11 -10 -22 -22.5t-11 -29.5q0 -9 5.5 -16t12 -15.5t12 -20t5.5 -28.5q0 -26 -10.5 -44.5t-27 -30t-37 -17
t-41.5 -5.5z" />
    <glyph glyph-name="onesuperior" unicode="&#xb9;" 
d="M182 300l44 266l-102 -49q-11 14 -17.5 25.5t-6.5 25.5t7.5 26t24.5 20l109 55q14 8 27.5 13t29.5 5t25 -4.5t17 -11.5l-62 -371h-96z" />
    <glyph glyph-name="ordmasculine" unicode="&#xba;" horiz-adv-x="426" 
d="M235 298q-40 0 -68 13t-46 34.5t-26 49t-8 57.5q0 47 14 89t40.5 73.5t64.5 50t87 18.5q40 0 68 -13t45.5 -34.5t25.5 -49.5t8 -58q0 -45 -13.5 -87t-39.5 -73.5t-64 -50.5t-88 -19zM197 449q0 -27 12.5 -45.5t36.5 -18.5q34 0 58 37.5t25 109.5q0 27 -12.5 46t-35.5 19
q-35 0 -59 -38t-25 -110z" />
    <glyph glyph-name="guillemotright" unicode="&#xbb;" horiz-adv-x="503" 
d="M360 273l-60 95q-12 19 -12 39q0 24 14 42.5t34 32.5l117 -140q24 -28 24 -59q0 -25 -14.5 -47t-36.5 -40l-159 -129q-10 17 -15 32t-5 32q0 39 30 66zM137 273l-60 95q-12 19 -12 39q0 24 14 42.5t34 32.5l117 -140q24 -28 24 -59q0 -25 -14.5 -47t-36.5 -40l-159 -129
q-10 17 -15 32t-5 32q0 39 30 66z" />
    <glyph glyph-name="onequarter" unicode="&#xbc;" horiz-adv-x="822" 
d="M162 300l44 266l-102 -49q-11 14 -17.5 25.5t-6.5 25.5t7.5 26t24.5 20l109 55q14 8 27.5 13t29.5 5t25 -4.5t17 -11.5l-62 -371h-96zM262 0h-110l406 627q17 26 35 41t48 15q33 0 57 -11zM465 73l11 61l195 221q11 14 24.5 23.5t36.5 9.5q24 0 47 -12l-40 -236h16
q17 0 23 -8.5t6 -20.5q0 -10 -3 -20.5t-8 -17.5h-45l-12 -72h-93l12 72h-170zM647 141l23 132l-119 -132h96z" />
    <glyph glyph-name="onehalf" unicode="&#xbd;" horiz-adv-x="822" 
d="M162 300l44 266l-102 -49q-11 14 -17.5 25.5t-6.5 25.5t7.5 26t24.5 20l109 55q14 8 27.5 13t29.5 5t25 -4.5t17 -11.5l-62 -371h-96zM251 0h-110l406 627q17 26 35 41t48 15q33 0 57 -11zM499 2l12 64q17 14 42 33.5t51 42.5q19 16 36 32.5t30.5 33t21.5 32t8 29.5
q0 19 -10.5 30.5t-31.5 11.5q-24 0 -43 -13.5t-32 -27.5q-19 8 -28.5 18t-9.5 25q0 8 4.5 18.5t15.5 18.5q15 14 44 26t71 12q53 0 84.5 -27.5t31.5 -77.5q0 -38 -15.5 -69.5t-50.5 -66.5q-8 -7 -19 -17t-23.5 -20t-24 -19t-18.5 -15h75q31 0 44 -11.5t13 -32.5
q0 -6 -2.5 -15t-4.5 -15h-271z" />
    <glyph glyph-name="threequarters" unicode="&#xbe;" horiz-adv-x="822" 
d="M121 653q17 14 45.5 24t66.5 10q30 0 53 -8.5t39 -22t24 -30t8 -33.5q0 -37 -19 -60.5t-48 -37.5q26 -14 36.5 -35t10.5 -45q0 -29 -11.5 -52.5t-32.5 -40t-49.5 -25t-62.5 -8.5q-35 0 -58.5 6.5t-37.5 14.5q-17 10 -24 20t-7 21q0 14 10 28t27 25q22 -22 41.5 -31
t48.5 -9q23 0 41 11.5t18 37.5q0 21 -13 34t-39 13h-33l12 68h34q23 0 42.5 11t19.5 40q0 14 -11.5 24.5t-34.5 10.5t-45.5 -13t-33.5 -27q-37 16 -37 45q0 18 20 34zM284 0h-110l406 627q17 26 35 41t48 15q33 0 57 -11zM475 73l11 61l195 221q11 14 24.5 23.5t36.5 9.5
q24 0 47 -12l-40 -236h16q17 0 23 -8.5t6 -20.5q0 -10 -3 -20.5t-8 -17.5h-45l-12 -72h-93l12 72h-170zM657 141l23 132l-119 -132h96z" />
    <glyph glyph-name="questiondown" unicode="&#xbf;" horiz-adv-x="426" 
d="M199 -108q38 0 68.5 16.5t56.5 45.5q23 -11 34.5 -28.5t11.5 -36.5q0 -29 -25 -53q-29 -26 -71.5 -41.5t-96.5 -15.5q-38 0 -70 10t-55.5 29.5t-37 48.5t-13.5 66q0 35 10.5 64t26 52.5t34 41.5t34.5 32q20 17 37 31.5t30.5 29.5t22 34t11.5 45q9 3 20 4t19 1
q32 0 45.5 -13.5t13.5 -41.5q0 -13 -3 -25.5t-11.5 -26.5t-23 -30t-37.5 -36l-36 -30t-32.5 -32t-23.5 -36.5t-9 -43.5q0 -61 70 -61zM293 475q32 0 50 -20.5t18 -44.5q0 -47 -24.5 -69.5t-58.5 -22.5q-32 0 -50 20.5t-18 44.5q0 47 24.5 69.5t58.5 22.5z" />
    <glyph glyph-name="Agrave" unicode="&#xc0;" horiz-adv-x="598" 
d="M558 0h-138l-21 143h-209l-61 -143h-139l312 658q13 6 30 11t34 5q34 0 55.5 -15t28.5 -52zM235 251h148l-35 264zM242 823q17 23 37 37.5t40 14.5t44 -21l104 -93q-17 -16 -33.5 -25.5t-35.5 -9.5q-20 0 -41 15z" />
    <glyph glyph-name="Aacute" unicode="&#xc1;" horiz-adv-x="598" 
d="M558 0h-138l-21 143h-209l-61 -143h-139l312 658q13 6 30 11t34 5q34 0 55.5 -15t28.5 -52zM235 251h148l-35 264zM378 742q-11 -7 -23 -11.5t-29 -4.5q-19 0 -32 11.5t-21 23.5l113 91q11 9 25 16t28 7q24 0 40.5 -16.5t24.5 -36.5z" />
    <glyph glyph-name="Acircumflex" unicode="&#xc2;" horiz-adv-x="598" 
d="M558 0h-138l-21 143h-209l-61 -143h-139l312 658q13 6 30 11t34 5q34 0 55.5 -15t28.5 -52zM235 251h148l-35 264zM380 796l-56 -52q-12 -11 -25 -15t-27 -4t-27.5 4.5t-21.5 11.5l102 107q14 14 30 21.5t39 7.5q24 0 37 -8t22 -24l59 -107q-11 -6 -25 -10t-26 -4
q-14 0 -26.5 6t-23.5 21z" />
    <glyph glyph-name="Atilde" unicode="&#xc3;" horiz-adv-x="598" 
d="M558 0h-138l-21 143h-209l-61 -143h-139l312 658q13 6 30 11t34 5q34 0 55.5 -15t28.5 -52zM235 251h148l-35 264zM308 774q-15 0 -32 -7.5t-36 -33.5q-23 14 -29.5 25t-6.5 27t9.5 29t25 22.5t34 15t36.5 5.5q24 0 40.5 -5.5t29 -12t23 -12t23.5 -5.5q17 0 31.5 8.5
t33.5 34.5q24 -12 30.5 -25t6.5 -29t-9 -29t-24 -22.5t-33.5 -15t-37.5 -5.5q-24 0 -40 5.5t-28 12t-22.5 12t-24.5 5.5z" />
    <glyph glyph-name="Adieresis" unicode="&#xc4;" horiz-adv-x="598" 
d="M558 0h-138l-21 143h-209l-61 -143h-139l312 658q13 6 30 11t34 5q34 0 55.5 -15t28.5 -52zM235 251h148l-35 264zM282 730q-27 0 -41.5 17t-14.5 37q0 39 20 58t49 19q27 0 41.5 -17t14.5 -37q0 -39 -20 -58t-49 -19zM472 730q-27 0 -41.5 17t-14.5 37q0 39 20 58t49 19
q27 0 41.5 -17t14.5 -37q0 -39 -20 -58t-49 -19z" />
    <glyph glyph-name="Aring" unicode="&#xc5;" horiz-adv-x="598" 
d="M488 754q0 -33 -15.5 -60.5t-42.5 -42.5q14 -16 20 -44l108 -607h-138l-21 143h-209l-61 -143h-139l312 658l6 3q-21 16 -32 39.5t-11 52.5q0 23 7.5 44t22 36.5t35.5 25t47 9.5q25 0 46 -9t35 -25t22 -36.5t8 -43.5zM235 251h148l-35 264zM430 753q0 25 -14.5 43
t-38.5 18q-25 0 -39.5 -18t-14.5 -42q0 -25 14 -43.5t40 -18.5q24 0 38.5 18.5t14.5 42.5z" />
    <glyph glyph-name="AE" unicode="&#xc6;" horiz-adv-x="849" 
d="M722 107q46 0 65 -16.5t19 -48.5q0 -12 -2 -24t-5 -18h-401l27 167h-195l-111 -167h-139l420 615q21 31 48.5 43t72.5 12h370q-1 -30 -6 -50.5t-16.5 -33t-29.5 -18t-45 -5.5h-168l-27 -165h189l-18 -107h-189l-30 -184h171zM441 264l50 297l-197 -297h147z" />
    <glyph glyph-name="Ccedilla" unicode="&#xc7;" horiz-adv-x="588" 
d="M245 -227q-27 0 -38.5 12t-11.5 28q0 18 13 36q9 -5 18.5 -6t17.5 -1q16 0 23.5 8.5t7.5 19.5q0 9 -4 16t-8.5 13.5t-8 14t-3.5 17.5q0 15 6 29t15 26q-53 6 -92 29t-64.5 59.5t-38 84t-12.5 103.5q0 73 21 148t63.5 135.5t108.5 99t156 38.5q66 0 109.5 -24t64.5 -56
q7 -11 9.5 -22.5t2.5 -22.5q0 -29 -18.5 -48.5t-53.5 -27.5q-18 42 -47 66t-81 24q-41 0 -76.5 -21t-61.5 -62t-41.5 -101.5t-15.5 -139.5q0 -32 8 -60t23.5 -48.5t38 -32.5t51.5 -12t54 7.5t46.5 20t39.5 28.5t32 32q23 -17 35.5 -34.5t12.5 -34.5q0 -28 -15.5 -47.5
t-43.5 -36.5q-26 -17 -63.5 -29.5t-82.5 -16.5q-15 -15 -15 -34q0 -9 5.5 -16t12 -15.5t12 -20t5.5 -28.5q0 -26 -10.5 -44.5t-27 -30t-37 -17t-41.5 -5.5z" />
    <glyph glyph-name="Egrave" unicode="&#xc8;" horiz-adv-x="482" 
d="M361 107q46 0 65 -16.5t19 -48.5q0 -12 -2 -24t-5 -18h-407l111 670h388q-1 -30 -6 -50.5t-16.5 -33t-29.5 -18t-45 -5.5h-174l-27 -165h195l-18 -107h-195l-30 -184h177zM216 823q17 23 37 37.5t40 14.5t44 -21l104 -93q-17 -16 -33.5 -25.5t-35.5 -9.5q-20 0 -41 15z
" />
    <glyph glyph-name="Eacute" unicode="&#xc9;" horiz-adv-x="482" 
d="M361 107q46 0 65 -16.5t19 -48.5q0 -12 -2 -24t-5 -18h-407l111 670h388q-1 -30 -6 -50.5t-16.5 -33t-29.5 -18t-45 -5.5h-174l-27 -165h195l-18 -107h-195l-30 -184h177zM349 742q-11 -7 -23 -11.5t-29 -4.5q-19 0 -32 11.5t-21 23.5l113 91q11 9 25 16t28 7
q24 0 40.5 -16.5t24.5 -36.5z" />
    <glyph glyph-name="Ecircumflex" unicode="&#xca;" horiz-adv-x="482" 
d="M361 107q46 0 65 -16.5t19 -48.5q0 -12 -2 -24t-5 -18h-407l111 670h388q-1 -30 -6 -50.5t-16.5 -33t-29.5 -18t-45 -5.5h-174l-27 -165h195l-18 -107h-195l-30 -184h177zM354 796l-56 -52q-12 -11 -25 -15t-27 -4t-27.5 4.5t-21.5 11.5l102 107q14 14 30 21.5t39 7.5
q24 0 37 -8t22 -24l59 -107q-11 -6 -25 -10t-26 -4q-14 0 -26.5 6t-23.5 21z" />
    <glyph glyph-name="Edieresis" unicode="&#xcb;" horiz-adv-x="482" 
d="M361 107q46 0 65 -16.5t19 -48.5q0 -12 -2 -24t-5 -18h-407l111 670h388q-1 -30 -6 -50.5t-16.5 -33t-29.5 -18t-45 -5.5h-174l-27 -165h195l-18 -107h-195l-30 -184h177zM248 730q-27 0 -41.5 17t-14.5 37q0 39 20 58t49 19q27 0 41.5 -17t14.5 -37q0 -39 -20 -58
t-49 -19zM438 730q-27 0 -41.5 17t-14.5 37q0 39 20 58t49 19q27 0 41.5 -17t14.5 -37q0 -39 -20 -58t-49 -19z" />
    <glyph glyph-name="Igrave" unicode="&#xcc;" horiz-adv-x="253" 
d="M166 0h-135l111 670q12 2 24.5 3t22.5 1q41 0 58 -19.5t17 -48.5q0 -6 -0.5 -12t-1.5 -12zM78 823q17 23 37 37.5t40 14.5t44 -21l104 -93q-17 -16 -33.5 -25.5t-35.5 -9.5q-20 0 -41 15z" />
    <glyph glyph-name="Iacute" unicode="&#xcd;" horiz-adv-x="253" 
d="M166 0h-135l111 670q12 2 24.5 3t22.5 1q41 0 58 -19.5t17 -48.5q0 -6 -0.5 -12t-1.5 -12zM243 742q-11 -7 -23 -11.5t-29 -4.5q-19 0 -32 11.5t-21 23.5l113 91q11 9 25 16t28 7q24 0 40.5 -16.5t24.5 -36.5z" />
    <glyph glyph-name="Icircumflex" unicode="&#xce;" horiz-adv-x="253" 
d="M166 0h-135l111 670q12 2 24.5 3t22.5 1q41 0 58 -19.5t17 -48.5q0 -6 -0.5 -12t-1.5 -12zM212 796l-56 -52q-12 -11 -25 -15t-27 -4t-27.5 4.5t-21.5 11.5l102 107q14 14 30 21.5t39 7.5q24 0 37 -8t22 -24l59 -107q-11 -6 -25 -10t-26 -4q-14 0 -26.5 6t-23.5 21z" />
    <glyph glyph-name="Idieresis" unicode="&#xcf;" horiz-adv-x="253" 
d="M166 0h-135l111 670q12 2 24.5 3t22.5 1q41 0 58 -19.5t17 -48.5q0 -6 -0.5 -12t-1.5 -12zM121 730q-27 0 -41.5 17t-14.5 37q0 39 20 58t49 19q27 0 41.5 -17t14.5 -37q0 -39 -20 -58t-49 -19zM311 730q-27 0 -41.5 17t-14.5 37q0 39 20 58t49 19q27 0 41.5 -17
t14.5 -37q0 -39 -20 -58t-49 -19z" />
    <glyph glyph-name="Eth" unicode="&#xd0;" horiz-adv-x="615" 
d="M21 300l14 88h60l46 275q64 9 108.5 11t73.5 2q75 0 128.5 -20t87 -56t49 -85.5t15.5 -107.5q0 -75 -20 -148t-66 -130.5t-119.5 -93t-179.5 -35.5h-187l50 300h-60zM329 569q-48 0 -70 -3l-30 -178h120l-15 -88h-119l-32 -194h57q56 0 98 24t69.5 66t41.5 99t14 123
q0 31 -9 59t-26 48t-42 32t-57 12z" />
    <glyph glyph-name="Ntilde" unicode="&#xd1;" horiz-adv-x="605" 
d="M504 670q11 2 22 3t20 1q39 0 54.5 -19.5t15.5 -48.5q0 -6 -0.5 -12t-1.5 -12l-96 -582h-112l-179 443l-72 -443h-124l110 667q11 2 25.5 4.5t31.5 2.5q35 0 52 -16.5t29 -45.5l151 -384zM313 774q-15 0 -32 -7.5t-36 -33.5q-23 14 -29.5 25t-6.5 27t9.5 29t25 22.5
t34 15t36.5 5.5q24 0 40.5 -5.5t29 -12t23 -12t23.5 -5.5q17 0 31.5 8.5t33.5 34.5q24 -12 30.5 -25t6.5 -29t-9 -29t-24 -22.5t-33.5 -15t-37.5 -5.5q-24 0 -40 5.5t-28 12t-22.5 12t-24.5 5.5z" />
    <glyph glyph-name="Ograve" unicode="&#xd2;" horiz-adv-x="655" 
d="M408 683q64 0 108.5 -22t72.5 -58.5t41 -85t13 -101.5q0 -77 -20 -154t-61.5 -139t-105 -101t-151.5 -39q-65 0 -110.5 22t-74.5 58.5t-42 85t-13 101.5q0 76 20.5 153.5t63 139.5t107 101t152.5 39zM317 95q36 0 69 23.5t59 67t41.5 105.5t15.5 139q0 62 -26.5 102
t-82.5 40q-39 0 -73.5 -23t-60 -66.5t-40 -105.5t-14.5 -141q0 -63 26.5 -102t85.5 -39zM294 823q17 23 37 37.5t40 14.5t44 -21l104 -93q-17 -16 -33.5 -25.5t-35.5 -9.5q-20 0 -41 15z" />
    <glyph glyph-name="Oacute" unicode="&#xd3;" horiz-adv-x="655" 
d="M408 683q64 0 108.5 -22t72.5 -58.5t41 -85t13 -101.5q0 -77 -20 -154t-61.5 -139t-105 -101t-151.5 -39q-65 0 -110.5 22t-74.5 58.5t-42 85t-13 101.5q0 76 20.5 153.5t63 139.5t107 101t152.5 39zM317 95q36 0 69 23.5t59 67t41.5 105.5t15.5 139q0 62 -26.5 102
t-82.5 40q-39 0 -73.5 -23t-60 -66.5t-40 -105.5t-14.5 -141q0 -63 26.5 -102t85.5 -39zM436 742q-11 -7 -23 -11.5t-29 -4.5q-19 0 -32 11.5t-21 23.5l113 91q11 9 25 16t28 7q24 0 40.5 -16.5t24.5 -36.5z" />
    <glyph glyph-name="Ocircumflex" unicode="&#xd4;" horiz-adv-x="655" 
d="M408 683q64 0 108.5 -22t72.5 -58.5t41 -85t13 -101.5q0 -77 -20 -154t-61.5 -139t-105 -101t-151.5 -39q-65 0 -110.5 22t-74.5 58.5t-42 85t-13 101.5q0 76 20.5 153.5t63 139.5t107 101t152.5 39zM317 95q36 0 69 23.5t59 67t41.5 105.5t15.5 139q0 62 -26.5 102
t-82.5 40q-39 0 -73.5 -23t-60 -66.5t-40 -105.5t-14.5 -141q0 -63 26.5 -102t85.5 -39zM420 796l-56 -52q-12 -11 -25 -15t-27 -4t-27.5 4.5t-21.5 11.5l102 107q14 14 30 21.5t39 7.5q24 0 37 -8t22 -24l59 -107q-11 -6 -25 -10t-26 -4q-14 0 -26.5 6t-23.5 21z" />
    <glyph glyph-name="Otilde" unicode="&#xd5;" horiz-adv-x="655" 
d="M408 683q64 0 108.5 -22t72.5 -58.5t41 -85t13 -101.5q0 -77 -20 -154t-61.5 -139t-105 -101t-151.5 -39q-65 0 -110.5 22t-74.5 58.5t-42 85t-13 101.5q0 76 20.5 153.5t63 139.5t107 101t152.5 39zM317 95q36 0 69 23.5t59 67t41.5 105.5t15.5 139q0 62 -26.5 102
t-82.5 40q-39 0 -73.5 -23t-60 -66.5t-40 -105.5t-14.5 -141q0 -63 26.5 -102t85.5 -39zM365 774q-15 0 -32 -7.5t-36 -33.5q-23 14 -29.5 25t-6.5 27t9.5 29t25 22.5t34 15t36.5 5.5q24 0 40.5 -5.5t29 -12t23 -12t23.5 -5.5q17 0 31.5 8.5t33.5 34.5q24 -12 30.5 -25
t6.5 -29t-9 -29t-24 -22.5t-33.5 -15t-37.5 -5.5q-24 0 -40 5.5t-28 12t-22.5 12t-24.5 5.5z" />
    <glyph glyph-name="Odieresis" unicode="&#xd6;" horiz-adv-x="655" 
d="M408 683q64 0 108.5 -22t72.5 -58.5t41 -85t13 -101.5q0 -77 -20 -154t-61.5 -139t-105 -101t-151.5 -39q-65 0 -110.5 22t-74.5 58.5t-42 85t-13 101.5q0 76 20.5 153.5t63 139.5t107 101t152.5 39zM317 95q36 0 69 23.5t59 67t41.5 105.5t15.5 139q0 62 -26.5 102
t-82.5 40q-39 0 -73.5 -23t-60 -66.5t-40 -105.5t-14.5 -141q0 -63 26.5 -102t85.5 -39zM317 730q-27 0 -41.5 17t-14.5 37q0 39 20 58t49 19q27 0 41.5 -17t14.5 -37q0 -39 -20 -58t-49 -19zM507 730q-27 0 -41.5 17t-14.5 37q0 39 20 58t49 19q27 0 41.5 -17t14.5 -37
q0 -39 -20 -58t-49 -19z" />
    <glyph glyph-name="multiply" unicode="&#xd7;" horiz-adv-x="549" 
d="M455 550l68 -78l-150 -136l108 -145l-93 -71l-103 138l-146 -133l-68 78l153 138l-104 141l92 72l100 -136z" />
    <glyph glyph-name="Oslash" unicode="&#xd8;" horiz-adv-x="655" 
d="M552 740l69 -38l-49 -81q38 -38 54.5 -91.5t16.5 -113.5q0 -77 -20 -154t-61.5 -139t-105 -101t-151.5 -39q-32 0 -58 5.5t-49 14.5l-55 -90l-69 38l59 98q-36 38 -52 90t-16 111q0 76 20.5 153.5t63 139.5t107 101t152.5 39q29 0 53 -5t45 -13zM317 95q36 0 69 23.5
t59 67t41.5 105.5t15.5 139q0 33 -8 62l-233 -384q22 -13 56 -13zM393 572q-39 0 -73.5 -23t-60 -66.5t-40 -105.5t-14.5 -141q0 -33 6 -58l232 382q-21 12 -50 12z" />
    <glyph glyph-name="Ugrave" unicode="&#xd9;" horiz-adv-x="607" 
d="M496 670q12 2 24.5 3t22.5 1q41 0 58 -19.5t17 -48.5q0 -6 -0.5 -12t-1.5 -12l-54 -325q-11 -68 -31.5 -119t-53.5 -85.5t-80.5 -52t-111.5 -17.5q-61 0 -102.5 15.5t-67 42.5t-36.5 64t-11 81q0 19 2 39t5 40l67 405q12 2 25 3t23 1q41 0 57.5 -19.5t16.5 -48.5
q0 -6 -0.5 -12t-1.5 -12l-52 -314q-4 -21 -5 -38.5t-1 -33.5q0 -53 21 -77.5t71 -24.5q30 0 51.5 8.5t37 28t25.5 50t17 75.5zM229 823q17 23 37 37.5t40 14.5t44 -21l104 -93q-17 -16 -33.5 -25.5t-35.5 -9.5q-20 0 -41 15z" />
    <glyph glyph-name="Uacute" unicode="&#xda;" horiz-adv-x="607" 
d="M496 670q12 2 24.5 3t22.5 1q41 0 58 -19.5t17 -48.5q0 -6 -0.5 -12t-1.5 -12l-54 -325q-11 -68 -31.5 -119t-53.5 -85.5t-80.5 -52t-111.5 -17.5q-61 0 -102.5 15.5t-67 42.5t-36.5 64t-11 81q0 19 2 39t5 40l67 405q12 2 25 3t23 1q41 0 57.5 -19.5t16.5 -48.5
q0 -6 -0.5 -12t-1.5 -12l-52 -314q-4 -21 -5 -38.5t-1 -33.5q0 -53 21 -77.5t71 -24.5q30 0 51.5 8.5t37 28t25.5 50t17 75.5zM405 742q-11 -7 -23 -11.5t-29 -4.5q-19 0 -32 11.5t-21 23.5l113 91q11 9 25 16t28 7q24 0 40.5 -16.5t24.5 -36.5z" />
    <glyph glyph-name="Ucircumflex" unicode="&#xdb;" horiz-adv-x="607" 
d="M496 670q12 2 24.5 3t22.5 1q41 0 58 -19.5t17 -48.5q0 -6 -0.5 -12t-1.5 -12l-54 -325q-11 -68 -31.5 -119t-53.5 -85.5t-80.5 -52t-111.5 -17.5q-61 0 -102.5 15.5t-67 42.5t-36.5 64t-11 81q0 19 2 39t5 40l67 405q12 2 25 3t23 1q41 0 57.5 -19.5t16.5 -48.5
q0 -6 -0.5 -12t-1.5 -12l-52 -314q-4 -21 -5 -38.5t-1 -33.5q0 -53 21 -77.5t71 -24.5q30 0 51.5 8.5t37 28t25.5 50t17 75.5zM393 796l-56 -52q-12 -11 -25 -15t-27 -4t-27.5 4.5t-21.5 11.5l102 107q14 14 30 21.5t39 7.5q24 0 37 -8t22 -24l59 -107q-11 -6 -25 -10
t-26 -4q-14 0 -26.5 6t-23.5 21z" />
    <glyph glyph-name="Udieresis" unicode="&#xdc;" horiz-adv-x="607" 
d="M496 670q12 2 24.5 3t22.5 1q41 0 58 -19.5t17 -48.5q0 -6 -0.5 -12t-1.5 -12l-54 -325q-11 -68 -31.5 -119t-53.5 -85.5t-80.5 -52t-111.5 -17.5q-61 0 -102.5 15.5t-67 42.5t-36.5 64t-11 81q0 19 2 39t5 40l67 405q12 2 25 3t23 1q41 0 57.5 -19.5t16.5 -48.5
q0 -6 -0.5 -12t-1.5 -12l-52 -314q-4 -21 -5 -38.5t-1 -33.5q0 -53 21 -77.5t71 -24.5q30 0 51.5 8.5t37 28t25.5 50t17 75.5zM292 730q-27 0 -41.5 17t-14.5 37q0 39 20 58t49 19q27 0 41.5 -17t14.5 -37q0 -39 -20 -58t-49 -19zM482 730q-27 0 -41.5 17t-14.5 37
q0 39 20 58t49 19q27 0 41.5 -17t14.5 -37q0 -39 -20 -58t-49 -19z" />
    <glyph glyph-name="Yacute" unicode="&#xdd;" horiz-adv-x="540" 
d="M352 260l-43 -260h-135l43 259l-132 392q20 10 41 16.5t43 6.5q52 0 68 -49l70 -231l137 219q20 32 43.5 46.5t55.5 14.5q21 0 36.5 -5.5t30.5 -15.5zM388 742q-11 -7 -23 -11.5t-29 -4.5q-19 0 -32 11.5t-21 23.5l113 91q11 9 25 16t28 7q24 0 40.5 -16.5t24.5 -36.5z
" />
    <glyph glyph-name="Thorn" unicode="&#xde;" horiz-adv-x="547" 
d="M185 114l-19 -114h-135l111 670q12 2 24.5 3t22.5 1q41 0 58 -19.5t17 -48.5q0 -6 -0.5 -12t-1.5 -12l-5 -31q11 1 21.5 1h21.5q63 0 108.5 -14.5t75 -39.5t43.5 -59t14 -73q0 -68 -22.5 -116t-63 -78t-98 -44t-126.5 -14h-46zM399 362q0 45 -31.5 67t-76.5 22
q-14 0 -28.5 -0.5t-22.5 -2.5l-37 -228h49q33 0 60 7.5t46.5 24t30 43.5t10.5 67z" />
    <glyph glyph-name="germandbls" unicode="&#xdf;" horiz-adv-x="587" 
d="M352 717q88 0 139 -35.5t51 -104.5q0 -34 -9.5 -58.5t-24.5 -43.5t-31.5 -34t-31.5 -28.5t-24.5 -27.5t-9.5 -31q0 -19 6.5 -31t17.5 -22t27 -20t35 -25q35 -29 49.5 -57.5t14.5 -63.5q0 -28 -10 -55t-30 -48t-50.5 -34t-71.5 -13q-52 0 -81.5 8.5t-55.5 24.5
q-19 12 -27 24.5t-8 27.5q0 24 12 40.5t32 30.5q23 -24 47 -38.5t56 -14.5q25 0 37 13.5t12 33.5q0 21 -21.5 40t-48.5 38q-15 10 -27.5 20.5t-21.5 22.5t-14.5 27.5t-5.5 35.5q0 28 9.5 49t24.5 38t31.5 31.5t31.5 30.5t24.5 35.5t9.5 45.5t-17 45.5t-51 19.5
q-43 0 -69 -26t-34 -75l-86 -523q-15 -95 -62 -148t-137 -53q-20 0 -42.5 4t-42 13t-32.5 24.5t-13 38.5q0 18 11.5 35.5t35.5 31.5q14 -20 31.5 -30.5t42.5 -10.5q32 0 49.5 24.5t25.5 70.5l86 517q18 113 81.5 161.5t159.5 48.5z" />
    <glyph glyph-name="agrave" unicode="&#xe0;" horiz-adv-x="516" 
d="M314 52q-23 -30 -54.5 -48.5t-75.5 -18.5q-41 0 -67.5 13.5t-42 37t-22 56.5t-6.5 72q0 62 19.5 120t56 103t87.5 72.5t114 27.5q40 0 88 -12.5t91 -38.5l-52 -315q-3 -15 -3 -33q0 -22 3.5 -44.5t10.5 -39.5q-17 -10 -36 -14t-38 -4q-32 0 -51 15.5t-22 50.5zM316 387
q-26 0 -50 -15.5t-43 -44t-30.5 -69.5t-11.5 -92q0 -79 54 -79q18 0 33 8.5t27 22.5t20 32.5t11 39.5l31 185q-20 12 -41 12zM210 680q14 12 35.5 22t39.5 10q21 0 34 -9.5t24 -28.5l65 -118q-11 -8 -28.5 -13t-29.5 -5q-32 0 -51 26z" />
    <glyph glyph-name="aacute" unicode="&#xe1;" horiz-adv-x="516" 
d="M314 52q-23 -30 -54.5 -48.5t-75.5 -18.5q-41 0 -67.5 13.5t-42 37t-22 56.5t-6.5 72q0 62 19.5 120t56 103t87.5 72.5t114 27.5q40 0 88 -12.5t91 -38.5l-52 -315q-3 -15 -3 -33q0 -22 3.5 -44.5t10.5 -39.5q-17 -10 -36 -14t-38 -4q-32 0 -51 15.5t-22 50.5zM316 387
q-26 0 -50 -15.5t-43 -44t-30.5 -69.5t-11.5 -92q0 -79 54 -79q18 0 33 8.5t27 22.5t20 32.5t11 39.5l31 185q-20 12 -41 12zM383 564q-12 -12 -27 -19t-32 -7q-14 0 -31 6t-25 14l91 115q15 20 30.5 29.5t41.5 9.5q18 0 37.5 -11t29.5 -23z" />
    <glyph glyph-name="acircumflex" unicode="&#xe2;" horiz-adv-x="516" 
d="M314 52q-23 -30 -54.5 -48.5t-75.5 -18.5q-41 0 -67.5 13.5t-42 37t-22 56.5t-6.5 72q0 62 19.5 120t56 103t87.5 72.5t114 27.5q40 0 88 -12.5t91 -38.5l-52 -315q-3 -15 -3 -33q0 -22 3.5 -44.5t10.5 -39.5q-17 -10 -36 -14t-38 -4q-32 0 -51 15.5t-22 50.5zM316 387
q-26 0 -50 -15.5t-43 -44t-30.5 -69.5t-11.5 -92q0 -79 54 -79q18 0 33 8.5t27 22.5t20 32.5t11 39.5l31 185q-20 12 -41 12zM349 623l-67 -65q-12 -11 -24.5 -15t-23.5 -4q-14 0 -27 4.5t-21 11.5l108 125q25 29 69 29q20 0 35 -6t23 -23l62 -128q-11 -6 -24.5 -10
t-25.5 -4q-14 0 -27 5t-22 21z" />
    <glyph glyph-name="atilde" unicode="&#xe3;" horiz-adv-x="516" 
d="M314 52q-23 -30 -54.5 -48.5t-75.5 -18.5q-41 0 -67.5 13.5t-42 37t-22 56.5t-6.5 72q0 62 19.5 120t56 103t87.5 72.5t114 27.5q40 0 88 -12.5t91 -38.5l-52 -315q-3 -15 -3 -33q0 -22 3.5 -44.5t10.5 -39.5q-17 -10 -36 -14t-38 -4q-32 0 -51 15.5t-22 50.5zM316 387
q-26 0 -50 -15.5t-43 -44t-30.5 -69.5t-11.5 -92q0 -79 54 -79q18 0 33 8.5t27 22.5t20 32.5t11 39.5l31 185q-20 12 -41 12zM288 594q-15 0 -32 -7.5t-36 -33.5q-23 14 -29.5 25t-6.5 27t9.5 29t25 22.5t34 15t36.5 5.5q24 0 40.5 -5.5t29 -12t23 -12t23.5 -5.5
q17 0 31.5 8.5t33.5 34.5q24 -12 30.5 -25t6.5 -29t-9 -29t-24 -22.5t-33.5 -15t-37.5 -5.5q-24 0 -40 5.5t-28 12t-22.5 12t-24.5 5.5z" />
    <glyph glyph-name="adieresis" unicode="&#xe4;" horiz-adv-x="516" 
d="M314 52q-23 -30 -54.5 -48.5t-75.5 -18.5q-41 0 -67.5 13.5t-42 37t-22 56.5t-6.5 72q0 62 19.5 120t56 103t87.5 72.5t114 27.5q40 0 88 -12.5t91 -38.5l-52 -315q-3 -15 -3 -33q0 -22 3.5 -44.5t10.5 -39.5q-17 -10 -36 -14t-38 -4q-32 0 -51 15.5t-22 50.5zM316 387
q-26 0 -50 -15.5t-43 -44t-30.5 -69.5t-11.5 -92q0 -79 54 -79q18 0 33 8.5t27 22.5t20 32.5t11 39.5l31 185q-20 12 -41 12zM246 557q-27 0 -41.5 17t-14.5 37q0 39 20 58t49 19q27 0 41.5 -17t14.5 -37q0 -39 -20 -58t-49 -19zM436 557q-27 0 -41.5 17t-14.5 37
q0 39 20 58t49 19q27 0 41.5 -17t14.5 -37q0 -39 -20 -58t-49 -19z" />
    <glyph glyph-name="aring" unicode="&#xe5;" horiz-adv-x="516" 
d="M314 52q-23 -30 -54.5 -48.5t-75.5 -18.5q-41 0 -67.5 13.5t-42 37t-22 56.5t-6.5 72q0 62 19.5 120t56 103t87.5 72.5t114 27.5q40 0 88 -12.5t91 -38.5l-52 -315q-3 -15 -3 -33q0 -22 3.5 -44.5t10.5 -39.5q-17 -10 -36 -14t-38 -4q-32 0 -51 15.5t-22 50.5zM316 387
q-26 0 -50 -15.5t-43 -44t-30.5 -69.5t-11.5 -92q0 -79 54 -79q18 0 33 8.5t27 22.5t20 32.5t11 39.5l31 185q-20 12 -41 12zM458 657q0 -23 -8 -44t-22 -37t-35 -25t-46 -9q-26 0 -47 9t-35.5 24.5t-22 36.5t-7.5 44t7.5 44t22 36.5t35.5 25t47 9.5q25 0 46 -9t35 -25
t22 -36.5t8 -43.5zM400 656q0 25 -14.5 43t-38.5 18q-25 0 -39.5 -18t-14.5 -42q0 -25 14 -43.5t40 -18.5q24 0 38.5 18.5t14.5 42.5z" />
    <glyph glyph-name="ae" unicode="&#xe6;" horiz-adv-x="769" 
d="M664 150q51 -26 51 -63q0 -21 -12 -36t-26 -25q-22 -15 -56.5 -28t-91.5 -13q-60 0 -102.5 26t-63.5 59q-15 -17 -32 -32.5t-38 -27t-47 -18.5t-60 -7q-42 0 -69 13.5t-42.5 37t-22 56.5t-6.5 72q0 62 19.5 120t56 103t87.5 72.5t114 27.5q42 0 72 -12t64 -38
q21 14 38.5 23.5t35 15.5t36 8.5t40.5 2.5q35 0 62 -10t45.5 -27t28 -40t9.5 -50q0 -56 -25 -90.5t-63 -54.5t-83 -27t-85 -7h-18t-16 1v-6q0 -23 7.5 -40t19 -28t26 -16.5t28.5 -5.5q41 0 70 19t49 45zM316 387q-26 0 -50 -15.5t-43 -44t-30.5 -69.5t-11.5 -92
q0 -79 54 -79q18 0 33 8.5t27 22.5t20 32.5t11 39.5l31 185q-20 12 -41 12zM503 261q23 0 46 5t42 15.5t30.5 26t11.5 36.5q0 17 -10 29.5t-35 12.5q-43 0 -72.5 -34t-42.5 -90q9 -1 15.5 -1h14.5z" />
    <glyph glyph-name="ccedilla" unicode="&#xe7;" horiz-adv-x="451" 
d="M157 -227q-27 0 -38.5 12t-11.5 28q0 18 13 36q9 -5 18.5 -6t17.5 -1q16 0 23.5 8.5t7.5 19.5q0 9 -4 16t-8.5 13.5t-8 14t-3.5 17.5q0 17 7 32t18 27q-40 7 -67 25.5t-43.5 44.5t-24 58t-7.5 66q0 61 18 116.5t52 96.5t83 65.5t111 24.5q51 0 82.5 -16.5t47.5 -41.5
q12 -20 12 -35q1 -27 -18.5 -43.5t-46.5 -27.5q-14 33 -33 47t-53 14q-28 0 -51 -16.5t-38.5 -45t-24 -66t-8.5 -80.5q1 -46 23 -67t51 -21q32 0 57.5 17t44.5 44q28 -11 41 -27t13 -34q0 -32 -34 -60q-17 -14 -46 -27t-75 -15q-7 -8 -11.5 -16.5t-4.5 -19.5q0 -9 5.5 -16
t12 -15.5t12 -20t5.5 -28.5q0 -26 -10.5 -44.5t-27 -30t-37 -17t-41.5 -5.5z" />
    <glyph glyph-name="egrave" unicode="&#xe8;" horiz-adv-x="481" 
d="M376 150q51 -26 51 -63q0 -21 -12 -36t-26 -25q-22 -15 -56.5 -28t-91.5 -13q-55 0 -92 16.5t-60 44t-33 63.5t-10 75q0 61 19 116.5t54 96.5t86 65.5t116 24.5q35 0 62 -10t45.5 -27t28 -40t9.5 -50q0 -56 -25 -90.5t-63 -54.5t-83 -27t-85 -7h-18t-16 1v-6
q0 -23 7.5 -40t19 -28t26 -16.5t28.5 -5.5q41 0 70 19t49 45zM215 261q23 0 46 5t42 15.5t30.5 26t11.5 36.5q0 17 -10 29.5t-35 12.5q-43 0 -72.5 -34t-42.5 -90q9 -1 15.5 -1h14.5zM189 680q14 12 35.5 22t39.5 10q21 0 34 -9.5t24 -28.5l65 -118q-11 -8 -28.5 -13
t-29.5 -5q-32 0 -51 26z" />
    <glyph glyph-name="eacute" unicode="&#xe9;" horiz-adv-x="481" 
d="M376 150q51 -26 51 -63q0 -21 -12 -36t-26 -25q-22 -15 -56.5 -28t-91.5 -13q-55 0 -92 16.5t-60 44t-33 63.5t-10 75q0 61 19 116.5t54 96.5t86 65.5t116 24.5q35 0 62 -10t45.5 -27t28 -40t9.5 -50q0 -56 -25 -90.5t-63 -54.5t-83 -27t-85 -7h-18t-16 1v-6
q0 -23 7.5 -40t19 -28t26 -16.5t28.5 -5.5q41 0 70 19t49 45zM215 261q23 0 46 5t42 15.5t30.5 26t11.5 36.5q0 17 -10 29.5t-35 12.5q-43 0 -72.5 -34t-42.5 -90q9 -1 15.5 -1h14.5zM353 564q-12 -12 -27 -19t-32 -7q-14 0 -31 6t-25 14l91 115q15 20 30.5 29.5t41.5 9.5
q18 0 37.5 -11t29.5 -23z" />
    <glyph glyph-name="ecircumflex" unicode="&#xea;" horiz-adv-x="481" 
d="M376 150q51 -26 51 -63q0 -21 -12 -36t-26 -25q-22 -15 -56.5 -28t-91.5 -13q-55 0 -92 16.5t-60 44t-33 63.5t-10 75q0 61 19 116.5t54 96.5t86 65.5t116 24.5q35 0 62 -10t45.5 -27t28 -40t9.5 -50q0 -56 -25 -90.5t-63 -54.5t-83 -27t-85 -7h-18t-16 1v-6
q0 -23 7.5 -40t19 -28t26 -16.5t28.5 -5.5q41 0 70 19t49 45zM215 261q23 0 46 5t42 15.5t30.5 26t11.5 36.5q0 17 -10 29.5t-35 12.5q-43 0 -72.5 -34t-42.5 -90q9 -1 15.5 -1h14.5zM330 623l-67 -65q-12 -11 -24.5 -15t-23.5 -4q-14 0 -27 4.5t-21 11.5l108 125
q25 29 69 29q20 0 35 -6t23 -23l62 -128q-11 -6 -24.5 -10t-25.5 -4q-14 0 -27 5t-22 21z" />
    <glyph glyph-name="edieresis" unicode="&#xeb;" horiz-adv-x="481" 
d="M376 150q51 -26 51 -63q0 -21 -12 -36t-26 -25q-22 -15 -56.5 -28t-91.5 -13q-55 0 -92 16.5t-60 44t-33 63.5t-10 75q0 61 19 116.5t54 96.5t86 65.5t116 24.5q35 0 62 -10t45.5 -27t28 -40t9.5 -50q0 -56 -25 -90.5t-63 -54.5t-83 -27t-85 -7h-18t-16 1v-6
q0 -23 7.5 -40t19 -28t26 -16.5t28.5 -5.5q41 0 70 19t49 45zM215 261q23 0 46 5t42 15.5t30.5 26t11.5 36.5q0 17 -10 29.5t-35 12.5q-43 0 -72.5 -34t-42.5 -90q9 -1 15.5 -1h14.5zM234 557q-27 0 -41.5 17t-14.5 37q0 39 20 58t49 19q27 0 41.5 -17t14.5 -37
q0 -39 -20 -58t-49 -19zM424 557q-27 0 -41.5 17t-14.5 37q0 39 20 58t49 19q27 0 41.5 -17t14.5 -37q0 -39 -20 -58t-49 -19z" />
    <glyph glyph-name="igrave" unicode="&#xec;" horiz-adv-x="246" 
d="M105 473q12 2 24.5 3t22.5 1q41 0 58.5 -19.5t17.5 -48.5q0 -6 -0.5 -12t-1.5 -12l-44 -264q-2 -11 -3 -22.5t-1 -23.5q0 -19 2.5 -38t7.5 -33q-17 -10 -33.5 -14t-35.5 -4q-41 0 -60.5 16t-19.5 59q0 4 0.5 10.5t1.5 11.5zM50 680q14 12 35.5 22t39.5 10q21 0 34 -9.5
t24 -28.5l65 -118q-11 -8 -28.5 -13t-29.5 -5q-32 0 -51 26z" />
    <glyph glyph-name="iacute" unicode="&#xed;" horiz-adv-x="246" 
d="M105 473q12 2 24.5 3t22.5 1q41 0 58.5 -19.5t17.5 -48.5q0 -6 -0.5 -12t-1.5 -12l-44 -264q-2 -11 -3 -22.5t-1 -23.5q0 -19 2.5 -38t7.5 -33q-17 -10 -33.5 -14t-35.5 -4q-41 0 -60.5 16t-19.5 59q0 4 0.5 10.5t1.5 11.5zM213 564q-12 -12 -27 -19t-32 -7q-14 0 -31 6
t-25 14l91 115q15 20 30.5 29.5t41.5 9.5q18 0 37.5 -11t29.5 -23z" />
    <glyph glyph-name="icircumflex" unicode="&#xee;" horiz-adv-x="246" 
d="M105 473q12 2 24.5 3t22.5 1q41 0 58.5 -19.5t17.5 -48.5q0 -6 -0.5 -12t-1.5 -12l-44 -264q-2 -11 -3 -22.5t-1 -23.5q0 -19 2.5 -38t7.5 -33q-17 -10 -33.5 -14t-35.5 -4q-41 0 -60.5 16t-19.5 59q0 4 0.5 10.5t1.5 11.5zM187 623l-67 -65q-12 -11 -24.5 -15t-23.5 -4
q-14 0 -27 4.5t-21 11.5l108 125q25 29 69 29q20 0 35 -6t23 -23l62 -128q-11 -6 -24.5 -10t-25.5 -4q-14 0 -27 5t-22 21z" />
    <glyph glyph-name="idieresis" unicode="&#xef;" horiz-adv-x="246" 
d="M105 473q12 2 24.5 3t22.5 1q41 0 58.5 -19.5t17.5 -48.5q0 -6 -0.5 -12t-1.5 -12l-44 -264q-2 -11 -3 -22.5t-1 -23.5q0 -19 2.5 -38t7.5 -33q-17 -10 -33.5 -14t-35.5 -4q-41 0 -60.5 16t-19.5 59q0 4 0.5 10.5t1.5 11.5zM88 557q-27 0 -41.5 17t-14.5 37q0 39 20 58
t49 19q27 0 41.5 -17t14.5 -37q0 -39 -20 -58t-49 -19zM278 557q-27 0 -41.5 17t-14.5 37q0 39 20 58t49 19q27 0 41.5 -17t14.5 -37q0 -39 -20 -58t-49 -19z" />
    <glyph glyph-name="eth" unicode="&#xf0;" horiz-adv-x="515" 
d="M436 693l42 -66l-70 -44q38 -47 59.5 -107t21.5 -127q0 -96 -19.5 -164.5t-54.5 -112.5t-83 -64.5t-106 -20.5q-36 0 -69.5 11t-59 35t-41 61.5t-15.5 90.5q0 66 20 112.5t51.5 76t70.5 43.5t77 14q34 0 55 -10t43 -27q0 35 -12 67.5t-34 61.5l-83 -52l-42 66l66 41
q-53 34 -115 40q-1 24 5.5 39.5t17 24.5t22.5 12t23 3q8 0 14 -1t11 -2q66 -14 120 -55zM236 86q41 0 65 23.5t36 57t15.5 71t3.5 65.5q-11 14 -30 24t-44 10q-23 0 -44.5 -7t-38 -23.5t-26.5 -44.5t-10 -70q0 -51 19 -78.5t54 -27.5z" />
    <glyph glyph-name="ntilde" unicode="&#xf1;" horiz-adv-x="512" 
d="M162 0h-135l78 473q23 4 50 4q28 0 45 -12t26 -41q23 25 56 44t83 19q45 0 73 -20t39 -51q10 -29 10 -64q0 -18 -2 -35.5t-5 -34.5l-47 -282h-135l47 282q2 11 3 21t1 20q0 23 -10.5 39t-42.5 16t-56 -27t-31 -69zM255 594q-15 0 -32 -7.5t-36 -33.5q-23 14 -29.5 25
t-6.5 27t9.5 29t25 22.5t34 15t36.5 5.5q24 0 40.5 -5.5t29 -12t23 -12t23.5 -5.5q17 0 31.5 8.5t33.5 34.5q24 -12 30.5 -25t6.5 -29t-9 -29t-24 -22.5t-33.5 -15t-37.5 -5.5q-24 0 -40 5.5t-28 12t-22.5 12t-24.5 5.5z" />
    <glyph glyph-name="ograve" unicode="&#xf2;" horiz-adv-x="515" 
d="M232 -15q-53 0 -88.5 16.5t-57 44t-31 63.5t-9.5 75q0 61 17 116.5t50 96.5t81.5 65.5t111.5 24.5q51 0 86.5 -16.5t57.5 -44t32 -63.5t10 -75q0 -59 -15.5 -114t-47.5 -97t-81 -67t-116 -25zM179 178q0 -46 18.5 -68.5t46.5 -22.5q23 0 44 13.5t36.5 39.5t24.5 64.5
t9 88.5q0 46 -18.5 68.5t-46.5 22.5q-23 0 -44 -13.5t-36.5 -39.5t-24.5 -64.5t-9 -88.5zM193 680q14 12 35.5 22t39.5 10q21 0 34 -9.5t24 -28.5l65 -118q-11 -8 -28.5 -13t-29.5 -5q-32 0 -51 26z" />
    <glyph glyph-name="oacute" unicode="&#xf3;" horiz-adv-x="515" 
d="M232 -15q-53 0 -88.5 16.5t-57 44t-31 63.5t-9.5 75q0 61 17 116.5t50 96.5t81.5 65.5t111.5 24.5q51 0 86.5 -16.5t57.5 -44t32 -63.5t10 -75q0 -59 -15.5 -114t-47.5 -97t-81 -67t-116 -25zM179 178q0 -46 18.5 -68.5t46.5 -22.5q23 0 44 13.5t36.5 39.5t24.5 64.5
t9 88.5q0 46 -18.5 68.5t-46.5 22.5q-23 0 -44 -13.5t-36.5 -39.5t-24.5 -64.5t-9 -88.5zM360 564q-12 -12 -27 -19t-32 -7q-14 0 -31 6t-25 14l91 115q15 20 30.5 29.5t41.5 9.5q18 0 37.5 -11t29.5 -23z" />
    <glyph glyph-name="ocircumflex" unicode="&#xf4;" horiz-adv-x="515" 
d="M232 -15q-53 0 -88.5 16.5t-57 44t-31 63.5t-9.5 75q0 61 17 116.5t50 96.5t81.5 65.5t111.5 24.5q51 0 86.5 -16.5t57.5 -44t32 -63.5t10 -75q0 -59 -15.5 -114t-47.5 -97t-81 -67t-116 -25zM179 178q0 -46 18.5 -68.5t46.5 -22.5q23 0 44 13.5t36.5 39.5t24.5 64.5
t9 88.5q0 46 -18.5 68.5t-46.5 22.5q-23 0 -44 -13.5t-36.5 -39.5t-24.5 -64.5t-9 -88.5zM324 623l-67 -65q-12 -11 -24.5 -15t-23.5 -4q-14 0 -27 4.5t-21 11.5l108 125q25 29 69 29q20 0 35 -6t23 -23l62 -128q-11 -6 -24.5 -10t-25.5 -4q-14 0 -27 5t-22 21z" />
    <glyph glyph-name="otilde" unicode="&#xf5;" horiz-adv-x="515" 
d="M232 -15q-53 0 -88.5 16.5t-57 44t-31 63.5t-9.5 75q0 61 17 116.5t50 96.5t81.5 65.5t111.5 24.5q51 0 86.5 -16.5t57.5 -44t32 -63.5t10 -75q0 -59 -15.5 -114t-47.5 -97t-81 -67t-116 -25zM179 178q0 -46 18.5 -68.5t46.5 -22.5q23 0 44 13.5t36.5 39.5t24.5 64.5
t9 88.5q0 46 -18.5 68.5t-46.5 22.5q-23 0 -44 -13.5t-36.5 -39.5t-24.5 -64.5t-9 -88.5zM251 594q-15 0 -32 -7.5t-36 -33.5q-23 14 -29.5 25t-6.5 27t9.5 29t25 22.5t34 15t36.5 5.5q24 0 40.5 -5.5t29 -12t23 -12t23.5 -5.5q17 0 31.5 8.5t33.5 34.5q24 -12 30.5 -25
t6.5 -29t-9 -29t-24 -22.5t-33.5 -15t-37.5 -5.5q-24 0 -40 5.5t-28 12t-22.5 12t-24.5 5.5z" />
    <glyph glyph-name="odieresis" unicode="&#xf6;" horiz-adv-x="515" 
d="M232 -15q-53 0 -88.5 16.5t-57 44t-31 63.5t-9.5 75q0 61 17 116.5t50 96.5t81.5 65.5t111.5 24.5q51 0 86.5 -16.5t57.5 -44t32 -63.5t10 -75q0 -59 -15.5 -114t-47.5 -97t-81 -67t-116 -25zM179 178q0 -46 18.5 -68.5t46.5 -22.5q23 0 44 13.5t36.5 39.5t24.5 64.5
t9 88.5q0 46 -18.5 68.5t-46.5 22.5q-23 0 -44 -13.5t-36.5 -39.5t-24.5 -64.5t-9 -88.5zM222 557q-27 0 -41.5 17t-14.5 37q0 39 20 58t49 19q27 0 41.5 -17t14.5 -37q0 -39 -20 -58t-49 -19zM412 557q-27 0 -41.5 17t-14.5 37q0 39 20 58t49 19q27 0 41.5 -17t14.5 -37
q0 -39 -20 -58t-49 -19z" />
    <glyph glyph-name="divide" unicode="&#xf7;" horiz-adv-x="549" 
d="M73 281l19 109h429l-19 -109h-429zM261 90q-29 0 -45 18.5t-16 40.5q0 41 22.5 61.5t51.5 20.5t45 -18.5t16 -40.5q0 -41 -22 -61.5t-52 -20.5zM319 438q-29 0 -45 18.5t-16 40.5q0 41 22.5 61.5t51.5 20.5t45 -18.5t16 -40.5q0 -41 -22 -61.5t-52 -20.5z" />
    <glyph glyph-name="oslash" unicode="&#xf8;" horiz-adv-x="515" 
d="M429 529l49 -29l-40 -60q29 -29 41.5 -68t12.5 -84q0 -59 -15.5 -114t-47.5 -97t-81 -67t-116 -25q-26 0 -47 4t-38 11l-47 -71l-49 29l48 73q-29 28 -41 68t-12 85q0 61 17 116.5t50 96.5t81.5 65.5t111.5 24.5q47 0 85 -16zM179 178q0 -7 0.5 -13t1.5 -11l145 220
q-15 10 -33 10q-23 0 -44 -13.5t-36.5 -39.5t-24.5 -64.5t-9 -88.5zM244 87q23 0 44 13.5t36.5 39.5t24.5 64.5t9 88.5q0 6 -0.5 12t-1.5 11l-145 -220q13 -9 33 -9z" />
    <glyph glyph-name="ugrave" unicode="&#xf9;" horiz-adv-x="515" 
d="M313 52q-20 -25 -50.5 -46t-80.5 -21q-52 0 -82.5 22t-41.5 53q-10 29 -10 64q0 18 2 35.5t5 34.5l46 279q12 2 24.5 3t22.5 1q41 0 58.5 -19.5t17.5 -48.5q0 -6 -0.5 -12t-1.5 -12l-32 -191q-3 -17 -3 -35q0 -28 11 -50t40 -22q16 0 30.5 9t26 23.5t20 34t11.5 40.5
l47 279q12 2 24 3t22 1q41 0 58.5 -19.5t17.5 -48.5q0 -6 -0.5 -12t-1.5 -12l-44 -264q-3 -15 -3 -33q0 -22 3.5 -44.5t10.5 -39.5q-17 -10 -36 -14t-38 -4q-32 0 -51 15.5t-22 50.5zM167 680q14 12 35.5 22t39.5 10q21 0 34 -9.5t24 -28.5l65 -118q-11 -8 -28.5 -13
t-29.5 -5q-32 0 -51 26z" />
    <glyph glyph-name="uacute" unicode="&#xfa;" horiz-adv-x="515" 
d="M313 52q-20 -25 -50.5 -46t-80.5 -21q-52 0 -82.5 22t-41.5 53q-10 29 -10 64q0 18 2 35.5t5 34.5l46 279q12 2 24.5 3t22.5 1q41 0 58.5 -19.5t17.5 -48.5q0 -6 -0.5 -12t-1.5 -12l-32 -191q-3 -17 -3 -35q0 -28 11 -50t40 -22q16 0 30.5 9t26 23.5t20 34t11.5 40.5
l47 279q12 2 24 3t22 1q41 0 58.5 -19.5t17.5 -48.5q0 -6 -0.5 -12t-1.5 -12l-44 -264q-3 -15 -3 -33q0 -22 3.5 -44.5t10.5 -39.5q-17 -10 -36 -14t-38 -4q-32 0 -51 15.5t-22 50.5zM344 564q-12 -12 -27 -19t-32 -7q-14 0 -31 6t-25 14l91 115q15 20 30.5 29.5t41.5 9.5
q18 0 37.5 -11t29.5 -23z" />
    <glyph glyph-name="ucircumflex" unicode="&#xfb;" horiz-adv-x="515" 
d="M313 52q-20 -25 -50.5 -46t-80.5 -21q-52 0 -82.5 22t-41.5 53q-10 29 -10 64q0 18 2 35.5t5 34.5l46 279q12 2 24.5 3t22.5 1q41 0 58.5 -19.5t17.5 -48.5q0 -6 -0.5 -12t-1.5 -12l-32 -191q-3 -17 -3 -35q0 -28 11 -50t40 -22q16 0 30.5 9t26 23.5t20 34t11.5 40.5
l47 279q12 2 24 3t22 1q41 0 58.5 -19.5t17.5 -48.5q0 -6 -0.5 -12t-1.5 -12l-44 -264q-3 -15 -3 -33q0 -22 3.5 -44.5t10.5 -39.5q-17 -10 -36 -14t-38 -4q-32 0 -51 15.5t-22 50.5zM319 623l-67 -65q-12 -11 -24.5 -15t-23.5 -4q-14 0 -27 4.5t-21 11.5l108 125
q25 29 69 29q20 0 35 -6t23 -23l62 -128q-11 -6 -24.5 -10t-25.5 -4q-14 0 -27 5t-22 21z" />
    <glyph glyph-name="udieresis" unicode="&#xfc;" horiz-adv-x="515" 
d="M313 52q-20 -25 -50.5 -46t-80.5 -21q-52 0 -82.5 22t-41.5 53q-10 29 -10 64q0 18 2 35.5t5 34.5l46 279q12 2 24.5 3t22.5 1q41 0 58.5 -19.5t17.5 -48.5q0 -6 -0.5 -12t-1.5 -12l-32 -191q-3 -17 -3 -35q0 -28 11 -50t40 -22q16 0 30.5 9t26 23.5t20 34t11.5 40.5
l47 279q12 2 24 3t22 1q41 0 58.5 -19.5t17.5 -48.5q0 -6 -0.5 -12t-1.5 -12l-44 -264q-3 -15 -3 -33q0 -22 3.5 -44.5t10.5 -39.5q-17 -10 -36 -14t-38 -4q-32 0 -51 15.5t-22 50.5zM212 557q-27 0 -41.5 17t-14.5 37q0 39 20 58t49 19q27 0 41.5 -17t14.5 -37
q0 -39 -20 -58t-49 -19zM402 557q-27 0 -41.5 17t-14.5 37q0 39 20 58t49 19q27 0 41.5 -17t14.5 -37q0 -39 -20 -58t-49 -19z" />
    <glyph glyph-name="yacute" unicode="&#xfd;" horiz-adv-x="459" 
d="M46 -123q18 0 31 6t23.5 18.5t20.5 31t21 44.5l8 18h-28l-75 468q35 14 72 14q21 0 34.5 -7.5t22 -20.5t12.5 -30t6 -36l21 -254l106 257q17 41 42 66t63 25q20 0 37 -4t28 -10l-245 -520q-17 -35 -33 -66t-37.5 -54t-50 -36.5t-69.5 -13.5q-32 0 -53.5 5.5t-34.5 13.5
q-19 12 -28.5 25t-9.5 30q0 36 47 67q14 -20 33 -28.5t36 -8.5zM327 564q-12 -12 -27 -19t-32 -7q-14 0 -31 6t-25 14l91 115q15 20 30.5 29.5t41.5 9.5q18 0 37.5 -11t29.5 -23z" />
    <glyph glyph-name="thorn" unicode="&#xfe;" horiz-adv-x="522" 
d="M355 487q40 0 68 -15t44.5 -41.5t24 -61t7.5 -73.5q0 -62 -17.5 -118.5t-49.5 -99t-77 -68t-99 -25.5q-32 0 -55 9t-39 20l-38 -232h-132l151 923q12 2 24 3t22 1q41 0 58.5 -19.5t17.5 -48.5q0 -6 -0.5 -12t-1.5 -12l-31 -182q21 20 51.5 36t71.5 16zM232 85
q25 0 48.5 13.5t41 40.5t28 67t10.5 93q0 45 -18 66t-46 21q-17 0 -31.5 -8.5t-26 -22t-19 -30t-10.5 -32.5l-33 -195q11 -8 22.5 -10.5t33.5 -2.5z" />
    <glyph glyph-name="ydieresis" unicode="&#xff;" horiz-adv-x="459" 
d="M46 -123q18 0 31 6t23.5 18.5t20.5 31t21 44.5l8 18h-28l-75 468q35 14 72 14q21 0 34.5 -7.5t22 -20.5t12.5 -30t6 -36l21 -254l106 257q17 41 42 66t63 25q20 0 37 -4t28 -10l-245 -520q-17 -35 -33 -66t-37.5 -54t-50 -36.5t-69.5 -13.5q-32 0 -53.5 5.5t-34.5 13.5
q-19 12 -28.5 25t-9.5 30q0 36 47 67q14 -20 33 -28.5t36 -8.5zM177 557q-27 0 -41.5 17t-14.5 37q0 39 20 58t49 19q27 0 41.5 -17t14.5 -37q0 -39 -20 -58t-49 -19zM367 557q-27 0 -41.5 17t-14.5 37q0 39 20 58t49 19q27 0 41.5 -17t14.5 -37q0 -39 -20 -58t-49 -19z" />
    <glyph glyph-name="Amacron" unicode="&#x100;" horiz-adv-x="598" 
d="M558 0h-138l-21 143h-209l-61 -143h-139l312 658q13 6 30 11t34 5q34 0 55.5 -15t28.5 -52zM235 251h148l-35 264zM274 752q-30 0 -42.5 14t-11.5 34q0 8 1.5 19t5.5 21h235q30 0 42.5 -14t11.5 -34q0 -8 -1.5 -19t-5.5 -21h-235z" />
    <glyph glyph-name="amacron" unicode="&#x101;" horiz-adv-x="516" 
d="M314 52q-23 -30 -54.5 -48.5t-75.5 -18.5q-41 0 -67.5 13.5t-42 37t-22 56.5t-6.5 72q0 62 19.5 120t56 103t87.5 72.5t114 27.5q40 0 88 -12.5t91 -38.5l-52 -315q-3 -15 -3 -33q0 -22 3.5 -44.5t10.5 -39.5q-17 -10 -36 -14t-38 -4q-32 0 -51 15.5t-22 50.5zM316 387
q-26 0 -50 -15.5t-43 -44t-30.5 -69.5t-11.5 -92q0 -79 54 -79q18 0 33 8.5t27 22.5t20 32.5t11 39.5l31 185q-20 12 -41 12zM247 568q-30 0 -42.5 14t-11.5 34q0 8 1.5 19t5.5 21h235q30 0 42.5 -14t11.5 -34q0 -8 -1.5 -19t-5.5 -21h-235z" />
    <glyph glyph-name="Abreve" unicode="&#x102;" horiz-adv-x="598" 
d="M558 0h-138l-21 143h-209l-61 -143h-139l312 658q13 6 30 11t34 5q34 0 55.5 -15t28.5 -52zM235 251h148l-35 264zM328 848q4 -20 15 -31.5t31 -11.5q17 0 34.5 9t30.5 36q11 23 21.5 29.5t30.5 6.5q13 0 23 -3.5t24 -12.5q-22 -69 -63.5 -105t-105.5 -36q-67 0 -99 38.5
t-28 107.5q10 5 22 8t20 3q26 0 33 -9t11 -29z" />
    <glyph glyph-name="abreve" unicode="&#x103;" horiz-adv-x="516" 
d="M314 52q-23 -30 -54.5 -48.5t-75.5 -18.5q-41 0 -67.5 13.5t-42 37t-22 56.5t-6.5 72q0 62 19.5 120t56 103t87.5 72.5t114 27.5q40 0 88 -12.5t91 -38.5l-52 -315q-3 -15 -3 -33q0 -22 3.5 -44.5t10.5 -39.5q-17 -10 -36 -14t-38 -4q-32 0 -51 15.5t-22 50.5zM316 387
q-26 0 -50 -15.5t-43 -44t-30.5 -69.5t-11.5 -92q0 -79 54 -79q18 0 33 8.5t27 22.5t20 32.5t11 39.5l31 185q-20 12 -41 12zM294 664q4 -24 16.5 -36t30.5 -12q20 0 35 10.5t29 39.5q11 23 21.5 29.5t30.5 6.5q13 0 24 -3.5t25 -12.5q-24 -73 -64 -109.5t-106 -36.5
q-67 0 -99 39t-28 112q10 5 22.5 8t20.5 3q26 0 32.5 -9t9.5 -29z" />
    <glyph glyph-name="Aogonek" unicode="&#x104;" horiz-adv-x="598" 
d="M469 -150q11 0 21.5 6t20.5 15q10 -11 13.5 -20.5t3.5 -18.5q0 -15 -9 -25.5t-23 -17t-30 -9.5t-31 -3t-30.5 4.5t-28 14.5t-20 25t-7.5 35q0 45 29.5 82t68.5 62h-27l-21 143h-209l-61 -143h-139l312 658q13 6 30 11t34 5q34 0 55.5 -15t28.5 -52l108 -607
q-24 -11 -44.5 -25.5t-36 -30.5t-24 -32.5t-8.5 -31.5q0 -17 8 -23.5t16 -6.5zM235 251h148l-35 264z" />
    <glyph glyph-name="aogonek" unicode="&#x105;" horiz-adv-x="516" 
d="M381 -150q11 0 22 6t21 15q10 -11 13.5 -20.5t3.5 -18.5q0 -15 -9 -25.5t-23 -17t-30 -9.5t-31 -3t-30.5 4.5t-28 14.5t-20 25t-7.5 35q0 41 28.5 75.5t64.5 59.5q-37 12 -41 61q-23 -30 -54.5 -48.5t-75.5 -18.5q-41 0 -67.5 13.5t-42 37t-22 56.5t-6.5 72
q0 62 19.5 120t56 103t87.5 72.5t114 27.5q40 0 88 -12.5t91 -38.5l-52 -315q-3 -15 -3 -33q0 -22 3.5 -44.5t10.5 -39.5l-3 -2q-19 -12 -37.5 -27t-32.5 -31t-23 -32.5t-9 -31.5q0 -17 7 -23.5t18 -6.5zM316 387q-26 0 -50 -15.5t-43 -44t-30.5 -69.5t-11.5 -92
q0 -79 54 -79q18 0 33 8.5t27 22.5t20 32.5t11 39.5l31 185q-20 12 -41 12z" />
    <glyph glyph-name="Cacute" unicode="&#x106;" horiz-adv-x="588" 
d="M498 183q23 -17 35.5 -34.5t12.5 -34.5q0 -28 -15.5 -47.5t-43.5 -36.5q-30 -19 -75 -33t-99 -14q-64 0 -110.5 21t-77 58t-45.5 88t-15 112q0 73 21 148t63.5 135.5t108.5 99t156 38.5q66 0 109.5 -24t64.5 -56q7 -11 9.5 -22.5t2.5 -22.5q0 -29 -18.5 -48.5
t-53.5 -27.5q-18 42 -47 66t-81 24q-41 0 -76.5 -21t-61.5 -62t-41.5 -101.5t-15.5 -139.5q0 -32 8 -60t23.5 -48.5t38 -32.5t51.5 -12t54 7.5t46.5 20t39.5 28.5t32 32zM439 742q-11 -7 -23 -11.5t-29 -4.5q-19 0 -32 11.5t-21 23.5l113 91q11 9 25 16t28 7
q24 0 40.5 -16.5t24.5 -36.5z" />
    <glyph glyph-name="cacute" unicode="&#x107;" horiz-adv-x="451" 
d="M387 323q-14 33 -33 47t-53 14q-28 0 -51 -16.5t-38.5 -45t-24 -66t-8.5 -80.5q1 -46 23 -67t51 -21q32 0 57.5 17t44.5 44q28 -11 41 -27t13 -34q0 -32 -34 -60q-18 -15 -51 -29t-87 -14t-90.5 16.5t-59 44t-32 63.5t-9.5 75q0 61 18 116.5t52 96.5t83 65.5t111 24.5
q51 0 82.5 -16.5t47.5 -41.5q12 -20 12 -35q1 -27 -18.5 -43.5t-46.5 -27.5zM339 564q-12 -12 -27 -19t-32 -7q-14 0 -31 6t-25 14l91 115q15 20 30.5 29.5t41.5 9.5q18 0 37.5 -11t29.5 -23z" />
    <glyph glyph-name="Ccircumflex" unicode="&#x108;" horiz-adv-x="588" 
d="M498 183q23 -17 35.5 -34.5t12.5 -34.5q0 -28 -15.5 -47.5t-43.5 -36.5q-30 -19 -75 -33t-99 -14q-64 0 -110.5 21t-77 58t-45.5 88t-15 112q0 73 21 148t63.5 135.5t108.5 99t156 38.5q66 0 109.5 -24t64.5 -56q7 -11 9.5 -22.5t2.5 -22.5q0 -29 -18.5 -48.5
t-53.5 -27.5q-18 42 -47 66t-81 24q-41 0 -76.5 -21t-61.5 -62t-41.5 -101.5t-15.5 -139.5q0 -32 8 -60t23.5 -48.5t38 -32.5t51.5 -12t54 7.5t46.5 20t39.5 28.5t32 32zM427 796l-56 -52q-12 -11 -25 -15t-27 -4t-27.5 4.5t-21.5 11.5l102 107q14 14 30 21.5t39 7.5
q24 0 37 -8t22 -24l59 -107q-11 -6 -25 -10t-26 -4q-14 0 -26.5 6t-23.5 21z" />
    <glyph glyph-name="ccircumflex" unicode="&#x109;" horiz-adv-x="451" 
d="M387 323q-14 33 -33 47t-53 14q-28 0 -51 -16.5t-38.5 -45t-24 -66t-8.5 -80.5q1 -46 23 -67t51 -21q32 0 57.5 17t44.5 44q28 -11 41 -27t13 -34q0 -32 -34 -60q-18 -15 -51 -29t-87 -14t-90.5 16.5t-59 44t-32 63.5t-9.5 75q0 61 18 116.5t52 96.5t83 65.5t111 24.5
q51 0 82.5 -16.5t47.5 -41.5q12 -20 12 -35q1 -27 -18.5 -43.5t-46.5 -27.5zM320 623l-67 -65q-12 -11 -24.5 -15t-23.5 -4q-14 0 -27 4.5t-21 11.5l108 125q25 29 69 29q20 0 35 -6t23 -23l62 -128q-11 -6 -24.5 -10t-25.5 -4q-14 0 -27 5t-22 21z" />
    <glyph glyph-name="Cdotaccent" unicode="&#x10a;" horiz-adv-x="588" 
d="M498 183q23 -17 35.5 -34.5t12.5 -34.5q0 -28 -15.5 -47.5t-43.5 -36.5q-30 -19 -75 -33t-99 -14q-64 0 -110.5 21t-77 58t-45.5 88t-15 112q0 73 21 148t63.5 135.5t108.5 99t156 38.5q66 0 109.5 -24t64.5 -56q7 -11 9.5 -22.5t2.5 -22.5q0 -29 -18.5 -48.5
t-53.5 -27.5q-18 42 -47 66t-81 24q-41 0 -76.5 -21t-61.5 -62t-41.5 -101.5t-15.5 -139.5q0 -32 8 -60t23.5 -48.5t38 -32.5t51.5 -12t54 7.5t46.5 20t39.5 28.5t32 32zM415 730q-29 0 -43.5 17.5t-14.5 37.5q0 42 20.5 61t50.5 19q29 0 43.5 -17.5t14.5 -37.5
q0 -42 -20.5 -61t-50.5 -19z" />
    <glyph glyph-name="cdotaccent" unicode="&#x10b;" horiz-adv-x="451" 
d="M387 323q-14 33 -33 47t-53 14q-28 0 -51 -16.5t-38.5 -45t-24 -66t-8.5 -80.5q1 -46 23 -67t51 -21q32 0 57.5 17t44.5 44q28 -11 41 -27t13 -34q0 -32 -34 -60q-18 -15 -51 -29t-87 -14t-90.5 16.5t-59 44t-32 63.5t-9.5 75q0 61 18 116.5t52 96.5t83 65.5t111 24.5
q51 0 82.5 -16.5t47.5 -41.5q12 -20 12 -35q1 -27 -18.5 -43.5t-46.5 -27.5zM318 557q-29 0 -43.5 17.5t-14.5 37.5q0 42 20.5 61t50.5 19q29 0 43.5 -17.5t14.5 -37.5q0 -42 -20.5 -61t-50.5 -19z" />
    <glyph glyph-name="Ccaron" unicode="&#x10c;" horiz-adv-x="588" 
d="M498 183q23 -17 35.5 -34.5t12.5 -34.5q0 -28 -15.5 -47.5t-43.5 -36.5q-30 -19 -75 -33t-99 -14q-64 0 -110.5 21t-77 58t-45.5 88t-15 112q0 73 21 148t63.5 135.5t108.5 99t156 38.5q66 0 109.5 -24t64.5 -56q7 -11 9.5 -22.5t2.5 -22.5q0 -29 -18.5 -48.5
t-53.5 -27.5q-18 42 -47 66t-81 24q-41 0 -76.5 -21t-61.5 -62t-41.5 -101.5t-15.5 -139.5q0 -32 8 -60t23.5 -48.5t38 -32.5t51.5 -12t54 7.5t46.5 20t39.5 28.5t32 32zM414 805l56 52q13 11 26.5 15t27.5 4t27.5 -4.5t21.5 -11.5l-102 -107q-14 -14 -30 -21.5t-39 -7.5
q-24 0 -37 8t-22 24l-59 107q11 6 25 10t26 4q14 0 25.5 -6t22.5 -21z" />
    <glyph glyph-name="ccaron" unicode="&#x10d;" horiz-adv-x="451" 
d="M387 323q-14 33 -33 47t-53 14q-28 0 -51 -16.5t-38.5 -45t-24 -66t-8.5 -80.5q1 -46 23 -67t51 -21q32 0 57.5 17t44.5 44q28 -11 41 -27t13 -34q0 -32 -34 -60q-18 -15 -51 -29t-87 -14t-90.5 16.5t-59 44t-32 63.5t-9.5 75q0 61 18 116.5t52 96.5t83 65.5t111 24.5
q51 0 82.5 -16.5t47.5 -41.5q12 -20 12 -35q1 -27 -18.5 -43.5t-46.5 -27.5zM329 624l67 65q12 11 25.5 15t24.5 4q14 0 27 -4.5t21 -11.5l-108 -125q-25 -29 -69 -29q-20 0 -35 6t-23 23l-62 128q11 6 24.5 10t25.5 4q14 0 26 -5t21 -21z" />
    <glyph glyph-name="Dcaron" unicode="&#x10e;" horiz-adv-x="615" 
d="M329 569q-48 0 -70 -3l-76 -460h57q56 0 98 24t69.5 66t41.5 99t14 123q0 31 -9 59t-26 48t-42 32t-57 12zM323 676q75 0 128.5 -20t87 -56t49 -85.5t15.5 -107.5q0 -75 -20 -148t-66 -130.5t-119.5 -93t-179.5 -35.5h-187l110 663q64 9 108.5 11t73.5 2zM346 805l56 52
q13 11 26.5 15t27.5 4t27.5 -4.5t21.5 -11.5l-102 -107q-14 -14 -30 -21.5t-39 -7.5q-24 0 -37 8t-22 24l-59 107q11 6 25 10t26 4q14 0 25.5 -6t22.5 -21z" />
    <glyph glyph-name="dcaron" unicode="&#x10f;" horiz-adv-x="607" 
d="M322 52q-24 -35 -60.5 -51t-71.5 -16q-41 0 -68.5 13.5t-44 37t-24 56.5t-7.5 72q0 65 19.5 123.5t55 103t84.5 70.5t109 26q15 0 36 -4.5t34 -11.5l39 234q12 2 24 3t22 1q41 0 57 -19.5t16 -48.5q0 -6 -0.5 -12t-1.5 -12l-82 -496q-3 -15 -3 -33q0 -22 3.5 -44.5
t10.5 -39.5q-17 -10 -36 -14t-38 -4q-32 0 -51 15.5t-22 50.5zM368 375q-10 6 -24 9t-28 3q-56 0 -93.5 -56.5t-37.5 -164.5q0 -79 57 -79q19 0 35 8.5t28 22.5t20.5 32.5t11.5 39.5zM688 547q-16 -62 -76 -62h-13t-15 2l23 140q6 38 24.5 60t57.5 22q23 0 38 -3z" />
    <glyph glyph-name="Dcroat" unicode="&#x110;" horiz-adv-x="615" 
d="M21 300l14 88h60l46 275q64 9 108.5 11t73.5 2q75 0 128.5 -20t87 -56t49 -85.5t15.5 -107.5q0 -75 -20 -148t-66 -130.5t-119.5 -93t-179.5 -35.5h-187l50 300h-60zM329 569q-48 0 -70 -3l-30 -178h120l-15 -88h-119l-32 -194h57q56 0 98 24t69.5 66t41.5 99t14 123
q0 31 -9 59t-26 48t-42 32t-57 12z" />
    <glyph glyph-name="dcroat" unicode="&#x111;" horiz-adv-x="521" 
d="M228 626h179l13 79q12 2 24 3t22 1q41 0 57 -19.5t16 -48.5q0 -4 -0.5 -7.5t-0.5 -7.5h72l-15 -88h-71l-69 -417q-3 -15 -3 -33q0 -22 3.5 -44.5t10.5 -39.5q-17 -10 -36 -14t-38 -4q-32 0 -51 15.5t-22 50.5q-24 -35 -60.5 -51t-71.5 -16q-41 0 -68.5 13.5t-44 37
t-24 56.5t-7.5 72q0 63 19 118t54 96.5t83.5 65t108.5 23.5q15 0 36 -4.5t34 -11.5l14 87h-179zM362 355q-10 6 -24 9t-28 3q-56 0 -92 -49t-36 -152q0 -79 57 -79q19 0 35 8.5t28 22.5t20.5 32.5t11.5 39.5z" />
    <glyph glyph-name="Emacron" unicode="&#x112;" horiz-adv-x="482" 
d="M361 107q46 0 65 -16.5t19 -48.5q0 -12 -2 -24t-5 -18h-407l111 670h388q-1 -30 -6 -50.5t-16.5 -33t-29.5 -18t-45 -5.5h-174l-27 -165h195l-18 -107h-195l-30 -184h177zM252 752q-30 0 -42.5 14t-11.5 34q0 8 1.5 19t5.5 21h235q30 0 42.5 -14t11.5 -34q0 -8 -1.5 -19
t-5.5 -21h-235z" />
    <glyph glyph-name="emacron" unicode="&#x113;" horiz-adv-x="481" 
d="M376 150q51 -26 51 -63q0 -21 -12 -36t-26 -25q-22 -15 -56.5 -28t-91.5 -13q-55 0 -92 16.5t-60 44t-33 63.5t-10 75q0 61 19 116.5t54 96.5t86 65.5t116 24.5q35 0 62 -10t45.5 -27t28 -40t9.5 -50q0 -56 -25 -90.5t-63 -54.5t-83 -27t-85 -7h-18t-16 1v-6
q0 -23 7.5 -40t19 -28t26 -16.5t28.5 -5.5q41 0 70 19t49 45zM215 261q23 0 46 5t42 15.5t30.5 26t11.5 36.5q0 17 -10 29.5t-35 12.5q-43 0 -72.5 -34t-42.5 -90q9 -1 15.5 -1h14.5zM215 568q-30 0 -42.5 14t-11.5 34q0 8 1.5 19t5.5 21h235q30 0 42.5 -14t11.5 -34
q0 -8 -1.5 -19t-5.5 -21h-235z" />
    <glyph glyph-name="Ebreve" unicode="&#x114;" horiz-adv-x="482" 
d="M361 107q46 0 65 -16.5t19 -48.5q0 -12 -2 -24t-5 -18h-407l111 670h388q-1 -30 -6 -50.5t-16.5 -33t-29.5 -18t-45 -5.5h-174l-27 -165h195l-18 -107h-195l-30 -184h177zM295 848q4 -20 15 -31.5t31 -11.5q17 0 34.5 9t30.5 36q11 23 21.5 29.5t30.5 6.5q13 0 23 -3.5
t24 -12.5q-22 -69 -63.5 -105t-105.5 -36q-67 0 -99 38.5t-28 107.5q10 5 22 8t20 3q26 0 33 -9t11 -29z" />
    <glyph glyph-name="ebreve" unicode="&#x115;" horiz-adv-x="481" 
d="M376 150q51 -26 51 -63q0 -21 -12 -36t-26 -25q-22 -15 -56.5 -28t-91.5 -13q-55 0 -92 16.5t-60 44t-33 63.5t-10 75q0 61 19 116.5t54 96.5t86 65.5t116 24.5q35 0 62 -10t45.5 -27t28 -40t9.5 -50q0 -56 -25 -90.5t-63 -54.5t-83 -27t-85 -7h-18t-16 1v-6
q0 -23 7.5 -40t19 -28t26 -16.5t28.5 -5.5q41 0 70 19t49 45zM215 261q23 0 46 5t42 15.5t30.5 26t11.5 36.5q0 17 -10 29.5t-35 12.5q-43 0 -72.5 -34t-42.5 -90q9 -1 15.5 -1h14.5zM273 664q4 -24 16.5 -36t30.5 -12q20 0 35 10.5t29 39.5q11 23 21.5 29.5t30.5 6.5
q13 0 24 -3.5t25 -12.5q-24 -73 -64 -109.5t-106 -36.5q-67 0 -99 39t-28 112q10 5 22.5 8t20.5 3q26 0 32.5 -9t9.5 -29z" />
    <glyph glyph-name="Edotaccent" unicode="&#x116;" horiz-adv-x="482" 
d="M361 107q46 0 65 -16.5t19 -48.5q0 -12 -2 -24t-5 -18h-407l111 670h388q-1 -30 -6 -50.5t-16.5 -33t-29.5 -18t-45 -5.5h-174l-27 -165h195l-18 -107h-195l-30 -184h177zM339 730q-29 0 -43.5 17.5t-14.5 37.5q0 42 20.5 61t50.5 19q29 0 43.5 -17.5t14.5 -37.5
q0 -42 -20.5 -61t-50.5 -19z" />
    <glyph glyph-name="edotaccent" unicode="&#x117;" horiz-adv-x="481" 
d="M376 150q51 -26 51 -63q0 -21 -12 -36t-26 -25q-22 -15 -56.5 -28t-91.5 -13q-55 0 -92 16.5t-60 44t-33 63.5t-10 75q0 61 19 116.5t54 96.5t86 65.5t116 24.5q35 0 62 -10t45.5 -27t28 -40t9.5 -50q0 -56 -25 -90.5t-63 -54.5t-83 -27t-85 -7h-18t-16 1v-6
q0 -23 7.5 -40t19 -28t26 -16.5t28.5 -5.5q41 0 70 19t49 45zM215 261q23 0 46 5t42 15.5t30.5 26t11.5 36.5q0 17 -10 29.5t-35 12.5q-43 0 -72.5 -34t-42.5 -90q9 -1 15.5 -1h14.5zM325 557q-29 0 -43.5 17.5t-14.5 37.5q0 42 20.5 61t50.5 19q29 0 43.5 -17.5t14.5 -37.5
q0 -42 -20.5 -61t-50.5 -19z" />
    <glyph glyph-name="Eogonek" unicode="&#x118;" horiz-adv-x="482" 
d="M349 -150q11 0 21.5 6t20.5 15q10 -11 13.5 -20.5t3.5 -18.5q0 -15 -9 -25.5t-23 -17t-30 -9.5t-31 -3t-30.5 4.5t-28 14.5t-20 25t-7.5 35q0 45 29.5 82t68.5 62h-296l111 670h388q-1 -30 -6 -50.5t-16.5 -33t-29.5 -18t-45 -5.5h-174l-27 -165h195l-18 -107h-195
l-30 -184h177q46 0 65 -16.5t19 -48.5q0 -12 -2 -24t-5 -18q-24 -11 -44.5 -25.5t-36 -30.5t-24 -32.5t-8.5 -31.5q0 -17 8 -23.5t16 -6.5z" />
    <glyph glyph-name="eogonek" unicode="&#x119;" horiz-adv-x="481" 
d="M268 -150q11 0 22 6t21 15q10 -11 13.5 -20.5t3.5 -18.5q0 -15 -9 -25.5t-23 -17t-30 -9.5t-31 -3t-30.5 4.5t-28 14.5t-20 25t-7.5 35q0 38 25.5 71t59.5 58q-53 1 -89 18t-58 44t-31.5 62.5t-9.5 74.5q0 61 19 116.5t54 96.5t86 65.5t116 24.5q35 0 62 -10t45.5 -27
t28 -40t9.5 -50q0 -56 -25 -90.5t-63 -54.5t-83 -27t-85 -7h-18t-16 1v-6q0 -23 7.5 -40t19 -28t26 -16.5t28.5 -5.5q41 0 70 19t49 45q51 -26 51 -63q0 -21 -12 -36t-26 -25q-9 -6 -19.5 -12t-23.5 -11q-19 -13 -37.5 -28t-33 -31t-23.5 -32.5t-9 -31.5q0 -17 7 -23.5
t18 -6.5zM215 261q23 0 46 5t42 15.5t30.5 26t11.5 36.5q0 17 -10 29.5t-35 12.5q-43 0 -72.5 -34t-42.5 -90q9 -1 15.5 -1h14.5z" />
    <glyph glyph-name="Ecaron" unicode="&#x11a;" horiz-adv-x="482" 
d="M361 107q46 0 65 -16.5t19 -48.5q0 -12 -2 -24t-5 -18h-407l111 670h388q-1 -30 -6 -50.5t-16.5 -33t-29.5 -18t-45 -5.5h-174l-27 -165h195l-18 -107h-195l-30 -184h177zM344 805l56 52q13 11 26.5 15t27.5 4t27.5 -4.5t21.5 -11.5l-102 -107q-14 -14 -30 -21.5
t-39 -7.5q-24 0 -37 8t-22 24l-59 107q11 6 25 10t26 4q14 0 25.5 -6t22.5 -21z" />
    <glyph glyph-name="ecaron" unicode="&#x11b;" horiz-adv-x="481" 
d="M376 150q51 -26 51 -63q0 -21 -12 -36t-26 -25q-22 -15 -56.5 -28t-91.5 -13q-55 0 -92 16.5t-60 44t-33 63.5t-10 75q0 61 19 116.5t54 96.5t86 65.5t116 24.5q35 0 62 -10t45.5 -27t28 -40t9.5 -50q0 -56 -25 -90.5t-63 -54.5t-83 -27t-85 -7h-18t-16 1v-6
q0 -23 7.5 -40t19 -28t26 -16.5t28.5 -5.5q41 0 70 19t49 45zM215 261q23 0 46 5t42 15.5t30.5 26t11.5 36.5q0 17 -10 29.5t-35 12.5q-43 0 -72.5 -34t-42.5 -90q9 -1 15.5 -1h14.5zM327 624l67 65q12 11 25.5 15t24.5 4q14 0 27 -4.5t21 -11.5l-108 -125q-25 -29 -69 -29
q-20 0 -35 6t-23 23l-62 128q11 6 24.5 10t25.5 4q14 0 26 -5t21 -21z" />
    <glyph glyph-name="Gcircumflex" unicode="&#x11c;" horiz-adv-x="622" 
d="M414 683q66 0 109.5 -24t64.5 -56q7 -11 9.5 -22.5t2.5 -22.5q0 -29 -18.5 -48.5t-53.5 -27.5q-18 42 -47 66t-81 24q-41 0 -76.5 -21t-61.5 -62t-41.5 -101.5t-15.5 -139.5q0 -32 8 -60t23.5 -48.5t38 -32.5t51.5 -12q33 0 59 9.5t50 27.5l20 121h-104l17 105h232
l-45 -273q-25 -28 -55 -47.5t-62 -31.5t-64 -17.5t-61 -5.5q-64 0 -110.5 21t-77 58t-45.5 88t-15 112q0 73 21 148t63.5 135.5t108.5 99t156 38.5zM427 796l-56 -52q-12 -11 -25 -15t-27 -4t-27.5 4.5t-21.5 11.5l102 107q14 14 30 21.5t39 7.5q24 0 37 -8t22 -24l59 -107
q-11 -6 -25 -10t-26 -4q-14 0 -26.5 6t-23.5 21z" />
    <glyph glyph-name="gcircumflex" unicode="&#x11d;" horiz-adv-x="521" 
d="M367 375q-20 12 -47 12q-24 0 -48.5 -14.5t-43.5 -42t-31 -67.5t-12 -91q0 -79 57 -79q19 0 35 8.5t28 22.5t20.5 32.5t11.5 39.5zM187 -227q-49 0 -83 9t-62 32q-14 11 -20.5 23t-7.5 25q-2 22 11.5 43t35.5 34q19 -26 50 -44.5t76 -18.5q51 0 81.5 32.5t39.5 94.5l6 41
q-23 -25 -56 -39t-68 -14q-41 0 -68.5 13.5t-44 37t-24 56.5t-7.5 72q0 62 20.5 119t58 101t89 70.5t113.5 26.5q45 0 92 -12.5t90 -38.5l-66 -399q-23 -138 -88 -201t-168 -63zM356 623l-67 -65q-12 -11 -24.5 -15t-23.5 -4q-14 0 -27 4.5t-21 11.5l108 125q25 29 69 29
q20 0 35 -6t23 -23l62 -128q-11 -6 -24.5 -10t-25.5 -4q-14 0 -27 5t-22 21z" />
    <glyph glyph-name="Gbreve" unicode="&#x11e;" horiz-adv-x="622" 
d="M414 683q66 0 109.5 -24t64.5 -56q7 -11 9.5 -22.5t2.5 -22.5q0 -29 -18.5 -48.5t-53.5 -27.5q-18 42 -47 66t-81 24q-41 0 -76.5 -21t-61.5 -62t-41.5 -101.5t-15.5 -139.5q0 -32 8 -60t23.5 -48.5t38 -32.5t51.5 -12q33 0 59 9.5t50 27.5l20 121h-104l17 105h232
l-45 -273q-25 -28 -55 -47.5t-62 -31.5t-64 -17.5t-61 -5.5q-64 0 -110.5 21t-77 58t-45.5 88t-15 112q0 73 21 148t63.5 135.5t108.5 99t156 38.5zM372 848q4 -20 15 -31.5t31 -11.5q17 0 34.5 9t30.5 36q11 23 21.5 29.5t30.5 6.5q13 0 23 -3.5t24 -12.5
q-22 -69 -63.5 -105t-105.5 -36q-67 0 -99 38.5t-28 107.5q10 5 22 8t20 3q26 0 33 -9t11 -29z" />
    <glyph glyph-name="gbreve" unicode="&#x11f;" horiz-adv-x="521" 
d="M367 375q-20 12 -47 12q-24 0 -48.5 -14.5t-43.5 -42t-31 -67.5t-12 -91q0 -79 57 -79q19 0 35 8.5t28 22.5t20.5 32.5t11.5 39.5zM187 -227q-49 0 -83 9t-62 32q-14 11 -20.5 23t-7.5 25q-2 22 11.5 43t35.5 34q19 -26 50 -44.5t76 -18.5q51 0 81.5 32.5t39.5 94.5l6 41
q-23 -25 -56 -39t-68 -14q-41 0 -68.5 13.5t-44 37t-24 56.5t-7.5 72q0 62 20.5 119t58 101t89 70.5t113.5 26.5q45 0 92 -12.5t90 -38.5l-66 -399q-23 -138 -88 -201t-168 -63zM297 664q4 -24 16.5 -36t30.5 -12q20 0 35 10.5t29 39.5q11 23 21.5 29.5t30.5 6.5
q13 0 24 -3.5t25 -12.5q-24 -73 -64 -109.5t-106 -36.5q-67 0 -99 39t-28 112q10 5 22.5 8t20.5 3q26 0 32.5 -9t9.5 -29z" />
    <glyph glyph-name="Gdotaccent" unicode="&#x120;" horiz-adv-x="622" 
d="M414 683q66 0 109.5 -24t64.5 -56q7 -11 9.5 -22.5t2.5 -22.5q0 -29 -18.5 -48.5t-53.5 -27.5q-18 42 -47 66t-81 24q-41 0 -76.5 -21t-61.5 -62t-41.5 -101.5t-15.5 -139.5q0 -32 8 -60t23.5 -48.5t38 -32.5t51.5 -12q33 0 59 9.5t50 27.5l20 121h-104l17 105h232
l-45 -273q-25 -28 -55 -47.5t-62 -31.5t-64 -17.5t-61 -5.5q-64 0 -110.5 21t-77 58t-45.5 88t-15 112q0 73 21 148t63.5 135.5t108.5 99t156 38.5zM415 730q-29 0 -43.5 17.5t-14.5 37.5q0 42 20.5 61t50.5 19q29 0 43.5 -17.5t14.5 -37.5q0 -42 -20.5 -61t-50.5 -19z" />
    <glyph glyph-name="gdotaccent" unicode="&#x121;" horiz-adv-x="521" 
d="M367 375q-20 12 -47 12q-24 0 -48.5 -14.5t-43.5 -42t-31 -67.5t-12 -91q0 -79 57 -79q19 0 35 8.5t28 22.5t20.5 32.5t11.5 39.5zM187 -227q-49 0 -83 9t-62 32q-14 11 -20.5 23t-7.5 25q-2 22 11.5 43t35.5 34q19 -26 50 -44.5t76 -18.5q51 0 81.5 32.5t39.5 94.5l6 41
q-23 -25 -56 -39t-68 -14q-41 0 -68.5 13.5t-44 37t-24 56.5t-7.5 72q0 62 20.5 119t58 101t89 70.5t113.5 26.5q45 0 92 -12.5t90 -38.5l-66 -399q-23 -138 -88 -201t-168 -63zM344 557q-29 0 -43.5 17.5t-14.5 37.5q0 42 20.5 61t50.5 19q29 0 43.5 -17.5t14.5 -37.5
q0 -42 -20.5 -61t-50.5 -19z" />
    <glyph glyph-name="Gcommaaccent" unicode="&#x122;" horiz-adv-x="622" 
d="M414 683q66 0 109.5 -24t64.5 -56q7 -11 9.5 -22.5t2.5 -22.5q0 -29 -18.5 -48.5t-53.5 -27.5q-18 42 -47 66t-81 24q-41 0 -76.5 -21t-61.5 -62t-41.5 -101.5t-15.5 -139.5q0 -32 8 -60t23.5 -48.5t38 -32.5t51.5 -12q33 0 59 9.5t50 27.5l20 121h-104l17 105h232
l-45 -273q-25 -28 -55 -47.5t-62 -31.5t-64 -17.5t-61 -5.5q-64 0 -110.5 21t-77 58t-45.5 88t-15 112q0 73 21 148t63.5 135.5t108.5 99t156 38.5zM303 -190q-14 -21 -30 -31t-41 -10q-12 0 -24 1.5t-20 6.5l61 123q13 26 32 41t46 15q14 0 31.5 -5t27.5 -10z" />
    <glyph glyph-name="gcommaaccent" unicode="&#x123;" horiz-adv-x="521" 
d="M367 375q-20 12 -47 12q-24 0 -48.5 -14.5t-43.5 -42t-31 -67.5t-12 -91q0 -79 57 -79q19 0 35 8.5t28 22.5t20.5 32.5t11.5 39.5zM187 -227q-49 0 -83 9t-62 32q-14 11 -20.5 23t-7.5 25q-2 22 11.5 43t35.5 34q19 -26 50 -44.5t76 -18.5q51 0 81.5 32.5t39.5 94.5l6 41
q-23 -25 -56 -39t-68 -14q-41 0 -68.5 13.5t-44 37t-24 56.5t-7.5 72q0 62 20.5 119t58 101t89 70.5t113.5 26.5q45 0 92 -12.5t90 -38.5l-66 -399q-23 -138 -88 -201t-168 -63zM355 678q14 21 30 31t41 10q12 0 24 -1.5t20 -6.5l-61 -123q-13 -26 -32 -41t-46 -15
q-14 0 -31.5 5t-27.5 10z" />
    <glyph glyph-name="Hcircumflex" unicode="&#x124;" horiz-adv-x="607" 
d="M142 670q12 2 24.5 3t22.5 1q41 0 58 -19.5t17 -48.5q0 -6 -0.5 -12t-1.5 -12l-30 -184h219l45 272q12 2 24.5 3t22.5 1q41 0 58 -19.5t17 -48.5q0 -6 -0.5 -12t-1.5 -12l-96 -582h-135l48 290h-219l-48 -290h-135zM394 796l-56 -52q-12 -11 -25 -15t-27 -4t-27.5 4.5
t-21.5 11.5l102 107q14 14 30 21.5t39 7.5q24 0 37 -8t22 -24l59 -107q-11 -6 -25 -10t-26 -4q-14 0 -26.5 6t-23.5 21z" />
    <glyph glyph-name="hcircumflex" unicode="&#x125;" horiz-adv-x="512" 
d="M233 431q23 23 54 39.5t78 16.5q45 0 73 -20t39 -51q10 -29 10 -64q0 -18 -2 -35.5t-5 -34.5l-47 -282h-135l47 282q2 11 3 21t1 20q0 23 -10.5 39t-42.5 16t-56 -27t-31 -69l-47 -282h-135l117 705q12 2 24 3t22 1q41 0 58.5 -19.5t17.5 -48.5q0 -6 -0.5 -12t-1.5 -12z
M308 816l-56 -52q-12 -11 -25 -15t-27 -4t-27.5 4.5t-21.5 11.5l102 107q14 14 30 21.5t39 7.5q24 0 37 -8t22 -24l59 -107q-11 -6 -25 -10t-26 -4q-14 0 -26.5 6t-23.5 21z" />
    <glyph glyph-name="Hbar" unicode="&#x126;" horiz-adv-x="607" 
d="M49 493l13 82h64l16 95q12 2 24.5 3t22.5 1q41 0 58 -19.5t17 -48.5q0 -6 -0.5 -12t-1.5 -12l-1 -7h219l16 95q12 2 24.5 3t22.5 1q41 0 58 -19.5t17 -48.5q0 -6 -0.5 -12t-1.5 -12l-1 -7h65l-14 -82h-65l-81 -493h-135l48 290h-219l-48 -290h-135l81 493h-63zM451 398
l15 95h-219l-15 -95h219z" />
    <glyph glyph-name="hbar" unicode="&#x127;" horiz-adv-x="512" 
d="M61 626h70l13 79q12 2 24 3t22 1q41 0 58.5 -19.5t17.5 -48.5q0 -4 -0.5 -7.5t-0.5 -7.5h175l-15 -88h-174l-21 -127q23 23 54 39.5t78 16.5q45 0 73 -20t39 -51q10 -29 10 -64q0 -18 -2 -35.5t-5 -34.5l-44 -262h-135l44 262q2 11 3 21t1 20q0 23 -10.5 39t-42.5 16
t-56 -27t-31 -69l-44 -262h-135l89 538h-70z" />
    <glyph glyph-name="Itilde" unicode="&#x128;" horiz-adv-x="253" 
d="M166 0h-135l111 670q12 2 24.5 3t22.5 1q41 0 58 -19.5t17 -48.5q0 -6 -0.5 -12t-1.5 -12zM146 774q-15 0 -32 -7.5t-36 -33.5q-23 14 -29.5 25t-6.5 27t9.5 29t25 22.5t34 15t36.5 5.5q24 0 40.5 -5.5t29 -12t23 -12t23.5 -5.5q17 0 31.5 8.5t33.5 34.5q24 -12 30.5 -25
t6.5 -29t-9 -29t-24 -22.5t-33.5 -15t-37.5 -5.5q-24 0 -40 5.5t-28 12t-22.5 12t-24.5 5.5z" />
    <glyph glyph-name="itilde" unicode="&#x129;" horiz-adv-x="246" 
d="M105 473q12 2 24.5 3t22.5 1q41 0 58.5 -19.5t17.5 -48.5q0 -6 -0.5 -12t-1.5 -12l-44 -264q-2 -11 -3 -22.5t-1 -23.5q0 -19 2.5 -38t7.5 -33q-17 -10 -33.5 -14t-35.5 -4q-41 0 -60.5 16t-19.5 59q0 4 0.5 10.5t1.5 11.5zM113 594q-15 0 -32 -7.5t-36 -33.5
q-23 14 -29.5 25t-6.5 27t9.5 29t25 22.5t34 15t36.5 5.5q24 0 40.5 -5.5t29 -12t23 -12t23.5 -5.5q17 0 31.5 8.5t33.5 34.5q24 -12 30.5 -25t6.5 -29t-9 -29t-24 -22.5t-33.5 -15t-37.5 -5.5q-24 0 -40 5.5t-28 12t-22.5 12t-24.5 5.5z" />
    <glyph glyph-name="Imacron" unicode="&#x12a;" horiz-adv-x="253" 
d="M166 0h-135l111 670q12 2 24.5 3t22.5 1q41 0 58 -19.5t17 -48.5q0 -6 -0.5 -12t-1.5 -12zM111 752q-30 0 -42.5 14t-11.5 34q0 8 1.5 19t5.5 21h235q30 0 42.5 -14t11.5 -34q0 -8 -1.5 -19t-5.5 -21h-235z" />
    <glyph glyph-name="imacron" unicode="&#x12b;" horiz-adv-x="246" 
d="M105 473q12 2 24.5 3t22.5 1q41 0 58.5 -19.5t17.5 -48.5q0 -6 -0.5 -12t-1.5 -12l-44 -264q-2 -11 -3 -22.5t-1 -23.5q0 -19 2.5 -38t7.5 -33q-17 -10 -33.5 -14t-35.5 -4q-41 0 -60.5 16t-19.5 59q0 4 0.5 10.5t1.5 11.5zM73 568q-30 0 -42.5 14t-11.5 34q0 8 1.5 19
t5.5 21h235q30 0 42.5 -14t11.5 -34q0 -8 -1.5 -19t-5.5 -21h-235z" />
    <glyph glyph-name="Ibreve" unicode="&#x12c;" horiz-adv-x="253" 
d="M166 0h-135l111 670q12 2 24.5 3t22.5 1q41 0 58 -19.5t17 -48.5q0 -6 -0.5 -12t-1.5 -12zM167 848q4 -20 15 -31.5t31 -11.5q17 0 34.5 9t30.5 36q11 23 21.5 29.5t30.5 6.5q13 0 23 -3.5t24 -12.5q-22 -69 -63.5 -105t-105.5 -36q-67 0 -99 38.5t-28 107.5q10 5 22 8
t20 3q26 0 33 -9t11 -29z" />
    <glyph glyph-name="ibreve" unicode="&#x12d;" horiz-adv-x="246" 
d="M105 473q12 2 24.5 3t22.5 1q41 0 58.5 -19.5t17.5 -48.5q0 -6 -0.5 -12t-1.5 -12l-44 -264q-2 -11 -3 -22.5t-1 -23.5q0 -19 2.5 -38t7.5 -33q-17 -10 -33.5 -14t-35.5 -4q-41 0 -60.5 16t-19.5 59q0 4 0.5 10.5t1.5 11.5zM138 664q4 -24 16.5 -36t30.5 -12
q20 0 35 10.5t29 39.5q11 23 21.5 29.5t30.5 6.5q13 0 24 -3.5t25 -12.5q-24 -73 -64 -109.5t-106 -36.5q-67 0 -99 39t-28 112q10 5 22.5 8t20.5 3q26 0 32.5 -9t9.5 -29z" />
    <glyph glyph-name="Iogonek" unicode="&#x12e;" horiz-adv-x="253" 
d="M77 -150q11 0 21.5 6t20.5 15q10 -11 13.5 -20.5t3.5 -18.5q0 -15 -9 -25.5t-23 -17t-30 -9.5t-31 -3t-30.5 4.5t-28 14.5t-20 25t-7.5 35q0 45 29.5 82t68.5 62h-24l111 670q12 2 24.5 3t22.5 1q41 0 58 -19.5t17 -48.5q0 -6 -0.5 -12t-1.5 -12l-96 -582
q-24 -11 -44.5 -25.5t-36 -30.5t-24 -32.5t-8.5 -31.5q0 -17 8 -23.5t16 -6.5z" />
    <glyph glyph-name="iogonek" unicode="&#x12f;" horiz-adv-x="246" 
d="M108 -150q11 0 22 6t21 15q10 -11 13.5 -20.5t3.5 -18.5q0 -15 -9 -25.5t-23 -17t-30 -9.5t-31 -3t-30.5 4.5t-28 14.5t-20 25t-7.5 35q0 41 28 75t64 59q-21 6 -31.5 22.5t-10.5 48.5q0 4 0.5 10.5t1.5 11.5l64 390q12 2 24.5 3t22.5 1q41 0 58.5 -19.5t17.5 -48.5
q0 -6 -0.5 -12t-1.5 -12l-44 -264q-2 -11 -3 -22.5t-1 -23.5q0 -19 2.5 -38t7.5 -33l-3 -2q-19 -12 -37.5 -27t-32.5 -31t-23 -32.5t-9 -31.5q0 -17 7 -23.5t18 -6.5zM189 556q-32 0 -49 20t-17 43q0 46 24 68t57 22q32 0 49 -20t17 -43q0 -46 -24 -68t-57 -22z" />
    <glyph glyph-name="Idotaccent" unicode="&#x130;" horiz-adv-x="253" 
d="M166 0h-135l111 670q12 2 24.5 3t22.5 1q41 0 58 -19.5t17 -48.5q0 -6 -0.5 -12t-1.5 -12zM218 730q-29 0 -43.5 17.5t-14.5 37.5q0 42 20.5 61t50.5 19q29 0 43.5 -17.5t14.5 -37.5q0 -42 -20.5 -61t-50.5 -19z" />
    <glyph glyph-name="dotlessi" unicode="&#x131;" horiz-adv-x="246" 
d="M105 473q12 2 24.5 3t22.5 1q41 0 58.5 -19.5t17.5 -48.5q0 -6 -0.5 -12t-1.5 -12l-44 -264q-2 -11 -3 -22.5t-1 -23.5q0 -19 2.5 -38t7.5 -33q-17 -10 -33.5 -14t-35.5 -4q-41 0 -60.5 16t-19.5 59q0 4 0.5 10.5t1.5 11.5z" />
    <glyph glyph-name="IJ" unicode="&#x132;" horiz-adv-x="506" 
d="M166 0h-135l111 670q12 2 24.5 3t22.5 1q41 0 58 -19.5t17 -48.5q0 -6 -0.5 -12t-1.5 -12zM213 -201q-36 0 -54 16t-18 54q0 7 1 16.5t3 19.5q31 0 56 5t42 20t28 36t16 52l108 652q12 2 24.5 3t22.5 1q41 0 58 -19.5t17 -48.5q0 -6 -0.5 -12t-1.5 -12l-92 -551
q-10 -51 -25.5 -99t-49.5 -82q-24 -24 -60 -37.5t-75 -13.5z" />
    <glyph glyph-name="ij" unicode="&#x133;" horiz-adv-x="493" 
d="M105 473q12 2 24.5 3t22.5 1q41 0 58.5 -19.5t17.5 -48.5q0 -6 -0.5 -12t-1.5 -12l-44 -264q-2 -11 -3 -22.5t-1 -23.5q0 -19 2.5 -38t7.5 -33q-17 -10 -33.5 -14t-35.5 -4q-41 0 -60.5 16t-19.5 59q0 4 0.5 10.5t1.5 11.5zM189 556q-32 0 -49 20t-17 47q0 42 24 64
t57 22q32 0 49 -20t17 -50q0 -39 -24 -61t-57 -22zM352 473q12 2 24.5 3t22.5 1q41 0 58.5 -19.5t17.5 -48.5q0 -6 -0.5 -12t-1.5 -12l-63 -376q-14 -78 -35.5 -125t-56.5 -77q-20 -17 -48 -27.5t-56 -10.5q-31 0 -53.5 15t-22.5 50q0 7 1 16t3 18h10q29 0 49 7.5t37 25.5
q14 14 21 36t13 57zM436 556q-32 0 -49 20t-17 46q0 43 24 65t57 22q32 0 49 -20t17 -46q0 -43 -24 -65t-57 -22z" />
    <glyph glyph-name="Jcircumflex" unicode="&#x134;" horiz-adv-x="253" 
d="M-40 -201q-36 0 -54 16t-18 54q0 7 1 16.5t3 19.5q31 0 56 5t42 20t28 36t16 52l108 652q12 2 24.5 3t22.5 1q41 0 58 -19.5t17 -48.5q0 -6 -0.5 -12t-1.5 -12l-92 -551q-10 -51 -25.5 -99t-49.5 -82q-24 -24 -60 -37.5t-75 -13.5zM218 796l-56 -52q-12 -11 -25 -15
t-27 -4t-27.5 4.5t-21.5 11.5l102 107q14 14 30 21.5t39 7.5q24 0 37 -8t22 -24l59 -107q-11 -6 -25 -10t-26 -4q-14 0 -26.5 6t-23.5 21z" />
    <glyph glyph-name="jcircumflex" unicode="&#x135;" horiz-adv-x="247" 
d="M106 473q12 2 24.5 3t22.5 1q41 0 58.5 -19.5t17.5 -48.5q0 -6 -0.5 -12t-1.5 -12l-63 -376q-14 -78 -35.5 -125t-56.5 -77q-20 -17 -48 -27.5t-56 -10.5q-31 0 -53.5 15t-22.5 50q0 7 1 16t3 18h10q29 0 49 7.5t37 25.5q14 14 21 36t13 57zM189 623l-67 -65
q-12 -11 -24.5 -15t-23.5 -4q-14 0 -27 4.5t-21 11.5l108 125q25 29 69 29q20 0 35 -6t23 -23l62 -128q-11 -6 -24.5 -10t-25.5 -4q-14 0 -27 5t-22 21z" />
    <glyph glyph-name="Kcommaaccent" unicode="&#x136;" horiz-adv-x="543" 
d="M163 0h-132l111 670q12 2 24 3t22 1q41 0 57 -19.5t16 -48.5q0 -6 -0.5 -12t-1.5 -12l-35 -213q3 10 10.5 21.5t15 21.5t14 17.5t9.5 10.5l160 180q27 30 50.5 42t49.5 12t46 -8.5t30 -21.5l-265 -304l178 -330q-20 -12 -38 -16.5t-37 -4.5q-34 0 -56.5 11t-38.5 38
l-106 193q-11 20 -19.5 40t-11.5 42zM240 -190q-14 -21 -30 -31t-41 -10q-12 0 -24 1.5t-20 6.5l61 123q13 26 32 41t46 15q14 0 31.5 -5t27.5 -10z" />
    <glyph glyph-name="kcommaaccent" unicode="&#x137;" horiz-adv-x="482" 
d="M227 310q17 23 36 43l86 95q18 20 35.5 28t41.5 8q26 0 43.5 -10t32.5 -26l-171 -189l78 -149q9 -17 26 -42.5t43 -42.5q-14 -14 -39.5 -24.5t-54.5 -10.5q-17 0 -31 3t-26 10.5t-23 21t-22 35.5l-53 102q-5 11 -16 33t-13 45l-40 -240h-133l117 705q12 2 24 3t22 1
q40 0 57 -19.5t17 -48.5q0 -6 -0.5 -12t-1.5 -12l-57 -343q6 15 22 36zM214 -190q-14 -21 -30 -31t-41 -10q-12 0 -24 1.5t-20 6.5l61 123q13 26 32 41t46 15q14 0 31.5 -5t27.5 -10z" />
    <glyph glyph-name="kgreenlandic" unicode="&#x138;" horiz-adv-x="482" 
d="M202 258q7 20 22 39.5t36 44.5l89 104q17 20 35 29t42 9q26 0 43.5 -10t32.5 -26l-171 -199l78 -139q11 -20 25.5 -41t43.5 -44q-14 -14 -39.5 -24.5t-54.5 -10.5q-17 0 -30.5 3t-25.5 10.5t-23 21.5t-23 35l-56 96q-6 10 -16 30.5t-12 43.5l-38 -230h-133l78 473
q12 2 24 3t22 1q40 0 57 -19.5t17 -48.5q0 -6 -0.5 -12t-1.5 -12z" />
    <glyph glyph-name="Lacute" unicode="&#x139;" horiz-adv-x="487" 
d="M184 108h177q46 0 65 -16.5t19 -48.5q0 -12 -2 -24.5t-5 -18.5h-407l111 670q12 2 25 3t23 1q41 0 57.5 -19.5t16.5 -48.5q0 -6 -0.5 -12t-1.5 -12zM243 742q-11 -7 -23 -11.5t-29 -4.5q-19 0 -32 11.5t-21 23.5l113 91q11 9 25 16t28 7q24 0 40.5 -16.5t24.5 -36.5z" />
    <glyph glyph-name="lacute" unicode="&#x13a;" horiz-adv-x="248" 
d="M144 705q12 2 24.5 3t22.5 1q41 0 58 -19.5t17 -48.5q0 -6 -0.5 -12t-1.5 -12l-82 -496q-2 -11 -3 -22.5t-1 -23.5q0 -19 2.5 -38t7.5 -33q-17 -10 -33.5 -14t-35.5 -4q-41 0 -60.5 16t-19.5 59q0 4 0.5 10.5t1.5 11.5zM233 772q-11 -7 -23 -11.5t-29 -4.5
q-19 0 -32 11.5t-21 23.5l113 91q11 9 25 16t28 7q24 0 40.5 -16.5t24.5 -36.5z" />
    <glyph glyph-name="Lcommaaccent" unicode="&#x13b;" horiz-adv-x="487" 
d="M184 108h177q46 0 65 -16.5t19 -48.5q0 -12 -2 -24.5t-5 -18.5h-407l111 670q12 2 25 3t23 1q41 0 57.5 -19.5t16.5 -48.5q0 -6 -0.5 -12t-1.5 -12zM209 -190q-14 -21 -30 -31t-41 -10q-12 0 -24 1.5t-20 6.5l61 123q13 26 32 41t46 15q14 0 31.5 -5t27.5 -10z" />
    <glyph glyph-name="lcommaaccent" unicode="&#x13c;" horiz-adv-x="248" 
d="M144 705q12 2 24.5 3t22.5 1q41 0 58 -19.5t17 -48.5q0 -6 -0.5 -12t-1.5 -12l-82 -496q-2 -11 -3 -22.5t-1 -23.5q0 -19 2.5 -38t7.5 -33q-17 -10 -33.5 -14t-35.5 -4q-41 0 -60.5 16t-19.5 59q0 4 0.5 10.5t1.5 11.5zM71 -190q-14 -21 -30 -31t-41 -10q-12 0 -24 1.5
t-20 6.5l61 123q13 26 32 41t46 15q14 0 31.5 -5t27.5 -10z" />
    <glyph glyph-name="Lcaron" unicode="&#x13d;" horiz-adv-x="487" 
d="M184 108h177q46 0 65 -16.5t19 -48.5q0 -12 -2 -24.5t-5 -18.5h-407l111 670q12 2 25 3t23 1q41 0 57.5 -19.5t16.5 -48.5q0 -6 -0.5 -12t-1.5 -12zM452 510q-16 -62 -76 -62h-13t-15 2l23 140q6 38 24.5 60t57.5 22q23 0 38 -3z" />
    <glyph glyph-name="lcaron" unicode="&#x13e;" horiz-adv-x="351" 
d="M144 705q12 2 24.5 3t22.5 1q41 0 58 -19.5t17 -48.5q0 -6 -0.5 -12t-1.5 -12l-82 -496q-2 -11 -3 -22.5t-1 -23.5q0 -19 2.5 -38t7.5 -33q-17 -10 -33.5 -14t-35.5 -4q-41 0 -60.5 16t-19.5 59q0 4 0.5 10.5t1.5 11.5zM412 547q-16 -62 -76 -62h-13t-15 2l23 140
q6 38 24.5 60t57.5 22q23 0 38 -3z" />
    <glyph glyph-name="Ldot" unicode="&#x13f;" horiz-adv-x="487" 
d="M184 108h177q46 0 65 -16.5t19 -48.5q0 -12 -2 -24.5t-5 -18.5h-407l111 670q12 2 25 3t23 1q41 0 57.5 -19.5t16.5 -48.5q0 -6 -0.5 -12t-1.5 -12zM390 293q-29 0 -43.5 17.5t-14.5 37.5q0 42 20.5 61t50.5 19q29 0 43.5 -17.5t14.5 -37.5q0 -42 -20.5 -61t-50.5 -19z
" />
    <glyph glyph-name="ldot" unicode="&#x140;" horiz-adv-x="403" 
d="M144 705q12 2 24.5 3t22.5 1q41 0 58 -19.5t17 -48.5q0 -6 -0.5 -12t-1.5 -12l-82 -496q-2 -11 -3 -22.5t-1 -23.5q0 -19 2.5 -38t7.5 -33q-17 -10 -33.5 -14t-35.5 -4q-41 0 -60.5 16t-19.5 59q0 4 0.5 10.5t1.5 11.5zM337 250q-32 0 -49 20t-17 43q0 46 24 68t57 22
q32 0 49 -20t17 -43q0 -46 -24 -68t-57 -22z" />
    <glyph glyph-name="Lslash" unicode="&#x141;" horiz-adv-x="503" 
d="M25 226l-29 83l110 45l52 316q12 2 25 3t23 1q41 0 57.5 -19.5t16.5 -48.5q0 -6 -0.5 -12t-1.5 -12l-28 -168l127 52l28 -83l-172 -71l-33 -204h177q46 0 65 -16.5t19 -48.5q0 -12 -2 -24.5t-5 -18.5h-407l42 252z" />
    <glyph glyph-name="lslash" unicode="&#x142;" horiz-adv-x="356" 
d="M63 236l-31 85l116 50l56 334q12 2 24.5 3t22.5 1q41 0 58 -19.5t17 -48.5q0 -6 -0.5 -12t-1.5 -12l-31 -184l68 29l30 -85l-115 -49l-34 -207q-2 -11 -3 -22.5t-1 -23.5q0 -19 2.5 -38t7.5 -33q-17 -10 -33.5 -14t-35.5 -4q-41 0 -60.5 16t-19.5 59q0 4 0.5 10.5
t1.5 11.5l30 182z" />
    <glyph glyph-name="Nacute" unicode="&#x143;" horiz-adv-x="605" 
d="M504 670q11 2 22 3t20 1q39 0 54.5 -19.5t15.5 -48.5q0 -6 -0.5 -12t-1.5 -12l-96 -582h-112l-179 443l-72 -443h-124l110 667q11 2 25.5 4.5t31.5 2.5q35 0 52 -16.5t29 -45.5l151 -384zM418 742q-11 -7 -23 -11.5t-29 -4.5q-19 0 -32 11.5t-21 23.5l113 91q11 9 25 16
t28 7q24 0 40.5 -16.5t24.5 -36.5z" />
    <glyph glyph-name="nacute" unicode="&#x144;" horiz-adv-x="512" 
d="M162 0h-135l78 473q23 4 50 4q28 0 45 -12t26 -41q23 25 56 44t83 19q45 0 73 -20t39 -51q10 -29 10 -64q0 -18 -2 -35.5t-5 -34.5l-47 -282h-135l47 282q2 11 3 21t1 20q0 23 -10.5 39t-42.5 16t-56 -27t-31 -69zM362 564q-12 -12 -27 -19t-32 -7q-14 0 -31 6t-25 14
l91 115q15 20 30.5 29.5t41.5 9.5q18 0 37.5 -11t29.5 -23z" />
    <glyph glyph-name="Ncommaaccent" unicode="&#x145;" horiz-adv-x="605" 
d="M504 670q11 2 22 3t20 1q39 0 54.5 -19.5t15.5 -48.5q0 -6 -0.5 -12t-1.5 -12l-96 -582h-112l-179 443l-72 -443h-124l110 667q11 2 25.5 4.5t31.5 2.5q35 0 52 -16.5t29 -45.5l151 -384zM256 -190q-14 -21 -30 -31t-41 -10q-12 0 -24 1.5t-20 6.5l61 123q13 26 32 41
t46 15q14 0 31.5 -5t27.5 -10z" />
    <glyph glyph-name="ncommaaccent" unicode="&#x146;" horiz-adv-x="512" 
d="M162 0h-135l78 473q23 4 50 4q28 0 45 -12t26 -41q23 25 56 44t83 19q45 0 73 -20t39 -51q10 -29 10 -64q0 -18 -2 -35.5t-5 -34.5l-47 -282h-135l47 282q2 11 3 21t1 20q0 23 -10.5 39t-42.5 16t-56 -27t-31 -69zM209 -190q-14 -21 -30 -31t-41 -10q-12 0 -24 1.5
t-20 6.5l61 123q13 26 32 41t46 15q14 0 31.5 -5t27.5 -10z" />
    <glyph glyph-name="Ncaron" unicode="&#x147;" horiz-adv-x="605" 
d="M504 670q11 2 22 3t20 1q39 0 54.5 -19.5t15.5 -48.5q0 -6 -0.5 -12t-1.5 -12l-96 -582h-112l-179 443l-72 -443h-124l110 667q11 2 25.5 4.5t31.5 2.5q35 0 52 -16.5t29 -45.5l151 -384zM393 805l56 52q13 11 26.5 15t27.5 4t27.5 -4.5t21.5 -11.5l-102 -107
q-14 -14 -30 -21.5t-39 -7.5q-24 0 -37 8t-22 24l-59 107q11 6 25 10t26 4q14 0 25.5 -6t22.5 -21z" />
    <glyph glyph-name="ncaron" unicode="&#x148;" horiz-adv-x="512" 
d="M162 0h-135l78 473q23 4 50 4q28 0 45 -12t26 -41q23 25 56 44t83 19q45 0 73 -20t39 -51q10 -29 10 -64q0 -18 -2 -35.5t-5 -34.5l-47 -282h-135l47 282q2 11 3 21t1 20q0 23 -10.5 39t-42.5 16t-56 -27t-31 -69zM328 624l67 65q12 11 25.5 15t24.5 4q14 0 27 -4.5
t21 -11.5l-108 -125q-25 -29 -69 -29q-20 0 -35 6t-23 23l-62 128q11 6 24.5 10t25.5 4q14 0 26 -5t21 -21z" />
    <glyph glyph-name="napostrophe" unicode="&#x149;" horiz-adv-x="512" 
d="M162 0h-135l78 473q23 4 50 4q28 0 45 -12t26 -41q23 25 56 44t83 19q45 0 73 -20t39 -51q10 -29 10 -64q0 -18 -2 -35.5t-5 -34.5l-47 -282h-135l47 282q2 11 3 21t1 20q0 23 -10.5 39t-42.5 16t-56 -27t-31 -69zM201 718q24 0 38.5 -16t14.5 -44q0 -23 -9.5 -48
t-25.5 -45.5t-36.5 -34t-42.5 -13.5q-13 0 -22.5 6t-11.5 19q19 9 36.5 24t25.5 43q-11 8 -18.5 18t-7.5 30q0 29 17.5 45t41.5 16z" />
    <glyph glyph-name="Eng" unicode="&#x14a;" horiz-adv-x="605" 
d="M313 -201q-36 0 -54 16t-18 54q0 7 1 16.5t3 19.5q31 0 57.5 5t43.5 20t28 36t16 52l2 16l-165 409l-72 -443h-124l110 667q11 2 25.5 4.5t31.5 2.5q35 0 52 -16.5t29 -45.5l151 -384l74 442q11 2 22 3t20 1q39 0 54.5 -19.5t15.5 -48.5q0 -6 -0.5 -12t-1.5 -12l-92 -557
q-4 -23 -10 -47t-15 -47.5t-21.5 -44.5t-27.5 -36q-24 -24 -60 -37.5t-75 -13.5z" />
    <glyph glyph-name="eng" unicode="&#x14b;" horiz-adv-x="512" 
d="M435 11q-12 -73 -36 -124t-57 -80q-20 -17 -48 -27.5t-56 -10.5q-31 0 -53.5 15t-22.5 50q0 7 1 16t3 18h10q29 0 49 7.5t37 25.5q14 14 21.5 36t13.5 57l48 288q2 11 3 21t1 20q0 23 -10.5 39t-42.5 16t-56 -27t-31 -69l-47 -282h-135l78 473q23 4 50 4q28 0 45 -12
t26 -41q23 25 56 44t83 19q45 0 73 -20t39 -51q10 -29 10 -64q0 -18 -2 -35.5t-5 -34.5z" />
    <glyph glyph-name="Omacron" unicode="&#x14c;" horiz-adv-x="655" 
d="M408 683q64 0 108.5 -22t72.5 -58.5t41 -85t13 -101.5q0 -77 -20 -154t-61.5 -139t-105 -101t-151.5 -39q-65 0 -110.5 22t-74.5 58.5t-42 85t-13 101.5q0 76 20.5 153.5t63 139.5t107 101t152.5 39zM317 95q36 0 69 23.5t59 67t41.5 105.5t15.5 139q0 62 -26.5 102
t-82.5 40q-39 0 -73.5 -23t-60 -66.5t-40 -105.5t-14.5 -141q0 -63 26.5 -102t85.5 -39zM327 752q-30 0 -42.5 14t-11.5 34q0 8 1.5 19t5.5 21h235q30 0 42.5 -14t11.5 -34q0 -8 -1.5 -19t-5.5 -21h-235z" />
    <glyph glyph-name="omacron" unicode="&#x14d;" horiz-adv-x="515" 
d="M232 -15q-53 0 -88.5 16.5t-57 44t-31 63.5t-9.5 75q0 61 17 116.5t50 96.5t81.5 65.5t111.5 24.5q51 0 86.5 -16.5t57.5 -44t32 -63.5t10 -75q0 -59 -15.5 -114t-47.5 -97t-81 -67t-116 -25zM179 178q0 -46 18.5 -68.5t46.5 -22.5q23 0 44 13.5t36.5 39.5t24.5 64.5
t9 88.5q0 46 -18.5 68.5t-46.5 22.5q-23 0 -44 -13.5t-36.5 -39.5t-24.5 -64.5t-9 -88.5zM222 568q-30 0 -42.5 14t-11.5 34q0 8 1.5 19t5.5 21h235q30 0 42.5 -14t11.5 -34q0 -8 -1.5 -19t-5.5 -21h-235z" />
    <glyph glyph-name="Obreve" unicode="&#x14e;" horiz-adv-x="655" 
d="M408 683q64 0 108.5 -22t72.5 -58.5t41 -85t13 -101.5q0 -77 -20 -154t-61.5 -139t-105 -101t-151.5 -39q-65 0 -110.5 22t-74.5 58.5t-42 85t-13 101.5q0 76 20.5 153.5t63 139.5t107 101t152.5 39zM317 95q36 0 69 23.5t59 67t41.5 105.5t15.5 139q0 62 -26.5 102
t-82.5 40q-39 0 -73.5 -23t-60 -66.5t-40 -105.5t-14.5 -141q0 -63 26.5 -102t85.5 -39zM379 848q4 -20 15 -31.5t31 -11.5q17 0 34.5 9t30.5 36q11 23 21.5 29.5t30.5 6.5q13 0 23 -3.5t24 -12.5q-22 -69 -63.5 -105t-105.5 -36q-67 0 -99 38.5t-28 107.5q10 5 22 8t20 3
q26 0 33 -9t11 -29z" />
    <glyph glyph-name="obreve" unicode="&#x14f;" horiz-adv-x="515" 
d="M232 -15q-53 0 -88.5 16.5t-57 44t-31 63.5t-9.5 75q0 61 17 116.5t50 96.5t81.5 65.5t111.5 24.5q51 0 86.5 -16.5t57.5 -44t32 -63.5t10 -75q0 -59 -15.5 -114t-47.5 -97t-81 -67t-116 -25zM179 178q0 -46 18.5 -68.5t46.5 -22.5q23 0 44 13.5t36.5 39.5t24.5 64.5
t9 88.5q0 46 -18.5 68.5t-46.5 22.5q-23 0 -44 -13.5t-36.5 -39.5t-24.5 -64.5t-9 -88.5zM277 664q4 -24 16.5 -36t30.5 -12q20 0 35 10.5t29 39.5q11 23 21.5 29.5t30.5 6.5q13 0 24 -3.5t25 -12.5q-24 -73 -64 -109.5t-106 -36.5q-67 0 -99 39t-28 112q10 5 22.5 8t20.5 3
q26 0 32.5 -9t9.5 -29z" />
    <glyph glyph-name="Ohungarumlaut" unicode="&#x150;" horiz-adv-x="655" 
d="M408 683q64 0 108.5 -22t72.5 -58.5t41 -85t13 -101.5q0 -77 -20 -154t-61.5 -139t-105 -101t-151.5 -39q-65 0 -110.5 22t-74.5 58.5t-42 85t-13 101.5q0 76 20.5 153.5t63 139.5t107 101t152.5 39zM317 95q36 0 69 23.5t59 67t41.5 105.5t15.5 139q0 62 -26.5 102
t-82.5 40q-39 0 -73.5 -23t-60 -66.5t-40 -105.5t-14.5 -141q0 -63 26.5 -102t85.5 -39zM354 742q-11 -8 -21.5 -12t-27.5 -4q-19 0 -30.5 10.5t-19.5 22.5l105 91q11 10 25 17.5t28 7.5q24 0 38.5 -16.5t22.5 -36.5zM553 742q-11 -8 -21.5 -12t-27.5 -4q-19 0 -30.5 10.5
t-19.5 22.5l105 91q11 10 25 17.5t28 7.5q24 0 38.5 -16.5t22.5 -36.5z" />
    <glyph glyph-name="ohungarumlaut" unicode="&#x151;" horiz-adv-x="515" 
d="M232 -15q-53 0 -88.5 16.5t-57 44t-31 63.5t-9.5 75q0 61 17 116.5t50 96.5t81.5 65.5t111.5 24.5q51 0 86.5 -16.5t57.5 -44t32 -63.5t10 -75q0 -59 -15.5 -114t-47.5 -97t-81 -67t-116 -25zM179 178q0 -46 18.5 -68.5t46.5 -22.5q23 0 44 13.5t36.5 39.5t24.5 64.5
t9 88.5q0 46 -18.5 68.5t-46.5 22.5q-23 0 -44 -13.5t-36.5 -39.5t-24.5 -64.5t-9 -88.5zM272 564q-12 -12 -26 -19t-29 -7q-14 0 -29 6t-23 14l87 115q14 20 30 29.5t38 9.5q18 0 35 -11t27 -23zM458 564q-12 -12 -26 -19t-29 -7q-14 0 -29 6t-23 14l87 115q14 20 30 29.5
t38 9.5q18 0 35 -11t27 -23z" />
    <glyph glyph-name="OE" unicode="&#x152;" horiz-adv-x="832" 
d="M705 107q46 0 65 -16.5t19 -48.5q0 -12 -2 -24t-5 -18h-477q-65 0 -110.5 19.5t-74.5 54t-42 80.5t-13 99q0 80 20.5 155.5t63 133.5t107 93t152.5 35h466q-1 -30 -6 -50.5t-16.5 -33t-29.5 -18t-45 -5.5h-168l-27 -165h189l-18 -107h-189l-30 -184h171zM205 239
q0 -27 7.5 -51t21.5 -42t34.5 -28.5t46.5 -10.5h83l76 456h-77q-36 0 -70.5 -19.5t-61.5 -60t-43.5 -101.5t-16.5 -143z" />
    <glyph glyph-name="oe" unicode="&#x153;" horiz-adv-x="787" 
d="M682 150q51 -26 51 -63q0 -21 -12 -36t-26 -25q-22 -15 -56.5 -28t-91.5 -13q-59 0 -93.5 19t-57.5 49q-29 -30 -67 -49t-97 -19q-53 0 -88.5 16.5t-57 44t-31 63.5t-9.5 75q0 61 17 116.5t50 96.5t81.5 65.5t111.5 24.5q59 0 90.5 -20t52.5 -51q31 32 74.5 51.5
t103.5 19.5q35 0 62 -10t45.5 -27t28 -40t9.5 -50q0 -56 -25 -90.5t-63 -54.5t-83 -27t-85 -7h-18t-16 1v-6q0 -23 7.5 -40t19 -28t26 -16.5t28.5 -5.5q41 0 70 19t49 45zM179 178q0 -46 18.5 -68.5t46.5 -22.5q23 0 44 13.5t36.5 39.5t24.5 64.5t9 88.5q0 46 -18.5 68.5
t-46.5 22.5q-23 0 -44 -13.5t-36.5 -39.5t-24.5 -64.5t-9 -88.5zM521 261q23 0 46 5t42 15.5t30.5 26t11.5 36.5q0 17 -10 29.5t-35 12.5q-43 0 -72 -33.5t-43 -90.5q9 -1 15.5 -1h14.5z" />
    <glyph glyph-name="Racute" unicode="&#x154;" horiz-adv-x="544" 
d="M205 256l-42 -256h-132l110 666q45 5 87 7.5t81 2.5q63 0 108 -13.5t73.5 -37.5t41.5 -56.5t13 -69.5q0 -91 -40.5 -145.5t-113.5 -77.5l108 -266q-20 -11 -38.5 -16t-40.5 -5q-38 0 -55.5 15.5t-32.5 53.5l-77 198h-50zM402 490q0 38 -29 60.5t-72 22.5
q-14 0 -25.5 -0.5t-18.5 -1.5l-35 -211h40q31 0 57 6.5t44.5 21.5t28.5 40t10 62zM349 742q-11 -7 -23 -11.5t-29 -4.5q-19 0 -32 11.5t-21 23.5l113 91q11 9 25 16t28 7q24 0 40.5 -16.5t24.5 -36.5z" />
    <glyph glyph-name="racute" unicode="&#x155;" horiz-adv-x="407" 
d="M356 321q-14 52 -62 52q-29 0 -53.5 -24t-32.5 -73l-46 -276h-135l78 473q23 4 50 4q60 0 72 -58q23 25 53 45t74 20q23 0 38 -6.5t23.5 -16.5t12 -22.5t3.5 -24.5q0 -35 -20 -56.5t-55 -36.5zM330 564q-12 -12 -27 -19t-32 -7q-14 0 -31 6t-25 14l91 115
q15 20 30.5 29.5t41.5 9.5q18 0 37.5 -11t29.5 -23z" />
    <glyph glyph-name="Rcommaaccent" unicode="&#x156;" horiz-adv-x="544" 
d="M205 256l-42 -256h-132l110 666q45 5 87 7.5t81 2.5q63 0 108 -13.5t73.5 -37.5t41.5 -56.5t13 -69.5q0 -91 -40.5 -145.5t-113.5 -77.5l108 -266q-20 -11 -38.5 -16t-40.5 -5q-38 0 -55.5 15.5t-32.5 53.5l-77 198h-50zM402 490q0 38 -29 60.5t-72 22.5
q-14 0 -25.5 -0.5t-18.5 -1.5l-35 -211h40q31 0 57 6.5t44.5 21.5t28.5 40t10 62zM226 -190q-14 -21 -30 -31t-41 -10q-12 0 -24 1.5t-20 6.5l61 123q13 26 32 41t46 15q14 0 31.5 -5t27.5 -10z" />
    <glyph glyph-name="rcommaaccent" unicode="&#x157;" horiz-adv-x="407" 
d="M356 321q-14 52 -62 52q-29 0 -53.5 -24t-32.5 -73l-46 -276h-135l78 473q23 4 50 4q60 0 72 -58q23 25 53 45t74 20q23 0 38 -6.5t23.5 -16.5t12 -22.5t3.5 -24.5q0 -35 -20 -56.5t-55 -36.5zM67 -190q-14 -21 -30 -31t-41 -10q-12 0 -24 1.5t-20 6.5l61 123
q13 26 32 41t46 15q14 0 31.5 -5t27.5 -10z" />
    <glyph glyph-name="Rcaron" unicode="&#x158;" horiz-adv-x="544" 
d="M205 256l-42 -256h-132l110 666q45 5 87 7.5t81 2.5q63 0 108 -13.5t73.5 -37.5t41.5 -56.5t13 -69.5q0 -91 -40.5 -145.5t-113.5 -77.5l108 -266q-20 -11 -38.5 -16t-40.5 -5q-38 0 -55.5 15.5t-32.5 53.5l-77 198h-50zM402 490q0 38 -29 60.5t-72 22.5
q-14 0 -25.5 -0.5t-18.5 -1.5l-35 -211h40q31 0 57 6.5t44.5 21.5t28.5 40t10 62zM335 805l56 52q13 11 26.5 15t27.5 4t27.5 -4.5t21.5 -11.5l-102 -107q-14 -14 -30 -21.5t-39 -7.5q-24 0 -37 8t-22 24l-59 107q11 6 25 10t26 4q14 0 25.5 -6t22.5 -21z" />
    <glyph glyph-name="rcaron" unicode="&#x159;" horiz-adv-x="407" 
d="M356 321q-14 52 -62 52q-29 0 -53.5 -24t-32.5 -73l-46 -276h-135l78 473q23 4 50 4q60 0 72 -58q23 25 53 45t74 20q23 0 38 -6.5t23.5 -16.5t12 -22.5t3.5 -24.5q0 -35 -20 -56.5t-55 -36.5zM271 624l67 65q12 11 25.5 15t24.5 4q14 0 27 -4.5t21 -11.5l-108 -125
q-25 -29 -69 -29q-20 0 -35 6t-23 23l-62 128q11 6 24.5 10t25.5 4q14 0 26 -5t21 -21z" />
    <glyph glyph-name="Sacute" unicode="&#x15a;" horiz-adv-x="512" 
d="M234 96q25 0 43.5 7.5t30.5 19.5t17.5 27t5.5 30q0 17 -5 30.5t-17 27t-32 27.5t-51 31q-67 37 -101 81.5t-34 113.5q0 45 17.5 80.5t48.5 60.5t73 38t91 13q31 0 56.5 -5t46 -12.5t35 -16.5t23.5 -16q25 -21 25 -49q0 -26 -17 -48.5t-42 -33.5q-27 31 -59 48.5t-77 17.5
q-38 0 -60.5 -19.5t-22.5 -46.5q0 -38 26 -61.5t70 -48.5q43 -25 72 -48t46.5 -46.5t24.5 -48.5t7 -55q0 -51 -17.5 -90.5t-49.5 -66.5t-76 -40.5t-97 -13.5q-66 0 -109.5 12t-69.5 31q-18 13 -26.5 26t-8.5 32q0 25 15.5 46.5t36.5 35.5q34 -34 71.5 -52t89.5 -18zM345 742
q-11 -7 -23 -11.5t-29 -4.5q-19 0 -32 11.5t-21 23.5l113 91q11 9 25 16t28 7q24 0 40.5 -16.5t24.5 -36.5z" />
    <glyph glyph-name="sacute" unicode="&#x15b;" horiz-adv-x="405" 
d="M189 -15q-56 0 -87 8.5t-56 24.5q-17 11 -26.5 24t-9.5 27q0 24 12 40.5t32 30.5q29 -28 55 -40t55 -12q34 0 47.5 13.5t13.5 33.5q0 21 -22 39.5t-49 37.5q-16 11 -31.5 23t-27.5 27t-19.5 35t-7.5 46q0 24 10 49.5t33 46.5t59.5 34.5t90.5 13.5q16 0 34.5 -3.5
t36.5 -9.5t33.5 -15t25.5 -21q15 -18 15 -39t-15.5 -38t-39.5 -25q-18 28 -45 42t-50 14q-25 0 -39.5 -9t-14.5 -32q0 -12 8 -22.5t21.5 -21t31 -23t36.5 -27.5q35 -29 50 -58t15 -64q0 -28 -10 -55t-31 -48t-54 -34t-80 -13zM314 564q-12 -12 -27 -19t-32 -7q-14 0 -31 6
t-25 14l91 115q15 20 30.5 29.5t41.5 9.5q18 0 37.5 -11t29.5 -23z" />
    <glyph glyph-name="Scircumflex" unicode="&#x15c;" horiz-adv-x="512" 
d="M234 96q25 0 43.5 7.5t30.5 19.5t17.5 27t5.5 30q0 17 -5 30.5t-17 27t-32 27.5t-51 31q-67 37 -101 81.5t-34 113.5q0 45 17.5 80.5t48.5 60.5t73 38t91 13q31 0 56.5 -5t46 -12.5t35 -16.5t23.5 -16q25 -21 25 -49q0 -26 -17 -48.5t-42 -33.5q-27 31 -59 48.5t-77 17.5
q-38 0 -60.5 -19.5t-22.5 -46.5q0 -38 26 -61.5t70 -48.5q43 -25 72 -48t46.5 -46.5t24.5 -48.5t7 -55q0 -51 -17.5 -90.5t-49.5 -66.5t-76 -40.5t-97 -13.5q-66 0 -109.5 12t-69.5 31q-18 13 -26.5 26t-8.5 32q0 25 15.5 46.5t36.5 35.5q34 -34 71.5 -52t89.5 -18zM341 796
l-56 -52q-12 -11 -25 -15t-27 -4t-27.5 4.5t-21.5 11.5l102 107q14 14 30 21.5t39 7.5q24 0 37 -8t22 -24l59 -107q-11 -6 -25 -10t-26 -4q-14 0 -26.5 6t-23.5 21z" />
    <glyph glyph-name="scircumflex" unicode="&#x15d;" horiz-adv-x="405" 
d="M189 -15q-56 0 -87 8.5t-56 24.5q-17 11 -26.5 24t-9.5 27q0 24 12 40.5t32 30.5q29 -28 55 -40t55 -12q34 0 47.5 13.5t13.5 33.5q0 21 -22 39.5t-49 37.5q-16 11 -31.5 23t-27.5 27t-19.5 35t-7.5 46q0 24 10 49.5t33 46.5t59.5 34.5t90.5 13.5q16 0 34.5 -3.5
t36.5 -9.5t33.5 -15t25.5 -21q15 -18 15 -39t-15.5 -38t-39.5 -25q-18 28 -45 42t-50 14q-25 0 -39.5 -9t-14.5 -32q0 -12 8 -22.5t21.5 -21t31 -23t36.5 -27.5q35 -29 50 -58t15 -64q0 -28 -10 -55t-31 -48t-54 -34t-80 -13zM277 623l-67 -65q-12 -11 -24.5 -15t-23.5 -4
q-14 0 -27 4.5t-21 11.5l108 125q25 29 69 29q20 0 35 -6t23 -23l62 -128q-11 -6 -24.5 -10t-25.5 -4q-14 0 -27 5t-22 21z" />
    <glyph glyph-name="Scedilla" unicode="&#x15e;" horiz-adv-x="512" 
d="M173 -227q-27 0 -38.5 12t-11.5 28q0 18 13 36q9 -5 18.5 -6t17.5 -1q16 0 23.5 8.5t7.5 19.5q0 9 -4 16t-8.5 13.5t-8 14t-3.5 17.5q0 14 6 28t14 25q-51 3 -85.5 14t-57.5 28q-18 13 -26.5 26t-8.5 32q0 25 15.5 46.5t36.5 35.5q34 -34 71.5 -52t89.5 -18
q25 0 43.5 7.5t30.5 19.5t17.5 27t5.5 30q0 17 -5 30.5t-17 27t-32 27.5t-51 31q-67 37 -101 81.5t-34 113.5q0 45 17.5 80.5t48.5 60.5t73 38t91 13q31 0 56.5 -5t46 -12.5t35 -16.5t23.5 -16q25 -21 25 -49q0 -26 -17 -48.5t-42 -33.5q-27 31 -59 48.5t-77 17.5
q-38 0 -60.5 -19.5t-22.5 -46.5q0 -38 26 -61.5t70 -48.5q43 -25 72 -48t46.5 -46.5t24.5 -48.5t7 -55q0 -47 -15 -84t-42 -63.5t-65 -42t-84 -19.5q-15 -17 -15 -35q0 -9 5.5 -16t12 -15.5t12 -20t5.5 -28.5q0 -26 -10.5 -44.5t-27 -30t-37 -17t-41.5 -5.5z" />
    <glyph glyph-name="scedilla" unicode="&#x15f;" horiz-adv-x="405" 
d="M117 -227q-27 0 -38.5 12t-11.5 28q0 18 13 36q9 -5 18.5 -6t17.5 -1q16 0 23.5 8.5t7.5 19.5q0 9 -4 16t-8.5 13.5t-8 14t-3.5 17.5q0 16 6.5 30t15.5 26q-35 3 -57 10.5t-42 20.5q-17 11 -26.5 24t-9.5 27q0 24 12 40.5t32 30.5q29 -28 55 -40t55 -12q34 0 47.5 13.5
t13.5 33.5q0 21 -22 39.5t-49 37.5q-16 11 -31.5 23t-27.5 27t-19.5 35t-7.5 46q0 24 10 49.5t33 46.5t59.5 34.5t90.5 13.5q16 0 34.5 -3.5t36.5 -9.5t33.5 -15t25.5 -21q15 -18 15 -39t-15.5 -38t-39.5 -25q-18 28 -45 42t-50 14q-25 0 -39.5 -9t-14.5 -32q0 -12 8 -22.5
t21.5 -21t31 -23t36.5 -27.5q35 -29 50 -58t15 -64q0 -26 -8.5 -51.5t-26.5 -45.5t-46.5 -34t-68.5 -18q-7 -8 -11.5 -16.5t-4.5 -19.5q0 -9 5.5 -16t12 -15.5t12 -20t5.5 -28.5q0 -26 -10.5 -44.5t-27 -30t-37 -17t-41.5 -5.5z" />
    <glyph glyph-name="Scaron" unicode="&#x160;" horiz-adv-x="512" 
d="M234 96q25 0 43.5 7.5t30.5 19.5t17.5 27t5.5 30q0 17 -5 30.5t-17 27t-32 27.5t-51 31q-67 37 -101 81.5t-34 113.5q0 45 17.5 80.5t48.5 60.5t73 38t91 13q31 0 56.5 -5t46 -12.5t35 -16.5t23.5 -16q25 -21 25 -49q0 -26 -17 -48.5t-42 -33.5q-27 31 -59 48.5t-77 17.5
q-38 0 -60.5 -19.5t-22.5 -46.5q0 -38 26 -61.5t70 -48.5q43 -25 72 -48t46.5 -46.5t24.5 -48.5t7 -55q0 -51 -17.5 -90.5t-49.5 -66.5t-76 -40.5t-97 -13.5q-66 0 -109.5 12t-69.5 31q-18 13 -26.5 26t-8.5 32q0 25 15.5 46.5t36.5 35.5q34 -34 71.5 -52t89.5 -18zM329 805
l56 52q13 11 26.5 15t27.5 4t27.5 -4.5t21.5 -11.5l-102 -107q-14 -14 -30 -21.5t-39 -7.5q-24 0 -37 8t-22 24l-59 107q11 6 25 10t26 4q14 0 25.5 -6t22.5 -21z" />
    <glyph glyph-name="scaron" unicode="&#x161;" horiz-adv-x="405" 
d="M189 -15q-56 0 -87 8.5t-56 24.5q-17 11 -26.5 24t-9.5 27q0 24 12 40.5t32 30.5q29 -28 55 -40t55 -12q34 0 47.5 13.5t13.5 33.5q0 21 -22 39.5t-49 37.5q-16 11 -31.5 23t-27.5 27t-19.5 35t-7.5 46q0 24 10 49.5t33 46.5t59.5 34.5t90.5 13.5q16 0 34.5 -3.5
t36.5 -9.5t33.5 -15t25.5 -21q15 -18 15 -39t-15.5 -38t-39.5 -25q-18 28 -45 42t-50 14q-25 0 -39.5 -9t-14.5 -32q0 -12 8 -22.5t21.5 -21t31 -23t36.5 -27.5q35 -29 50 -58t15 -64q0 -28 -10 -55t-31 -48t-54 -34t-80 -13zM276 624l67 65q12 11 25.5 15t24.5 4
q14 0 27 -4.5t21 -11.5l-108 -125q-25 -29 -69 -29q-20 0 -35 6t-23 23l-62 128q11 6 24.5 10t25.5 4q14 0 26 -5t21 -21z" />
    <glyph glyph-name="uni0162" unicode="&#x162;" horiz-adv-x="540" 
d="M195 -227q-27 0 -38.5 12t-11.5 28q0 18 13 36q9 -5 18.5 -6t17.5 -1q16 0 23.5 8.5t7.5 19.5q0 9 -4 16t-8.5 13.5t-8 14t-3.5 17.5q0 21 12 40q11 18 23 29h-62l92 558h-191q1 64 23 88t79 24h429q-1 -32 -6 -53.5t-17 -34.5t-31.5 -18.5t-47.5 -5.5h-103l-92 -558
q-12 -9 -22 -20q-11 -13 -11 -30q0 -9 5.5 -16t12 -15.5t12 -20t5.5 -28.5q0 -26 -10.5 -44.5t-27 -30t-37 -17t-41.5 -5.5z" />
    <glyph glyph-name="uni0163" unicode="&#x163;" horiz-adv-x="374" 
d="M109 -227q-27 0 -38.5 12t-11.5 28q0 18 13 36q9 -5 18.5 -6t17.5 -1q16 0 23.5 8.5t7.5 19.5q0 9 -4 16t-8.5 13.5t-8 14t-3.5 17.5q0 21 12 40q7 11 14 20q-37 9 -59 33q-37 39 -37 108q0 12 1.5 25t3.5 27l73 438q12 2 24 3t22 1q41 0 58.5 -19.5t17.5 -48.5
q0 -6 -0.5 -12t-1.5 -12l-9 -58h128l-17 -103h-128l-32 -196q-2 -10 -3 -18.5t-1 -16.5q0 -52 46 -52q23 0 40 14t31 33q26 -11 37 -26.5t11 -32.5q0 -15 -8 -30.5t-26 -29.5q-24 -18 -53 -25q-25 -7 -54 -8q-2 -2 -4 -5q-11 -13 -11 -30q0 -9 5.5 -16t12 -15.5t12 -20
t5.5 -28.5q0 -26 -10.5 -44.5t-27 -30t-37 -17t-41.5 -5.5z" />
    <glyph glyph-name="Tcaron" unicode="&#x164;" horiz-adv-x="540" 
d="M401 558l-92 -558h-135l92 558h-191q1 64 23 88t79 24h429q-1 -32 -6 -53.5t-17 -34.5t-31.5 -18.5t-47.5 -5.5h-103zM369 805l56 52q13 11 26.5 15t27.5 4t27.5 -4.5t21.5 -11.5l-102 -107q-14 -14 -30 -21.5t-39 -7.5q-24 0 -37 8t-22 24l-59 107q11 6 25 10t26 4
q14 0 25.5 -6t22.5 -21z" />
    <glyph glyph-name="tcaron" unicode="&#x165;" horiz-adv-x="374" 
d="M396 593q-16 -62 -76 -62h-13t-15 2l20 122q6 38 24.5 60t57.5 22q23 0 38 -3zM312 18q-24 -18 -53 -25.5t-65 -7.5q-75 0 -112 39t-37 108q0 12 1.5 25t3.5 27l73 438q12 2 24 3t22 1q41 0 58.5 -19.5t17.5 -48.5q0 -6 -0.5 -12t-1.5 -12l-9 -58h128l-17 -103h-128
l-32 -196q-2 -10 -3 -18.5t-1 -16.5q0 -52 46 -52q23 0 40 14t31 33q26 -11 37 -26.5t11 -32.5q0 -15 -8 -30.5t-26 -29.5z" />
    <glyph glyph-name="Tbar" unicode="&#x166;" horiz-adv-x="540" 
d="M352 258l-42 -258h-135l42 258h-137l14 85h137l36 215h-191q1 64 23 88t79 24h429q-1 -32 -6 -53.5t-17 -34.5t-31.5 -18.5t-47.5 -5.5h-103l-36 -215h144l-15 -85h-143z" />
    <glyph glyph-name="tbar" unicode="&#x167;" horiz-adv-x="374" 
d="M312 18q-24 -18 -53 -25.5t-65 -7.5q-75 0 -112 39t-37 108q0 12 1.5 25t3.5 27l73 438q12 2 24 3t22 1q41 0 58.5 -19.5t17.5 -48.5q0 -6 -0.5 -12t-1.5 -12l-9 -58h128l-17 -103h-128l-11 -69h128l-15 -88h-128l-6 -39q-2 -10 -3 -18.5t-1 -16.5q0 -52 46 -52
q23 0 40 14t31 33q26 -11 37 -26.5t11 -32.5q0 -15 -8 -30.5t-26 -29.5z" />
    <glyph glyph-name="Utilde" unicode="&#x168;" horiz-adv-x="607" 
d="M496 670q12 2 24.5 3t22.5 1q41 0 58 -19.5t17 -48.5q0 -6 -0.5 -12t-1.5 -12l-54 -325q-11 -68 -31.5 -119t-53.5 -85.5t-80.5 -52t-111.5 -17.5q-61 0 -102.5 15.5t-67 42.5t-36.5 64t-11 81q0 19 2 39t5 40l67 405q12 2 25 3t23 1q41 0 57.5 -19.5t16.5 -48.5
q0 -6 -0.5 -12t-1.5 -12l-52 -314q-4 -21 -5 -38.5t-1 -33.5q0 -53 21 -77.5t71 -24.5q30 0 51.5 8.5t37 28t25.5 50t17 75.5zM328 774q-15 0 -32 -7.5t-36 -33.5q-23 14 -29.5 25t-6.5 27t9.5 29t25 22.5t34 15t36.5 5.5q24 0 40.5 -5.5t29 -12t23 -12t23.5 -5.5
q17 0 31.5 8.5t33.5 34.5q24 -12 30.5 -25t6.5 -29t-9 -29t-24 -22.5t-33.5 -15t-37.5 -5.5q-24 0 -40 5.5t-28 12t-22.5 12t-24.5 5.5z" />
    <glyph glyph-name="utilde" unicode="&#x169;" horiz-adv-x="515" 
d="M313 52q-20 -25 -50.5 -46t-80.5 -21q-52 0 -82.5 22t-41.5 53q-10 29 -10 64q0 18 2 35.5t5 34.5l46 279q12 2 24.5 3t22.5 1q41 0 58.5 -19.5t17.5 -48.5q0 -6 -0.5 -12t-1.5 -12l-32 -191q-3 -17 -3 -35q0 -28 11 -50t40 -22q16 0 30.5 9t26 23.5t20 34t11.5 40.5
l47 279q12 2 24 3t22 1q41 0 58.5 -19.5t17.5 -48.5q0 -6 -0.5 -12t-1.5 -12l-44 -264q-3 -15 -3 -33q0 -22 3.5 -44.5t10.5 -39.5q-17 -10 -36 -14t-38 -4q-32 0 -51 15.5t-22 50.5zM248 594q-15 0 -32 -7.5t-36 -33.5q-23 14 -29.5 25t-6.5 27t9.5 29t25 22.5t34 15
t36.5 5.5q24 0 40.5 -5.5t29 -12t23 -12t23.5 -5.5q17 0 31.5 8.5t33.5 34.5q24 -12 30.5 -25t6.5 -29t-9 -29t-24 -22.5t-33.5 -15t-37.5 -5.5q-24 0 -40 5.5t-28 12t-22.5 12t-24.5 5.5z" />
    <glyph glyph-name="Umacron" unicode="&#x16a;" horiz-adv-x="607" 
d="M496 670q12 2 24.5 3t22.5 1q41 0 58 -19.5t17 -48.5q0 -6 -0.5 -12t-1.5 -12l-54 -325q-11 -68 -31.5 -119t-53.5 -85.5t-80.5 -52t-111.5 -17.5q-61 0 -102.5 15.5t-67 42.5t-36.5 64t-11 81q0 19 2 39t5 40l67 405q12 2 25 3t23 1q41 0 57.5 -19.5t16.5 -48.5
q0 -6 -0.5 -12t-1.5 -12l-52 -314q-4 -21 -5 -38.5t-1 -33.5q0 -53 21 -77.5t71 -24.5q30 0 51.5 8.5t37 28t25.5 50t17 75.5zM292 752q-30 0 -42.5 14t-11.5 34q0 8 1.5 19t5.5 21h235q30 0 42.5 -14t11.5 -34q0 -8 -1.5 -19t-5.5 -21h-235z" />
    <glyph glyph-name="umacron" unicode="&#x16b;" horiz-adv-x="515" 
d="M313 52q-20 -25 -50.5 -46t-80.5 -21q-52 0 -82.5 22t-41.5 53q-10 29 -10 64q0 18 2 35.5t5 34.5l46 279q12 2 24.5 3t22.5 1q41 0 58.5 -19.5t17.5 -48.5q0 -6 -0.5 -12t-1.5 -12l-32 -191q-3 -17 -3 -35q0 -28 11 -50t40 -22q16 0 30.5 9t26 23.5t20 34t11.5 40.5
l47 279q12 2 24 3t22 1q41 0 58.5 -19.5t17.5 -48.5q0 -6 -0.5 -12t-1.5 -12l-44 -264q-3 -15 -3 -33q0 -22 3.5 -44.5t10.5 -39.5q-17 -10 -36 -14t-38 -4q-32 0 -51 15.5t-22 50.5zM214 568q-30 0 -42.5 14t-11.5 34q0 8 1.5 19t5.5 21h235q30 0 42.5 -14t11.5 -34
q0 -8 -1.5 -19t-5.5 -21h-235z" />
    <glyph glyph-name="Ubreve" unicode="&#x16c;" horiz-adv-x="607" 
d="M496 670q12 2 24.5 3t22.5 1q41 0 58 -19.5t17 -48.5q0 -6 -0.5 -12t-1.5 -12l-54 -325q-11 -68 -31.5 -119t-53.5 -85.5t-80.5 -52t-111.5 -17.5q-61 0 -102.5 15.5t-67 42.5t-36.5 64t-11 81q0 19 2 39t5 40l67 405q12 2 25 3t23 1q41 0 57.5 -19.5t16.5 -48.5
q0 -6 -0.5 -12t-1.5 -12l-52 -314q-4 -21 -5 -38.5t-1 -33.5q0 -53 21 -77.5t71 -24.5q30 0 51.5 8.5t37 28t25.5 50t17 75.5zM348 848q4 -20 15 -31.5t31 -11.5q17 0 34.5 9t30.5 36q11 23 21.5 29.5t30.5 6.5q13 0 23 -3.5t24 -12.5q-22 -69 -63.5 -105t-105.5 -36
q-67 0 -99 38.5t-28 107.5q10 5 22 8t20 3q26 0 33 -9t11 -29z" />
    <glyph glyph-name="ubreve" unicode="&#x16d;" horiz-adv-x="515" 
d="M313 52q-20 -25 -50.5 -46t-80.5 -21q-52 0 -82.5 22t-41.5 53q-10 29 -10 64q0 18 2 35.5t5 34.5l46 279q12 2 24.5 3t22.5 1q41 0 58.5 -19.5t17.5 -48.5q0 -6 -0.5 -12t-1.5 -12l-32 -191q-3 -17 -3 -35q0 -28 11 -50t40 -22q16 0 30.5 9t26 23.5t20 34t11.5 40.5
l47 279q12 2 24 3t22 1q41 0 58.5 -19.5t17.5 -48.5q0 -6 -0.5 -12t-1.5 -12l-44 -264q-3 -15 -3 -33q0 -22 3.5 -44.5t10.5 -39.5q-17 -10 -36 -14t-38 -4q-32 0 -51 15.5t-22 50.5zM270 664q4 -24 16.5 -36t30.5 -12q20 0 35 10.5t29 39.5q11 23 21.5 29.5t30.5 6.5
q13 0 24 -3.5t25 -12.5q-24 -73 -64 -109.5t-106 -36.5q-67 0 -99 39t-28 112q10 5 22.5 8t20.5 3q26 0 32.5 -9t9.5 -29z" />
    <glyph glyph-name="Uring" unicode="&#x16e;" horiz-adv-x="607" 
d="M496 670q12 2 24.5 3t22.5 1q41 0 58 -19.5t17 -48.5q0 -6 -0.5 -12t-1.5 -12l-54 -325q-11 -68 -31.5 -119t-53.5 -85.5t-80.5 -52t-111.5 -17.5q-61 0 -102.5 15.5t-67 42.5t-36.5 64t-11 81q0 19 2 39t5 40l67 405q12 2 25 3t23 1q41 0 57.5 -19.5t16.5 -48.5
q0 -6 -0.5 -12t-1.5 -12l-52 -314q-4 -21 -5 -38.5t-1 -33.5q0 -53 21 -77.5t71 -24.5q30 0 51.5 8.5t37 28t25.5 50t17 75.5zM501 814q0 -23 -8 -44t-22 -37t-35 -25t-46 -9q-26 0 -47 9t-35.5 24.5t-22 36.5t-7.5 44t7.5 44t22 36.5t35.5 25t47 9.5q25 0 46 -9t35 -25
t22 -36.5t8 -43.5zM443 813q0 25 -14.5 43t-38.5 18q-25 0 -39.5 -18t-14.5 -42q0 -25 14 -43.5t40 -18.5q24 0 38.5 18.5t14.5 42.5z" />
    <glyph glyph-name="uring" unicode="&#x16f;" horiz-adv-x="515" 
d="M313 52q-20 -25 -50.5 -46t-80.5 -21q-52 0 -82.5 22t-41.5 53q-10 29 -10 64q0 18 2 35.5t5 34.5l46 279q12 2 24.5 3t22.5 1q41 0 58.5 -19.5t17.5 -48.5q0 -6 -0.5 -12t-1.5 -12l-32 -191q-3 -17 -3 -35q0 -28 11 -50t40 -22q16 0 30.5 9t26 23.5t20 34t11.5 40.5
l47 279q12 2 24 3t22 1q41 0 58.5 -19.5t17.5 -48.5q0 -6 -0.5 -12t-1.5 -12l-44 -264q-3 -15 -3 -33q0 -22 3.5 -44.5t10.5 -39.5q-17 -10 -36 -14t-38 -4q-32 0 -51 15.5t-22 50.5zM419 657q0 -23 -8 -44t-22 -37t-35 -25t-46 -9q-26 0 -47 9t-35.5 24.5t-22 36.5t-7.5 44
t7.5 44t22 36.5t35.5 25t47 9.5q25 0 46 -9t35 -25t22 -36.5t8 -43.5zM361 656q0 25 -14.5 43t-38.5 18q-25 0 -39.5 -18t-14.5 -42q0 -25 14 -43.5t40 -18.5q24 0 38.5 18.5t14.5 42.5z" />
    <glyph glyph-name="Uhungarumlaut" unicode="&#x170;" horiz-adv-x="607" 
d="M496 670q12 2 24.5 3t22.5 1q41 0 58 -19.5t17 -48.5q0 -6 -0.5 -12t-1.5 -12l-54 -325q-11 -68 -31.5 -119t-53.5 -85.5t-80.5 -52t-111.5 -17.5q-61 0 -102.5 15.5t-67 42.5t-36.5 64t-11 81q0 19 2 39t5 40l67 405q12 2 25 3t23 1q41 0 57.5 -19.5t16.5 -48.5
q0 -6 -0.5 -12t-1.5 -12l-52 -314q-4 -21 -5 -38.5t-1 -33.5q0 -53 21 -77.5t71 -24.5q30 0 51.5 8.5t37 28t25.5 50t17 75.5zM323 742q-11 -8 -21.5 -12t-27.5 -4q-19 0 -30.5 10.5t-19.5 22.5l105 91q11 10 25 17.5t28 7.5q24 0 38.5 -16.5t22.5 -36.5zM522 742
q-11 -8 -21.5 -12t-27.5 -4q-19 0 -30.5 10.5t-19.5 22.5l105 91q11 10 25 17.5t28 7.5q24 0 38.5 -16.5t22.5 -36.5z" />
    <glyph glyph-name="uhungarumlaut" unicode="&#x171;" horiz-adv-x="515" 
d="M313 52q-20 -25 -50.5 -46t-80.5 -21q-52 0 -82.5 22t-41.5 53q-10 29 -10 64q0 18 2 35.5t5 34.5l46 279q12 2 24.5 3t22.5 1q41 0 58.5 -19.5t17.5 -48.5q0 -6 -0.5 -12t-1.5 -12l-32 -191q-3 -17 -3 -35q0 -28 11 -50t40 -22q16 0 30.5 9t26 23.5t20 34t11.5 40.5
l47 279q12 2 24 3t22 1q41 0 58.5 -19.5t17.5 -48.5q0 -6 -0.5 -12t-1.5 -12l-44 -264q-3 -15 -3 -33q0 -22 3.5 -44.5t10.5 -39.5q-17 -10 -36 -14t-38 -4q-32 0 -51 15.5t-22 50.5zM273 564q-12 -12 -26 -19t-29 -7q-14 0 -29 6t-23 14l87 115q14 20 30 29.5t38 9.5
q18 0 35 -11t27 -23zM459 564q-12 -12 -26 -19t-29 -7q-14 0 -29 6t-23 14l87 115q14 20 30 29.5t38 9.5q18 0 35 -11t27 -23z" />
    <glyph glyph-name="Uogonek" unicode="&#x172;" horiz-adv-x="607" 
d="M306 -150q11 0 21.5 6t20.5 15q10 -11 13.5 -20.5t3.5 -18.5q0 -15 -9 -25.5t-23 -17t-30 -9.5t-31 -3t-30.5 4.5t-28 14.5t-20 25t-7.5 35q0 38 21.5 70.5t52.5 57.5q-54 3 -91 19.5t-59.5 43t-32 62t-9.5 77.5q0 19 2 39t5 40l67 405q12 2 25 3t23 1q41 0 57.5 -19.5
t16.5 -48.5q0 -6 -0.5 -12t-1.5 -12l-52 -314q-6 -42 -6 -72q0 -53 21 -77.5t71 -24.5q30 0 51.5 8.5t37 28t25.5 50t17 75.5l69 414q12 2 24.5 3t22.5 1q41 0 58 -19.5t17 -48.5q0 -6 -0.5 -12t-1.5 -12l-54 -325q-17 -103 -56 -167t-111 -90q-24 -11 -44.5 -25.5
t-36 -30.5t-24 -32.5t-8.5 -31.5q0 -17 8 -23.5t16 -6.5z" />
    <glyph glyph-name="uogonek" unicode="&#x173;" horiz-adv-x="515" 
d="M380 -150q11 0 22 6t21 15q10 -11 13.5 -20.5t3.5 -18.5q0 -15 -9 -25.5t-23 -17t-30 -9.5t-31 -3t-30.5 4.5t-28 14.5t-20 25t-7.5 35q0 41 28.5 75.5t64.5 59.5q-37 12 -41 61q-20 -25 -50.5 -46t-80.5 -21q-52 0 -82.5 22t-41.5 53q-10 29 -10 64q0 18 2 35.5t5 34.5
l46 279q12 2 24.5 3t22.5 1q41 0 58.5 -19.5t17.5 -48.5q0 -6 -0.5 -12t-1.5 -12l-32 -191q-3 -17 -3 -35q0 -28 11 -50t40 -22q16 0 30.5 9t26 23.5t20 34t11.5 40.5l47 279q12 2 24 3t22 1q41 0 58.5 -19.5t17.5 -48.5q0 -6 -0.5 -12t-1.5 -12l-44 -264q-3 -15 -3 -33
q0 -22 3.5 -44.5t10.5 -39.5l-3 -2q-19 -12 -37.5 -27t-32.5 -31t-23 -32.5t-9 -31.5q0 -17 7 -23.5t18 -6.5z" />
    <glyph glyph-name="Wcircumflex" unicode="&#x174;" horiz-adv-x="836" 
d="M602 0h-114l-44 328l-147 -328h-113l-94 660q13 6 33 10t35 4q36 0 53.5 -16.5t21.5 -48.5l48 -415l139 307l-20 162q19 5 36.5 8t31.5 3q38 0 52.5 -17t17.5 -49l39 -406l164 398q14 32 37.5 53t59.5 21q22 0 38 -3.5t30 -8.5zM506 796l-56 -52q-12 -11 -25 -15t-27 -4
t-27.5 4.5t-21.5 11.5l102 107q14 14 30 21.5t39 7.5q24 0 37 -8t22 -24l59 -107q-11 -6 -25 -10t-26 -4q-14 0 -26.5 6t-23.5 21z" />
    <glyph glyph-name="wcircumflex" unicode="&#x175;" horiz-adv-x="655" 
d="M468 0h-102l-35 200q-28 -51 -53 -100t-53 -100h-98l-79 463q37 14 66 14q30 0 48 -13t23 -44l34 -259l85 163l-25 141q20 7 33.5 9.5t28.5 2.5q29 0 46 -17.5t21 -46.5l33 -242l88 223q18 45 41 64t61 19q20 0 33 -3.5t27 -10.5zM380 623l-67 -65q-12 -11 -24.5 -15
t-23.5 -4q-14 0 -27 4.5t-21 11.5l108 125q25 29 69 29q20 0 35 -6t23 -23l62 -128q-11 -6 -24.5 -10t-25.5 -4q-14 0 -27 5t-22 21z" />
    <glyph glyph-name="Ycircumflex" unicode="&#x176;" horiz-adv-x="540" 
d="M352 260l-43 -260h-135l43 259l-132 392q20 10 41 16.5t43 6.5q52 0 68 -49l70 -231l137 219q20 32 43.5 46.5t55.5 14.5q21 0 36.5 -5.5t30.5 -15.5zM362 796l-56 -52q-12 -11 -25 -15t-27 -4t-27.5 4.5t-21.5 11.5l102 107q14 14 30 21.5t39 7.5q24 0 37 -8t22 -24
l59 -107q-11 -6 -25 -10t-26 -4q-14 0 -26.5 6t-23.5 21z" />
    <glyph glyph-name="ycircumflex" unicode="&#x177;" horiz-adv-x="459" 
d="M46 -123q18 0 31 6t23.5 18.5t20.5 31t21 44.5l8 18h-28l-75 468q35 14 72 14q21 0 34.5 -7.5t22 -20.5t12.5 -30t6 -36l21 -254l106 257q17 41 42 66t63 25q20 0 37 -4t28 -10l-245 -520q-17 -35 -33 -66t-37.5 -54t-50 -36.5t-69.5 -13.5q-32 0 -53.5 5.5t-34.5 13.5
q-19 12 -28.5 25t-9.5 30q0 36 47 67q14 -20 33 -28.5t36 -8.5zM292 623l-67 -65q-12 -11 -24.5 -15t-23.5 -4q-14 0 -27 4.5t-21 11.5l108 125q25 29 69 29q20 0 35 -6t23 -23l62 -128q-11 -6 -24.5 -10t-25.5 -4q-14 0 -27 5t-22 21z" />
    <glyph glyph-name="Ydieresis" unicode="&#x178;" horiz-adv-x="540" 
d="M352 260l-43 -260h-135l43 259l-132 392q20 10 41 16.5t43 6.5q52 0 68 -49l70 -231l137 219q20 32 43.5 46.5t55.5 14.5q21 0 36.5 -5.5t30.5 -15.5zM251 730q-27 0 -41.5 17t-14.5 37q0 39 20 58t49 19q27 0 41.5 -17t14.5 -37q0 -39 -20 -58t-49 -19zM441 730
q-27 0 -41.5 17t-14.5 37q0 39 20 58t49 19q27 0 41.5 -17t14.5 -37q0 -39 -20 -58t-49 -19z" />
    <glyph glyph-name="Zacute" unicode="&#x179;" horiz-adv-x="514" 
d="M526 670q27 0 36 -12.5t5 -35.5l-7 -42q-102 -117 -199.5 -235t-186.5 -234h224q46 0 65 -16t19 -48q0 -12 -2 -26.5t-5 -20.5h-475l15 90q38 53 83 111.5t94 118.5t100 120.5t102 118.5h-299q1 32 6 53.5t17 34t31 18t48 5.5h329zM374 742q-11 -7 -23 -11.5t-29 -4.5
q-19 0 -32 11.5t-21 23.5l113 91q11 9 25 16t28 7q24 0 40.5 -16.5t24.5 -36.5z" />
    <glyph glyph-name="zacute" unicode="&#x17a;" horiz-adv-x="420" 
d="M6 0l15 90q59 75 116.5 144t124.5 137h-199q0 52 19 78.5t72 26.5h228q25 0 38.5 -10t13.5 -36q0 -8 -2 -20.5t-4 -23.5q-70 -71 -134 -138.5t-121 -142.5h140q41 0 57 -16t16 -42q0 -20 -8 -47h-372zM329 564q-12 -12 -27 -19t-32 -7q-14 0 -31 6t-25 14l91 115
q15 20 30.5 29.5t41.5 9.5q18 0 37.5 -11t29.5 -23z" />
    <glyph glyph-name="Zdotaccent" unicode="&#x17b;" horiz-adv-x="514" 
d="M526 670q27 0 36 -12.5t5 -35.5l-7 -42q-102 -117 -199.5 -235t-186.5 -234h224q46 0 65 -16t19 -48q0 -12 -2 -26.5t-5 -20.5h-475l15 90q38 53 83 111.5t94 118.5t100 120.5t102 118.5h-299q1 32 6 53.5t17 34t31 18t48 5.5h329zM354 730q-29 0 -43.5 17.5t-14.5 37.5
q0 42 20.5 61t50.5 19q29 0 43.5 -17.5t14.5 -37.5q0 -42 -20.5 -61t-50.5 -19z" />
    <glyph glyph-name="zdotaccent" unicode="&#x17c;" horiz-adv-x="420" 
d="M6 0l15 90q59 75 116.5 144t124.5 137h-199q0 52 19 78.5t72 26.5h228q25 0 38.5 -10t13.5 -36q0 -8 -2 -20.5t-4 -23.5q-70 -71 -134 -138.5t-121 -142.5h140q41 0 57 -16t16 -42q0 -20 -8 -47h-372zM279 557q-29 0 -43.5 17.5t-14.5 37.5q0 42 20.5 61t50.5 19
q29 0 43.5 -17.5t14.5 -37.5q0 -42 -20.5 -61t-50.5 -19z" />
    <glyph glyph-name="Zcaron" unicode="&#x17d;" horiz-adv-x="514" 
d="M526 670q27 0 36 -12.5t5 -35.5l-7 -42q-102 -117 -199.5 -235t-186.5 -234h224q46 0 65 -16t19 -48q0 -12 -2 -26.5t-5 -20.5h-475l15 90q38 53 83 111.5t94 118.5t100 120.5t102 118.5h-299q1 32 6 53.5t17 34t31 18t48 5.5h329zM358 805l56 52q13 11 26.5 15t27.5 4
t27.5 -4.5t21.5 -11.5l-102 -107q-14 -14 -30 -21.5t-39 -7.5q-24 0 -37 8t-22 24l-59 107q11 6 25 10t26 4q14 0 25.5 -6t22.5 -21z" />
    <glyph glyph-name="zcaron" unicode="&#x17e;" horiz-adv-x="420" 
d="M6 0l15 90q59 75 116.5 144t124.5 137h-199q0 52 19 78.5t72 26.5h228q25 0 38.5 -10t13.5 -36q0 -8 -2 -20.5t-4 -23.5q-70 -71 -134 -138.5t-121 -142.5h140q41 0 57 -16t16 -42q0 -20 -8 -47h-372zM288 624l67 65q12 11 25.5 15t24.5 4q14 0 27 -4.5t21 -11.5
l-108 -125q-25 -29 -69 -29q-20 0 -35 6t-23 23l-62 128q11 6 24.5 10t25.5 4q14 0 26 -5t21 -21z" />
    <glyph glyph-name="longs" unicode="&#x17f;" horiz-adv-x="239" 
d="M326 614q-34 0 -52.5 -18.5t-26.5 -65.5l-89 -540q-15 -95 -62 -148t-137 -53q-20 0 -42.5 4t-42 13t-32.5 24.5t-13 38.5q0 18 11.5 35.5t35.5 31.5q14 -20 31.5 -30.5t42.5 -10.5q32 0 49.5 24.5t25.5 70.5l87 523q16 109 71 156.5t145 47.5q41 0 71.5 -10t48.5 -27
q23 -21 23 -50q0 -20 -16.5 -39.5t-49.5 -29.5q-11 24 -28 38.5t-51 14.5z" />
    <glyph glyph-name="florin" unicode="&#x192;" horiz-adv-x="549" 
d="M-1 -17q26 0 49 4.5t41.5 17t32.5 33.5t23 54l69 250h-100l16 102h112l9 32q18 62 45 102t59.5 63.5t67.5 32.5t68 9q36 0 46.5 -14t10.5 -34q0 -12 -6 -27.5t-11 -26.5q-28 0 -51.5 -4.5t-42 -17t-32.5 -33.5t-23 -54l-8 -28h143l-16 -102h-155l-73 -261
q-17 -62 -42.5 -102t-56.5 -63t-65.5 -31.5t-69.5 -8.5q-36 0 -47.5 14t-11.5 34q0 12 7 30t12 29z" />
    <glyph glyph-name="Scommaaccent" unicode="&#x218;" horiz-adv-x="512" 
d="M234 96q25 0 43.5 7.5t30.5 19.5t17.5 27t5.5 30q0 17 -5 30.5t-17 27t-32 27.5t-51 31q-67 37 -101 81.5t-34 113.5q0 45 17.5 80.5t48.5 60.5t73 38t91 13q31 0 56.5 -5t46 -12.5t35 -16.5t23.5 -16q25 -21 25 -49q0 -26 -17 -48.5t-42 -33.5q-27 31 -59 48.5t-77 17.5
q-38 0 -60.5 -19.5t-22.5 -46.5q0 -38 26 -61.5t70 -48.5q43 -25 72 -48t46.5 -46.5t24.5 -48.5t7 -55q0 -51 -17.5 -90.5t-49.5 -66.5t-76 -40.5t-97 -13.5q-66 0 -109.5 12t-69.5 31q-18 13 -26.5 26t-8.5 32q0 25 15.5 46.5t36.5 35.5q34 -34 71.5 -52t89.5 -18z
M212 -190q-14 -21 -30 -31t-41 -10q-12 0 -24 1.5t-20 6.5l61 123q13 26 32 41t46 15q14 0 31.5 -5t27.5 -10z" />
    <glyph glyph-name="scommaaccent" unicode="&#x219;" horiz-adv-x="405" 
d="M189 -15q-56 0 -87 8.5t-56 24.5q-17 11 -26.5 24t-9.5 27q0 24 12 40.5t32 30.5q29 -28 55 -40t55 -12q34 0 47.5 13.5t13.5 33.5q0 21 -22 39.5t-49 37.5q-16 11 -31.5 23t-27.5 27t-19.5 35t-7.5 46q0 24 10 49.5t33 46.5t59.5 34.5t90.5 13.5q16 0 34.5 -3.5
t36.5 -9.5t33.5 -15t25.5 -21q15 -18 15 -39t-15.5 -38t-39.5 -25q-18 28 -45 42t-50 14q-25 0 -39.5 -9t-14.5 -32q0 -12 8 -22.5t21.5 -21t31 -23t36.5 -27.5q35 -29 50 -58t15 -64q0 -28 -10 -55t-31 -48t-54 -34t-80 -13zM169 -190q-14 -21 -30 -31t-41 -10
q-12 0 -24 1.5t-20 6.5l61 123q13 26 32 41t46 15q14 0 31.5 -5t27.5 -10z" />
    <glyph glyph-name="uni021A" unicode="&#x21a;" horiz-adv-x="540" 
d="M401 558l-92 -558h-135l92 558h-191q1 64 23 88t79 24h429q-1 -32 -6 -53.5t-17 -34.5t-31.5 -18.5t-47.5 -5.5h-103zM206 -190q-14 -21 -30 -31t-41 -10q-12 0 -24 1.5t-20 6.5l61 123q13 26 32 41t46 15q14 0 31.5 -5t27.5 -10z" />
    <glyph glyph-name="uni021B" unicode="&#x21b;" horiz-adv-x="374" 
d="M312 18q-24 -18 -53 -25.5t-65 -7.5q-75 0 -112 39t-37 108q0 12 1.5 25t3.5 27l73 438q12 2 24 3t22 1q41 0 58.5 -19.5t17.5 -48.5q0 -6 -0.5 -12t-1.5 -12l-9 -58h128l-17 -103h-128l-32 -196q-2 -10 -3 -18.5t-1 -16.5q0 -52 46 -52q23 0 40 14t31 33
q26 -11 37 -26.5t11 -32.5q0 -15 -8 -30.5t-26 -29.5zM169 -190q-14 -21 -30 -31t-41 -10q-12 0 -24 1.5t-20 6.5l61 123q13 26 32 41t46 15q14 0 31.5 -5t27.5 -10z" />
    <glyph glyph-name="dotlessj" unicode="&#x237;" horiz-adv-x="247" 
d="M106 473q12 2 24.5 3t22.5 1q41 0 58.5 -19.5t17.5 -48.5q0 -6 -0.5 -12t-1.5 -12l-63 -376q-14 -78 -35.5 -125t-56.5 -77q-20 -17 -48 -27.5t-56 -10.5q-31 0 -53.5 15t-22.5 50q0 7 1 16t3 18h10q29 0 49 7.5t37 25.5q14 14 21 36t13 57z" />
    <glyph glyph-name="apostrophe" unicode="&#x2bc;" horiz-adv-x="218" 
d="M112 703q24 0 38.5 -16t14.5 -44q0 -23 -9.5 -48t-25.5 -45.5t-36.5 -34t-42.5 -13.5q-13 0 -22.5 6t-11.5 19q19 9 36.5 24t25.5 43q-11 8 -18.5 18t-7.5 30q0 29 17.5 45t41.5 16z" />
    <glyph glyph-name="circumflex" unicode="&#x2c6;" horiz-adv-x="364" 
d="M196 623l-67 -65q-12 -11 -24.5 -15t-23.5 -4q-14 0 -27 4.5t-21 11.5l108 125q25 29 69 29q20 0 35 -6t23 -23l62 -128q-11 -6 -24.5 -10t-25.5 -4q-14 0 -27 5t-22 21z" />
    <glyph glyph-name="caron" unicode="&#x2c7;" horiz-adv-x="364" 
d="M169 624l67 65q12 11 25.5 15t24.5 4q14 0 27 -4.5t21 -11.5l-108 -125q-25 -29 -69 -29q-20 0 -35 6t-23 23l-62 128q11 6 24.5 10t25.5 4q14 0 26 -5t21 -21z" />
    <glyph glyph-name="uni02C9" unicode="&#x2c9;" horiz-adv-x="364" 
d="M88 568q-30 0 -42.5 14t-11.5 34q0 8 1.5 19t5.5 21h235q30 0 42.5 -14t11.5 -34q0 -8 -1.5 -19t-5.5 -21h-235z" />
    <glyph glyph-name="breve" unicode="&#x2d8;" horiz-adv-x="364" 
d="M121 664q4 -24 16.5 -36t30.5 -12q20 0 35 10.5t29 39.5q11 23 21.5 29.5t30.5 6.5q13 0 24 -3.5t25 -12.5q-24 -73 -64 -109.5t-106 -36.5q-67 0 -99 39t-28 112q10 5 22.5 8t20.5 3q26 0 32.5 -9t9.5 -29z" />
    <glyph glyph-name="dotaccent" unicode="&#x2d9;" horiz-adv-x="364" 
d="M175 557q-29 0 -43.5 17.5t-14.5 37.5q0 42 20.5 61t50.5 19q29 0 43.5 -17.5t14.5 -37.5q0 -42 -20.5 -61t-50.5 -19z" />
    <glyph glyph-name="ring" unicode="&#x2da;" horiz-adv-x="364" 
d="M293 657q0 -23 -8 -44t-22 -37t-35 -25t-46 -9q-26 0 -47 9t-35.5 24.5t-22 36.5t-7.5 44t7.5 44t22 36.5t35.5 25t47 9.5q25 0 46 -9t35 -25t22 -36.5t8 -43.5zM235 656q0 25 -14.5 43t-38.5 18q-25 0 -39.5 -18t-14.5 -42q0 -25 14 -43.5t40 -18.5q24 0 38.5 18.5
t14.5 42.5z" />
    <glyph glyph-name="ogonek" unicode="&#x2db;" horiz-adv-x="364" 
d="M201 -150q11 0 22 6t21 15q10 -11 13.5 -20.5t3.5 -18.5q0 -15 -9 -25.5t-23 -17t-30 -9.5t-31 -3t-30.5 4.5t-28 14.5t-20 25t-7.5 35q0 26 13 50t32.5 44.5t43.5 37t47 28.5l63 -12q-20 -13 -38.5 -28t-33.5 -31.5t-24 -33t-9 -31.5q0 -17 7 -23.5t18 -6.5z" />
    <glyph glyph-name="tilde" unicode="&#x2dc;" horiz-adv-x="364" 
d="M124 594q-15 0 -32 -7.5t-36 -33.5q-23 14 -29.5 25t-6.5 27t9.5 29t25 22.5t34 15t36.5 5.5q24 0 40.5 -5.5t29 -12t23 -12t23.5 -5.5q17 0 31.5 8.5t33.5 34.5q24 -12 30.5 -25t6.5 -29t-9 -29t-24 -22.5t-33.5 -15t-37.5 -5.5q-24 0 -40 5.5t-28 12t-22.5 12
t-24.5 5.5z" />
    <glyph glyph-name="hungarumlaut" unicode="&#x2dd;" horiz-adv-x="364" 
d="M88 564q-12 -12 -26 -19t-29 -7q-14 0 -29 6t-23 14l87 115q14 20 30 29.5t38 9.5q18 0 35 -11t27 -23zM274 564q-12 -12 -26 -19t-29 -7q-14 0 -29 6t-23 14l87 115q14 20 30 29.5t38 9.5q18 0 35 -11t27 -23z" />
    <glyph glyph-name="uni0394" unicode="&#x394;" horiz-adv-x="618" 
d="M362 516l-188 -412h252zM-10 0l321 660q16 6 31.5 10t38.5 4q44 0 63 -19.5t25 -54.5l109 -600h-588z" />
    <glyph glyph-name="Omega" unicode="&#x3a9;" horiz-adv-x="679" 
d="M355 0l16 96q35 21 63.5 54t48 75t30 91.5t10.5 103.5q0 69 -31 111t-93 42q-44 0 -78 -23.5t-57.5 -62.5t-36 -90t-12.5 -106q0 -35 3.5 -63t11 -51.5t20.5 -43t31 -37.5l-16 -96h-171q-41 0 -56 16.5t-15 39.5q0 15 3.5 28t5.5 22h116q-30 33 -50 85.5t-20 109.5
q0 70 21.5 138.5t63 122.5t103 87.5t141.5 33.5q63 0 111 -20.5t80 -56.5t48.5 -84.5t16.5 -103.5q0 -42 -10 -86t-28.5 -85t-46 -77.5t-61.5 -63.5h42q41 0 55.5 -17t14.5 -39q0 -29 -7 -50h-267z" />
    <glyph glyph-name="uni03BC" unicode="&#x3bc;" horiz-adv-x="542" 
d="M326 54q-12 -23 -36.5 -44.5t-63.5 -21.5q-28 0 -44 9t-25 20l-39 -235h-126l113 691q7 1 15 2q7 1 16 1.5t20 0.5q36 0 54 -19t18 -51q0 -5 -0.5 -10.5t-1.5 -11.5l-31 -185q-8 -54 3 -83.5t45 -29.5q16 0 31 9.5t26.5 25t19.5 36t11 42.5l46 273q6 1 14 2q7 1 16.5 1.5
t20.5 0.5q30 0 50.5 -16.5t20.5 -53.5q0 -5 -0.5 -10.5t-1.5 -11.5l-38 -229q-5 -29 -3.5 -46t7 -27t15 -13t22.5 -3t23 4l11 -50q-20 -14 -50 -22.5t-58 -8.5q-36 0 -64 16t-36 48z" />
    <glyph glyph-name="pi" unicode="&#x3c0;" horiz-adv-x="583" 
d="M430 -10q-58 0 -82.5 30t-24.5 84q0 14 3 31l40 238h-103l-62 -373h-135l62 373h-85l17 103h542l-17 -103h-86l-36 -217q-5 -29 -3.5 -46t7.5 -27t15.5 -13t22.5 -3q7 0 13.5 1.5t10.5 2.5l11 -50q-20 -14 -50 -22.5t-60 -8.5z" />
    <glyph glyph-name="Wgrave" unicode="&#x1e80;" horiz-adv-x="836" 
d="M602 0h-114l-44 328l-147 -328h-113l-94 660q13 6 33 10t35 4q36 0 53.5 -16.5t21.5 -48.5l48 -415l139 307l-20 162q19 5 36.5 8t31.5 3q38 0 52.5 -17t17.5 -49l39 -406l164 398q14 32 37.5 53t59.5 21q22 0 38 -3.5t30 -8.5zM340 823q17 23 37 37.5t40 14.5t44 -21
l104 -93q-17 -16 -33.5 -25.5t-35.5 -9.5q-20 0 -41 15z" />
    <glyph glyph-name="wgrave" unicode="&#x1e81;" horiz-adv-x="655" 
d="M468 0h-102l-35 200q-28 -51 -53 -100t-53 -100h-98l-79 463q37 14 66 14q30 0 48 -13t23 -44l34 -259l85 163l-25 141q20 7 33.5 9.5t28.5 2.5q29 0 46 -17.5t21 -46.5l33 -242l88 223q18 45 41 64t61 19q20 0 33 -3.5t27 -10.5zM212 680q14 12 35.5 22t39.5 10
q21 0 34 -9.5t24 -28.5l65 -118q-11 -8 -28.5 -13t-29.5 -5q-32 0 -51 26z" />
    <glyph glyph-name="Wacute" unicode="&#x1e82;" horiz-adv-x="836" 
d="M602 0h-114l-44 328l-147 -328h-113l-94 660q13 6 33 10t35 4q36 0 53.5 -16.5t21.5 -48.5l48 -415l139 307l-20 162q19 5 36.5 8t31.5 3q38 0 52.5 -17t17.5 -49l39 -406l164 398q14 32 37.5 53t59.5 21q22 0 38 -3.5t30 -8.5zM507 742q-11 -7 -23 -11.5t-29 -4.5
q-19 0 -32 11.5t-21 23.5l113 91q11 9 25 16t28 7q24 0 40.5 -16.5t24.5 -36.5z" />
    <glyph glyph-name="wacute" unicode="&#x1e83;" horiz-adv-x="655" 
d="M468 0h-102l-35 200q-28 -51 -53 -100t-53 -100h-98l-79 463q37 14 66 14q30 0 48 -13t23 -44l34 -259l85 163l-25 141q20 7 33.5 9.5t28.5 2.5q29 0 46 -17.5t21 -46.5l33 -242l88 223q18 45 41 64t61 19q20 0 33 -3.5t27 -10.5zM415 564q-12 -12 -27 -19t-32 -7
q-14 0 -31 6t-25 14l91 115q15 20 30.5 29.5t41.5 9.5q18 0 37.5 -11t29.5 -23z" />
    <glyph glyph-name="Wdieresis" unicode="&#x1e84;" horiz-adv-x="836" 
d="M602 0h-114l-44 328l-147 -328h-113l-94 660q13 6 33 10t35 4q36 0 53.5 -16.5t21.5 -48.5l48 -415l139 307l-20 162q19 5 36.5 8t31.5 3q38 0 52.5 -17t17.5 -49l39 -406l164 398q14 32 37.5 53t59.5 21q22 0 38 -3.5t30 -8.5zM393 730q-27 0 -41.5 17t-14.5 37
q0 39 20 58t49 19q27 0 41.5 -17t14.5 -37q0 -39 -20 -58t-49 -19zM583 730q-27 0 -41.5 17t-14.5 37q0 39 20 58t49 19q27 0 41.5 -17t14.5 -37q0 -39 -20 -58t-49 -19z" />
    <glyph glyph-name="wdieresis" unicode="&#x1e85;" horiz-adv-x="655" 
d="M468 0h-102l-35 200q-28 -51 -53 -100t-53 -100h-98l-79 463q37 14 66 14q30 0 48 -13t23 -44l34 -259l85 163l-25 141q20 7 33.5 9.5t28.5 2.5q29 0 46 -17.5t21 -46.5l33 -242l88 223q18 45 41 64t61 19q20 0 33 -3.5t27 -10.5zM281 557q-27 0 -41.5 17t-14.5 37
q0 39 20 58t49 19q27 0 41.5 -17t14.5 -37q0 -39 -20 -58t-49 -19zM471 557q-27 0 -41.5 17t-14.5 37q0 39 20 58t49 19q27 0 41.5 -17t14.5 -37q0 -39 -20 -58t-49 -19z" />
    <glyph glyph-name="Ygrave" unicode="&#x1ef2;" horiz-adv-x="540" 
d="M352 260l-43 -260h-135l43 259l-132 392q20 10 41 16.5t43 6.5q52 0 68 -49l70 -231l137 219q20 32 43.5 46.5t55.5 14.5q21 0 36.5 -5.5t30.5 -15.5zM195 823q17 23 37 37.5t40 14.5t44 -21l104 -93q-17 -16 -33.5 -25.5t-35.5 -9.5q-20 0 -41 15z" />
    <glyph glyph-name="ygrave" unicode="&#x1ef3;" horiz-adv-x="459" 
d="M46 -123q18 0 31 6t23.5 18.5t20.5 31t21 44.5l8 18h-28l-75 468q35 14 72 14q21 0 34.5 -7.5t22 -20.5t12.5 -30t6 -36l21 -254l106 257q17 41 42 66t63 25q20 0 37 -4t28 -10l-245 -520q-17 -35 -33 -66t-37.5 -54t-50 -36.5t-69.5 -13.5q-32 0 -53.5 5.5t-34.5 13.5
q-19 12 -28.5 25t-9.5 30q0 36 47 67q14 -20 33 -28.5t36 -8.5zM127 680q14 12 35.5 22t39.5 10q21 0 34 -9.5t24 -28.5l65 -118q-11 -8 -28.5 -13t-29.5 -5q-32 0 -51 26z" />
    <glyph glyph-name="endash" unicode="&#x2013;" horiz-adv-x="500" 
d="M86 213q-38 0 -54 18.5t-15 43.5q0 10 2 23.5t6 25.5h421q38 0 54 -17.5t15 -43.5q0 -10 -2 -24t-6 -26h-421z" />
    <glyph glyph-name="emdash" unicode="&#x2014;" horiz-adv-x="1000" 
d="M86 213q-38 0 -54 18.5t-15 43.5q0 10 2 23.5t6 25.5h921q38 0 54 -17.5t15 -43.5q0 -10 -2 -24t-6 -26h-921z" />
    <glyph glyph-name="quoteleft" unicode="&#x2018;" horiz-adv-x="239" 
d="M164 435q-32 0 -50.5 21.5t-18.5 58.5q0 31 13 64.5t34 61t48 45.5t55 18q40 0 46 -33q-26 -12 -50 -32t-34 -58q15 -11 25.5 -24.5t10.5 -39.5q0 -40 -23.5 -61t-55.5 -21z" />
    <glyph glyph-name="quoteright" unicode="&#x2019;" horiz-adv-x="239" 
d="M196 703q32 0 50.5 -21.5t18.5 -58.5q0 -31 -13 -64.5t-34 -61t-48 -45.5t-55 -18q-40 0 -46 33q26 12 50 32t34 58q-15 11 -25.5 24.5t-10.5 39.5q0 40 23.5 61t55.5 21z" />
    <glyph glyph-name="quotesinglbase" unicode="&#x201a;" horiz-adv-x="239" 
d="M112 131q32 0 50.5 -21.5t18.5 -58.5q0 -31 -13 -64.5t-34 -61t-48 -45.5t-55 -18q-40 0 -46 33q26 12 50 32t34 58q-15 11 -25.5 24.5t-10.5 39.5q0 40 23.5 61t55.5 21z" />
    <glyph glyph-name="quotedblleft" unicode="&#x201c;" horiz-adv-x="433" 
d="M358 435q-32 0 -50.5 21.5t-18.5 58.5q0 31 13 64.5t34 61t48 45.5t55 18q40 0 46 -33q-26 -12 -50 -32t-34 -58q15 -11 25.5 -24.5t10.5 -39.5q0 -40 -23.5 -61t-55.5 -21zM164 435q-32 0 -50.5 21.5t-18.5 58.5q0 31 13 64.5t34 61t48 45.5t55 18q40 0 46 -33
q-26 -12 -50 -32t-34 -58q15 -11 25.5 -24.5t10.5 -39.5q0 -40 -23.5 -61t-55.5 -21z" />
    <glyph glyph-name="quotedblright" unicode="&#x201d;" horiz-adv-x="433" 
d="M390 703q32 0 50.5 -21.5t18.5 -58.5q0 -31 -13 -64.5t-34 -61t-48 -45.5t-55 -18q-40 0 -46 33q26 12 50 32t34 58q-15 11 -25.5 24.5t-10.5 39.5q0 40 23.5 61t55.5 21zM196 703q32 0 50.5 -21.5t18.5 -58.5q0 -31 -13 -64.5t-34 -61t-48 -45.5t-55 -18q-40 0 -46 33
q26 12 50 32t34 58q-15 11 -25.5 24.5t-10.5 39.5q0 40 23.5 61t55.5 21z" />
    <glyph glyph-name="quotedblbase" unicode="&#x201e;" horiz-adv-x="442" 
d="M315 131q32 0 50.5 -21.5t18.5 -58.5q0 -31 -13 -64.5t-34 -61t-48 -45.5t-55 -18q-40 0 -46 33q26 12 50 32t34 58q-15 11 -25.5 24.5t-10.5 39.5q0 40 23.5 61t55.5 21zM112 131q32 0 50.5 -21.5t18.5 -58.5q0 -31 -13 -64.5t-34 -61t-48 -45.5t-55 -18q-40 0 -46 33
q26 12 50 32t34 58q-15 11 -25.5 24.5t-10.5 39.5q0 40 23.5 61t55.5 21z" />
    <glyph glyph-name="dagger" unicode="&#x2020;" horiz-adv-x="430" 
d="M138 386q-39 0 -53 15t-14 41q0 19 8 45h131l30 182q10 2 20 3t18 1q33 0 46.5 -16.5t13.5 -39.5q0 -5 -0.5 -9.5t-1.5 -9.5l-18 -111h60q39 0 53 -15t14 -41q0 -19 -8 -45h-136l-83 -504h-108l83 504h-55z" />
    <glyph glyph-name="daggerdbl" unicode="&#x2021;" horiz-adv-x="430" 
d="M324 165q39 0 53 -15t14 -41q0 -19 -8 -45h-136l-30 -182h-108l30 182h-55q-39 0 -53 15t-14 41q0 19 8 45h130l38 230h-55q-39 0 -53 15t-14 41q0 19 8 45h131l29 173q10 2 20 3t18 1q33 0 46.5 -16.5t13.5 -39.5q0 -5 -0.5 -9.5t-1.5 -9.5l-17 -102h60q39 0 53 -15
t14 -41q0 -19 -8 -45h-136l-38 -230h61z" />
    <glyph glyph-name="bullet" unicode="&#x2022;" horiz-adv-x="395" 
d="M358 350q0 -27 -10 -51.5t-28 -43t-43 -29t-55 -10.5t-55 10.5t-42.5 29t-27 43t-9.5 51.5q0 28 9.5 52.5t27 43t42.5 29t55 10.5q31 0 56 -10.5t43 -29t27.5 -43t9.5 -52.5z" />
    <glyph glyph-name="ellipsis" unicode="&#x2026;" horiz-adv-x="645" 
d="M299 -15q-32 0 -50 20.5t-18 44.5q0 47 24.5 69.5t58.5 22.5q32 0 50 -20.5t18 -44.5q0 -47 -24.5 -69.5t-58.5 -22.5zM504 -15q-32 0 -50 20.5t-18 44.5q0 47 24.5 69.5t58.5 22.5q32 0 50 -20.5t18 -44.5q0 -47 -24.5 -69.5t-58.5 -22.5zM91 -15q-32 0 -50 20.5
t-18 44.5q0 47 24.5 69.5t58.5 22.5q32 0 50 -20.5t18 -44.5q0 -47 -24.5 -69.5t-58.5 -22.5z" />
    <glyph glyph-name="perthousand" unicode="&#x2030;" horiz-adv-x="1150" 
d="M247 0h-113l435 627q17 25 36 40.5t49 15.5q34 0 58 -11zM247 684q34 0 58.5 -12.5t40.5 -32.5t23.5 -46t7.5 -54q0 -40 -11 -78t-33 -68t-55 -48t-76 -18q-35 0 -59.5 12t-40.5 32.5t-23.5 46.5t-7.5 54q0 39 11.5 77t34 68t55.5 48.5t75 18.5zM277 548q0 10 -1.5 20.5
t-6 19.5t-12 14.5t-20.5 5.5q-27 0 -46 -38.5t-19 -106.5q0 -10 1.5 -20.5t5.5 -19t12 -14t20 -5.5q20 0 33 17.5t20.5 41.5t10 48t2.5 37zM641 341q34 0 58.5 -12.5t40.5 -32.5t23.5 -46t7.5 -54q0 -40 -11 -78t-33 -68t-55 -48t-76 -18q-35 0 -59.5 12t-40.5 32.5
t-23.5 46.5t-7.5 54q0 39 11.5 77t34 68t55.5 48.5t75 18.5zM671 205q0 10 -1.5 20.5t-6 19.5t-12 14.5t-20.5 5.5q-27 0 -46 -38.5t-19 -106.5q0 -10 1.5 -20.5t5.5 -19t12 -14t20 -5.5q20 0 33 17.5t20.5 41.5t10 48t2.5 37zM990 341q34 0 58.5 -12.5t40.5 -32.5t23.5 -46
t7.5 -54q0 -40 -11 -78t-33 -68t-55 -48t-76 -18q-35 0 -59.5 12t-40.5 32.5t-23.5 46.5t-7.5 54q0 39 11.5 77t34 68t55.5 48.5t75 18.5zM1020 205q0 10 -1.5 20.5t-6 19.5t-12 14.5t-20.5 5.5q-27 0 -46 -38.5t-19 -106.5q0 -10 1.5 -20.5t5.5 -19t12 -14t20 -5.5
q20 0 33 17.5t20.5 41.5t10 48t2.5 37z" />
    <glyph glyph-name="guilsinglleft" unicode="&#x2039;" horiz-adv-x="280" 
d="M173 276l60 -95q12 -20 12 -39q0 -24 -14 -42.5t-34 -32.5l-117 140q-24 28 -24 59q0 25 14.5 47t36.5 40l159 129q10 -17 15 -32t5 -32q0 -39 -30 -66z" />
    <glyph glyph-name="guilsinglright" unicode="&#x203a;" horiz-adv-x="280" 
d="M137 273l-60 95q-12 19 -12 39q0 24 14 42.5t34 32.5l117 -140q24 -28 24 -59q0 -25 -14.5 -47t-36.5 -40l-159 -129q-10 17 -15 32t-5 32q0 39 30 66z" />
    <glyph glyph-name="fraction" unicode="&#x2044;" horiz-adv-x="82" 
d="M-86 0h-110l406 627q17 26 35 41t48 15q33 0 57 -11z" />
    <glyph glyph-name="zerosuperior" unicode="&#x2070;" 
d="M241 613q-36 0 -61.5 -49.5t-26.5 -134.5q0 -28 10 -46t33 -18q18 -1 34 11.5t28 36.5t19.5 58t7.5 76q0 28 -9.5 47t-34.5 19zM250 687q38 0 63.5 -13.5t40.5 -34.5t21 -47t6 -51q0 -46 -11.5 -91t-35 -81t-59.5 -58t-86 -22q-38 0 -63.5 13t-40.5 34t-21 47t-6 52
q0 45 11.5 90t34.5 81t59.5 58.5t86.5 22.5z" />
    <glyph glyph-name="foursuperior" unicode="&#x2074;" 
d="M44 372l11 61l195 221q11 14 24.5 23.5t36.5 9.5q24 0 47 -12l-40 -236h16q17 0 23 -8.5t6 -20.5q0 -10 -3 -20.5t-8 -17.5h-45l-12 -72h-93l12 72h-170zM226 440l23 132l-119 -132h96z" />
    <glyph glyph-name="fivesuperior" unicode="&#x2075;" 
d="M100 404q22 -22 38.5 -31t45.5 -9q26 0 43.5 16t17.5 47q0 23 -14 38t-43 15q-17 0 -28.5 -2.5t-27.5 -10.5l-35 16l46 197h219q-2 -42 -16 -56.5t-51 -14.5h-92l-16 -71q6 2 15.5 4.5t23.5 2.5q57 0 84.5 -32t27.5 -81q0 -30 -10.5 -56t-30 -45.5t-48.5 -30.5t-66 -11
q-33 0 -55 6t-36 15q-30 19 -30 41q1 14 11 28t27 25z" />
    <glyph glyph-name="sixsuperior" unicode="&#x2076;" 
d="M74 424q0 47 14 94t42.5 84t73 60t104.5 23q26 0 36 -10t10 -24q0 -9 -3.5 -17.5t-8.5 -16.5h-36q-50 0 -80.5 -25.5t-47.5 -67.5q6 8 25.5 18t43.5 10q26 0 46 -9.5t33.5 -25t20 -36.5t6.5 -45q-1 -31 -10.5 -57.5t-28.5 -46.5t-47.5 -31.5t-66.5 -11.5
q-59 0 -92.5 34.5t-33.5 100.5zM205 358q24 0 40 17.5t16 55.5q0 22 -9.5 38t-33.5 16q-14 0 -27.5 -6t-21.5 -14q-2 -8 -3 -17.5t-1 -22.5q0 -30 9 -48.5t31 -18.5z" />
    <glyph glyph-name="sevensuperior" unicode="&#x2077;" 
d="M264 597h-180q2 42 17 62t53 20h192q17 0 26 -8t6 -25l-6 -28l-176 -319h-105z" />
    <glyph glyph-name="eightsuperior" unicode="&#x2078;" 
d="M237 621q-18 0 -31.5 -13t-13.5 -37q0 -17 9.5 -27.5t26.5 -10.5t31 13.5t14 37.5q0 17 -9.5 27t-26.5 10zM366 589q0 -37 -19 -57t-43 -34q28 -15 39.5 -36t11.5 -44q0 -33 -12.5 -57.5t-33.5 -40.5t-49 -23.5t-59 -7.5q-63 0 -99.5 30t-36.5 78q0 22 6.5 38.5t17.5 29
t25 21.5t29 15q-19 14 -30.5 31t-11.5 40q0 28 11 49.5t30 36t44.5 22t54.5 7.5q64 0 94.5 -28t30.5 -70zM205 357q23 0 40.5 16.5t17.5 45.5q0 20 -12.5 33t-35.5 13q-20 0 -39 -16t-19 -46q0 -20 12.5 -33t35.5 -13z" />
    <glyph glyph-name="ninesuperior" unicode="&#x2079;" 
d="M359 552q0 -47 -13.5 -94t-41.5 -84t-72 -60t-104 -23q-26 0 -36 10t-10 24q0 9 3.5 17.5t8.5 16.5h36q48 0 79 26t48 67q-13 -14 -32.5 -21t-36.5 -7q-28 0 -48 9.5t-33.5 25t-19.5 36.5t-6 45q1 31 10 57.5t27.5 46.5t47 31.5t67.5 11.5q59 0 92.5 -34.5t33.5 -100.5z
M228 618q-24 0 -39.5 -18.5t-15.5 -54.5q0 -22 9.5 -38t32.5 -16q15 0 28 6t20 14q2 8 3 17.5t1 22.5q0 30 -8.5 48.5t-30.5 18.5z" />
    <glyph glyph-name="zeroinferior" unicode="&#x2080;" 
d="M216 314q-36 0 -61.5 -49.5t-26.5 -134.5q0 -28 10 -46t33 -18q18 -1 34 11.5t28 36.5t19.5 58t7.5 76q0 28 -9.5 47t-34.5 19zM225 388q38 0 63.5 -13.5t40.5 -34.5t21 -47t6 -51q0 -46 -11.5 -91t-35 -81t-59.5 -58t-86 -22q-38 0 -63.5 13t-40.5 34t-21 47t-6 52
q0 45 11.5 90t34.5 81t59.5 58.5t86.5 22.5z" />
    <glyph glyph-name="oneinferior" unicode="&#x2081;" 
d="M157 1l44 266l-102 -49q-11 14 -17.5 25.5t-6.5 25.5t7.5 26t24.5 20l109 55q14 8 27.5 13t29.5 5t25 -4.5t17 -11.5l-62 -371h-96z" />
    <glyph glyph-name="twoinferior" unicode="&#x2082;" 
d="M33 2l12 64q17 14 42 33.5t51 42.5q19 16 36 32.5t30.5 33t21.5 32t8 29.5q0 19 -10.5 30.5t-31.5 11.5q-24 0 -43 -13.5t-32 -27.5q-19 8 -28.5 18t-9.5 25q0 8 4.5 18.5t15.5 18.5q15 14 44 26t71 12q53 0 84.5 -27.5t31.5 -77.5q0 -38 -15.5 -69.5t-50.5 -66.5
q-8 -7 -19 -17t-23.5 -20t-24 -19t-18.5 -15h75q31 0 44 -11.5t13 -32.5q0 -6 -2.5 -15t-4.5 -15h-271z" />
    <glyph glyph-name="threeinferior" unicode="&#x2083;" 
d="M98 354q17 14 45.5 24t66.5 10q30 0 53 -8.5t39 -22t24 -30t8 -33.5q0 -37 -19 -60.5t-48 -37.5q26 -14 36.5 -35t10.5 -45q0 -29 -11.5 -52.5t-32.5 -40t-49.5 -25t-62.5 -8.5q-35 0 -58.5 6.5t-37.5 14.5q-17 10 -24 20t-7 21q0 14 10 28t27 25q22 -22 41.5 -31
t48.5 -9q23 0 41 11.5t18 37.5q0 21 -13 34t-39 13h-33l12 68h34q23 0 42.5 11t19.5 40q0 14 -11.5 24.5t-34.5 10.5t-45.5 -13t-33.5 -27q-37 16 -37 45q0 18 20 34z" />
    <glyph glyph-name="fourinferior" unicode="&#x2084;" 
d="M19 73l11 61l195 221q11 14 24.5 23.5t36.5 9.5q24 0 47 -12l-40 -236h16q17 0 23 -8.5t6 -20.5q0 -10 -3 -20.5t-8 -17.5h-45l-12 -72h-93l12 72h-170zM201 141l23 132l-119 -132h96z" />
    <glyph glyph-name="fiveinferior" unicode="&#x2085;" 
d="M75 105q22 -22 38.5 -31t45.5 -9q26 0 43.5 16t17.5 47q0 23 -14 38t-43 15q-17 0 -28.5 -2.5t-27.5 -10.5l-35 16l46 197h219q-2 -42 -16 -56.5t-51 -14.5h-92l-16 -71q6 2 15.5 4.5t23.5 2.5q57 0 84.5 -32t27.5 -81q0 -30 -10.5 -56t-30 -45.5t-48.5 -30.5t-66 -11
q-33 0 -55 6t-36 15q-30 19 -30 41q1 14 11 28t27 25z" />
    <glyph glyph-name="sixinferior" unicode="&#x2086;" 
d="M49 125q0 47 14 94t42.5 84t73 60t104.5 23q26 0 36 -10t10 -24q0 -9 -3.5 -17.5t-8.5 -16.5h-36q-50 0 -80.5 -25.5t-47.5 -67.5q6 8 25.5 18t43.5 10q26 0 46 -9.5t33.5 -25t20 -36.5t6.5 -45q-1 -31 -10.5 -57.5t-28.5 -46.5t-47.5 -31.5t-66.5 -11.5
q-59 0 -92.5 34.5t-33.5 100.5zM180 59q24 0 40 17.5t16 55.5q0 22 -9.5 38t-33.5 16q-14 0 -27.5 -6t-21.5 -14q-2 -8 -3 -17.5t-1 -22.5q0 -30 9 -48.5t31 -18.5z" />
    <glyph glyph-name="seveninferior" unicode="&#x2087;" 
d="M239 298h-180q2 42 17 62t53 20h192q17 0 26 -8t6 -25l-6 -28l-176 -319h-105z" />
    <glyph glyph-name="eightinferior" unicode="&#x2088;" 
d="M212 322q-18 0 -31.5 -13t-13.5 -37q0 -17 9.5 -27.5t26.5 -10.5t31 13.5t14 37.5q0 17 -9.5 27t-26.5 10zM341 290q0 -37 -19 -57t-43 -34q28 -15 39.5 -36t11.5 -44q0 -33 -12.5 -57.5t-33.5 -40.5t-49 -23.5t-59 -7.5q-63 0 -99.5 30t-36.5 78q0 22 6.5 38.5t17.5 29
t25 21.5t29 15q-19 14 -30.5 31t-11.5 40q0 28 11 49.5t30 36t44.5 22t54.5 7.5q64 0 94.5 -28t30.5 -70zM180 58q23 0 40.5 16.5t17.5 45.5q0 20 -12.5 33t-35.5 13q-20 0 -39 -16t-19 -46q0 -20 12.5 -33t35.5 -13z" />
    <glyph glyph-name="nineinferior" unicode="&#x2089;" 
d="M336 253q0 -47 -13.5 -94t-41.5 -84t-72 -60t-104 -23q-26 0 -36 10t-10 24q0 9 3.5 17.5t8.5 16.5h36q48 0 79 26t48 67q-13 -14 -32.5 -21t-36.5 -7q-28 0 -48 9.5t-33.5 25t-19.5 36.5t-6 45q1 31 10 57.5t27.5 46.5t47 31.5t67.5 11.5q59 0 92.5 -34.5t33.5 -100.5z
M205 319q-24 0 -39.5 -18.5t-15.5 -54.5q0 -22 9.5 -38t32.5 -16q15 0 28 6t20 14q2 8 3 17.5t1 22.5q0 30 -8.5 48.5t-30.5 18.5z" />
    <glyph glyph-name="Euro" unicode="&#x20ac;" horiz-adv-x="549" 
d="M247 222q4 -54 29.5 -91.5t76.5 -37.5q48 0 80.5 19t60.5 51q45 -34 45 -67q0 -28 -14.5 -44t-41.5 -33q-23 -14 -57.5 -25t-85.5 -11q-58 0 -99.5 18t-69 49.5t-42 75.5t-18.5 96h-77l10 63h66q1 18 2.5 36.5t4.5 37.5h-61l10 63h65q14 51 37.5 96t59 78.5t82.5 53.5
t107 20q55 0 94 -16t58 -38q11 -12 17 -26t5 -28q-1 -31 -21.5 -48.5t-49.5 -24.5q-15 33 -39.5 52.5t-73.5 19.5q-48 0 -84.5 -35t-56.5 -104h189l-10 -63h-192q-2 -17 -4 -35.5t-3 -38.5h187l-10 -63h-176z" />
    <glyph glyph-name="afii61289" unicode="&#x2113;" horiz-adv-x="474" 
d="M209 289q54 60 85.5 123.5t31.5 132.5q0 48 -16 67.5t-38 19.5q-26 0 -44.5 -33t-18.5 -109v-201zM435 77q-27 -40 -65.5 -63t-90.5 -23q-70 0 -108 39.5t-38 127.5q-13 -10 -24.5 -18t-24.5 -17q-5 11 -11.5 22t-13.5 22q19 13 37 27.5t36 30.5v212q0 71 9.5 119.5
t28 78t45 42.5t61.5 13q51 0 84 -37.5t33 -106.5q0 -91 -48 -172.5t-136 -163.5v-20q0 -41 6 -66.5t16.5 -39.5t25 -19.5t31.5 -5.5q32 0 61.5 16.5t45.5 39.5z" />
    <glyph glyph-name="trademark" unicode="&#x2122;" horiz-adv-x="806" 
d="M457 676q23 0 33.5 -10t16.5 -25l85 -209l80 209q8 20 23 27.5t32 7.5q13 0 25.5 -2.5t19.5 -5.5l18 -364h-84l-9 219l-69 -166h-77l-66 159l-12 -212h-85l24 364q7 3 20.5 5.5t24.5 2.5zM368 673q2 -8 2.5 -17t0.5 -14q0 -16 -9.5 -30.5t-40.5 -14.5h-63v-293h-90v293
h-103q-2 10 -3 18.5t-1 13.5q0 8 2 16t8 14t17.5 10t29.5 4h250z" />
    <glyph glyph-name="uni2126" unicode="&#x2126;" horiz-adv-x="679" 
d="M355 0l16 96q35 21 63.5 54t48 75t30 91.5t10.5 103.5q0 69 -31 111t-93 42q-44 0 -78 -23.5t-57.5 -62.5t-36 -90t-12.5 -106q0 -35 3.5 -63t11 -51.5t20.5 -43t31 -37.5l-16 -96h-171q-41 0 -56 16.5t-15 39.5q0 15 3.5 28t5.5 22h116q-30 33 -50 85.5t-20 109.5
q0 70 21.5 138.5t63 122.5t103 87.5t141.5 33.5q63 0 111 -20.5t80 -56.5t48.5 -84.5t16.5 -103.5q0 -42 -10 -86t-28.5 -85t-46 -77.5t-61.5 -63.5h42q41 0 55.5 -17t14.5 -39q0 -29 -7 -50h-267z" />
    <glyph glyph-name="estimated" unicode="&#x212e;" horiz-adv-x="760" 
d="M226 340v-230q75 -75 183 -75q79 0 137.5 35.5t106.5 116.5l44 -26q-29 -45 -59 -77.5t-64 -53.5t-74.5 -30.5t-90.5 -9.5q-75 0 -135 27.5t-102.5 74.5t-65.5 111t-23 137t23 137t65.5 111.5t102.5 74.5t135 27q73 0 133 -26t103 -72.5t67 -111t25 -140.5h-511zM594 386
v183q-79 76 -186 76q-109 0 -182 -76v-183h368z" />
    <glyph glyph-name="onethird" unicode="&#x2153;" horiz-adv-x="822" 
d="M162 300l44 266l-102 -49q-11 14 -17.5 25.5t-6.5 25.5t7.5 26t24.5 20l109 55q14 8 27.5 13t29.5 5t25 -4.5t17 -11.5l-62 -371h-96zM248 0h-110l406 627q17 26 35 41t48 15q33 0 57 -11zM562 354q17 14 45.5 24t66.5 10q30 0 53 -8.5t39 -22t24 -30t8 -33.5
q0 -37 -19 -60.5t-48 -37.5q26 -14 36.5 -35t10.5 -45q0 -29 -11.5 -52.5t-32.5 -40t-49.5 -25t-62.5 -8.5q-35 0 -58.5 6.5t-37.5 14.5q-17 10 -24 20t-7 21q0 14 10 28t27 25q22 -22 41.5 -31t48.5 -9q23 0 41 11.5t18 37.5q0 21 -13 34t-39 13h-33l12 68h34q23 0 42.5 11
t19.5 40q0 14 -11.5 24.5t-34.5 10.5t-45.5 -13t-33.5 -27q-37 16 -37 45q0 18 20 34z" />
    <glyph glyph-name="twothirds" unicode="&#x2154;" horiz-adv-x="822" 
d="M58 301l12 64q17 14 42 33.5t51 42.5q19 16 36 32.5t30.5 33t21.5 32t8 29.5q0 19 -10.5 30.5t-31.5 11.5q-24 0 -43 -13.5t-32 -27.5q-19 8 -28.5 18t-9.5 25q0 8 4.5 18.5t15.5 18.5q15 14 44 26t71 12q53 0 84.5 -27.5t31.5 -77.5q0 -38 -15.5 -69.5t-50.5 -66.5
q-8 -7 -19 -17t-23.5 -20t-24 -19t-18.5 -15h75q31 0 44 -11.5t13 -32.5q0 -6 -2.5 -15t-4.5 -15h-271zM270 0h-110l406 627q17 26 35 41t48 15q33 0 57 -11zM572 354q17 14 45.5 24t66.5 10q30 0 53 -8.5t39 -22t24 -30t8 -33.5q0 -37 -19 -60.5t-48 -37.5q26 -14 36.5 -35
t10.5 -45q0 -29 -11.5 -52.5t-32.5 -40t-49.5 -25t-62.5 -8.5q-35 0 -58.5 6.5t-37.5 14.5q-17 10 -24 20t-7 21q0 14 10 28t27 25q22 -22 41.5 -31t48.5 -9q23 0 41 11.5t18 37.5q0 21 -13 34t-39 13h-33l12 68h34q23 0 42.5 11t19.5 40q0 14 -11.5 24.5t-34.5 10.5
t-45.5 -13t-33.5 -27q-37 16 -37 45q0 18 20 34z" />
    <glyph glyph-name="onefifth" unicode="&#x2155;" horiz-adv-x="822" 
d="M172 300l44 266l-102 -49q-11 14 -17.5 25.5t-6.5 25.5t7.5 26t24.5 20l109 55q14 8 27.5 13t29.5 5t25 -4.5t17 -11.5l-62 -371h-96zM258 0h-110l406 627q17 26 35 41t48 15q33 0 57 -11zM551 105q22 -22 38.5 -31t45.5 -9q26 0 43.5 16t17.5 47q0 23 -14 38t-43 15
q-17 0 -28.5 -2.5t-27.5 -10.5l-35 16l46 197h219q-2 -42 -16 -56.5t-51 -14.5h-92l-16 -71q6 2 15.5 4.5t23.5 2.5q57 0 84.5 -32t27.5 -81q0 -30 -10.5 -56t-30 -45.5t-48.5 -30.5t-66 -11q-33 0 -55 6t-36 15q-30 19 -30 41q1 14 11 28t27 25z" />
    <glyph glyph-name="twofifths" unicode="&#x2156;" horiz-adv-x="822" 
d="M58 301l12 64q17 14 42 33.5t51 42.5q19 16 36 32.5t30.5 33t21.5 32t8 29.5q0 19 -10.5 30.5t-31.5 11.5q-24 0 -43 -13.5t-32 -27.5q-19 8 -28.5 18t-9.5 25q0 8 4.5 18.5t15.5 18.5q15 14 44 26t71 12q53 0 84.5 -27.5t31.5 -77.5q0 -38 -15.5 -69.5t-50.5 -66.5
q-8 -7 -19 -17t-23.5 -20t-24 -19t-18.5 -15h75q31 0 44 -11.5t13 -32.5q0 -6 -2.5 -15t-4.5 -15h-271zM290 0h-110l406 627q17 26 35 41t48 15q33 0 57 -11zM551 105q22 -22 38.5 -31t45.5 -9q26 0 43.5 16t17.5 47q0 23 -14 38t-43 15q-17 0 -28.5 -2.5t-27.5 -10.5
l-35 16l46 197h219q-2 -42 -16 -56.5t-51 -14.5h-92l-16 -71q6 2 15.5 4.5t23.5 2.5q57 0 84.5 -32t27.5 -81q0 -30 -10.5 -56t-30 -45.5t-48.5 -30.5t-66 -11q-33 0 -55 6t-36 15q-30 19 -30 41q1 14 11 28t27 25z" />
    <glyph glyph-name="threefifths" unicode="&#x2157;" horiz-adv-x="822" 
d="M121 653q17 14 45.5 24t66.5 10q30 0 53 -8.5t39 -22t24 -30t8 -33.5q0 -37 -19 -60.5t-48 -37.5q26 -14 36.5 -35t10.5 -45q0 -29 -11.5 -52.5t-32.5 -40t-49.5 -25t-62.5 -8.5q-35 0 -58.5 6.5t-37.5 14.5q-17 10 -24 20t-7 21q0 14 10 28t27 25q22 -22 41.5 -31
t48.5 -9q23 0 41 11.5t18 37.5q0 21 -13 34t-39 13h-33l12 68h34q23 0 42.5 11t19.5 40q0 14 -11.5 24.5t-34.5 10.5t-45.5 -13t-33.5 -27q-37 16 -37 45q0 18 20 34zM262 0h-110l406 627q17 26 35 41t48 15q33 0 57 -11zM551 105q22 -22 38.5 -31t45.5 -9q26 0 43.5 16
t17.5 47q0 23 -14 38t-43 15q-17 0 -28.5 -2.5t-27.5 -10.5l-35 16l46 197h219q-2 -42 -16 -56.5t-51 -14.5h-92l-16 -71q6 2 15.5 4.5t23.5 2.5q57 0 84.5 -32t27.5 -81q0 -30 -10.5 -56t-30 -45.5t-48.5 -30.5t-66 -11q-33 0 -55 6t-36 15q-30 19 -30 41q1 14 11 28t27 25
z" />
    <glyph glyph-name="fourfifths" unicode="&#x2158;" horiz-adv-x="822" 
d="M53 372l11 61l195 221q11 14 24.5 23.5t36.5 9.5q24 0 47 -12l-40 -236h16q17 0 23 -8.5t6 -20.5q0 -10 -3 -20.5t-8 -17.5h-45l-12 -72h-93l12 72h-170zM235 440l23 132l-119 -132h96zM282 0h-110l406 627q17 26 35 41t48 15q33 0 57 -11zM551 105q22 -22 38.5 -31
t45.5 -9q26 0 43.5 16t17.5 47q0 23 -14 38t-43 15q-17 0 -28.5 -2.5t-27.5 -10.5l-35 16l46 197h219q-2 -42 -16 -56.5t-51 -14.5h-92l-16 -71q6 2 15.5 4.5t23.5 2.5q57 0 84.5 -32t27.5 -81q0 -30 -10.5 -56t-30 -45.5t-48.5 -30.5t-66 -11q-33 0 -55 6t-36 15
q-30 19 -30 41q1 14 11 28t27 25z" />
    <glyph glyph-name="onesixth" unicode="&#x2159;" horiz-adv-x="822" 
d="M162 300l44 266l-102 -49q-11 14 -17.5 25.5t-6.5 25.5t7.5 26t24.5 20l109 55q14 8 27.5 13t29.5 5t25 -4.5t17 -11.5l-62 -371h-96zM262 0h-110l406 627q17 26 35 41t48 15q33 0 57 -11zM505 125q0 47 14 94t42.5 84t73 60t104.5 23q26 0 36 -10t10 -24
q0 -9 -3.5 -17.5t-8.5 -16.5h-36q-50 0 -80.5 -25.5t-47.5 -67.5q6 8 25.5 18t43.5 10q26 0 46 -9.5t33.5 -25t20 -36.5t6.5 -45q-1 -31 -10.5 -57.5t-28.5 -46.5t-47.5 -31.5t-66.5 -11.5q-59 0 -92.5 34.5t-33.5 100.5zM636 59q24 0 40 17.5t16 55.5q0 22 -9.5 38
t-33.5 16q-14 0 -27.5 -6t-21.5 -14q-2 -8 -3 -17.5t-1 -22.5q0 -30 9 -48.5t31 -18.5z" />
    <glyph glyph-name="fivesixths" unicode="&#x215a;" horiz-adv-x="822" 
d="M100 404q22 -22 38.5 -31t45.5 -9q26 0 43.5 16t17.5 47q0 23 -14 38t-43 15q-17 0 -28.5 -2.5t-27.5 -10.5l-35 16l46 197h219q-2 -42 -16 -56.5t-51 -14.5h-92l-16 -71q6 2 15.5 4.5t23.5 2.5q57 0 84.5 -32t27.5 -81q0 -30 -10.5 -56t-30 -45.5t-48.5 -30.5t-66 -11
q-33 0 -55 6t-36 15q-30 19 -30 41q1 14 11 28t27 25zM279 0h-110l406 627q17 26 35 41t48 15q33 0 57 -11zM515 125q0 47 14 94t42.5 84t73 60t104.5 23q26 0 36 -10t10 -24q0 -9 -3.5 -17.5t-8.5 -16.5h-36q-50 0 -80.5 -25.5t-47.5 -67.5q6 8 25.5 18t43.5 10
q26 0 46 -9.5t33.5 -25t20 -36.5t6.5 -45q-1 -31 -10.5 -57.5t-28.5 -46.5t-47.5 -31.5t-66.5 -11.5q-59 0 -92.5 34.5t-33.5 100.5zM646 59q24 0 40 17.5t16 55.5q0 22 -9.5 38t-33.5 16q-14 0 -27.5 -6t-21.5 -14q-2 -8 -3 -17.5t-1 -22.5q0 -30 9 -48.5t31 -18.5z" />
    <glyph glyph-name="oneeighth" unicode="&#x215b;" horiz-adv-x="822" 
d="M162 300l44 266l-102 -49q-11 14 -17.5 25.5t-6.5 25.5t7.5 26t24.5 20l109 55q14 8 27.5 13t29.5 5t25 -4.5t17 -11.5l-62 -371h-96zM255 0h-110l406 627q17 26 35 41t48 15q33 0 57 -11zM678 322q-18 0 -31.5 -13t-13.5 -37q0 -17 9.5 -27.5t26.5 -10.5t31 13.5
t14 37.5q0 17 -9.5 27t-26.5 10zM807 290q0 -37 -19 -57t-43 -34q28 -15 39.5 -36t11.5 -44q0 -33 -12.5 -57.5t-33.5 -40.5t-49 -23.5t-59 -7.5q-63 0 -99.5 30t-36.5 78q0 22 6.5 38.5t17.5 29t25 21.5t29 15q-19 14 -30.5 31t-11.5 40q0 28 11 49.5t30 36t44.5 22
t54.5 7.5q64 0 94.5 -28t30.5 -70zM646 58q23 0 40.5 16.5t17.5 45.5q0 20 -12.5 33t-35.5 13q-20 0 -39 -16t-19 -46q0 -20 12.5 -33t35.5 -13z" />
    <glyph glyph-name="threeeighths" unicode="&#x215c;" horiz-adv-x="822" 
d="M121 653q17 14 45.5 24t66.5 10q30 0 53 -8.5t39 -22t24 -30t8 -33.5q0 -37 -19 -60.5t-48 -37.5q26 -14 36.5 -35t10.5 -45q0 -29 -11.5 -52.5t-32.5 -40t-49.5 -25t-62.5 -8.5q-35 0 -58.5 6.5t-37.5 14.5q-17 10 -24 20t-7 21q0 14 10 28t27 25q22 -22 41.5 -31
t48.5 -9q23 0 41 11.5t18 37.5q0 21 -13 34t-39 13h-33l12 68h34q23 0 42.5 11t19.5 40q0 14 -11.5 24.5t-34.5 10.5t-45.5 -13t-33.5 -27q-37 16 -37 45q0 18 20 34zM270 0h-110l406 627q17 26 35 41t48 15q33 0 57 -11zM678 322q-18 0 -31.5 -13t-13.5 -37
q0 -17 9.5 -27.5t26.5 -10.5t31 13.5t14 37.5q0 17 -9.5 27t-26.5 10zM807 290q0 -37 -19 -57t-43 -34q28 -15 39.5 -36t11.5 -44q0 -33 -12.5 -57.5t-33.5 -40.5t-49 -23.5t-59 -7.5q-63 0 -99.5 30t-36.5 78q0 22 6.5 38.5t17.5 29t25 21.5t29 15q-19 14 -30.5 31
t-11.5 40q0 28 11 49.5t30 36t44.5 22t54.5 7.5q64 0 94.5 -28t30.5 -70zM646 58q23 0 40.5 16.5t17.5 45.5q0 20 -12.5 33t-35.5 13q-20 0 -39 -16t-19 -46q0 -20 12.5 -33t35.5 -13z" />
    <glyph glyph-name="fiveeighths" unicode="&#x215d;" horiz-adv-x="822" 
d="M100 404q22 -22 38.5 -31t45.5 -9q26 0 43.5 16t17.5 47q0 23 -14 38t-43 15q-17 0 -28.5 -2.5t-27.5 -10.5l-35 16l46 197h219q-2 -42 -16 -56.5t-51 -14.5h-92l-16 -71q6 2 15.5 4.5t23.5 2.5q57 0 84.5 -32t27.5 -81q0 -30 -10.5 -56t-30 -45.5t-48.5 -30.5t-66 -11
q-33 0 -55 6t-36 15q-30 19 -30 41q1 14 11 28t27 25zM272 0h-110l406 627q17 26 35 41t48 15q33 0 57 -11zM678 322q-18 0 -31.5 -13t-13.5 -37q0 -17 9.5 -27.5t26.5 -10.5t31 13.5t14 37.5q0 17 -9.5 27t-26.5 10zM807 290q0 -37 -19 -57t-43 -34q28 -15 39.5 -36
t11.5 -44q0 -33 -12.5 -57.5t-33.5 -40.5t-49 -23.5t-59 -7.5q-63 0 -99.5 30t-36.5 78q0 22 6.5 38.5t17.5 29t25 21.5t29 15q-19 14 -30.5 31t-11.5 40q0 28 11 49.5t30 36t44.5 22t54.5 7.5q64 0 94.5 -28t30.5 -70zM646 58q23 0 40.5 16.5t17.5 45.5q0 20 -12.5 33
t-35.5 13q-20 0 -39 -16t-19 -46q0 -20 12.5 -33t35.5 -13z" />
    <glyph glyph-name="seveneighths" unicode="&#x215e;" horiz-adv-x="822" 
d="M264 597h-180q2 42 17 62t53 20h192q17 0 26 -8t6 -25l-6 -28l-176 -319h-105zM235 0h-110l406 627q17 26 35 41t48 15q33 0 57 -11zM678 322q-18 0 -31.5 -13t-13.5 -37q0 -17 9.5 -27.5t26.5 -10.5t31 13.5t14 37.5q0 17 -9.5 27t-26.5 10zM807 290q0 -37 -19 -57
t-43 -34q28 -15 39.5 -36t11.5 -44q0 -33 -12.5 -57.5t-33.5 -40.5t-49 -23.5t-59 -7.5q-63 0 -99.5 30t-36.5 78q0 22 6.5 38.5t17.5 29t25 21.5t29 15q-19 14 -30.5 31t-11.5 40q0 28 11 49.5t30 36t44.5 22t54.5 7.5q64 0 94.5 -28t30.5 -70zM646 58q23 0 40.5 16.5
t17.5 45.5q0 20 -12.5 33t-35.5 13q-20 0 -39 -16t-19 -46q0 -20 12.5 -33t35.5 -13z" />
    <glyph glyph-name="partialdiff" unicode="&#x2202;" horiz-adv-x="536" 
d="M174 685q85 -8 147 -36t102 -71.5t59.5 -99.5t19.5 -119q0 -96 -19.5 -166t-54.5 -116t-83.5 -68t-106.5 -22q-36 0 -69.5 12t-59 37.5t-41 64.5t-15.5 92q0 75 20 128t51.5 86.5t70 49.5t76.5 16q31 0 54 -8.5t43 -22.5q-8 32 -28 58.5t-49 45.5t-65 30.5t-75 13.5z
M244 86q45 0 70 30t37.5 71.5t15.5 85.5t3 72q-11 14 -31.5 23t-45.5 9q-22 0 -43.5 -9t-38 -31t-26.5 -57.5t-10 -87.5q0 -51 17 -78.5t52 -27.5z" />
    <glyph glyph-name="Delta" unicode="&#x2206;" horiz-adv-x="605" 
d="M357 516l-188 -412h252zM-15 0l330 670h136l122 -670h-588z" />
    <glyph glyph-name="product" unicode="&#x220f;" horiz-adv-x="623" 
d="M598 561l-113 -683h-135l113 683h-181l-113 -683h-135l113 683h-71l18 110h594l-18 -110h-72z" />
    <glyph glyph-name="summation" unicode="&#x2211;" horiz-adv-x="471" 
d="M-43 -122l14 84l252 327l-147 294l13 87h433l-18 -108h-281l138 -287l-222 -288h281l-18 -109h-445z" />
    <glyph glyph-name="minus" unicode="&#x2212;" horiz-adv-x="549" 
d="M88 281l18 109h402l-18 -109h-402z" />
    <glyph glyph-name="uni2215" unicode="&#x2215;" horiz-adv-x="371" 
d="M107 0h-127l313 604q19 36 42 53.5t61 17.5q17 0 31 -3.5t24 -8.5z" />
    <glyph glyph-name="uni2219" unicode="&#x2219;" horiz-adv-x="252" 
d="M140 257q-32 0 -50 20.5t-18 44.5q0 47 24.5 69.5t58.5 22.5q32 0 50 -20.5t18 -44.5q0 -47 -24.5 -69.5t-58.5 -22.5z" />
    <glyph glyph-name="radical" unicode="&#x221a;" horiz-adv-x="556" 
d="M308 0h-100l-77 252h-77l18 109h156l48 -173q31 67 65 136.5t68.5 140t68 140.5t65.5 137l103 -40z" />
    <glyph glyph-name="infinity" unicode="&#x221e;" horiz-adv-x="607" 
d="M487 370q0 28 -12 41.5t-29 13.5q-29 0 -48.5 -22.5t-34.5 -60.5q16 -71 56 -71q16 0 28.5 8.5t21 22.5t13.5 32t5 36zM157 325q0 -28 12 -41.5t29 -13.5q29 0 48.5 22.5t34.5 60.5q-16 71 -56 71q-16 0 -28.5 -8.5t-21 -22.5t-13.5 -32t-5 -36zM308 259
q-29 -40 -56 -57.5t-67 -17.5q-61 0 -93 37t-32 103q0 35 11 68.5t32 59.5t51 42t68 16q46 0 70 -19.5t44 -54.5q29 40 56 57.5t67 17.5q61 0 93 -37t32 -103q0 -35 -11 -68.5t-32 -59.5t-51 -42t-68 -16q-46 0 -70 19.5t-44 54.5z" />
    <glyph glyph-name="integral" unicode="&#x222b;" horiz-adv-x="382" 
d="M417 562q-58 0 -88 -26t-41 -90l-64 -386q-11 -66 -29 -114.5t-50.5 -80t-83 -46.5t-125.5 -15l18 110q54 0 86 26.5t43 89.5l64 387q11 66 30 114t52 79.5t82.5 46.5t123.5 15z" />
    <glyph glyph-name="approxequal" unicode="&#x2248;" horiz-adv-x="546" 
d="M195 391q-23 0 -49 -8.5t-46 -21.5l-32 92q21 18 58.5 33t78.5 15q28 0 54.5 -6t52.5 -13.5t52.5 -13.5t53.5 -6q23 0 47.5 9t44.5 22l32 -92q-21 -18 -58.5 -33t-78.5 -15q-28 0 -54 6t-52 13t-51.5 13t-52.5 6zM160 179q-23 0 -49 -8.5t-46 -21.5l-32 92q21 18 58.5 33
t78.5 15q28 0 54.5 -6t52.5 -13.5t52.5 -13.5t53.5 -6q23 0 47.5 9t44.5 22l32 -92q-21 -18 -58.5 -33t-78.5 -15q-28 0 -54 6t-52 13t-51.5 13t-52.5 6z" />
    <glyph glyph-name="notequal" unicode="&#x2260;" horiz-adv-x="549" 
d="M422 617l69 -39l-50 -86h83l-19 -113h-130l-56 -97h170l-19 -113h-217l-78 -134l-69 39l55 95h-89l19 113h136l56 97h-176l19 113h223z" />
    <glyph glyph-name="lessequal" unicode="&#x2264;" horiz-adv-x="549" 
d="M527 471l-282 -108l248 -101l-20 -114l-366 169l18 108l422 171zM50 0l18 109h402l-18 -109h-402z" />
    <glyph glyph-name="greaterequal" unicode="&#x2265;" horiz-adv-x="549" 
d="M81 273l282 108l-248 101l20 114l366 -169l-18 -108l-422 -171zM33 0l18 109h402l-18 -109h-402z" />
    <glyph glyph-name="lozenge" unicode="&#x25ca;" horiz-adv-x="510" 
d="M307 535l-127 -178l62 -187l129 188zM482 356l-269 -380l-142 382l265 370z" />
    <glyph glyph-name="fi" unicode="&#xf001;" horiz-adv-x="509" 
d="M158 -10q-15 -95 -62 -148t-137 -53q-20 0 -42.5 4t-42 13t-32.5 24.5t-13 38.5q0 18 11.5 35.5t35.5 31.5q14 -20 31.5 -30.5t42.5 -10.5q32 0 49.5 24.5t25.5 70.5l87 523q9 54 29.5 93t50.5 63.5t68.5 36t83.5 11.5q58 0 90 -15t50 -31q14 -11 22.5 -27.5t8.5 -33.5
q0 -20 -17.5 -40t-50.5 -30q-5 12 -12 26t-19 25t-29 18.5t-40 7.5q-51 0 -72.5 -26t-30.5 -80l-6 -35h266l-59 -355q-2 -11 -3 -22.5t-1 -23.5q0 -19 2.5 -38t7.5 -33q-17 -10 -33.5 -14t-35.5 -4q-41 0 -60.5 16t-19.5 59q0 4 0.5 10.5t1.5 11.5l47 290h-130z" />
    <glyph glyph-name="fl" unicode="&#xf002;" horiz-adv-x="523" 
d="M158 -10q-15 -95 -62 -148t-137 -53q-20 0 -42.5 4t-42 13t-32.5 24.5t-13 38.5q0 18 11.5 35.5t35.5 31.5q14 -20 31.5 -30.5t42.5 -10.5q32 0 49.5 24.5t25.5 70.5l87 523q18 109 74.5 156.5t146.5 47.5q62 0 112.5 -19t99.5 -54l-88 -523q-2 -11 -3 -22.5t-1 -23.5
q0 -19 2.5 -38t7.5 -33q-17 -10 -33.5 -14t-35.5 -4q-41 0 -60.5 16t-19.5 59q0 4 0.5 10.5t1.5 11.5l85 512q-8 6 -22 14t-40 8q-45 0 -65.5 -26t-29.5 -80l-6 -35h95l-17 -103h-95z" />
    <glyph glyph-name="oneseventh" unicode="&#xf506;" horiz-adv-x="822" 
d="M172 300l44 266l-102 -49q-11 14 -17.5 25.5t-6.5 25.5t7.5 26t24.5 20l109 55q14 8 27.5 13t29.5 5t25 -4.5t17 -11.5l-62 -371h-96zM242 0h-110l406 627q17 26 35 41t48 15q33 0 57 -11zM715 298h-180q2 42 17 62t53 20h192q17 0 26 -8t6 -25l-6 -28l-176 -319h-105z
" />
    <glyph glyph-name="twosevenths" unicode="&#xf507;" horiz-adv-x="822" 
d="M58 301l12 64q17 14 42 33.5t51 42.5q19 16 36 32.5t30.5 33t21.5 32t8 29.5q0 19 -10.5 30.5t-31.5 11.5q-24 0 -43 -13.5t-32 -27.5q-19 8 -28.5 18t-9.5 25q0 8 4.5 18.5t15.5 18.5q15 14 44 26t71 12q53 0 84.5 -27.5t31.5 -77.5q0 -38 -15.5 -69.5t-50.5 -66.5
q-8 -7 -19 -17t-23.5 -20t-24 -19t-18.5 -15h75q31 0 44 -11.5t13 -32.5q0 -6 -2.5 -15t-4.5 -15h-271zM270 0h-110l406 627q17 26 35 41t48 15q33 0 57 -11zM715 298h-180q2 42 17 62t53 20h192q17 0 26 -8t6 -25l-6 -28l-176 -319h-105z" />
    <glyph glyph-name="threesevenths" unicode="&#xf508;" horiz-adv-x="822" 
d="M121 653q17 14 45.5 24t66.5 10q30 0 53 -8.5t39 -22t24 -30t8 -33.5q0 -37 -19 -60.5t-48 -37.5q26 -14 36.5 -35t10.5 -45q0 -29 -11.5 -52.5t-32.5 -40t-49.5 -25t-62.5 -8.5q-35 0 -58.5 6.5t-37.5 14.5q-17 10 -24 20t-7 21q0 14 10 28t27 25q22 -22 41.5 -31
t48.5 -9q23 0 41 11.5t18 37.5q0 21 -13 34t-39 13h-33l12 68h34q23 0 42.5 11t19.5 40q0 14 -11.5 24.5t-34.5 10.5t-45.5 -13t-33.5 -27q-37 16 -37 45q0 18 20 34zM261 0h-110l406 627q17 26 35 41t48 15q33 0 57 -11zM715 298h-180q2 42 17 62t53 20h192q17 0 26 -8
t6 -25l-6 -28l-176 -319h-105z" />
    <glyph glyph-name="foursevenths" unicode="&#xf509;" horiz-adv-x="822" 
d="M53 372l11 61l195 221q11 14 24.5 23.5t36.5 9.5q24 0 47 -12l-40 -236h16q17 0 23 -8.5t6 -20.5q0 -10 -3 -20.5t-8 -17.5h-45l-12 -72h-93l12 72h-170zM235 440l23 132l-119 -132h96zM267 0h-110l406 627q17 26 35 41t48 15q33 0 57 -11zM715 298h-180q2 42 17 62
t53 20h192q17 0 26 -8t6 -25l-6 -28l-176 -319h-105z" />
    <glyph glyph-name="fivesevenths" unicode="&#xf50a;" horiz-adv-x="822" 
d="M100 404q22 -22 38.5 -31t45.5 -9q26 0 43.5 16t17.5 47q0 23 -14 38t-43 15q-17 0 -28.5 -2.5t-27.5 -10.5l-35 16l46 197h219q-2 -42 -16 -56.5t-51 -14.5h-92l-16 -71q6 2 15.5 4.5t23.5 2.5q57 0 84.5 -32t27.5 -81q0 -30 -10.5 -56t-30 -45.5t-48.5 -30.5t-66 -11
q-33 0 -55 6t-36 15q-30 19 -30 41q1 14 11 28t27 25zM252 0h-110l406 627q17 26 35 41t48 15q33 0 57 -11zM715 298h-180q2 42 17 62t53 20h192q17 0 26 -8t6 -25l-6 -28l-176 -319h-105z" />
    <glyph glyph-name="sixsevenths" unicode="&#xf50b;" horiz-adv-x="822" 
d="M74 424q0 47 14 94t42.5 84t73 60t104.5 23q26 0 36 -10t10 -24q0 -9 -3.5 -17.5t-8.5 -16.5h-36q-50 0 -80.5 -25.5t-47.5 -67.5q6 8 25.5 18t43.5 10q26 0 46 -9.5t33.5 -25t20 -36.5t6.5 -45q-1 -31 -10.5 -57.5t-28.5 -46.5t-47.5 -31.5t-66.5 -11.5
q-59 0 -92.5 34.5t-33.5 100.5zM205 358q24 0 40 17.5t16 55.5q0 22 -9.5 38t-33.5 16q-14 0 -27.5 -6t-21.5 -14q-2 -8 -3 -17.5t-1 -22.5q0 -30 9 -48.5t31 -18.5zM265 0h-110l406 627q17 26 35 41t48 15q33 0 57 -11zM715 298h-180q2 42 17 62t53 20h192q17 0 26 -8
t6 -25l-6 -28l-176 -319h-105z" />
    <glyph glyph-name="oneninth" unicode="&#xf50c;" horiz-adv-x="822" 
d="M172 300l44 266l-102 -49q-11 14 -17.5 25.5t-6.5 25.5t7.5 26t24.5 20l109 55q14 8 27.5 13t29.5 5t25 -4.5t17 -11.5l-62 -371h-96zM260 0h-110l406 627q17 26 35 41t48 15q33 0 57 -11zM810 253q0 -47 -13.5 -94t-41.5 -84t-72 -60t-104 -23q-26 0 -36 10t-10 24
q0 9 3.5 17.5t8.5 16.5h36q48 0 79 26t48 67q-13 -14 -32.5 -21t-36.5 -7q-28 0 -48 9.5t-33.5 25t-19.5 36.5t-6 45q1 31 10 57.5t27.5 46.5t47 31.5t67.5 11.5q59 0 92.5 -34.5t33.5 -100.5zM679 319q-24 0 -39.5 -18.5t-15.5 -54.5q0 -22 9.5 -38t32.5 -16q15 0 28 6
t20 14q2 8 3 17.5t1 22.5q0 30 -8.5 48.5t-30.5 18.5z" />
    <glyph glyph-name="twoninths" unicode="&#xf50d;" horiz-adv-x="822" 
d="M58 301l12 64q17 14 42 33.5t51 42.5q19 16 36 32.5t30.5 33t21.5 32t8 29.5q0 19 -10.5 30.5t-31.5 11.5q-24 0 -43 -13.5t-32 -27.5q-19 8 -28.5 18t-9.5 25q0 8 4.5 18.5t15.5 18.5q15 14 44 26t71 12q53 0 84.5 -27.5t31.5 -77.5q0 -38 -15.5 -69.5t-50.5 -66.5
q-8 -7 -19 -17t-23.5 -20t-24 -19t-18.5 -15h75q31 0 44 -11.5t13 -32.5q0 -6 -2.5 -15t-4.5 -15h-271zM283 0h-110l406 627q17 26 35 41t48 15q33 0 57 -11zM810 253q0 -47 -13.5 -94t-41.5 -84t-72 -60t-104 -23q-26 0 -36 10t-10 24q0 9 3.5 17.5t8.5 16.5h36q48 0 79 26
t48 67q-13 -14 -32.5 -21t-36.5 -7q-28 0 -48 9.5t-33.5 25t-19.5 36.5t-6 45q1 31 10 57.5t27.5 46.5t47 31.5t67.5 11.5q59 0 92.5 -34.5t33.5 -100.5zM679 319q-24 0 -39.5 -18.5t-15.5 -54.5q0 -22 9.5 -38t32.5 -16q15 0 28 6t20 14q2 8 3 17.5t1 22.5q0 30 -8.5 48.5
t-30.5 18.5z" />
    <glyph glyph-name="fourninths" unicode="&#xf50e;" horiz-adv-x="822" 
d="M53 372l11 61l195 221q11 14 24.5 23.5t36.5 9.5q24 0 47 -12l-40 -236h16q17 0 23 -8.5t6 -20.5q0 -10 -3 -20.5t-8 -17.5h-45l-12 -72h-93l12 72h-170zM235 440l23 132l-119 -132h96zM281 0h-110l406 627q17 26 35 41t48 15q33 0 57 -11zM810 253q0 -47 -13.5 -94
t-41.5 -84t-72 -60t-104 -23q-26 0 -36 10t-10 24q0 9 3.5 17.5t8.5 16.5h36q48 0 79 26t48 67q-13 -14 -32.5 -21t-36.5 -7q-28 0 -48 9.5t-33.5 25t-19.5 36.5t-6 45q1 31 10 57.5t27.5 46.5t47 31.5t67.5 11.5q59 0 92.5 -34.5t33.5 -100.5zM679 319q-24 0 -39.5 -18.5
t-15.5 -54.5q0 -22 9.5 -38t32.5 -16q15 0 28 6t20 14q2 8 3 17.5t1 22.5q0 30 -8.5 48.5t-30.5 18.5z" />
    <glyph glyph-name="fiveninths" unicode="&#xf50f;" horiz-adv-x="822" 
d="M100 404q22 -22 38.5 -31t45.5 -9q26 0 43.5 16t17.5 47q0 23 -14 38t-43 15q-17 0 -28.5 -2.5t-27.5 -10.5l-35 16l46 197h219q-2 -42 -16 -56.5t-51 -14.5h-92l-16 -71q6 2 15.5 4.5t23.5 2.5q57 0 84.5 -32t27.5 -81q0 -30 -10.5 -56t-30 -45.5t-48.5 -30.5t-66 -11
q-33 0 -55 6t-36 15q-30 19 -30 41q1 14 11 28t27 25zM268 0h-110l406 627q17 26 35 41t48 15q33 0 57 -11zM810 253q0 -47 -13.5 -94t-41.5 -84t-72 -60t-104 -23q-26 0 -36 10t-10 24q0 9 3.5 17.5t8.5 16.5h36q48 0 79 26t48 67q-13 -14 -32.5 -21t-36.5 -7
q-28 0 -48 9.5t-33.5 25t-19.5 36.5t-6 45q1 31 10 57.5t27.5 46.5t47 31.5t67.5 11.5q59 0 92.5 -34.5t33.5 -100.5zM679 319q-24 0 -39.5 -18.5t-15.5 -54.5q0 -22 9.5 -38t32.5 -16q15 0 28 6t20 14q2 8 3 17.5t1 22.5q0 30 -8.5 48.5t-30.5 18.5z" />
    <glyph glyph-name="sevenninths" unicode="&#xf510;" horiz-adv-x="822" 
d="M264 597h-180q2 42 17 62t53 20h192q17 0 26 -8t6 -25l-6 -28l-176 -319h-105zM239 0h-110l406 627q17 26 35 41t48 15q33 0 57 -11zM810 253q0 -47 -13.5 -94t-41.5 -84t-72 -60t-104 -23q-26 0 -36 10t-10 24q0 9 3.5 17.5t8.5 16.5h36q48 0 79 26t48 67
q-13 -14 -32.5 -21t-36.5 -7q-28 0 -48 9.5t-33.5 25t-19.5 36.5t-6 45q1 31 10 57.5t27.5 46.5t47 31.5t67.5 11.5q59 0 92.5 -34.5t33.5 -100.5zM679 319q-24 0 -39.5 -18.5t-15.5 -54.5q0 -22 9.5 -38t32.5 -16q15 0 28 6t20 14q2 8 3 17.5t1 22.5q0 30 -8.5 48.5
t-30.5 18.5z" />
    <glyph glyph-name="eightninths" unicode="&#xf511;" horiz-adv-x="822" 
d="M237 621q-18 0 -31.5 -13t-13.5 -37q0 -17 9.5 -27.5t26.5 -10.5t31 13.5t14 37.5q0 17 -9.5 27t-26.5 10zM366 589q0 -37 -19 -57t-43 -34q28 -15 39.5 -36t11.5 -44q0 -33 -12.5 -57.5t-33.5 -40.5t-49 -23.5t-59 -7.5q-63 0 -99.5 30t-36.5 78q0 22 6.5 38.5t17.5 29
t25 21.5t29 15q-19 14 -30.5 31t-11.5 40q0 28 11 49.5t30 36t44.5 22t54.5 7.5q64 0 94.5 -28t30.5 -70zM205 357q23 0 40.5 16.5t17.5 45.5q0 20 -12.5 33t-35.5 13q-20 0 -39 -16t-19 -46q0 -20 12.5 -33t35.5 -13zM280 0h-110l406 627q17 26 35 41t48 15q33 0 57 -11z
M810 253q0 -47 -13.5 -94t-41.5 -84t-72 -60t-104 -23q-26 0 -36 10t-10 24q0 9 3.5 17.5t8.5 16.5h36q48 0 79 26t48 67q-13 -14 -32.5 -21t-36.5 -7q-28 0 -48 9.5t-33.5 25t-19.5 36.5t-6 45q1 31 10 57.5t27.5 46.5t47 31.5t67.5 11.5q59 0 92.5 -34.5t33.5 -100.5z
M679 319q-24 0 -39.5 -18.5t-15.5 -54.5q0 -22 9.5 -38t32.5 -16q15 0 28 6t20 14q2 8 3 17.5t1 22.5q0 30 -8.5 48.5t-30.5 18.5z" />
    <glyph glyph-name="zero.alt" unicode="&#xf800;" horiz-adv-x="544" 
d="M324 559q-32 0 -58.5 -26t-46 -71t-30 -106t-10.5 -131q1 -60 18 -93.5t61 -33.5q30 0 57 25.5t47 70.5t31 106t11 131q-1 60 -18 94t-62 34zM340 671q58 0 96 -22.5t61 -58.5t32 -80t9 -87q-1 -81 -17.5 -159.5t-52 -140.5t-91 -100t-133.5 -38q-58 0 -96 22.5t-61 58.5
t-32 80t-9 87q1 79 18 157.5t53 141t91 101t132 38.5z" />
    <glyph glyph-name="one.alt" unicode="&#xf801;" horiz-adv-x="438" 
d="M166 0l83 499l-138 -67q-11 17 -20 34.5t-9 35.5q0 37 42 59l151 79q20 11 41 18t42 7q27 0 48 -17l-108 -648h-132z" />
    <glyph glyph-name="two.alt" unicode="&#xf802;" horiz-adv-x="511" 
d="M8 0l15 94q51 42 104 85.5t113 103.5q21 22 40.5 45t34.5 46.5t23.5 47t8.5 47.5q0 89 -80 89q-43 0 -77 -23t-59 -49q-23 11 -34.5 28.5t-11.5 36.5q0 29 25 53q31 29 77 48t112 19q85 0 134.5 -48.5t49.5 -131.5q0 -68 -27.5 -123t-86.5 -116q-39 -41 -78 -74.5
t-86 -70.5h161q46 0 65 -16.5t19 -48.5q0 -12 -2 -24t-5 -18h-435z" />
    <glyph glyph-name="three.alt" unicode="&#xf803;" horiz-adv-x="512" 
d="M57 21q-23 15 -33.5 30t-11.5 35q-1 22 13 42.5t34 36.5q16 -17 31.5 -30t32 -22t37 -13.5t47.5 -4.5q48 0 78.5 27t30.5 74q0 44 -22 70t-70 26h-43l17 101h43q18 0 37.5 4.5t36 15t27.5 29t11 47.5q0 32 -21.5 52t-60.5 20q-41 0 -75.5 -21t-59.5 -47q-23 11 -37.5 28
t-14.5 35q0 27 25 51q29 26 75 45t109 19q48 0 83.5 -13.5t59 -35.5t35.5 -50t12 -56q0 -43 -13.5 -72.5t-32.5 -49.5t-39.5 -31.5t-35.5 -17.5q49 -25 67.5 -62t18.5 -82q0 -50 -16.5 -90t-48 -68t-76.5 -43t-101 -15q-57 0 -91.5 10.5t-57.5 25.5z" />
    <glyph glyph-name="four.alt" unicode="&#xf804;" horiz-adv-x="540" 
d="M27 159l15 89l300 354q22 28 46.5 45.5t59.5 17.5q12 0 27 -4.5t26 -12.5l-65 -388h27q28 0 39 -12.5t11 -36.5q0 -30 -10 -52h-84l-26 -159h-129l26 159h-263zM307 261l35 211l-179 -211h144z" />
    <glyph glyph-name="five.alt" unicode="&#xf805;" horiz-adv-x="533" 
d="M239 -15q-61 0 -95.5 10.5t-57.5 24.5q-47 27 -48 66q-1 22 13 42.5t34 36.5q33 -35 67 -52.5t84 -17.5q54 0 83 34t29 92q0 50 -27.5 74.5t-75.5 24.5q-56 0 -103 -23l-44 22l70 344h344q-1 -32 -6 -53.5t-17 -34.5t-31.5 -18.5t-47.5 -5.5h-150l-26 -140q14 3 31 5
t31 2q49 0 84.5 -16.5t57.5 -43.5t32.5 -62.5t10.5 -74.5q0 -47 -15.5 -90t-45.5 -75.5t-75.5 -51.5t-105.5 -19z" />
    <glyph glyph-name="six.alt" unicode="&#xf806;" horiz-adv-x="540" 
d="M61 216q0 83 23 164.5t70 146t118 104.5t168 40q37 0 51 -15t14 -36q0 -15 -4 -27t-11 -24q-27 3 -53 3q-47 0 -83.5 -14t-64 -38t-47 -56.5t-32.5 -69.5q29 25 60 34.5t62 9.5q43 0 74.5 -16t51.5 -43.5t30 -64t10 -77.5q0 -53 -14.5 -99t-44 -80.5t-74.5 -54.5
t-106 -20q-91 0 -144.5 59t-53.5 174zM267 87q44 0 74.5 35t30.5 110q0 43 -20 73t-62 30q-30 0 -54.5 -11.5t-40.5 -30.5q-4 -14 -6.5 -32.5t-2.5 -42.5q0 -59 18.5 -95t62.5 -36z" />
    <glyph glyph-name="seven.alt" unicode="&#xf807;" horiz-adv-x="488" 
d="M358 549h-294q1 64 23 89t79 25h306q27 0 36 -12.5t5 -35.5l-6 -40l-312 -575h-148z" />
    <glyph glyph-name="eight.alt" unicode="&#xf808;" horiz-adv-x="540" 
d="M519 506q0 -29 -9 -53.5t-23.5 -44.5t-33 -35.5t-38.5 -27.5q44 -26 64 -61.5t20 -76.5q0 -59 -19.5 -101t-53 -69t-78 -39.5t-93.5 -12.5q-48 0 -87.5 13.5t-67 38t-42.5 58.5t-15 76q0 36 11.5 64.5t30 51t41.5 38t47 26.5q-34 25 -52 57t-18 64q0 49 18.5 86t49 62
t70.5 38t83 13q45 0 81.5 -12.5t61.5 -34t38.5 -52t13.5 -66.5zM302 398q36 0 63.5 25t27.5 74q0 35 -20.5 56t-55.5 21q-37 0 -64 -25.5t-27 -74.5q0 -34 20 -55t56 -21zM260 85q22 0 42 7.5t35.5 22.5t24.5 37.5t9 52.5q0 41 -24.5 66.5t-68.5 25.5q-45 0 -78 -31t-33 -90
q0 -40 24 -65.5t69 -25.5z" />
    <glyph glyph-name="nine.alt" unicode="&#xf809;" horiz-adv-x="540" 
d="M311 671q91 0 144.5 -59t53.5 -174q0 -85 -21 -166.5t-67 -145.5t-117.5 -103.5t-173.5 -39.5q-37 0 -51 15t-14 36q0 15 4 27t11 24q27 -3 53 -3q49 0 86.5 14.5t65.5 38.5t46 56.5t28 68.5q-29 -25 -59.5 -34.5t-61.5 -9.5q-42 0 -73.5 16t-52 43.5t-30.5 64t-10 77.5
q0 52 15 98t45 80.5t74.5 55t104.5 20.5zM280 319q30 0 54.5 11.5t40.5 30.5q4 14 6.5 32.5t2.5 42.5q0 59 -18.5 95t-62.5 36t-74.5 -35t-30.5 -110q0 -43 20 -73t62 -30z" />
    <glyph glyph-name="zero.sups" unicode="&#xf80a;" 
d="M250 703q-36 0 -61.5 -49.5t-26.5 -134.5q0 -28 10 -46t33 -18q18 -1 34 11.5t28 36.5t19.5 58t7.5 76q0 28 -9.5 47t-34.5 19zM259 777q38 0 63.5 -13.5t40.5 -34.5t21 -47t6 -51q0 -46 -11.5 -91t-35 -81t-59.5 -58t-86 -22q-38 0 -63.5 13t-40.5 34t-21 47t-6 52
q0 45 11.5 90t34.5 81t59.5 58.5t86.5 22.5z" />
    <glyph glyph-name="one.sups" unicode="&#xf80b;" 
d="M191 390l44 266l-102 -49q-11 14 -17.5 25.5t-6.5 25.5t7.5 26t24.5 20l109 55q14 8 27.5 13t29.5 5t25 -4.5t17 -11.5l-62 -371h-96z" />
    <glyph glyph-name="two.sups" unicode="&#xf80c;" 
d="M67 391l12 64q17 14 42 33.5t51 42.5q19 16 36 32.5t30.5 33t21.5 32t8 29.5q0 19 -10.5 30.5t-31.5 11.5q-24 0 -43 -13.5t-32 -27.5q-19 8 -28.5 18t-9.5 25q0 8 4.5 18.5t15.5 18.5q15 14 44 26t71 12q53 0 84.5 -27.5t31.5 -77.5q0 -38 -15.5 -69.5t-50.5 -66.5
q-8 -7 -19 -17t-23.5 -20t-24 -19t-18.5 -15h75q31 0 44 -11.5t13 -32.5q0 -6 -2.5 -15t-4.5 -15h-271z" />
    <glyph glyph-name="three.sups" unicode="&#xf80d;" 
d="M130 743q17 14 45.5 24t66.5 10q30 0 53 -8.5t39 -22t24 -30t8 -33.5q0 -37 -19 -60.5t-48 -37.5q26 -14 36.5 -35t10.5 -45q0 -29 -11.5 -52.5t-32.5 -40t-49.5 -25t-62.5 -8.5q-35 0 -58.5 6.5t-37.5 14.5q-17 10 -24 20t-7 21q0 14 10 28t27 25q22 -22 41.5 -31
t48.5 -9q23 0 41 11.5t18 37.5q0 21 -13 34t-39 13h-33l12 68h34q23 0 42.5 11t19.5 40q0 14 -11.5 24.5t-34.5 10.5t-45.5 -13t-33.5 -27q-37 16 -37 45q0 18 20 34z" />
    <glyph glyph-name="four.sups" unicode="&#xf80e;" 
d="M53 462l11 61l195 221q11 14 24.5 23.5t36.5 9.5q24 0 47 -12l-40 -236h16q17 0 23 -8.5t6 -20.5q0 -10 -3 -20.5t-8 -17.5h-45l-12 -72h-93l12 72h-170zM235 530l23 132l-119 -132h96z" />
    <glyph glyph-name="five.sups" unicode="&#xf80f;" 
d="M109 494q22 -22 38.5 -31t45.5 -9q26 0 43.5 16t17.5 47q0 23 -14 38t-43 15q-17 0 -28.5 -2.5t-27.5 -10.5l-35 16l46 197h219q-2 -42 -16 -56.5t-51 -14.5h-92l-16 -71q6 2 15.5 4.5t23.5 2.5q57 0 84.5 -32t27.5 -81q0 -30 -10.5 -56t-30 -45.5t-48.5 -30.5t-66 -11
q-33 0 -55 6t-36 15q-30 19 -30 41q1 14 11 28t27 25z" />
    <glyph glyph-name="six.sups" unicode="&#xf810;" 
d="M83 514q0 47 14 94t42.5 84t73 60t104.5 23q26 0 36 -10t10 -24q0 -9 -3.5 -17.5t-8.5 -16.5h-36q-50 0 -80.5 -25.5t-47.5 -67.5q6 8 25.5 18t43.5 10q26 0 46 -9.5t33.5 -25t20 -36.5t6.5 -45q-1 -31 -10.5 -57.5t-28.5 -46.5t-47.5 -31.5t-66.5 -11.5
q-59 0 -92.5 34.5t-33.5 100.5zM214 448q24 0 40 17.5t16 55.5q0 22 -9.5 38t-33.5 16q-14 0 -27.5 -6t-21.5 -14q-2 -8 -3 -17.5t-1 -22.5q0 -30 9 -48.5t31 -18.5z" />
    <glyph glyph-name="seven.sups" unicode="&#xf811;" 
d="M273 687h-180q2 42 17 62t53 20h192q17 0 26 -8t6 -25l-6 -28l-176 -319h-105z" />
    <glyph glyph-name="eight.sups" unicode="&#xf812;" 
d="M246 711q-18 0 -31.5 -13t-13.5 -37q0 -17 9.5 -27.5t26.5 -10.5t31 13.5t14 37.5q0 17 -9.5 27t-26.5 10zM375 679q0 -37 -19 -57t-43 -34q28 -15 39.5 -36t11.5 -44q0 -33 -12.5 -57.5t-33.5 -40.5t-49 -23.5t-59 -7.5q-63 0 -99.5 30t-36.5 78q0 22 6.5 38.5t17.5 29
t25 21.5t29 15q-19 14 -30.5 31t-11.5 40q0 28 11 49.5t30 36t44.5 22t54.5 7.5q64 0 94.5 -28t30.5 -70zM214 447q23 0 40.5 16.5t17.5 45.5q0 20 -12.5 33t-35.5 13q-20 0 -39 -16t-19 -46q0 -20 12.5 -33t35.5 -13z" />
    <glyph glyph-name="nine.sups" unicode="&#xf813;" 
d="M368 642q0 -47 -13.5 -94t-41.5 -84t-72 -60t-104 -23q-26 0 -36 10t-10 24q0 9 3.5 17.5t8.5 16.5h36q48 0 79 26t48 67q-13 -14 -32.5 -21t-36.5 -7q-28 0 -48 9.5t-33.5 25t-19.5 36.5t-6 45q1 31 10 57.5t27.5 46.5t47 31.5t67.5 11.5q59 0 92.5 -34.5t33.5 -100.5z
M237 708q-24 0 -39.5 -18.5t-15.5 -54.5q0 -22 9.5 -38t32.5 -16q15 0 28 6t20 14q2 8 3 17.5t1 22.5q0 30 -8.5 48.5t-30.5 18.5z" />
    <glyph glyph-name="zero.sinf" unicode="&#xf814;" 
d="M216 224q-36 0 -61.5 -49.5t-26.5 -134.5q0 -28 10 -46t33 -18q18 -1 34 11.5t28 36.5t19.5 58t7.5 76q0 28 -9.5 47t-34.5 19zM225 298q38 0 63.5 -13.5t40.5 -34.5t21 -47t6 -51q0 -46 -11.5 -91t-35 -81t-59.5 -58t-86 -22q-38 0 -63.5 13t-40.5 34t-21 47t-6 52
q0 45 11.5 90t34.5 81t59.5 58.5t86.5 22.5z" />
    <glyph glyph-name="one.sinf" unicode="&#xf815;" 
d="M157 -89l44 266l-102 -49q-11 14 -17.5 25.5t-6.5 25.5t7.5 26t24.5 20l109 55q14 8 27.5 13t29.5 5t25 -4.5t17 -11.5l-62 -371h-96z" />
    <glyph glyph-name="two.sinf" unicode="&#xf816;" 
d="M33 -88l12 64q17 14 42 33.5t51 42.5q19 16 36 32.5t30.5 33t21.5 32t8 29.5q0 19 -10.5 30.5t-31.5 11.5q-24 0 -43 -13.5t-32 -27.5q-19 8 -28.5 18t-9.5 25q0 8 4.5 18.5t15.5 18.5q15 14 44 26t71 12q53 0 84.5 -27.5t31.5 -77.5q0 -38 -15.5 -69.5t-50.5 -66.5
q-8 -7 -19 -17t-23.5 -20t-24 -19t-18.5 -15h75q31 0 44 -11.5t13 -32.5q0 -6 -2.5 -15t-4.5 -15h-271z" />
    <glyph glyph-name="three.sinf" unicode="&#xf817;" 
d="M98 264q17 14 45.5 24t66.5 10q30 0 53 -8.5t39 -22t24 -30t8 -33.5q0 -37 -19 -60.5t-48 -37.5q26 -14 36.5 -35t10.5 -45q0 -29 -11.5 -52.5t-32.5 -40t-49.5 -25t-62.5 -8.5q-35 0 -58.5 6.5t-37.5 14.5q-17 10 -24 20t-7 21q0 14 10 28t27 25q22 -22 41.5 -31
t48.5 -9q23 0 41 11.5t18 37.5q0 21 -13 34t-39 13h-33l12 68h34q23 0 42.5 11t19.5 40q0 14 -11.5 24.5t-34.5 10.5t-45.5 -13t-33.5 -27q-37 16 -37 45q0 18 20 34z" />
    <glyph glyph-name="four.sinf" unicode="&#xf818;" 
d="M19 -17l11 61l195 221q11 14 24.5 23.5t36.5 9.5q24 0 47 -12l-40 -236h16q17 0 23 -8.5t6 -20.5q0 -10 -3 -20.5t-8 -17.5h-45l-12 -72h-93l12 72h-170zM201 51l23 132l-119 -132h96z" />
    <glyph glyph-name="five.sinf" unicode="&#xf819;" 
d="M75 15q22 -22 38.5 -31t45.5 -9q26 0 43.5 16t17.5 47q0 23 -14 38t-43 15q-17 0 -28.5 -2.5t-27.5 -10.5l-35 16l46 197h219q-2 -42 -16 -56.5t-51 -14.5h-92l-16 -71q6 2 15.5 4.5t23.5 2.5q57 0 84.5 -32t27.5 -81q0 -30 -10.5 -56t-30 -45.5t-48.5 -30.5t-66 -11
q-33 0 -55 6t-36 15q-30 19 -30 41q1 14 11 28t27 25z" />
    <glyph glyph-name="six.sinf" unicode="&#xf81a;" 
d="M49 35q0 47 14 94t42.5 84t73 60t104.5 23q26 0 36 -10t10 -24q0 -9 -3.5 -17.5t-8.5 -16.5h-36q-50 0 -80.5 -25.5t-47.5 -67.5q6 8 25.5 18t43.5 10q26 0 46 -9.5t33.5 -25t20 -36.5t6.5 -45q-1 -31 -10.5 -57.5t-28.5 -46.5t-47.5 -31.5t-66.5 -11.5q-59 0 -92.5 34.5
t-33.5 100.5zM180 -31q24 0 40 17.5t16 55.5q0 22 -9.5 38t-33.5 16q-14 0 -27.5 -6t-21.5 -14q-2 -8 -3 -17.5t-1 -22.5q0 -30 9 -48.5t31 -18.5z" />
    <glyph glyph-name="seven.sinf" unicode="&#xf81b;" 
d="M239 208h-180q2 42 17 62t53 20h192q17 0 26 -8t6 -25l-6 -28l-176 -319h-105z" />
    <glyph glyph-name="eight.sinf" unicode="&#xf81c;" 
d="M212 232q-18 0 -31.5 -13t-13.5 -37q0 -17 9.5 -27.5t26.5 -10.5t31 13.5t14 37.5q0 17 -9.5 27t-26.5 10zM341 200q0 -37 -19 -57t-43 -34q28 -15 39.5 -36t11.5 -44q0 -33 -12.5 -57.5t-33.5 -40.5t-49 -23.5t-59 -7.5q-63 0 -99.5 30t-36.5 78q0 22 6.5 38.5t17.5 29
t25 21.5t29 15q-19 14 -30.5 31t-11.5 40q0 28 11 49.5t30 36t44.5 22t54.5 7.5q64 0 94.5 -28t30.5 -70zM180 -32q23 0 40.5 16.5t17.5 45.5q0 20 -12.5 33t-35.5 13q-20 0 -39 -16t-19 -46q0 -20 12.5 -33t35.5 -13z" />
    </font>
</defs>
</svg>
